  0
SECTION
  2
HEADER
  9
$ACADVER
  1
AC1032
  9
$ACADMAINTVER
 90
       55
  9
$DWGCODEPAGE
  3
ANSI_1252
  9
$LASTSAVEDBY
  1
Administrator
  9
$REQUIREDVERSIONS
160
                 0
  9
$INSBASE
 10
0.0
 20
0.0
 30
0.0
  9
$EXTMIN
 10
0.0000000365091921
 20
-0.0000000082428926
 30
0.0
  9
$EXTMAX
 10
17.00000003650919
 20
21.99999999175711
 30
0.0
  9
$LIMMIN
 10
0.0
 20
0.0
  9
$LIMMAX
 10
16.5
 20
10.5
  9
$ORTHOMODE
 70
     1
  9
$REGENMODE
 70
     1
  9
$FILLMODE
 70
     1
  9
$QTEXTMODE
 70
     0
  9
$MIRRTEXT
 70
     0
  9
$LTSCALE
 40
1.0
  9
$ATTMODE
 70
     1
  9
$TEXTSIZE
 40
0.08
  9
$TRACEWID
 40
0.05
  9
$TEXTSTYLE
  7
ROMANS
  9
$CLAYER
  8
THIN
  9
$CELTYPE
  6
BYLAYER
  9
$CECOLOR
 62
   256
  9
$CELTSCALE
 40
1.0
  9
$DISPSILH
 70
     0
  9
$DIMSCALE
 40
2.0
  9
$DIMASZ
 40
0.125
  9
$DIMEXO
 40
0.045
  9
$DIMDLI
 40
0.38
  9
$DIMRND
 40
0.0
  9
$DIMDLE
 40
0.0
  9
$DIMEXE
 40
0.08
  9
$DIMTP
 40
0.0
  9
$DIMTM
 40
0.0
  9
$DIMTXT
 40
0.08
  9
$DIMCEN
 40
0.0
  9
$DIMTSZ
 40
0.0
  9
$DIMTOL
 70
     0
  9
$DIMLIM
 70
     0
  9
$DIMTIH
 70
     1
  9
$DIMTOH
 70
     1
  9
$DIMSE1
 70
     0
  9
$DIMSE2
 70
     0
  9
$DIMTAD
 70
     0
  9
$DIMZIN
 70
     0
  9
$DIMBLK
  1

  9
$DIMASO
 70
     1
  9
$DIMSHO
 70
     1
  9
$DIMPOST
  1

  9
$DIMAPOST
  1

  9
$DIMALT
 70
     0
  9
$DIMALTD
 70
     2
  9
$DIMALTF
 40
25.4
  9
$DIMLFAC
 40
1.0
  9
$DIMTOFL
 70
     0
  9
$DIMTVP
 40
0.0
  9
$DIMTIX
 70
     0
  9
$DIMSOXD
 70
     0
  9
$DIMSAH
 70
     0
  9
$DIMBLK1
  1

  9
$DIMBLK2
  1

  9
$DIMSTYLE
  2
Copy of HSTANDARD
  9
$DIMCLRD
 70
   112
  9
$DIMCLRE
 70
     9
  9
$DIMCLRT
 70
   256
  9
$DIMTFAC
 40
1.0
  9
$DIMGAP
 40
0.09
  9
$DIMJUST
 70
     0
  9
$DIMSD1
 70
     0
  9
$DIMSD2
 70
     0
  9
$DIMTOLJ
 70
     1
  9
$DIMTZIN
 70
     0
  9
$DIMALTZ
 70
     0
  9
$DIMALTTZ
 70
     0
  9
$DIMUPT
 70
     0
  9
$DIMDEC
 70
     4
  9
$DIMTDEC
 70
     4
  9
$DIMALTU
 70
     2
  9
$DIMALTTD
 70
     2
  9
$DIMTXSTY
  7
ROMANS
  9
$DIMAUNIT
 70
     0
  9
$DIMADEC
 70
     1
  9
$DIMALTRND
 40
0.0
  9
$DIMAZIN
 70
     0
  9
$DIMDSEP
 70
    46
  9
$DIMATFIT
 70
     3
  9
$DIMFRAC
 70
     2
  9
$DIMLDRBLK
  1

  9
$DIMLUNIT
 70
     4
  9
$DIMLWD
 70
    -2
  9
$DIMLWE
 70
    -2
  9
$DIMTMOVE
 70
     0
  9
$DIMFXL
 40
0.08
  9
$DIMFXLON
 70
     0
  9
$DIMJOGANG
 40
0.7853981633974483
  9
$DIMTFILL
 70
     0
  9
$DIMTFILLCLR
 70
     0
  9
$DIMARCSYM
 70
     1
  9
$DIMLTYPE
  6

  9
$DIMLTEX1
  6

  9
$DIMLTEX2
  6

  9
$DIMTXTDIRECTION
 70
     0
  9
$LUNITS
 70
     2
  9
$LUPREC
 70
     8
  9
$SKETCHINC
 40
0.1
  9
$FILLETRAD
 40
0.075
  9
$AUNITS
 70
     0
  9
$AUPREC
 70
     2
  9
$MENU
  1
TB
  9
$ELEVATION
 40
0.0
  9
$PELEVATION
 40
0.0
  9
$THICKNESS
 40
0.0
  9
$LIMCHECK
 70
     0
  9
$CHAMFERA
 40
0.0
  9
$CHAMFERB
 40
0.0
  9
$CHAMFERC
 40
0.0
  9
$CHAMFERD
 40
0.0
  9
$SKPOLY
 70
     0
  9
$TDCREATE
 40
2452817.346701389
  9
$TDUCREATE
 40
2452817.513371887
  9
$TDUPDATE
 40
2459264.425173611
  9
$TDUUPDATE
 40
2459264.633506945
  9
$TDINDWG
 40
0.8775754745
  9
$TDUSRTIMER
 40
0.8775753588
  9
$USRTIMER
 70
     1
  9
$ANGBASE
 50
0.0
  9
$ANGDIR
 70
     0
  9
$PDMODE
 70
     0
  9
$PDSIZE
 40
0.0
  9
$PLINEWID
 40
0.0
  9
$SPLFRAME
 70
     0
  9
$SPLINETYPE
 70
     6
  9
$SPLINESEGS
 70
     8
  9
$HANDSEED
  5
4B47A5
  9
$SURFTAB1
 70
     6
  9
$SURFTAB2
 70
     6
  9
$SURFTYPE
 70
     6
  9
$SURFU
 70
     6
  9
$SURFV
 70
     6
  9
$UCSBASE
  2

  9
$UCSNAME
  2

  9
$UCSORG
 10
0.0
 20
0.0
 30
0.0
  9
$UCSXDIR
 10
1.0
 20
0.0
 30
0.0
  9
$UCSYDIR
 10
0.0
 20
1.0
 30
0.0
  9
$UCSORTHOREF
  2

  9
$UCSORTHOVIEW
 70
     0
  9
$UCSORGTOP
 10
0.0
 20
0.0
 30
0.0
  9
$UCSORGBOTTOM
 10
0.0
 20
0.0
 30
0.0
  9
$UCSORGLEFT
 10
0.0
 20
0.0
 30
0.0
  9
$UCSORGRIGHT
 10
0.0
 20
0.0
 30
0.0
  9
$UCSORGFRONT
 10
0.0
 20
0.0
 30
0.0
  9
$UCSORGBACK
 10
0.0
 20
0.0
 30
0.0
  9
$PUCSBASE
  2

  9
$PUCSNAME
  2

  9
$PUCSORG
 10
0.0
 20
0.0
 30
0.0
  9
$PUCSXDIR
 10
1.0
 20
0.0
 30
0.0
  9
$PUCSYDIR
 10
0.0
 20
1.0
 30
0.0
  9
$PUCSORTHOREF
  2

  9
$PUCSORTHOVIEW
 70
     0
  9
$PUCSORGTOP
 10
0.0
 20
0.0
 30
0.0
  9
$PUCSORGBOTTOM
 10
0.0
 20
0.0
 30
0.0
  9
$PUCSORGLEFT
 10
0.0
 20
0.0
 30
0.0
  9
$PUCSORGRIGHT
 10
0.0
 20
0.0
 30
0.0
  9
$PUCSORGFRONT
 10
0.0
 20
0.0
 30
0.0
  9
$PUCSORGBACK
 10
0.0
 20
0.0
 30
0.0
  9
$USERI1
 70
     0
  9
$USERI2
 70
     0
  9
$USERI3
 70
     0
  9
$USERI4
 70
     0
  9
$USERI5
 70
     0
  9
$USERR1
 40
0.0
  9
$USERR2
 40
0.0
  9
$USERR3
 40
0.0
  9
$USERR4
 40
0.0
  9
$USERR5
 40
0.0
  9
$WORLDVIEW
 70
     1
  9
$SHADEDGE
 70
     3
  9
$SHADEDIF
 70
    70
  9
$TILEMODE
 70
     1
  9
$MAXACTVP
 70
    16
  9
$PINSBASE
 10
0.0
 20
0.0
 30
0.0
  9
$PLIMCHECK
 70
     0
  9
$PEXTMIN
 10
1.000000000000000E+20
 20
1.000000000000000E+20
 30
1.000000000000000E+20
  9
$PEXTMAX
 10
-1.000000000000000E+20
 20
-1.000000000000000E+20
 30
-1.000000000000000E+20
  9
$PLIMMIN
 10
0.0
 20
0.0
  9
$PLIMMAX
 10
12.0
 20
9.0
  9
$UNITMODE
 70
     0
  9
$VISRETAIN
 70
     0
  9
$PLINEGEN
 70
     0
  9
$PSLTSCALE
 70
     1
  9
$TREEDEPTH
 70
  3020
  9
$CMLSTYLE
  2
STANDARD
  9
$CMLJUST
 70
     0
  9
$CMLSCALE
 40
1.0
  9
$PROXYGRAPHICS
 70
     1
  9
$MEASUREMENT
 70
     0
  9
$CELWEIGHT
370
    -1
  9
$ENDCAPS
280
     0
  9
$JOINSTYLE
280
     0
  9
$LWDISPLAY
290
     0
  9
$INSUNITS
 70
     0
  9
$HYPERLINKBASE
  1

  9
$STYLESHEET
  1
Harvey Std Plot Style.ctb
  9
$XEDIT
290
     1
  9
$CEPSNTYPE
380
     0
  9
$PSTYLEMODE
290
     1
  9
$FINGERPRINTGUID
  2
{E04C8470-A686-11D3-A221-005004E2D0E9}
  9
$VERSIONGUID
  2
{80DB1ED7-E18D-4864-885B-D3488BBEED40}
  9
$EXTNAMES
290
     1
  9
$PSVPSCALE
 40
0.0
  9
$OLESTARTUP
290
     0
  9
$SORTENTS
280
    96
  9
$INDEXCTL
280
     0
  9
$HIDETEXT
280
     0
  9
$XCLIPFRAME
280
     0
  9
$HALOGAP
280
     0
  9
$OBSCOLOR
 70
   257
  9
$OBSLTYPE
280
     0
  9
$INTERSECTIONDISPLAY
280
     0
  9
$INTERSECTIONCOLOR
 70
   257
  9
$DIMASSOC
280
     1
  9
$PROJECTNAME
  1

  9
$CAMERADISPLAY
290
     0
  9
$LENSLENGTH
 40
50.0
  9
$CAMERAHEIGHT
 40
0.0
  9
$STEPSPERSEC
 40
2.0
  9
$STEPSIZE
 40
6.0
  9
$3DDWFPREC
 40
2.0
  9
$PSOLWIDTH
 40
0.25
  9
$PSOLHEIGHT
 40
4.0
  9
$LOFTANG1
 40
1.570796326794896
  9
$LOFTANG2
 40
1.570796326794896
  9
$LOFTMAG1
 40
0.0
  9
$LOFTMAG2
 40
0.0
  9
$LOFTPARAM
 70
     7
  9
$LOFTNORMALS
280
     1
  9
$LATITUDE
 40
37.795
  9
$LONGITUDE
 40
-122.394
  9
$NORTHDIRECTION
 40
0.0
  9
$TIMEZONE
 70
 -8000
  9
$LIGHTGLYPHDISPLAY
280
     1
  9
$TILEMODELIGHTSYNCH
280
     1
  9
$CMATERIAL
347
4B41D8
  9
$SOLIDHIST
280
     0
  9
$SHOWHIST
280
     1
  9
$DWFFRAME
280
     2
  9
$DGNFRAME
280
     0
  9
$REALWORLDSCALE
290
     1
  9
$INTERFERECOLOR
 62
     1
  9
$INTERFEREOBJVS
345
4B41FA
  9
$INTERFEREVPVS
346
4B41F7
  9
$CSHADOW
280
     0
  9
$SHADOWPLANELOCATION
 40
0.0
  0
ENDSEC
  0
SECTION
  2
CLASSES
  0
CLASS
  1
ACDBDICTIONARYWDFLT
  2
AcDbDictionaryWithDefault
  3
ObjectDBX Classes
 90
        0
 91
        1
280
     0
281
     0
  0
CLASS
  1
ACDBPLACEHOLDER
  2
AcDbPlaceHolder
  3
ObjectDBX Classes
 90
        0
 91
        1
280
     0
281
     0
  0
CLASS
  1
LAYOUT
  2
AcDbLayout
  3
ObjectDBX Classes
 90
        0
 91
        2
280
     0
281
     0
  0
CLASS
  1
PLOTSETTINGS
  2
AcDbPlotSettings
  3
ObjectDBX Classes
 90
        0
 91
        2
280
     0
281
     0
  0
CLASS
  1
MTV_DERIVED_OBJECT
  2
CMtvAcDerivedObject
  3
MTV_ADME_ARX
 90
     1023
 91
        9
280
     0
281
     0
  0
CLASS
  1
DICTIONARYVAR
  2
AcDbDictionaryVar
  3
ObjectDBX Classes
 90
        0
 91
       10
280
     0
281
     0
  0
CLASS
  1
TABLESTYLE
  2
AcDbTableStyle
  3
ObjectDBX Classes
 90
     4095
 91
        1
280
     0
281
     0
  0
CLASS
  1
ACME_DOCUMENT
  2
AcMeDbDoc
  3
AcMeServices
 90
        0
 91
        0
280
     0
281
     0
  0
CLASS
  1
AMGSETTINGSOBJ
  2
AmgSettingsObj
  3
"AcadM|Product Description: AutoCAD Mechanical 2000|Company: Autodesk"
 90
        0
 91
        3
280
     0
281
     0
  0
CLASS
  1
ACMESCOPE
  2
AcMeScope
  3
AcMeServices
 90
        0
 91
        2
280
     0
281
     0
  0
CLASS
  1
ACMECOMMANDHISTORY
  2
AcMeCommandHistory
  3
AcMeServices
 90
        0
 91
        2
280
     0
281
     0
  0
CLASS
  1
ACIMSYSVARMAN
  2
AcImSysVarManager
  3
AcMeServices
 90
        0
 91
        6
280
     0
281
     0
  0
CLASS
  1
ACIMINTSYSVAR
  2
AcImIntSysVar
  3
AcMeServices
 90
        0
 91
       27
280
     0
281
     0
  0
CLASS
  1
ACMEDRAWINGMAN
  2
AcMeDrawingMan
  3
AcMeServices
 90
        0
 91
        2
280
     0
281
     0
  0
CLASS
  1
ACMEVIEW
  2
AcMeView
  3
AcMeServices
 90
        0
 91
        2
280
     0
281
     0
  0
CLASS
  1
ACDBENTITYCACHE
  2
AcMeEntityCache
  3
AcMeServices
 90
        0
 91
        0
280
     0
281
     0
  0
CLASS
  1
GSMANAGER
  2
AcMeGSManager
  3
AcMeServices
 90
        0
 91
        0
280
     0
281
     0
  0
CLASS
  1
AMDTINTERNALREACTOR
  2
AmdtInternalReactor
  3
AcMeServices
 90
        0
 91
        0
280
     0
281
     0
  0
CLASS
  1
ACMESTATEMGR
  2
AcMeStateMgr
  3
AcMeServices
 90
        0
 91
        2
280
     0
281
     0
  0
CLASS
  1
ACGREFMASTER
  2
AcGrefMaster
  3
AcAttribServices
 90
        0
 91
        2
280
     0
281
     0
  0
CLASS
  1
AM_DRAWING_MGR
  2
AcDmDwgMgr
  3
AcMechDwgViewMgmt
 90
        0
 91
        2
280
     0
281
     0
  0
CLASS
  1
AM_DWG_DOCUMENT
  2
AcDmDwgDocument
  3
AcMechDwgViewMgmt
 90
        0
 91
        2
280
     0
281
     0
  0
CLASS
  1
AM_DWG_SHEET
  2
AcDmSheet
  3
AcMechDwgViewMgmt
 90
        0
 91
        2
280
     0
281
     0
  0
CLASS
  1
AM_VIEWDIMPARMAP
  2
AcDmViewDimParMap
  3
AcMechDwgViewMgmt
 90
        0
 91
        2
280
     0
281
     0
  0
CLASS
  1
ACIMREALSYSVAR
  2
AcImRealSysVar
  3
AcMeServices
 90
        0
 91
        2
280
     0
281
     0
  0
CLASS
  1
AM_DWGMGR_NAME
  2
AcDmDwgMgrName
  3
AcMechDwgViewMgmt
 90
        0
 91
        2
280
     0
281
     0
  0
CLASS
  1
ACME_DATABASE
  2
AcMeDbDatabase
  3
AcMeServices
 90
        0
 91
        0
280
     0
281
     0
  0
CLASS
  1
ACRFINSADJUSTERMGR
  2
AcRfInsAdjusterMgr
  3
AcMeServices
 90
        0
 91
        0
280
     0
281
     0
  0
CLASS
  1
ACGREFACADMASTER
  2
AcGrefacadMaster
  3
AcGrefServices
 90
        0
 91
        2
280
     0
281
     0
  0
CLASS
  1
AMDTMENUSTATEMGR
  2
AmdtMenuStateMgr
  3
McadcomServices
 90
        0
 91
        0
280
     0
281
     0
  0
CLASS
  1
AMDTMCOMMENUSTATE
  2
AmdtMcomMenuState
  3
McadcomServices
 90
        0
 91
        0
280
     0
281
     0
  0
CLASS
  1
AMIMASTER
  2
AmiMaster
  3
AmiServices
 90
        0
 91
        2
280
     0
281
     0
  0
CLASS
  1
MAPIAMMOUDLE
  2
MApiAmModule
  3
MApiAmServices
 90
        0
 91
        2
280
     0
281
     0
  0
CLASS
  1
ACIMSTRSYSVAR
  2
AcImStrSysVar
  3
AcMeServices
 90
        0
 91
        6
280
     0
281
     0
  0
CLASS
  1
AMDTADMENUSTATE
  2
AmdtAdMenuState
  3
DesignerServices
 90
        0
 91
        0
280
     0
281
     0
  0
CLASS
  1
ADAPPL
  2
AcAdAppl
  3
DesignerServices
 90
        0
 91
        2
280
     0
281
     0
  0
CLASS
  1
DEPMGR
  2
AcAdDepMgr
  3
DesignerServices
 90
        0
 91
        2
280
     0
281
     0
  0
CLASS
  1
PARAMMGR
  2
AcAdParamMgr
  3
DesignerServices
 90
        0
 91
        2
280
     0
281
     0
  0
CLASS
  1
PARAMSCOPE
  2
AcAdParamScope
  3
DesignerServices
 90
        0
 91
        2
280
     0
281
     0
  0
CLASS
  1
NAMEDAPPL
  2
AcAdNamedAppl
  3
DesignerServices
 90
        0
 91
        2
280
     0
281
     0
  0
CLASS
  1
AMDTDMMENUSTATE
  2
AmdtDmMenuState
  3
AcMechDwgViewMgmt
 90
        0
 91
        0
280
     0
281
     0
  0
CLASS
  1
AMDTAMMENUSTATE
  2
AmdtAmMenuState
  3
DesignerAssemblies
 90
        0
 91
        0
280
     0
281
     0
  0
CLASS
  1
ACAMPROJECT
  2
AcAmProject
  3
DesignerAssemblies
 90
        0
 91
        2
280
     0
281
     0
  0
CLASS
  1
ACAMGRCOMPDEF
  2
AcAmGrCompDef
  3
DesignerAssemblies
 90
        0
 91
        2
280
     0
281
     0
  0
CLASS
  1
ACCMCONTEXT
  2
AcCmContext
  3
DesignerAssemblies
 90
        0
 91
        2
280
     0
281
     0
  0
CLASS
  1
ACAMCOMPDEF
  2
AcAmCompDef
  3
DesignerAssemblies
 90
        0
 91
        2
280
     0
281
     0
  0
CLASS
  1
ACAMCOMPDEFMGR
  2
AcAmCompDefMgr
  3
DesignerAssemblies
 90
        0
 91
        2
280
     0
281
     0
  0
CLASS
  1
AMCONTEXTMGR
  2
AcAmContextMgr
  3
DesignerAssemblies
 90
        0
 91
        2
280
     0
281
     0
  0
CLASS
  1
ACAMCONTEXTMODELER
  2
AcAmContextModeler
  3
DesignerAssemblies
 90
        0
 91
        2
280
     0
281
     0
  0
CLASS
  1
ACMDATADICTIONARY
  2
AcmDataDictionary
  3
"AcmSymBB|Product Description: AutoCAD Mechanical 2004 DX|Company: Autodesk"
 90
        0
 91
        2
280
     0
281
     0
  0
CLASS
  1
CATALOGSTATE
  2
AcAmCatalogState
  3
DesignerAssemblies
 90
        0
 91
        2
280
     0
281
     0
  0
CLASS
  1
ACAMGRCOMPDEFSET
  2
AcAmGrCompDefSet
  3
DesignerAssemblies
 90
        0
 91
        0
280
     0
281
     0
  0
CLASS
  1
AMDTBROWSERDBTAB
  2
AmdtBrowserDbTab
  3
McadcomServices
 90
        0
 91
        0
280
     0
281
     0
  0
CLASS
  1
CBROWSERAPPOBJECT
  2
CBrowserAppObject
  3
McadcomServices
 90
        0
 91
        0
280
     0
281
     0
  0
CLASS
  1
DM_PLACEHOLDER
  2
AcDmSelsetPlaceholder
  3
AcMechDwgViewMgmt
 90
        0
 91
        0
280
     0
281
     0
  0
CLASS
  1
ACMSTANDARDANSI
  2
AcmStandardANSI
  3
"Amdt_StdImp|Product Description: AutoCAD Mechanical 2004 DX|Company: Autodesk"
 90
        0
 91
        2
280
     0
281
     0
  0
CLASS
  1
AMGOBJPROPCFG
  2
AmgObjPropCfg
  3
"AmgLay|Product Description: AutoCAD Mechanical 2000|Company: Autodesk"
 90
        1
 91
        2
280
     0
281
     0
  0
CLASS
  1
ACMSURFSTANDARDANSI
  2
AcmSurfTextStdANSI
  3
"Amdt_StdImp|Product Description: AutoCAD Mechanical 2004 DX|Company: Autodesk"
 90
        0
 91
        2
280
     0
281
     0
  0
CLASS
  1
ACMFCFSTANDARDANSI
  2
AcmFCFStdANSI
  3
"Amdt_StdImp|Product Description: AutoCAD Mechanical 2004 DX|Company: Autodesk"
 90
        0
 91
        2
280
     0
281
     0
  0
CLASS
  1
ACMWELDSTANDARDANSI
  2
AcmWeldingStdANSI
  3
"Amdt_StdImp|Product Description: AutoCAD Mechanical 2004 DX|Company: Autodesk"
 90
        0
 91
        2
280
     0
281
     0
  0
CLASS
  1
ACMIDSTANDARDANSI
  2
AcmIdStdANSI
  3
"Amdt_StdImp|Product Description: AutoCAD Mechanical 2004 DX|Company: Autodesk"
 90
        0
 91
        2
280
     0
281
     0
  0
CLASS
  1
ACMDATUMSTANDARDANSI
  2
AcmDatumStdANSI
  3
"Amdt_StdImp|Product Description: AutoCAD Mechanical 2004 DX|Company: Autodesk"
 90
        0
 91
        2
280
     0
281
     0
  0
CLASS
  1
ACMBOMSTANDARDANSI
  2
AcmBOMStdANSI
  3
"Amdt_StdImp|Product Description: AutoCAD Mechanical 2004 DX|Company: Autodesk"
 90
        0
 91
        2
280
     0
281
     0
  0
CLASS
  1
ACMDETAILSTANDARDANSI
  2
AmdtDetailSymStdANSI
  3
"Amdt_StdImp|Product Description: AutoCAD Mechanical 2004 DX|Company: Autodesk"
 90
        0
 91
        2
280
     0
281
     0
  0
CLASS
  1
ACMSECTIONSTANDARDANSI
  2
AmdtSectionSymStdANSI
  3
"Amdt_StdImp|Product Description: AutoCAD Mechanical 2004 DX|Company: Autodesk"
 90
        0
 91
        2
280
     0
281
     0
  0
CLASS
  1
ACMCENTERLINESTANDARDANSI
  2
AmdtCenterLineStdANSI
  3
"Amdt_StdImp|Product Description: AutoCAD Mechanical 2004 DX|Company: Autodesk"
 90
        0
 91
        2
280
     0
281
     0
  0
CLASS
  1
ACMTHREADLINESTANDARDANSI
  2
AmdtThreadLineStdANSI
  3
"Amdt_StdImp|Product Description: AutoCAD Mechanical 2004 DX|Company: Autodesk"
 90
        0
 91
        2
280
     0
281
     0
  0
CLASS
  1
ACMNOTESTANDARDANSI
  2
AmdtNoteStdANSI
  3
"Amdt_StdImp|Product Description: AutoCAD Mechanical 2004 DX|Company: Autodesk"
 90
        0
 91
        2
280
     0
281
     0
  0
CLASS
  1
AMDTNOTETEMPLATEDB
  2
AmdtNoteTemplateDB
  3
AMDT_STDIMP_MODULE_NAME
 90
        0
 91
        7
280
     0
281
     0
  0
CLASS
  1
ACAMGLAYSTD
  2
AcAmgLayStd
  3
"AcAmgLayStd|Product Description: AutoCAD Mechanical 2000|Company: Autodesk"
 90
        0
 91
        2
280
     0
281
     0
  0
CLASS
  1
ACAMGDIMSTD
  2
AcAmgDimStd
  3
"AcAmgDimStd|Product Description: AutoCAD Mechanical 2000|Company: Autodesk"
 90
        0
 91
        2
280
     0
281
     0
  0
CLASS
  1
ACAMGHOLECHARTSTDANSI
  2
AcAmgHoleChartStdANSI
  3
ACMSYMBB_MODULE_NAME
 90
        0
 91
        2
280
     0
281
     0
  0
CLASS
  1
ACAMGTITLESTD
  2
AcAmgTitleStd
  3
"TITLEAPP"
 90
        0
 91
        2
280
     0
281
     0
  0
CLASS
  1
ACAMGFILTERDAT
  2
AcAmgFilterDat
  3
"AcadM|Product Description: AutoCAD Mechanical 2000|Company: Autodesk"
 90
        0
 91
        7
280
     0
281
     0
  0
CLASS
  1
SORTENTSTABLE
  2
AcDbSortentsTable
  3
ObjectDBX Classes
 90
        0
 91
        7
280
     0
281
     0
  0
CLASS
  1
ACMDATAENTRYBLOCK
  2
AcmDataEntryBlock
  3
"AcmSymBB|Product Description: AutoCAD Mechanical 2004 DX|Company: Autodesk"
 90
        0
 91
        0
280
     0
281
     0
  0
CLASS
  1
MATERIAL
  2
AcDbMaterial
  3
ObjectDBX Classes
 90
     1153
 91
        3
280
     0
281
     0
  0
CLASS
  1
VISUALSTYLE
  2
AcDbVisualStyle
  3
ObjectDBX Classes
 90
     4095
 91
       24
280
     0
281
     0
  0
CLASS
  1
SCALE
  2
AcDbScale
  3
ObjectDBX Classes
 90
     1153
 91
       17
280
     0
281
     0
  0
CLASS
  1
MLEADERSTYLE
  2
AcDbMLeaderStyle
  3
ACDB_MLEADERSTYLE_CLASS
 90
     4095
 91
        1
280
     0
281
     0
  0
CLASS
  1
ACDBSECTIONVIEWSTYLE
  2
AcDbSectionViewStyle
  3
ObjectDBX Classes
 90
     1025
 91
        1
280
     0
281
     0
  0
CLASS
  1
ACDBDETAILVIEWSTYLE
  2
AcDbDetailViewStyle
  3
ObjectDBX Classes
 90
     1025
 91
        1
280
     0
281
     0
  0
CLASS
  1
ACARRAYJIGENTITY
  2
AcArrayJigEntity
  3
ACAD_ARRAY
 90
      129
 91
        0
280
     0
281
     1
  0
CLASS
  1
ACDBASSOCNETWORK
  2
AcDbAssocNetwork
  3
ObjectDBX Classes
 90
     1025
 91
        2
280
     0
281
     0
  0
CLASS
  1
ACDBASSOCACTION
  2
AcDbAssocAction
  3
ObjectDBX Classes
 90
     1025
 91
        1
280
     0
281
     0
  0
CLASS
  1
ACDBASSOCARRAYACTIONBODY
  2
AcDbAssocArrayActionBody
  3
ObjectDBX Classes
 90
     1025
 91
        1
280
     0
281
     0
  0
CLASS
  1
ACDBASSOCVERTEXACTIONPARAM
  2
AcDbAssocVertexActionParam
  3
ObjectDBX Classes
 90
     1025
 91
        3
280
     0
281
     0
  0
CLASS
  1
ACDBASSOCDEPENDENCY
  2
AcDbAssocDependency
  3
ObjectDBX Classes
 90
     1025
 91
        3
280
     0
281
     0
  0
CLASS
  1
ACDBASSOCARRAYRECTANGULARPARAMETERS
  2
AcDbAssocArrayRectangularParameters
  3
ObjectDBX Classes
 90
     1025
 91
        0
280
     0
281
     0
  0
CLASS
  1
ACDBASSOCARRAYPOLARPARAMETERS
  2
AcDbAssocArrayPolarParameters
  3
ObjectDBX Classes
 90
     1025
 91
        0
280
     0
281
     0
  0
CLASS
  1
CELLSTYLEMAP
  2
AcDbCellStyleMap
  3
ObjectDBX Classes
 90
     1152
 91
        1
280
     0
281
     0
  0
ENDSEC
  0
SECTION
  2
TABLES
  0
TABLE
  2
VPORT
  5
4B1AB8
330
0
100
AcDbSymbolTable
 70
     1
  0
VPORT
  5
4B41D6
330
4B1AB8
100
AcDbSymbolTableRecord
100
AcDbViewportTableRecord
  2
*Active
 70
     0
 10
0.0
 20
0.0
 11
1.0
 21
1.0
 12
9.676925289893059
 22
11.00002592335583
 13
0.0
 23
0.0
 14
0.125
 24
0.125
 15
0.25
 25
0.25
 16
0.0
 26
0.0
 36
1.0
 17
0.0
 27
0.0
 37
0.0
 40
22.16620151457814
 41
2.292712066905615
 42
50.0
 43
0.0
 44
0.0
 50
0.0
 51
0.0
 71
     0
 72
 20000
 73
     1
 74
     3
 75
     0
 76
     0
 77
     0
 78
     0
281
     0
 65
     1
110
0.0
120
0.0
130
0.0
111
1.0
121
0.0
131
0.0
112
0.0
122
1.0
132
0.0
 79
     0
146
0.0
348
4B41F6
 60
     3
 61
     5
292
     1
282
     1
141
0.0
142
0.0
 63
   250
421
  3355443
1001
ACAD_NAV_VCDISPLAY
1070
     3
  0
ENDTAB
  0
TABLE
  2
LTYPE
  5
4B1AB5
330
0
100
AcDbSymbolTable
 70
    10
  0
LTYPE
  5
4B1AC2
330
4B1AB5
100
AcDbSymbolTableRecord
100
AcDbLinetypeTableRecord
  2
BYBLOCK
 70
     0
  3

 72
    65
 73
     0
 40
0.0
  0
LTYPE
  5
4B1AC3
330
4B1AB5
100
AcDbSymbolTableRecord
100
AcDbLinetypeTableRecord
  2
BYLAYER
 70
     0
  3

 72
    65
 73
     0
 40
0.0
  0
LTYPE
  5
4B1AC4
330
4B1AB5
100
AcDbSymbolTableRecord
100
AcDbLinetypeTableRecord
  2
CONTINUOUS
 70
     0
  3
Solid line
 72
    65
 73
     0
 40
0.0
  0
LTYPE
  5
4B37A2
330
4B1AB5
100
AcDbSymbolTableRecord
100
AcDbLinetypeTableRecord
  2
HIDDEN
 70
     0
  3
Hidden __ __ __ __ __ __ __ __ __ __ __ __ __ _
 72
    65
 73
     2
 40
0.375
 49
0.25
 74
     0
 49
-0.125
 74
     0
  0
LTYPE
  5
4B37A3
330
4B1AB5
100
AcDbSymbolTableRecord
100
AcDbLinetypeTableRecord
  2
PHANTOM2
 70
     0
  3
Phantom (.5x) ___ _ _ ___ _ _ ___ _ _ ___ _ _
 72
    65
 73
     6
 40
1.25
 49
0.625
 74
     0
 49
-0.125
 74
     0
 49
0.125
 74
     0
 49
-0.125
 74
     0
 49
0.125
 74
     0
 49
-0.125
 74
     0
  0
LTYPE
  5
4B37A4
330
4B1AB5
100
AcDbSymbolTableRecord
100
AcDbLinetypeTableRecord
  2
CENTER
 70
     0
  3
Center ____ _ ____ _ ____ _ ____ _ ____ _ ____
 72
    65
 73
     4
 40
2.0
 49
1.25
 74
     0
 49
-0.25
 74
     0
 49
0.25
 74
     0
 49
-0.25
 74
     0
  0
LTYPE
  5
4B37DB
330
4B1AB5
100
AcDbSymbolTableRecord
100
AcDbLinetypeTableRecord
  2
Amconstr
 70
     0
  3
_______________________
 72
    65
 73
     2
 40
9999.0
 49
9999.0
 74
     0
 49
0.0
 74
     0
  0
LTYPE
  5
4B37E1
330
4B1AB5
100
AcDbSymbolTableRecord
100
AcDbLinetypeTableRecord
  2
CENTER2
 70
     0
  3
Center (.5x) ___ _ ___ _ ___ _ ___ _ ___ _ ___
 72
    65
 73
     4
 40
1.125
 49
0.75
 74
     0
 49
-0.125
 74
     0
 49
0.125
 74
     0
 49
-0.125
 74
     0
  0
LTYPE
  5
4B37E2
330
4B1AB5
100
AcDbSymbolTableRecord
100
AcDbLinetypeTableRecord
  2
HIDDEN2
 70
     0
  3
Hidden (.5x) _ _ _ _ _ _ _ _ _ _ _ _ _ _ _ _ _
 72
    65
 73
     2
 40
0.1875
 49
0.125
 74
     0
 49
-0.0625
 74
     0
  0
LTYPE
  5
4B37E3
330
4B1AB5
100
AcDbSymbolTableRecord
100
AcDbLinetypeTableRecord
  2
Amzigzag2
 70
     0
  3
/\/-/\/-/\/-/\/-/\/-/\/
 72
    65
 73
     2
 40
0.4401
 49
0.0001
 74
     4
 75
   136
340
4B37DF
 46
0.0016
 50
0.0
 44
0.0
 45
0.0
 49
-0.4400000000000001
 74
     0
  0
LTYPE
  5
4B37F1
330
4B1AB5
100
AcDbSymbolTableRecord
100
AcDbLinetypeTableRecord
  2
ACANSTGB
 70
     0
  3
__ . . __ . .
 72
    65
 73
     6
 40
0.35433070866
 49
0.15748031496
 74
     0
 49
-0.03937007874
 74
     0
 49
0.03937007874
 74
     0
 49
-0.03937007874
 74
     0
 49
0.03937007874
 74
     0
 49
-0.03937007874
 74
     0
  0
LTYPE
  5
4B37F2
330
4B1AB5
100
AcDbSymbolTableRecord
100
AcDbLinetypeTableRecord
  2
ACANSTGL
 70
     0
  3
_ _ _ _ _
 72
    65
 73
     2
 40
0.11811023622
 49
0.07874015748
 74
     0
 49
-0.03937007874
 74
     0
  0
ENDTAB
  0
TABLE
  2
LAYER
  5
4B1AB2
102
{ACAD_XDICTIONARY
360
4B1D43
102
}
330
0
100
AcDbSymbolTable
 70
    12
  0
LAYER
  5
4B1ABF
102
{ACAD_XDICTIONARY
360
4B422A
102
}
330
4B1AB2
100
AcDbSymbolTableRecord
100
AcDbLayerTableRecord
  2
0
 70
     0
 62
    31
  6
CONTINUOUS
370
    -3
390
4B1D13
347
4B41E8
348
0
  0
LAYER
  5
4B1AE0
102
{ACAD_XDICTIONARY
360
4B422C
102
}
330
4B1AB2
100
AcDbSymbolTableRecord
100
AcDbLayerTableRecord
  2
THIN
 70
     0
 62
     9
  6
CONTINUOUS
370
    -3
390
4B1D13
347
4B41E8
348
0
  0
LAYER
  5
4B1AE2
102
{ACAD_XDICTIONARY
360
4B422E
102
}
330
4B1AB2
100
AcDbSymbolTableRecord
100
AcDbLayerTableRecord
  2
DIM
 70
     0
 62
     7
  6
CONTINUOUS
370
    -3
390
4B1D13
347
4B41E8
348
0
  0
LAYER
  5
4B1AE3
102
{ACAD_XDICTIONARY
360
4B4230
102
}
330
4B1AB2
100
AcDbSymbolTableRecord
100
AcDbLayerTableRecord
  2
CYAN
 70
     0
 62
     4
  6
CONTINUOUS
370
    -3
390
4B1D13
347
4B41E8
348
0
  0
LAYER
  5
4B1AE5
102
{ACAD_XDICTIONARY
360
4B4232
102
}
330
4B1AB2
100
AcDbSymbolTableRecord
100
AcDbLayerTableRecord
  2
XTHIN
 70
     0
 62
   112
  6
CONTINUOUS
370
    -3
390
4B1D13
347
4B41E8
348
0
  0
LAYER
  5
4B1AE8
330
4B1AB2
100
AcDbSymbolTableRecord
100
AcDbLayerTableRecord
  2
DEFPOINTS
 70
     0
 62
     7
  6
CONTINUOUS
290
     0
370
    -3
390
4B1D13
347
4B41E8
348
0
  0
LAYER
  5
4B1D42
102
{ACAD_XDICTIONARY
360
4B4234
102
}
330
4B1AB2
100
AcDbSymbolTableRecord
100
AcDbLayerTableRecord
  2
10
 70
     0
 62
     9
  6
CONTINUOUS
370
    -3
390
4B1D13
347
4B41E8
348
0
  0
LAYER
  5
4B30ED
102
{ACAD_XDICTIONARY
360
4B4236
102
}
330
4B1AB2
100
AcDbSymbolTableRecord
100
AcDbLayerTableRecord
  2
vent
 70
     0
 62
     7
  6
CONTINUOUS
370
    -3
390
4B1D13
347
4B41E8
348
0
  0
LAYER
  5
4B3896
102
{ACAD_XDICTIONARY
360
4B4238
102
}
330
4B1AB2
100
AcDbSymbolTableRecord
100
AcDbLayerTableRecord
  2
3
 70
     0
 62
     3
  6
CONTINUOUS
370
    -3
390
4B1D13
347
4B41E8
348
0
  0
LAYER
  5
4B3907
102
{ACAD_XDICTIONARY
360
4B423A
102
}
330
4B1AB2
100
AcDbSymbolTableRecord
100
AcDbLayerTableRecord
  2
HIDDEN
 70
     0
 62
     1
  6
HIDDEN2
370
    -3
390
4B1D13
347
4B41E8
348
0
  0
LAYER
  5
4B3908
102
{ACAD_XDICTIONARY
360
4B423C
102
}
330
4B1AB2
100
AcDbSymbolTableRecord
100
AcDbLayerTableRecord
  2
CENTER
 70
     0
 62
     3
  6
CENTER2
370
    -3
390
4B1D13
347
4B41E8
348
0
  0
LAYER
  5
4B44F0
102
{ACAD_XDICTIONARY
360
4B44F1
102
}
330
4B1AB2
100
AcDbSymbolTableRecord
100
AcDbLayerTableRecord
  2
PAPER
 70
     0
 62
     6
  6
CONTINUOUS
370
    -3
390
4B1D13
347
4B41E8
348
0
  0
ENDTAB
  0
TABLE
  2
STYLE
  5
4B1AB3
330
0
100
AcDbSymbolTable
 70
     7
  0
STYLE
  5
4B1AC0
330
4B1AB3
100
AcDbSymbolTableRecord
100
AcDbTextStyleTableRecord
  2
STANDARD
 70
     0
 40
0.0
 41
1.0
 50
0.0
 71
     0
 42
0.2
  3
txt
  4

  0
STYLE
  5
4B1ACE
330
4B1AB3
100
AcDbSymbolTableRecord
100
AcDbTextStyleTableRecord
  2
ROMANS
 70
     0
 40
0.0
 41
1.0
 50
10.0
 71
     0
 42
0.08
  3
romans
  4

  0
STYLE
  5
4B1BF0
330
4B1AB3
100
AcDbSymbolTableRecord
100
AcDbTextStyleTableRecord
  2
SIMPLEX
 70
     0
 40
0.0
 41
1.0
 50
10.0
 71
     0
 42
0.04
  3
SIMPLEX
  4

  0
STYLE
  5
4B2280
330
4B1AB3
100
AcDbSymbolTableRecord
100
AcDbTextStyleTableRecord
  2
TAHOMA
 70
     0
 40
0.0
 41
1.0
 50
0.0
 71
     0
 42
0.045
  3
TAHOMA.TTF
  4

1001
ACAD
1000
Tahoma
1071
       34
  0
STYLE
  5
4B37DF
330
4B1AB3
100
AcDbSymbolTableRecord
100
AcDbTextStyleTableRecord
  2

 70
     1
 40
0.0
 41
1.0
 50
0.0
 71
     0
 42
0.08
  3
genltshp.shx
  4

  0
STYLE
  5
4B37E4
330
4B1AB3
100
AcDbSymbolTableRecord
100
AcDbTextStyleTableRecord
  2
ACANSTS
 70
     0
 40
1.0
 41
1.0
 50
0.0
 71
     0
 42
0.08
  3
romans.shx
  4

  0
STYLE
  5
4B37F0
330
4B1AB3
100
AcDbSymbolTableRecord
100
AcDbTextStyleTableRecord
  2
ACANSGDT
 70
     0
 40
0.0
 41
1.0
 50
0.0
 71
     0
 42
0.08
  3
amgdt.shx
  4

  0
ENDTAB
  0
TABLE
  2
VIEW
  5
4B1AB6
330
0
100
AcDbSymbolTable
 70
     1
  0
VIEW
  5
4B1AD8
330
4B1AB6
100
AcDbSymbolTableRecord
100
AcDbViewTableRecord
  2
OLE1
 70
     0
 40
5.004887585532746
 10
4.0
 20
2.502443792766373
 41
8.0
 11
0.0
 21
0.0
 31
1.0
 12
0.0
 22
0.0
 32
0.0
 42
50.0
 43
0.0
 44
0.0
 50
0.0
 71
     0
281
     0
 72
     0
 73
     0
348
4B41F6
  0
ENDTAB
  0
TABLE
  2
UCS
  5
4B1AB7
330
0
100
AcDbSymbolTable
 70
     0
  0
ENDTAB
  0
TABLE
  2
APPID
  5
4B1AB9
330
0
100
AcDbSymbolTable
 70
    29
  0
APPID
  5
4B1AC1
330
4B1AB9
100
AcDbSymbolTableRecord
100
AcDbRegAppTableRecord
  2
ACAD
 70
     0
  0
APPID
  5
4B1ADB
330
4B1AB9
100
AcDbSymbolTableRecord
100
AcDbRegAppTableRecord
  2
TB_S_MPD
 70
     0
  0
APPID
  5
4B1F14
330
4B1AB9
100
AcDbSymbolTableRecord
100
AcDbRegAppTableRecord
  2
RAK
 70
     0
  0
APPID
  5
4B2288
330
4B1AB9
100
AcDbSymbolTableRecord
100
AcDbRegAppTableRecord
  2
MTVPROFILELINK
 70
     0
  0
APPID
  5
4B2289
330
4B1AB9
100
AcDbSymbolTableRecord
100
AcDbRegAppTableRecord
  2
ADMEPROFILELINK
 70
     0
  0
APPID
  5
4B3775
330
4B1AB9
100
AcDbSymbolTableRecord
100
AcDbRegAppTableRecord
  2
MCAD_NO_VIS
 70
     0
  0
APPID
  5
4B3776
330
4B1AB9
100
AcDbSymbolTableRecord
100
AcDbRegAppTableRecord
  2
ACAD_TEMP_GRAPHIC
 70
     0
  0
APPID
  5
4B37A6
330
4B1AB9
100
AcDbSymbolTableRecord
100
AcDbRegAppTableRecord
  2
AD_DRAW
 70
     0
  0
APPID
  5
4B37A9
330
4B1AB9
100
AcDbSymbolTableRecord
100
AcDbRegAppTableRecord
  2
ACATTRIBSERVICES
 70
     0
  0
APPID
  5
4B37C9
330
4B1AB9
100
AcDbSymbolTableRecord
100
AcDbRegAppTableRecord
  2
DESIGNERASSEMBLIES
 70
     0
  0
APPID
  5
4B37CF
330
4B1AB9
100
AcDbSymbolTableRecord
100
AcDbRegAppTableRecord
  2
ACADM_DIM_EDIT
 70
     0
  0
APPID
  5
4B37D0
330
4B1AB9
100
AcDbSymbolTableRecord
100
AcDbRegAppTableRecord
  2
AMDT_DM_ADJ
 70
     0
  0
APPID
  5
4B37FD
330
4B1AB9
100
AcDbSymbolTableRecord
100
AcDbRegAppTableRecord
  2
ACAD_DSTYLE_DIMARC_LENGTH_SYMBOL
 70
     0
  0
APPID
  5
4B37FE
330
4B1AB9
100
AcDbSymbolTableRecord
100
AcDbRegAppTableRecord
  2
ACAD_DSTYLE_DIMJOGGED_JOGANGLE_SYMBOL
 70
     0
  0
APPID
  5
4B3843
330
4B1AB9
100
AcDbSymbolTableRecord
100
AcDbRegAppTableRecord
  2
AcAecLayerStandard
 70
     0
  0
APPID
  5
4B39B7
330
4B1AB9
100
AcDbSymbolTableRecord
100
AcDbRegAppTableRecord
  2
GENIUS_GENREC_14
 70
     0
  0
APPID
  5
4B39B8
330
4B1AB9
100
AcDbSymbolTableRecord
100
AcDbRegAppTableRecord
  2
GENIUS_GENOBJ-N-REC_13
 70
     0
  0
APPID
  5
4B39B9
330
4B1AB9
100
AcDbSymbolTableRecord
100
AcDbRegAppTableRecord
  2
GENIUS_GENODEF_13
 70
     0
  0
APPID
  5
4B3A56
330
4B1AB9
100
AcDbSymbolTableRecord
100
AcDbRegAppTableRecord
  2
ACAD_DSTYLE_DIMTEXT_FILL
 70
     0
  0
APPID
  5
4B3A57
330
4B1AB9
100
AcDbSymbolTableRecord
100
AcDbRegAppTableRecord
  2
ACAD_DSTYLE_DIMEXT_LENGTH
 70
     0
  0
APPID
  5
4B3A58
330
4B1AB9
100
AcDbSymbolTableRecord
100
AcDbRegAppTableRecord
  2
ACAD_DSTYLE_DIMEXT_ENABLED
 70
     0
  0
APPID
  5
4B3A59
330
4B1AB9
100
AcDbSymbolTableRecord
100
AcDbRegAppTableRecord
  2
ACAD_DSTYLE_DIM_LINETYPE
 70
     0
  0
APPID
  5
4B3A5A
330
4B1AB9
100
AcDbSymbolTableRecord
100
AcDbRegAppTableRecord
  2
ACAD_DSTYLE_DIM_EXT1_LINETYPE
 70
     0
  0
APPID
  5
4B3A5B
330
4B1AB9
100
AcDbSymbolTableRecord
100
AcDbRegAppTableRecord
  2
ACAD_DSTYLE_DIM_EXT2_LINETYPE
 70
     0
  0
APPID
  5
4B423E
330
4B1AB9
100
AcDbSymbolTableRecord
100
AcDbRegAppTableRecord
  2
ACAD_NAV_VCDISPLAY
 70
     0
  0
APPID
  5
4B427A
330
4B1AB9
100
AcDbSymbolTableRecord
100
AcDbRegAppTableRecord
  2
ACAD_EXEMPT_FROM_CAD_STANDARDS
 70
     0
  0
APPID
  5
4B428D
330
4B1AB9
100
AcDbSymbolTableRecord
100
AcDbRegAppTableRecord
  2
ACAD_DSTYLE_DIMJAG
 70
     0
  0
APPID
  5
4B428E
330
4B1AB9
100
AcDbSymbolTableRecord
100
AcDbRegAppTableRecord
  2
ACAD_DSTYLE_DIMBREAK
 70
     0
  0
APPID
  5
4B428F
330
4B1AB9
100
AcDbSymbolTableRecord
100
AcDbRegAppTableRecord
  2
ACAD_DSTYLE_DIMTALN
 70
     0
  0
ENDTAB
  0
TABLE
  2
DIMSTYLE
  5
4B1ABA
330
0
100
AcDbSymbolTable
 70
     7
100
AcDbDimStyleTable
 71
     1
340
4B21AF
  0
DIMSTYLE
105
4B21AF
102
{ACAD_REACTORS
330
4B2268
330
4B2250
330
4B2232
330
4B221A
330
4B45D3
330
4B45FF
330
4B462B
102
}
330
4B1ABA
100
AcDbSymbolTableRecord
100
AcDbDimStyleTableRecord
  2
Copy of HSTANDARD
 70
     0
 41
0.125
 42
0.045
 44
0.08
 49
0.08
140
0.08
141
0.0
146
0.4444444444444445
176
   112
177
     9
178
   256
179
     1
276
     1
277
     4
340
4B1ACE
1001
ACAD_DSTYLE_DIMJOGGED_JOGANGLE_SYMBOL
1070
   384
1040
0.7853981633974483
  0
DIMSTYLE
105
4B37FC
330
4B1ABA
100
AcDbSymbolTableRecord
100
AcDbDimStyleTableRecord
  2
AM_ANSI
 70
     0
  4
mm
 41
0.1
 42
0.05
 43
0.5
 44
0.1
 47
0.1
 48
0.1
 78
     7
 79
     2
 90
     1
140
0.12
141
0.0
146
0.71
147
0.06
176
   256
177
   256
178
     2
274
     4
284
     7
340
4B1AC0
371
    -1
372
    -1
1001
ACAD_DSTYLE_DIMJOGGED_JOGANGLE_SYMBOL
1070
   384
1040
0.7853981633974483
  0
DIMSTYLE
105
4B3805
330
4B1ABA
100
AcDbSymbolTableRecord
100
AcDbDimStyleTableRecord
  2
AM_ANSI$3
 70
     0
  4
mm
 41
0.1
 42
0.05
 43
0.5
 44
0.1
 47
0.1
 48
0.1
 78
     7
 79
     2
 90
     1
140
0.12
141
0.0
146
0.71
147
0.06
176
   256
177
   256
178
     2
274
     4
284
     7
288
     1
289
     0
340
4B1AC0
371
    -1
372
    -1
1001
ACAD_DSTYLE_DIMJOGGED_JOGANGLE_SYMBOL
1070
   384
1040
0.7853981633974483
  0
DIMSTYLE
105
4B3808
330
4B1ABA
100
AcDbSymbolTableRecord
100
AcDbDimStyleTableRecord
  2
AM_ANSI$4
 70
     0
  4
mm
 41
0.1
 42
0.05
 43
0.5
 44
0.1
 47
0.1
 48
0.1
 78
     7
 79
     2
 90
     1
140
0.12
141
0.0
146
0.71
147
0.06
176
   256
177
   256
178
     2
274
     4
284
     7
288
     1
289
     0
340
4B1AC0
371
    -1
372
    -1
1001
ACAD_DSTYLE_DIMJOGGED_JOGANGLE_SYMBOL
1070
   384
1040
0.7853981633974483
  0
DIMSTYLE
105
4B380D
330
4B1ABA
100
AcDbSymbolTableRecord
100
AcDbDimStyleTableRecord
  2
AM_ANSI$7
 70
     0
  4
mm
 41
0.1
 42
0.05
 43
0.5
 44
0.1
 47
0.1
 48
0.1
 78
     7
 79
     2
 90
     1
140
0.24
141
0.0
146
0.71
147
0.06
176
   256
177
   256
178
     2
274
     4
284
     7
340
4B1AC0
371
    -1
372
    -1
1001
ACAD_DSTYLE_DIMJOGGED_JOGANGLE_SYMBOL
1070
   384
1040
0.7853981633974483
  0
DIMSTYLE
105
4B3810
330
4B1ABA
100
AcDbSymbolTableRecord
100
AcDbDimStyleTableRecord
  2
AM_ANSI$SF
 70
     0
  4
mm
 41
0.1
 42
0.05
 43
0.5
 44
0.1
 47
0.1
 48
0.1
 75
     1
 76
     1
 78
     7
 79
     2
 90
     1
140
0.12
141
0.0
146
0.71
147
0.06
176
   256
177
   256
178
     2
274
     4
284
     7
340
4B1AC0
371
    -1
372
    -1
1001
ACAD_DSTYLE_DIMJOGGED_JOGANGLE_SYMBOL
1070
   384
1040
0.7853981633974483
  0
DIMSTYLE
105
4B3817
330
4B1ABA
100
AcDbSymbolTableRecord
100
AcDbDimStyleTableRecord
  2
AM_ANSI$SH
 70
     0
  4
mm
 41
0.1
 42
0.05
 43
0.5
 44
0.1
 47
0.1
 48
0.1
 75
     1
 76
     1
 78
     7
 79
     2
 90
     1
140
0.12
141
0.0
146
0.71
147
0.06
173
     1
176
   256
177
   256
178
     2
274
     4
284
     7
340
4B1AC0
343
4B3811
371
    -1
372
    -1
1001
ACAD_DSTYLE_DIMJOGGED_JOGANGLE_SYMBOL
1070
   384
1040
0.7853981633974483
  0
ENDTAB
  0
TABLE
  2
BLOCK_RECORD
  5
4B1AB1
330
0
100
AcDbSymbolTable
 70
    20
  0
BLOCK_RECORD
  5
4B1AC8
102
{ACAD_XDICTIONARY
360
4B3859
102
}
330
4B1AB1
100
AcDbSymbolTableRecord
100
AcDbBlockTableRecord
  2
*MODEL_SPACE
340
4B1D16
 70
     0
280
     1
281
     0
  0
BLOCK_RECORD
  5
4B1AC5
330
4B1AB1
100
AcDbSymbolTableRecord
100
AcDbBlockTableRecord
  2
*PAPER_SPACE
340
4B1D17
 70
     0
280
     1
281
     0
  0
BLOCK_RECORD
  5
4B1F40
330
4B1AB1
100
AcDbSymbolTableRecord
100
AcDbBlockTableRecord
  2
ASDTNUM
340
0
102
{BLKREFS
331
4B2293
102
}
 70
     0
280
     1
281
     0
  0
BLOCK_RECORD
  5
4B221B
330
4B1AB1
100
AcDbSymbolTableRecord
100
AcDbBlockTableRecord
  2
*D1
340
0
 70
     0
280
     1
281
     0
  0
BLOCK_RECORD
  5
4B2233
330
4B1AB1
100
AcDbSymbolTableRecord
100
AcDbBlockTableRecord
  2
*D2
340
0
 70
     0
280
     1
281
     0
  0
BLOCK_RECORD
  5
4B2251
330
4B1AB1
100
AcDbSymbolTableRecord
100
AcDbBlockTableRecord
  2
*D3
340
0
 70
     0
280
     1
281
     0
  0
BLOCK_RECORD
  5
4B2269
330
4B1AB1
100
AcDbSymbolTableRecord
100
AcDbBlockTableRecord
  2
*D4
340
0
 70
     0
280
     1
281
     0
  0
BLOCK_RECORD
  5
4B37C0
330
4B1AB1
100
AcDbSymbolTableRecord
100
AcDbBlockTableRecord
  2
*U5
340
0
 70
     0
280
     1
281
     0
  0
BLOCK_RECORD
  5
4B3811
330
4B1AB1
100
AcDbSymbolTableRecord
100
AcDbBlockTableRecord
  2
GENAXEH
340
0
 70
     0
280
     1
281
     0
  0
BLOCK_RECORD
  5
4B382B
102
{ACAD_XDICTIONARY
360
4B382F
102
}
330
4B1AB1
100
AcDbSymbolTableRecord
100
AcDbBlockTableRecord
  2
Glazing Bead
340
0
102
{BLKREFS
331
4B3838
331
4B383A
331
4B3835
331
4B3837
102
}
 70
     0
280
     1
281
     0
  0
BLOCK_RECORD
  5
4B387A
330
4B1AB1
100
AcDbSymbolTableRecord
100
AcDbBlockTableRecord
  2
Reinforced Bytyl Spacer
340
0
102
{BLKREFS
331
4B3885
331
4B3887
331
4B38C6
331
4B38C7
102
}
 70
     0
280
     1
281
     0
  0
BLOCK_RECORD
  5
4B388A
102
{ACAD_XDICTIONARY
360
4B388C
102
}
330
4B1AB1
100
AcDbSymbolTableRecord
100
AcDbBlockTableRecord
  2
Weather Seal
340
0
102
{BLKREFS
331
4B3891
331
4B3893
331
4B38A3
331
4B38A4
102
}
 70
     0
280
     1
281
     0
  0
BLOCK_RECORD
  5
4B3897
102
{ACAD_XDICTIONARY
360
4B389A
102
}
330
4B1AB1
100
AcDbSymbolTableRecord
100
AcDbBlockTableRecord
  2
Silicon Horizontal Small
340
0
102
{BLKREFS
331
4B389F
331
4B38A1
102
}
 70
     0
280
     1
281
     0
  0
BLOCK_RECORD
  5
4B38CB
102
{ACAD_XDICTIONARY
360
4B38CE
102
}
330
4B1AB1
100
AcDbSymbolTableRecord
100
AcDbBlockTableRecord
  2
Silicon Vertical Bottom
340
0
102
{BLKREFS
331
4B38D4
102
}
 70
     0
280
     1
281
     0
  0
BLOCK_RECORD
  5
4B38D8
102
{ACAD_XDICTIONARY
360
4B38DB
102
}
330
4B1AB1
100
AcDbSymbolTableRecord
100
AcDbBlockTableRecord
  2
Silicon Small Vertical Top
340
0
102
{BLKREFS
331
4B38E0
102
}
 70
     0
280
     1
281
     0
  0
BLOCK_RECORD
  5
4B427C
102
{ACAD_XDICTIONARY
360
4B427D
102
}
330
4B1AB1
100
AcDbSymbolTableRecord
100
AcDbBlockTableRecord
  2
B4823 small offset flat casing
340
0
310
2800000020000000200000000100080000000000000400000000000000000000000000000000000000000000000080000080000000808000800000008000800080800000C0C0C000C0DCC000F0CAA6000020400000206000002080000020A0000020C0000020E00000400000004020000040400000406000004080000040A0
310
000040C0000040E00000600000006020000060400000606000006080000060A0000060C0000060E00000800000008020000080400000806000008080000080A0000080C0000080E00000A0000000A0200000A0400000A0600000A0800000A0A00000A0C00000A0E00000C0000000C0200000C0400000C0600000C0800000C0
310
A00000C0C00000C0E00000E0000000E0200000E0400000E0600000E0800000E0A00000E0C00000E0E00040000000400020004000400040006000400080004000A0004000C0004000E00040200000402020004020400040206000402080004020A0004020C0004020E000404000004040200040404000404060004040800040
310
40A0004040C0004040E00040600000406020004060400040606000406080004060A0004060C0004060E00040800000408020004080400040806000408080004080A0004080C0004080E00040A0000040A0200040A0400040A0600040A0800040A0A00040A0C00040A0E00040C0000040C0200040C0400040C0600040C08000
310
40C0A00040C0C00040C0E00040E0000040E0200040E0400040E0600040E0800040E0A00040E0C00040E0E00080000000800020008000400080006000800080008000A0008000C0008000E00080200000802020008020400080206000802080008020A0008020C0008020E00080400000804020008040400080406000804080
310
008040A0008040C0008040E00080600000806020008060400080606000806080008060A0008060C0008060E00080800000808020008080400080806000808080008080A0008080C0008080E00080A0000080A0200080A0400080A0600080A0800080A0A00080A0C00080A0E00080C0000080C0200080C0400080C0600080C0
310
800080C0A00080C0C00080C0E00080E0000080E0200080E0400080E0600080E0800080E0A00080E0C00080E0E000C0000000C0002000C0004000C0006000C0008000C000A000C000C000C000E000C0200000C0202000C0204000C0206000C0208000C020A000C020C000C020E000C0400000C0402000C0404000C0406000C0
310
408000C040A000C040C000C040E000C0600000C0602000C0604000C0606000C0608000C060A000C060C000C060E000C0800000C0802000C0804000C0806000C0808000C080A000C080C000C080E000C0A00000C0A02000C0A04000C0A06000C0A08000C0A0A000C0A0C000C0A0E000C0C00000C0C02000C0C04000C0C06000
310
C0C08000C0C0A000F0FBFF00A4A0A000808080000000FF0000FF000000FFFF00FF000000FF00FF00FFFF0000FFFFFF0000000000000000000000000000000000000000000000000000000000000000000000000000000000000000000000000000000000000000000000000000000000000000000000000000000000000000
310
00000000000000000000000000000000000000000000000000000000000000000000000000000000000000000000000000000000000000000000000000000000000000000000000000000000000000000000000000000000000000000000000000000000000000000000000000000000000000000000000000000000000000
310
00000000000000000000000000000000000000000000000000000000000000000000000000000000000000000000000000000000000000000000000000000000000000000000000000000000000000000000000000000000000000000000000000000000000000000000000000000000000000000000000000000000000000
310
0000000000000000000000000000000000000000B7B7B7B7B7B7B7B7B7B7B7B7B7B7B7B7B7B7B7B7B7B7B7B7B7B700000000000000000000000000000000000000B7B7B7B7B7B7B7B7B7B7B7B7B700000000000000000000000000000000000000B700000000B7B7B7B7B7B7B7B70000000000000000000000000000000000
310
0000B700000000000000000000B7B700000000000000000000000000000000000000B700000000000000000000B7B7000000000000000000000000000000B7000000B700000000000000000000B7B7000000000000000000000000000000B7B7B7B7B700000000000000000000B7B7B7B7B7070000000000000000000000B7
310
000000B7B7B7B7B7000000000000B7B7B7B7B7000000000000000000000000B7000000B7B7B7B7B7000000000000B7B70000B7000000000000000000000000B7B7B7B7B7B7B7B7B7B7B7B7B7B7B7B7B7B7B7B70000000000000000000000000000000000000000000000000000000000000000000000000000000000000000
310
00000000000000000000000000000000000000000000000000000000000000000000000000000000000000000000000000000000000000000000000000000000000000000000000000000000000000000000000000000000000000000000000000000000000000000000000000000000000000000000000000000000000000
310
00000000000000000000000000000000000000000000000000000000000000000000000000000000000000000000000000000000000000000000000000000000000000000000000000000000000000000000000000000000000000000000000000000000000000000000000000000000000000000000000000000000000000
310
0000000000000000000000000000000000000000000000000000000000000000000000000000000000000000000000000000000000000000
102
{BLKREFS
331
4B429C
331
4B42A5
331
4B42AF
331
4B42B4
102
}
 70
     1
280
     1
281
     0
  0
BLOCK_RECORD
  5
4B448C
102
{ACAD_REACTORS
330
4B449E
102
}
330
4B1AB1
100
AcDbSymbolTableRecord
100
AcDbBlockTableRecord
  2
*U14
340
0
102
{BLKREFS
331
4B44A2
331
4B44A3
331
4B44A4
331
4B44A5
331
4B44A6
331
4B44A7
331
4B44A8
331
4B44A9
331
4B44AA
331
4B44AB
331
4B44AC
331
4B44AD
331
4B44AE
331
4B44AF
331
4B44B0
331
4B44B1
331
4B44B2
102
}
 70
     0
280
     1
281
     0
  0
BLOCK_RECORD
  5
4B448F
102
{ACAD_REACTORS
330
4B449D
102
}
330
4B1AB1
100
AcDbSymbolTableRecord
100
AcDbBlockTableRecord
  2
*U15
340
0
102
{BLKREFS
331
4B4492
102
}
 70
     0
280
     1
281
     1
  0
BLOCK_RECORD
  5
4B44EB
102
{ACAD_XDICTIONARY
360
4B44EC
102
}
330
4B1AB1
100
AcDbSymbolTableRecord
100
AcDbBlockTableRecord
  2
AS extents block
340
0
310
2800000020000000200000000100080000000000000400000000000000000000000000000000000000000000000080000080000000808000800000008000800080800000C0C0C000C0DCC000F0CAA6000020400000206000002080000020A0000020C0000020E00000400000004020000040400000406000004080000040A0
310
000040C0000040E00000600000006020000060400000606000006080000060A0000060C0000060E00000800000008020000080400000806000008080000080A0000080C0000080E00000A0000000A0200000A0400000A0600000A0800000A0A00000A0C00000A0E00000C0000000C0200000C0400000C0600000C0800000C0
310
A00000C0C00000C0E00000E0000000E0200000E0400000E0600000E0800000E0A00000E0C00000E0E00040000000400020004000400040006000400080004000A0004000C0004000E00040200000402020004020400040206000402080004020A0004020C0004020E000404000004040200040404000404060004040800040
310
40A0004040C0004040E00040600000406020004060400040606000406080004060A0004060C0004060E00040800000408020004080400040806000408080004080A0004080C0004080E00040A0000040A0200040A0400040A0600040A0800040A0A00040A0C00040A0E00040C0000040C0200040C0400040C0600040C08000
310
40C0A00040C0C00040C0E00040E0000040E0200040E0400040E0600040E0800040E0A00040E0C00040E0E00080000000800020008000400080006000800080008000A0008000C0008000E00080200000802020008020400080206000802080008020A0008020C0008020E00080400000804020008040400080406000804080
310
008040A0008040C0008040E00080600000806020008060400080606000806080008060A0008060C0008060E00080800000808020008080400080806000808080008080A0008080C0008080E00080A0000080A0200080A0400080A0600080A0800080A0A00080A0C00080A0E00080C0000080C0200080C0400080C0600080C0
310
800080C0A00080C0C00080C0E00080E0000080E0200080E0400080E0600080E0800080E0A00080E0C00080E0E000C0000000C0002000C0004000C0006000C0008000C000A000C000C000C000E000C0200000C0202000C0204000C0206000C0208000C020A000C020C000C020E000C0400000C0402000C0404000C0406000C0
310
408000C040A000C040C000C040E000C0600000C0602000C0604000C0606000C0608000C060A000C060C000C060E000C0800000C0802000C0804000C0806000C0808000C080A000C080C000C080E000C0A00000C0A02000C0A04000C0A06000C0A08000C0A0A000C0A0C000C0A0E000C0C00000C0C02000C0C04000C0C06000
310
C0C08000C0C0A000F0FBFF00A4A0A000808080000000FF0000FF000000FFFF00FF000000FF00FF00FFFF0000FFFFFF0000000000000000000000000000000000000000000000000000000000000000000000000000FDFDFDFDFDFDFDFDFDFDFDFDFDFDFDFDFDFDFDFDFDFD00000000000000000000FD000000000000000000
310
0000000000000000000000FD00000000000000000000FD0000000000000000000000000000000000000000FD00000000000000000000FD0000000000000000000000000000000000000000FD00000000000000000000FD0000000000000000000000000000000000000000FD00000000000000000000FD0000000000000000
310
000000000000000000000000FD00000000000000000000FD0000000000000000000000000000000000000000FD00000000000000000000FD0000000000000000000000000000000000000000FD00000000000000000000FD0000000000000000000000000000000000000000FD00000000000000000000FD00000000000000
310
00000000000000000000000000FD00000000000000000000FD0000000000000000000000000000000000000000FD00000000000000000000FD0000000000000000000000000000000000000000FD00000000000000000000FD0000000000000000000000000000000000000000FD00000000000000000000FD000000000000
310
0000000000000000000000000000FD00000000000000000000FD0000000000000000000000000000000000000000FD00000000000000000000FD0000000000000000000000000000000000000000FD00000000000000000000FD0000000000000000000000000000000000000000FD00000000000000000000FD0000000000
310
000000000000000000000000000000FD00000000000000000000FD0000000000000000000000000000000000000000FD00000000000000000000FD0000000000000000000000000000000000000000FD00000000000000000000FD0000000000000000000000000000000000000000FD00000000000000000000FD00000000
310
00000000000000000000000000000000FD00000000000000000000FD0000000000000000000000000000000000000000FD00000000000000000000FD0000000000000000000000000000000000000000FD00000000000000000000FD0000000000000000000000000000000000000000FD00000000000000000000FD000000
310
0000000000000000000000000000000000FD00000000000000000000FD0000000000000000000000000000000000000000FD00000000000000000000FD0000000000000000000000000000000000000000FD00000000000000000000FD0000000000000000000000000000000000000000FD00000000000000000000FDFDFD
310
FDFDFDFDFDFDFDFDFDFDFDFDFDFDFDFDFDFDFD00000000000000000000000000000000000000000000000000000000000000000000000000
102
{BLKREFS
331
4B44F9
102
}
 70
     0
280
     1
281
     0
  0
BLOCK_RECORD
  5
4B45D4
330
4B1AB1
100
AcDbSymbolTableRecord
100
AcDbBlockTableRecord
  2
*D17
340
0
 70
     0
280
     1
281
     0
  0
BLOCK_RECORD
  5
4B4600
330
4B1AB1
100
AcDbSymbolTableRecord
100
AcDbBlockTableRecord
  2
*D18
340
0
 70
     0
280
     1
281
     0
  0
BLOCK_RECORD
  5
4B462C
330
4B1AB1
100
AcDbSymbolTableRecord
100
AcDbBlockTableRecord
  2
*D19
340
0
 70
     0
280
     1
281
     0
  0
ENDTAB
  0
ENDSEC
  0
SECTION
  2
BLOCKS
  0
BLOCK
  5
4B1AEB
330
4B1AC8
100
AcDbEntity
  8
0
100
AcDbBlockBegin
  2
*MODEL_SPACE
 70
     0
 10
0.0
 20
0.0
 30
0.0
  3
*MODEL_SPACE
  1

  0
ENDBLK
  5
4B1AEC
330
4B1AC8
100
AcDbEntity
  8
0
100
AcDbBlockEnd
  0
BLOCK
  5
4B1AE9
330
4B1AC5
100
AcDbEntity
 67
     1
  8
0
100
AcDbBlockBegin
  2
*PAPER_SPACE
 70
     0
 10
0.0
 20
0.0
 30
0.0
  3
*PAPER_SPACE
  1

  0
ENDBLK
  5
4B1AEA
330
4B1AC5
100
AcDbEntity
 67
     1
  8
0
100
AcDbBlockEnd
  0
BLOCK
  5
4B1F45
330
4B1F40
100
AcDbEntity
  8
0
100
AcDbBlockBegin
  2
ASDTNUM
 70
     2
 10
0.0
 20
0.0
 30
0.0
  3
ASDTNUM
  1

  0
ATTDEF
  5
4B228F
330
4B1F40
100
AcDbEntity
  8
THIN
100
AcDbText
 10
1.645491964163355
 20
0.7077964671298738
 30
0.0
 40
0.18
  1

 51
10.0
  7
ROMANS
100
AcDbAttributeDefinition
280
     0
  3
Revision date:
  2
REV:
 70
     0
280
     0
  0
TEXT
  5
4B2290
330
4B1F40
100
AcDbEntity
  8
THIN
100
AcDbText
 10
0.8991511953395569
 20
0.7098478649101438
 30
0.0
 40
0.18
  1
REV.
 51
10.0
  7
ROMANS
100
AcDbText
  0
TEXT
  5
4B2291
330
4B1F40
100
AcDbEntity
  8
THIN
100
AcDbText
 10
13.58214084242182
 20
0.6570694486990832
 30
0.0
 40
0.25
  1
AS
 51
10.0
  7
ROMANS
100
AcDbText
  0
ATTDEF
  5
4B2292
330
4B1F40
100
AcDbEntity
  8
THIN
100
AcDbText
 10
14.18958977281909
 20
0.6570000000000001
 30
0.0
 40
0.25
  1

 51
10.0
  7
ROMANS
100
AcDbAttributeDefinition
280
     0
  3
AS Drawing Num.:
  2
AS#
 70
     0
280
     0
  0
ENDBLK
  5
4B1F46
330
4B1F40
100
AcDbEntity
  8
0
100
AcDbBlockEnd
  0
BLOCK
  5
4B2226
330
4B221B
100
AcDbEntity
  8
0
100
AcDbBlockBegin
  2
*D1
 70
     1
 10
0.0
 20
0.0
 30
0.0
  3
*D1
  1

  0
LINE
  5
4B45AB
330
4B221B
100
AcDbEntity
  8
DIM
 62
     9
440
 16777216
370
    -2
100
AcDbLine
 10
5.407819127523313
 20
2.457012706251843
 30
0.0
 11
1.026440007352885
 21
2.457012706251844
 31
0.0
  0
LINE
  5
4B45AC
330
4B221B
100
AcDbEntity
  8
DIM
 62
     9
440
 16777216
370
    -2
100
AcDbLine
 10
2.766819127523304
 20
6.200012701189526
 30
0.0
 11
1.026440007352886
 21
6.200012701189526
 31
0.0
  0
LINE
  5
4B45AD
330
4B221B
100
AcDbEntity
  8
DIM
 62
   112
440
 16777216
370
    -2
100
AcDbLine
 10
1.186440007352886
 20
2.707012706251844
 30
0.0
 11
1.186440007352886
 21
3.775186704977083
 31
0.0
  0
LINE
  5
4B45AE
330
4B221B
100
AcDbEntity
  8
DIM
 62
   112
440
 16777216
370
    -2
100
AcDbLine
 10
1.186440007352886
 20
5.950012701189526
 30
0.0
 11
1.186440007352886
 21
4.378996228786608
 31
0.0
  0
SOLID
  5
4B45AF
330
4B221B
100
AcDbEntity
  8
DIM
 62
   112
440
 16777216
100
AcDbTrace
 10
1.144773340686219
 20
2.707012706251844
 30
0.0
 11
1.228106674019552
 21
2.707012706251844
 31
0.0
 12
1.186440007352885
 22
2.457012706251844
 32
0.0
 13
1.186440007352885
 23
2.457012706251844
 33
0.0
  0
SOLID
  5
4B45B0
330
4B221B
100
AcDbEntity
  8
DIM
 62
   112
440
 16777216
100
AcDbTrace
 10
1.144773340686219
 20
5.950012701189526
 30
0.0
 11
1.228106674019553
 21
5.950012701189526
 31
0.0
 12
1.186440007352886
 22
6.200012701189526
 32
0.0
 13
1.186440007352886
 23
6.200012701189526
 33
0.0
  0
MTEXT
  5
4B45B1
330
4B221B
100
AcDbEntity
  8
DIM
440
 16777216
100
AcDbMText
 10
1.186440007352885
 20
4.077091466881846
 30
0.0
 40
0.16
 41
0.0
 46
0.0
 71
     5
 72
     1
  1
\A1;3 3/4"
  7
ROMANS
 73
     1
 44
1.0
  0
POINT
  5
4B45B2
330
4B221B
100
AcDbEntity
  8
DEFPOINTS
 62
     0
440
 16777216
100
AcDbPoint
 10
5.497819127523313
 20
2.457012706251843
 30
0.0
  0
POINT
  5
4B45B3
330
4B221B
100
AcDbEntity
  8
DEFPOINTS
 62
     0
440
 16777216
100
AcDbPoint
 10
2.856819127523304
 20
6.200012701189526
 30
0.0
  0
POINT
  5
4B45B4
330
4B221B
100
AcDbEntity
  8
DEFPOINTS
 62
     0
440
 16777216
100
AcDbPoint
 10
1.186440007352886
 20
6.200012701189526
 30
0.0
  0
ENDBLK
  5
4B2227
330
4B221B
100
AcDbEntity
  8
0
100
AcDbBlockEnd
  0
BLOCK
  5
4B223E
330
4B2233
100
AcDbEntity
  8
0
100
AcDbBlockBegin
  2
*D2
 70
     1
 10
0.0
 20
0.0
 30
0.0
  3
*D2
  1

  0
LINE
  5
4B45B5
330
4B2233
100
AcDbEntity
  8
DIM
 62
     9
440
 16777216
370
    -2
100
AcDbLine
 10
7.218303166950977
 20
3.300516011012765
 30
0.0
 11
7.218303166950977
 21
1.569587034336603
 31
0.0
  0
LINE
  5
4B45B6
330
4B2233
100
AcDbEntity
  8
DIM
 62
     9
440
 16777216
370
    -2
100
AcDbLine
 10
5.482819127523264
 20
2.382012706251846
 30
0.0
 11
5.482819127523264
 21
1.569587034336603
 31
0.0
  0
LINE
  5
4B45B7
330
4B2233
100
AcDbEntity
  8
DIM
 62
   112
440
 16777216
370
    -2
100
AcDbLine
 10
7.468303166950977
 20
1.729587034336603
 30
0.0
 11
7.718303166950977
 21
1.729587034336603
 31
0.0
  0
LINE
  5
4B45B8
330
4B2233
100
AcDbEntity
  8
DIM
 62
   112
440
 16777216
370
    -2
100
AcDbLine
 10
5.232819127523264
 20
1.729587034336603
 30
0.0
 11
4.982819127523264
 21
1.729587034336603
 31
0.0
  0
SOLID
  5
4B45B9
330
4B2233
100
AcDbEntity
  8
DIM
 62
   112
440
 16777216
100
AcDbTrace
 10
7.468303166950977
 20
1.77125370100327
 30
0.0
 11
7.468303166950977
 21
1.687920367669937
 31
0.0
 12
7.218303166950977
 22
1.729587034336603
 32
0.0
 13
7.218303166950977
 23
1.729587034336603
 33
0.0
  0
SOLID
  5
4B45BA
330
4B2233
100
AcDbEntity
  8
DIM
 62
   112
440
 16777216
100
AcDbTrace
 10
5.232819127523264
 20
1.77125370100327
 30
0.0
 11
5.232819127523264
 21
1.687920367669937
 31
0.0
 12
5.482819127523264
 22
1.729587034336603
 32
0.0
 13
5.482819127523264
 23
1.729587034336603
 33
0.0
  0
MTEXT
  5
4B45BB
330
4B2233
100
AcDbEntity
  8
DIM
440
 16777216
100
AcDbMText
 10
6.350561147237121
 20
1.729587034336603
 30
0.0
 40
0.16
 41
0.0
 46
0.0
 71
     5
 72
     1
  1
\A1;1 3/4"
  7
ROMANS
 73
     1
 44
1.0
  0
POINT
  5
4B45BC
330
4B2233
100
AcDbEntity
  8
DEFPOINTS
 62
     0
440
 16777216
100
AcDbPoint
 10
7.218303166950977
 20
3.390516011012765
 30
0.0
  0
POINT
  5
4B45BD
330
4B2233
100
AcDbEntity
  8
DEFPOINTS
 62
     0
440
 16777216
100
AcDbPoint
 10
5.482819127523264
 20
2.472012706251846
 30
0.0
  0
POINT
  5
4B45BE
330
4B2233
100
AcDbEntity
  8
DEFPOINTS
 62
     0
440
 16777216
100
AcDbPoint
 10
5.482819127523264
 20
1.729587034336603
 30
0.0
  0
ENDBLK
  5
4B223F
330
4B2233
100
AcDbEntity
  8
0
100
AcDbBlockEnd
  0
BLOCK
  5
4B225C
330
4B2251
100
AcDbEntity
  8
0
100
AcDbBlockBegin
  2
*D3
 70
     1
 10
0.0
 20
0.0
 30
0.0
  3
*D3
  1

  0
LINE
  5
4B45BF
330
4B2251
100
AcDbEntity
  8
DIM
 62
     9
440
 16777216
370
    -2
100
AcDbLine
 10
14.68631912752325
 20
5.607012701196387
 30
0.0
 11
15.74232202849976
 21
5.607012701196387
 31
0.0
  0
LINE
  5
4B45C0
330
4B2251
100
AcDbEntity
  8
DIM
 62
     9
440
 16777216
370
    -2
100
AcDbLine
 10
15.75131912752331
 20
4.794012701196372
 30
0.0
 11
15.42232202849976
 21
4.794012701196372
 31
0.0
  0
LINE
  5
4B45C1
330
4B2251
100
AcDbEntity
  8
DIM
 62
   112
440
 16777216
370
    -2
100
AcDbLine
 10
15.58232202849976
 20
5.857012701196387
 30
0.0
 11
15.58232202849976
 21
6.107012701196387
 31
0.0
  0
LINE
  5
4B45C2
330
4B2251
100
AcDbEntity
  8
DIM
 62
   112
440
 16777216
370
    -2
100
AcDbLine
 10
15.58232202849976
 20
4.544012701196372
 30
0.0
 11
15.58232202849976
 21
4.294012701196372
 31
0.0
  0
SOLID
  5
4B45C3
330
4B2251
100
AcDbEntity
  8
DIM
 62
   112
440
 16777216
100
AcDbTrace
 10
15.54065536183309
 20
5.857012701196387
 30
0.0
 11
15.62398869516643
 21
5.857012701196387
 31
0.0
 12
15.58232202849976
 22
5.607012701196387
 32
0.0
 13
15.58232202849976
 23
5.607012701196387
 33
0.0
  0
SOLID
  5
4B45C4
330
4B2251
100
AcDbEntity
  8
DIM
 62
   112
440
 16777216
100
AcDbTrace
 10
15.54065536183309
 20
4.544012701196372
 30
0.0
 11
15.62398869516643
 21
4.544012701196372
 31
0.0
 12
15.58232202849976
 22
4.794012701196372
 32
0.0
 13
15.58232202849976
 23
4.794012701196372
 33
0.0
  0
MTEXT
  5
4B45C5
330
4B2251
100
AcDbEntity
  8
DIM
440
 16777216
100
AcDbMText
 10
15.58232202849976
 20
5.200512701196382
 30
0.0
 40
0.16
 41
0.0
 46
0.0
 71
     5
 72
     1
  1
\A1;13/16"
  7
ROMANS
 73
     1
 44
1.0
  0
POINT
  5
4B45C6
330
4B2251
100
AcDbEntity
  8
DEFPOINTS
 62
     0
440
 16777216
100
AcDbPoint
 10
14.59631912752325
 20
5.607012701196387
 30
0.0
  0
POINT
  5
4B45C7
330
4B2251
100
AcDbEntity
  8
DEFPOINTS
 62
     0
440
 16777216
100
AcDbPoint
 10
15.84131912752331
 20
4.794012701196372
 30
0.0
  0
POINT
  5
4B45C8
330
4B2251
100
AcDbEntity
  8
DEFPOINTS
 62
     0
440
 16777216
100
AcDbPoint
 10
15.58232202849976
 20
4.794012701196372
 30
0.0
  0
ENDBLK
  5
4B225D
330
4B2251
100
AcDbEntity
  8
0
100
AcDbBlockEnd
  0
BLOCK
  5
4B2274
330
4B2269
100
AcDbEntity
  8
0
100
AcDbBlockBegin
  2
*D4
 70
     1
 10
0.0
 20
0.0
 30
0.0
  3
*D4
  1

  0
LINE
  5
4B45C9
330
4B2269
100
AcDbEntity
  8
DIM
 62
     9
440
 16777216
370
    -2
100
AcDbLine
 10
12.0453191275233
 20
2.457012706251803
 30
0.0
 11
14.54320644817793
 21
2.457012706251802
 31
0.0
  0
LINE
  5
4B45CA
330
4B2269
100
AcDbEntity
  8
DIM
 62
     9
440
 16777216
370
    -2
100
AcDbLine
 10
14.03631912752327
 20
4.724012701196328
 30
0.0
 11
14.54320644817793
 21
4.724012701196328
 31
0.0
  0
LINE
  5
4B45CB
330
4B2269
100
AcDbEntity
  8
DIM
 62
   112
440
 16777216
370
    -2
100
AcDbLine
 10
14.38320644817793
 20
2.707012706251802
 30
0.0
 11
14.38320644817793
 21
3.328363196904434
 31
0.0
  0
LINE
  5
4B45CC
330
4B2269
100
AcDbEntity
  8
DIM
 62
   112
440
 16777216
370
    -2
100
AcDbLine
 10
14.38320644817793
 20
4.474012701196328
 30
0.0
 11
14.38320644817793
 21
3.932172720713958
 31
0.0
  0
SOLID
  5
4B45CD
330
4B2269
100
AcDbEntity
  8
DIM
 62
   112
440
 16777216
100
AcDbTrace
 10
14.34153978151126
 20
2.707012706251802
 30
0.0
 11
14.42487311484459
 21
2.707012706251802
 31
0.0
 12
14.38320644817793
 22
2.457012706251802
 32
0.0
 13
14.38320644817793
 23
2.457012706251802
 33
0.0
  0
SOLID
  5
4B45CE
330
4B2269
100
AcDbEntity
  8
DIM
 62
   112
440
 16777216
100
AcDbTrace
 10
14.34153978151126
 20
4.474012701196328
 30
0.0
 11
14.4248731148446
 21
4.474012701196328
 31
0.0
 12
14.38320644817793
 22
4.724012701196328
 32
0.0
 13
14.38320644817793
 23
4.724012701196328
 33
0.0
  0
MTEXT
  5
4B45CF
330
4B2269
100
AcDbEntity
  8
DIM
440
 16777216
100
AcDbMText
 10
14.38320644817793
 20
3.630267958809199
 30
0.0
 40
0.16
 41
0.0
 46
0.0
 71
     5
 72
     1
  1
\A1;2 1/4"
  7
ROMANS
 73
     1
 44
1.0
  0
POINT
  5
4B45D0
330
4B2269
100
AcDbEntity
  8
DEFPOINTS
 62
     0
440
 16777216
100
AcDbPoint
 10
11.9553191275233
 20
2.457012706251803
 30
0.0
  0
POINT
  5
4B45D1
330
4B2269
100
AcDbEntity
  8
DEFPOINTS
 62
     0
440
 16777216
100
AcDbPoint
 10
13.94631912752327
 20
4.724012701196329
 30
0.0
  0
POINT
  5
4B45D2
330
4B2269
100
AcDbEntity
  8
DEFPOINTS
 62
     0
440
 16777216
100
AcDbPoint
 10
14.38320644817793
 20
4.724012701196328
 30
0.0
  0
ENDBLK
  5
4B2275
330
4B2269
100
AcDbEntity
  8
0
100
AcDbBlockEnd
  0
BLOCK
  5
4B37C1
330
4B37C0
100
AcDbEntity
  8
0
100
AcDbBlockBegin
  2
*U5
 70
     1
 10
0.0
 20
0.0
 30
0.0
  3
*U5
  1

  0
ENDBLK
  5
4B37C2
330
4B37C0
100
AcDbEntity
  8
0
100
AcDbBlockEnd
  0
BLOCK
  5
4B3813
330
4B3811
100
AcDbEntity
  8
0
100
AcDbBlockBegin
  2
GENAXEH
 70
     0
 10
0.0
 20
0.0
 30
0.0
  3
GENAXEH
  1

  0
LINE
  5
4B3812
330
4B3811
100
AcDbEntity
  8
0
100
AcDbLine
 10
-1.0
 20
0.0
 30
0.0
 11
1.0
 21
0.0
 31
0.0
  0
ENDBLK
  5
4B3814
330
4B3811
100
AcDbEntity
  8
0
100
AcDbBlockEnd
  0
BLOCK
  5
4B3831
330
4B382B
100
AcDbEntity
  8
0
100
AcDbBlockBegin
  2
Glazing Bead
 70
     0
 10
0.0
 20
0.0
 30
0.0
  3
Glazing Bead
  1

  0
LWPOLYLINE
  5
4B382C
330
4B382B
100
AcDbEntity
  8
10
100
AcDbPolyline
 90
        6
 70
     0
 43
0.0
 10
-0.0980000000000412
 20
0.4497426842885677
 10
-0.0089808830642339
 20
0.6459625239750136
 42
-0.0522813753986091
 10
-0.0037468705670523
 20
0.6549815899243097
 42
0.577370775527271
 10
-0.0174245326643847
 20
0.6858638190480573
 42
0.2998307703621348
 10
-0.0320958779425364
 20
0.6783008097000085
 10
-0.0980000000000301
 20
0.5629999999999278
  0
LWPOLYLINE
  5
4B382D
330
4B382B
100
AcDbEntity
  8
10
100
AcDbPolyline
 90
       33
 70
     1
 43
0.0
 10
-0.5895601124111863
 20
-0.2641177143234383
 10
-0.5785111126056904
 20
-0.222882285676512
 42
0.4931454260312981
 10
-0.5930000000000262
 20
-0.203999999999974
 10
-0.6810000000000272
 20
-0.203999999999974
 42
-0.4142135623730951
 10
-0.6960000000000277
 20
-0.1889999999999734
 10
-0.6960000000000277
 20
0.548000000000025
 42
-0.4142135623730951
 10
-0.6660000000000266
 20
0.5780000000000225
 10
-0.0980000000000288
 20
0.5780000000000225
 10
-0.0980000000000856
 20
-0.0169999999999799
 42
-0.4142135623730795
 10
-0.1280000000000867
 20
-0.0469999999999775
 10
-0.2090000000000258
 20
-0.0469999999999775
 42
0.4142135623730951
 10
-0.2240000000000264
 20
-0.0619999999999781
 10
-0.2240000000000264
 20
-0.1889999999999734
 42
0.4142135623730951
 10
-0.2090000000000258
 20
-0.203999999999974
 10
-0.1065000000000267
 20
-0.2039999999999775
 42
-0.9999999999999998
 10
-0.1065000000000267
 20
-0.2829999999999746
 10
-0.2730000000000259
 20
-0.2829999999999746
 42
-0.4142135623730951
 10
-0.3030000000000252
 20
-0.252999999999977
 10
-0.303000000000027
 20
0.002000000000022
 42
-0.4142135623730951
 10
-0.2730000000000259
 20
0.0320000000000231
 10
-0.1920000000000512
 20
0.0320000000000196
 42
0.4142135623730951
 10
-0.1770000000000507
 20
0.0470000000000201
 10
-0.1770000000000507
 20
0.4840000000000213
 42
0.4142135623730951
 10
-0.1920000000000512
 20
0.4990000000000219
 10
-0.6020000000000266
 20
0.4990000000000219
 42
0.4142135623730951
 10
-0.6170000000000253
 20
0.4840000000000249
 10
-0.6170000000000271
 20
-0.1099999999999728
 42
0.4142135623730951
 10
-0.6020000000000266
 20
-0.1249999999999733
 10
-0.5290000000000262
 20
-0.1249999999999733
 42
-0.4142135623730951
 10
-0.499000000000025
 20
-0.1549999999999745
 10
-0.499000000000025
 20
-0.2679999999999776
 42
-0.4142135623730951
 10
-0.5140000000000256
 20
-0.2829999999999781
 10
-0.5750712250168504
 20
-0.2829999999999746
 42
-0.4931454260313336
  0
ARC
  5
4B382E
330
4B382B
100
AcDbEntity
  8
10
 48
0.25
100
AcDbCircle
 10
-0.075000000000061
 20
0.3020000000000227
 30
0.0
 40
0.0749999999999993
100
AcDbArc
 50
252.1415373015901
 51
107.8584626983988
  0
ENDBLK
  5
4B3832
330
4B382B
100
AcDbEntity
  8
0
100
AcDbBlockEnd
  0
BLOCK
  5
4B3883
330
4B387A
100
AcDbEntity
  8
0
100
AcDbBlockBegin
  2
Reinforced Bytyl Spacer
 70
     0
 10
0.0
 20
0.0
 30
0.0
  3
Reinforced Bytyl Spacer
  1

  0
HATCH
  5
4B387B
330
4B387A
100
AcDbEntity
  8
THIN
100
AcDbHatch
 10
0.0
 20
0.0
 30
0.0
210
0.0
220
0.0
230
1.0
  2
DOTS
 70
     0
 71
     1
 91
        1
 92
        7
 72
     0
 73
     1
 93
        4
 10
0.1562500000000382
 20
-0.0000000000000142
 10
0.0312500000000382
 20
-0.0000000000000142
 10
0.0312500000000382
 20
-0.6250000000000142
 10
0.1562500000000382
 20
-0.6250000000000142
 97
        1
330
4B387C
 75
     0
 76
     1
 52
90.0
 41
0.5
 77
     0
 78
     1
 53
90.0
 43
-3.611312044416422
 44
-5.060374581297608
 45
-0.03125
 46
0.015625
 79
     2
 49
0.0
 49
-0.03125
 47
0.0011899997355916
 98
        1
 10
0.1072450513476761
 20
-0.3381182195231638
  0
LWPOLYLINE
  5
4B387C
102
{ACAD_REACTORS
330
4B387B
330
4B3880
102
}
330
4B387A
100
AcDbEntity
  8
THIN
100
AcDbPolyline
 90
        4
 70
     1
 43
0.0
 10
0.0312500000000382
 20
-0.6250000000000142
 10
0.0312500000000382
 20
-0.0000000000000142
 10
0.1562500000000382
 20
-0.0000000000000142
 10
0.1562500000000382
 20
-0.6250000000000142
  0
HATCH
  5
4B387D
330
4B387A
100
AcDbEntity
  8
THIN
100
AcDbHatch
 10
0.0
 20
0.0
 30
0.0
210
0.0
220
0.0
230
1.0
  2
DOTS
 70
     0
 71
     1
 91
        1
 92
        7
 72
     0
 73
     1
 93
        4
 10
0.3925000000000391
 20
-0.6250000000000142
 10
0.4375000000000391
 20
-0.6250000000000142
 10
0.4375000000000382
 20
-0.0000000000000151
 10
0.3925000000000382
 20
-0.000000000000016
 97
        2
330
4B387E
330
4B387F
 75
     0
 76
     1
 52
90.0
 41
0.75
 77
     0
 78
     1
 53
90.0
 43
-3.611312044416422
 44
-5.060374581297608
 45
-0.046875
 46
0.0234375
 79
     2
 49
0.0
 49
-0.046875
 47
0.0016662947622985
 98
        1
 10
0.4139673496542083
 20
-0.5128218251640391
  0
LWPOLYLINE
  5
4B387E
102
{ACAD_REACTORS
330
4B387D
330
4B3880
102
}
330
4B387A
100
AcDbEntity
  8
THIN
100
AcDbPolyline
 90
        2
 70
     0
 43
0.0
 10
0.3925000000000382
 20
-0.0000000000000142
 10
0.3925000000000382
 20
-0.6250000000000142
  0
LWPOLYLINE
  5
4B387F
102
{ACAD_REACTORS
330
4B387D
330
4B3880
102
}
330
4B387A
100
AcDbEntity
  8
THIN
100
AcDbPolyline
 90
        4
 70
     0
 43
0.0
 10
0.1562500000000382
 20
-0.0000000000000142
 10
0.4375000000000382
 20
-0.0000000000000142
 10
0.4375000000000382
 20
-0.6250000000000142
 10
0.1562500000000382
 20
-0.6250000000000142
  0
HATCH
  5
4B3880
330
4B387A
100
AcDbEntity
  8
THIN
100
AcDbHatch
 10
0.0
 20
0.0
 30
0.0
210
0.0
220
0.0
230
1.0
  2
DOTS
 70
     0
 71
     1
 91
        2
 92
        7
 72
     0
 73
     1
 93
        4
 10
0.1562500000000386
 20
-0.6250000000000134
 10
0.3925000000000382
 20
-0.6250000000000142
 10
0.3925000000000391
 20
-0.0000000000000151
 10
0.1562500000000377
 20
-0.0000000000000133
 97
        3
330
4B387C
330
4B387F
330
4B387E
 92
       22
 72
     0
 73
     1
 93
        4
 10
0.2918750000000379
 20
-0.0075000000000136
 10
0.3018750000000385
 20
-0.0075000000000136
 10
0.3018750000000372
 20
-0.617500000000014
 10
0.2918750000000383
 20
-0.617500000000014
 97
        1
330
4B3881
 75
     0
 76
     1
 52
90.0
 41
0.25
 77
     0
 78
     1
 53
90.0
 43
-3.611312044416422
 44
-5.060374581297608
 45
-0.015625
 46
0.0078125
 79
     2
 49
0.0
 49
-0.015625
 47
0.0011899997355916
 98
        2
 10
0.2000650292932997
 20
-0.3154905681298565
 10
0.2000650292932997
 20
-0.3154905681298565
  0
LWPOLYLINE
  5
4B3881
102
{ACAD_REACTORS
330
4B3880
102
}
330
4B387A
100
AcDbEntity
  8
THIN
100
AcDbPolyline
 90
        4
 70
     1
 43
0.0
 10
0.3018750000000381
 20
-0.617500000000014
 10
0.3018750000000381
 20
-0.0075000000000136
 10
0.2918750000000383
 20
-0.0075000000000136
 10
0.2918750000000383
 20
-0.617500000000014
  0
LINE
  5
4B3882
330
4B387A
100
AcDbEntity
  8
THIN
100
AcDbLine
 10
0.1562500000000382
 20
-0.0000000000000142
 30
0.0
 11
0.1562500000000382
 21
-0.6250000000000142
 31
0.0
  0
ENDBLK
  5
4B3884
330
4B387A
100
AcDbEntity
  8
0
100
AcDbBlockEnd
  0
BLOCK
  5
4B388E
330
4B388A
100
AcDbEntity
  8
0
100
AcDbBlockBegin
  2
Weather Seal
 70
     0
 10
0.0
 20
0.0
 30
0.0
  3
Weather Seal
  1

  0
LWPOLYLINE
  5
4B388B
330
4B388A
100
AcDbEntity
  8
10
100
AcDbPolyline
 90
        8
 70
     0
 43
0.0
 10
-0.2140040708706117
 20
-0.0700547851418496
 42
0.2308365435434813
 10
-0.1014570656801901
 20
0.0
 10
-0.0313972213123126
 20
0.0000000000000004
 10
-0.0722456559543829
 20
-0.048469460869498
 42
-0.2169055378432189
 10
-0.1846107348229395
 20
-0.10200000000009
 10
-0.2331996891443744
 20
-0.1020000000000873
 42
-0.9441104267323005
 10
-0.2343217948658616
 20
-0.0720693186292443
 10
-0.2130040708706762
 20
-0.0700547851418425
  0
ENDBLK
  5
4B388F
330
4B388A
100
AcDbEntity
  8
0
100
AcDbBlockEnd
  0
BLOCK
  5
4B389C
330
4B3897
100
AcDbEntity
  8
0
100
AcDbBlockBegin
  2
Silicon Horizontal Small
 70
     0
 10
0.0
 20
0.0
 30
0.0
  3
Silicon Horizontal Small
  1

  0
HATCH
  5
4B3898
330
4B3897
100
AcDbEntity
  8
3
100
AcDbHatch
 10
0.0
 20
0.0
 30
0.0
210
0.0
220
0.0
230
1.0
  2
ANSI31
 70
     0
 71
     0
 91
        1
 92
        1
 93
       67
 72
     2
 10
0.0660000000000194
 20
0.06600000000003
 40
0.0660000000000167
 50
90.0
 51
270.0
 73
     0
 72
     1
 10
0.0660000000000194
 20
0.1320000000000467
 11
0.2152499999999859
 21
0.1320000000000467
 72
     1
 10
0.2152499999999859
 20
0.1320000000000467
 11
0.2184884665055966
 21
0.1319205001095876
 72
     1
 10
0.2184884665055966
 20
0.1319205001095876
 11
0.2217191312617386
 21
0.1316821919604116
 72
     1
 10
0.2217191312617386
 20
0.1316821919604116
 11
0.224934211314042
 21
0.1312856496577224
 72
     1
 10
0.224934211314042
 20
0.1312856496577224
 11
0.2281259612530535
 21
0.1307318285066596
 72
     1
 10
0.2281259612530535
 20
0.1307318285066596
 11
0.2312866918736054
 21
0.1300220627108866
 72
     1
 10
0.2312866918736054
 20
0.1300220627108866
 11
0.2344087886987856
 21
0.1291580621583721
 72
     1
 10
0.2344087886987856
 20
0.1291580621583721
 11
0.2374847303238772
 21
0.1281419083021245
 72
     1
 10
0.2374847303238772
 20
0.1281419083021245
 11
0.2405071065360884
 21
0.1269760491457896
 72
     1
 10
0.2405071065360884
 20
0.1269760491457896
 11
0.2434686361663916
 21
0.1256632933461921
 72
     1
 10
0.2434686361663916
 20
0.1256632933461921
 11
0.2463621846305104
 21
0.124206803447036
 72
     1
 10
0.2463621846305104
 20
0.124206803447036
 11
0.2491807811167463
 21
0.1226100882600622
 72
     1
 10
0.2491807811167463
 20
0.1226100882600622
 11
0.2519176353792885
 21
0.1208769944120114
 72
     1
 10
0.2519176353792885
 20
0.1208769944120114
 11
0.254566154096497
 21
0.1190116970777657
 72
     1
 10
0.254566154096497
 20
0.1190116970777657
 11
0.2571199567547984
 21
0.1170186899219834
 72
     1
 10
0.2571199567547984
 20
0.1170186899219834
 11
0.2595728910199009
 21
0.1149027742734692
 72
     1
 10
0.2595728910199009
 20
0.1149027742734692
 11
0.2619190475583091
 21
0.112669047558354
 72
     1
 10
0.2619190475583091
 20
0.112669047558354
 11
0.264152774273426
 21
0.1103228910199441
 72
     1
 10
0.264152774273426
 20
0.1103228910199441
 11
0.2662686899219393
 21
0.1078699567548407
 72
     1
 10
0.2662686899219393
 20
0.1078699567548407
 11
0.2682616970777216
 21
0.1053161540965402
 72
     1
 10
0.2682616970777216
 20
0.1053161540965402
 11
0.2701269944119664
 21
0.1026676353793325
 72
     1
 10
0.2701269944119664
 20
0.1026676353793325
 11
0.2718600882600173
 21
0.0999307811167913
 72
     1
 10
0.2718600882600173
 20
0.0999307811167913
 11
0.2734568034469929
 21
0.0971121846305536
 72
     1
 10
0.2734568034469929
 20
0.0971121846305536
 11
0.2749132933461498
 21
0.0942186361664357
 72
     1
 10
0.2749132933461498
 20
0.0942186361664357
 11
0.2762260491457473
 21
0.0912571065361316
 72
     1
 10
0.2762260491457473
 20
0.0912571065361316
 11
0.2773919083020813
 21
0.0882347303239213
 72
     1
 10
0.2773919083020813
 20
0.0882347303239213
 11
0.278408062158328
 21
0.0851587886988288
 72
     1
 10
0.278408062158328
 20
0.0851587886988288
 11
0.2792720627108425
 21
0.0820366918736495
 72
     1
 10
0.2792720627108425
 20
0.0820366918736495
 11
0.2799818285066147
 21
0.0788759612530967
 72
     1
 10
0.2799818285066147
 20
0.0788759612530967
 11
0.2805356496576783
 21
0.0756842113140861
 72
     1
 10
0.2805356496576783
 20
0.0756842113140861
 11
0.2809321919603667
 21
0.0724691312617818
 72
     1
 10
0.2809321919603667
 20
0.0724691312617818
 11
0.2811705001095435
 21
0.0692384665056398
 72
     1
 10
0.2811705001095435
 20
0.0692384665056398
 11
0.2812500000000027
 21
0.06600000000003
 72
     1
 10
0.2812500000000027
 20
0.06600000000003
 11
0.2811705001095452
 21
0.0627615334944194
 72
     1
 10
0.2811705001095452
 20
0.0627615334944194
 11
0.2809321919603667
 21
0.0595308687382765
 72
     1
 10
0.2809321919603667
 20
0.0595308687382765
 11
0.2805356496576783
 21
0.0563157886859731
 72
     1
 10
0.2805356496576783
 20
0.0563157886859731
 11
0.2799818285066147
 21
0.0531240387469616
 72
     1
 10
0.2799818285066147
 20
0.0531240387469616
 11
0.2792720627108425
 21
0.0499633081264097
 72
     1
 10
0.2792720627108425
 20
0.0499633081264097
 11
0.2784080621583262
 21
0.0468412113012304
 72
     1
 10
0.2784080621583262
 20
0.0468412113012304
 11
0.2773919083020813
 21
0.043765269676137
 72
     1
 10
0.2773919083020813
 20
0.043765269676137
 11
0.2762260491457473
 21
0.0407428934639267
 72
     1
 10
0.2762260491457473
 20
0.0407428934639267
 11
0.274913293346148
 21
0.0377813638336235
 72
     1
 10
0.274913293346148
 20
0.0377813638336235
 11
0.2734568034469911
 21
0.0348878153695065
 72
     1
 10
0.2734568034469911
 20
0.0348878153695065
 11
0.2718600882600191
 21
0.0320692188832688
 72
     1
 10
0.2718600882600191
 20
0.0320692188832688
 11
0.2701269944119682
 21
0.0293323646207266
 72
     1
 10
0.2701269944119682
 20
0.0293323646207266
 11
0.2682616970777216
 21
0.026683845903519
 72
     1
 10
0.2682616970777216
 20
0.026683845903519
 11
0.2662686899219393
 21
0.0241300432452185
 72
     1
 10
0.2662686899219393
 20
0.0241300432452185
 11
0.2641527742734242
 21
0.0216771089801151
 72
     1
 10
0.2641527742734242
 20
0.0216771089801151
 11
0.2619190475583109
 21
0.019330952441706
 72
     1
 10
0.2619190475583109
 20
0.019330952441706
 11
0.2595728910198991
 21
0.01709722572659
 72
     1
 10
0.2595728910198991
 20
0.01709722572659
 11
0.2571199567547984
 21
0.0149813100780758
 72
     1
 10
0.2571199567547984
 20
0.0149813100780758
 11
0.254566154096497
 21
0.0129883029222935
 72
     1
 10
0.254566154096497
 20
0.0129883029222935
 11
0.2519176353792902
 21
0.0111230055880478
 72
     1
 10
0.2519176353792902
 20
0.0111230055880478
 11
0.2491807811167481
 21
0.0093899117399978
 72
     1
 10
0.2491807811167481
 20
0.0093899117399978
 11
0.2463621846305086
 21
0.007793196553024
 72
     1
 10
0.2463621846305086
 20
0.007793196553024
 11
0.2434686361663916
 21
0.006336706653868
 72
     1
 10
0.2434686361663916
 20
0.006336706653868
 11
0.2405071065360884
 21
0.0050239508542695
 72
     1
 10
0.2405071065360884
 20
0.0050239508542695
 11
0.2374847303238772
 21
0.0038580916979356
 72
     1
 10
0.2374847303238772
 20
0.0038580916979356
 11
0.2344087886987838
 21
0.002841937841688
 72
     1
 10
0.2344087886987838
 20
0.002841937841688
 11
0.2312866918736054
 21
0.0019779372891735
 72
     1
 10
0.2312866918736054
 20
0.0019779372891735
 11
0.2281259612530535
 21
0.0012681714934004
 72
     1
 10
0.2281259612530535
 20
0.0012681714934004
 11
0.224934211314042
 21
0.0007143503423377
 72
     1
 10
0.224934211314042
 20
0.0007143503423377
 11
0.2217191312617386
 21
0.0003178080396475
 72
     1
 10
0.2217191312617386
 20
0.0003178080396475
 11
0.2184884665055966
 21
0.0000794998904725
 72
     1
 10
0.2184884665055966
 20
0.0000794998904725
 11
0.2152499999999859
 21
0.0000000000000133
 72
     1
 10
0.2152499999999859
 20
0.0000000000000133
 11
0.0660000000000194
 21
0.0000000000000133
 97
        0
 75
     0
 76
     1
 52
0.0
 41
0.25
 77
     0
 78
     1
 53
45.0
 43
-8.14017173921723
 44
-8.193344402733142
 45
-0.0220970869120796
 46
0.0220970869120796
 79
     0
 98
        1
 10
10.49505695906111
 20
-4.856956167588923
1001
ACAD
1010
0.0
1020
0.0
1030
0.0
  0
LWPOLYLINE
  5
4B3899
330
4B3897
100
AcDbEntity
  8
THIN
100
AcDbPolyline
 90
        4
 70
     1
 43
0.0
 10
0.2152499999999859
 20
0.0000000000000133
 10
0.0660000000000194
 20
0.0000000000000133
 42
-0.9999999999999998
 10
0.0660000000000194
 20
0.1320000000000467
 10
0.2152499999999859
 20
0.1320000000000467
 42
-0.9999999999999998
  0
ENDBLK
  5
4B389D
330
4B3897
100
AcDbEntity
  8
0
100
AcDbBlockEnd
  0
BLOCK
  5
4B38D0
330
4B38CB
100
AcDbEntity
  8
0
100
AcDbBlockBegin
  2
Silicon Vertical Bottom
 70
     0
 10
0.0
 20
0.0
 30
0.0
  3
Silicon Vertical Bottom
  1

  0
HATCH
  5
4B38CC
330
4B38CB
100
AcDbEntity
  8
3
100
AcDbHatch
 10
0.0
 20
0.0
 30
0.0
210
0.0
220
0.0
230
1.0
  2
ANSI31
 70
     0
 71
     1
 91
        1
 92
        7
 72
     1
 73
     1
 93
        4
 10
-0.0000000000000009
 20
0.3089999999999904
 42
1.0
 10
-0.1320000000000343
 20
0.3089999999999904
 42
0.0
 10
-0.1320000000000343
 20
0.1285000000000238
 42
1.0
 10
-0.0000000000000009
 20
0.1285000000000238
 42
0.0
 97
        1
330
4B38CD
 75
     0
 76
     1
 52
90.0
 41
0.25
 77
     0
 78
     1
 53
135.0
 43
8.193344402733156
 44
-8.046421739217223
 45
-0.0220970869120796
 46
-0.0220970869120796
 79
     0
 47
0.0013387605417888
 98
        1
 10
-0.0624891598898119
 20
0.2248641427243712
1001
ACAD
1010
0.0
1020
0.0
1030
0.0
  0
LWPOLYLINE
  5
4B38CD
102
{ACAD_REACTORS
330
4B38CC
102
}
330
4B38CB
100
AcDbEntity
  8
THIN
100
AcDbPolyline
 90
        4
 70
     1
 43
0.0
 10
-0.1320000000000343
 20
0.3089999999999904
 10
-0.1320000000000343
 20
0.1285000000000238
 42
0.9999999999999998
 10
-0.0000000000000009
 20
0.1285000000000238
 10
-0.0000000000000009
 20
0.3089999999999904
 42
0.9999999999999998
  0
ENDBLK
  5
4B38D1
330
4B38CB
100
AcDbEntity
  8
0
100
AcDbBlockEnd
  0
BLOCK
  5
4B38DD
330
4B38D8
100
AcDbEntity
  8
0
100
AcDbBlockBegin
  2
Silicon Small Vertical Top
 70
     0
 10
0.0
 20
0.0
 30
0.0
  3
Silicon Small Vertical Top
  1

  0
HATCH
  5
4B38D9
330
4B38D8
100
AcDbEntity
  8
3
100
AcDbHatch
 10
0.0
 20
0.0
 30
0.0
210
0.0
220
0.0
230
1.0
  2
ANSI31
 70
     0
 71
     0
 91
        1
 92
        1
 93
       67
 72
     2
 10
0.0660000000000176
 20
-0.1214999999999833
 40
0.0660000000000167
 50
180.0
 51
360.0
 73
     1
 72
     1
 10
0.1320000000000343
 20
-0.1214999999999833
 11
0.1320000000000343
 21
-0.0660000000000167
 72
     1
 10
0.1320000000000343
 20
-0.0660000000000167
 11
0.1319205001095756
 21
-0.0627615334944061
 72
     1
 10
0.1319205001095756
 20
-0.0627615334944061
 11
0.1316821919603992
 21
-0.0595308687382641
 72
     1
 10
0.1316821919603992
 20
-0.0595308687382641
 11
0.1312856496577095
 21
-0.0563157886859607
 72
     1
 10
0.1312856496577095
 20
-0.0563157886859607
 11
0.1307318285066468
 21
-0.0531240387469509
 72
     1
 10
0.1307318285066468
 20
-0.0531240387469509
 11
0.1300220627108732
 21
-0.0499633081263973
 72
     1
 10
0.1300220627108732
 20
-0.0499633081263973
 11
0.1291580621583588
 21
-0.0468412113012171
 72
     1
 10
0.1291580621583588
 20
-0.0468412113012171
 11
0.128141908302112
 21
-0.0437652696761219
 72
     1
 10
0.128141908302112
 20
-0.0437652696761219
 11
0.1269760491457772
 21
-0.0407428934639143
 72
     1
 10
0.1269760491457772
 20
-0.0407428934639143
 11
0.1256632933461792
 21
-0.0377813638336093
 72
     1
 10
0.1256632933461792
 20
-0.0377813638336093
 11
0.1242068034470227
 21
-0.034887815369494
 72
     1
 10
0.1242068034470227
 20
-0.034887815369494
 11
0.1226100882600489
 21
-0.0320692188832545
 72
     1
 10
0.1226100882600489
 20
-0.0320692188832545
 11
0.1208769944119985
 21
-0.0293323646207107
 72
     1
 10
0.1208769944119985
 20
-0.0293323646207107
 11
0.1190116970777528
 21
-0.0266838459035057
 72
     1
 10
0.1190116970777528
 20
-0.0266838459035057
 11
0.1170186899219701
 21
-0.0241300432452079
 72
     1
 10
0.1170186899219701
 20
-0.0241300432452079
 11
0.1149027742734563
 21
-0.0216771089801036
 72
     1
 10
0.1149027742734563
 20
-0.0216771089801036
 11
0.1126690475583398
 21
-0.0193309524416918
 72
     1
 10
0.1126690475583398
 20
-0.0193309524416918
 11
0.1103228910199303
 21
-0.0170972257265767
 72
     1
 10
0.1103228910199303
 20
-0.0170972257265767
 11
0.1078699567548274
 21
-0.0149813100780634
 72
     1
 10
0.1078699567548274
 20
-0.0149813100780634
 11
0.1053161540965264
 21
-0.0129883029222811
 72
     1
 10
0.1053161540965264
 20
-0.0129883029222811
 11
0.1026676353793188
 21
-0.0111230055880327
 72
     1
 10
0.1026676353793188
 20
-0.0111230055880327
 11
0.0999307811167771
 21
-0.0093899117399836
 72
     1
 10
0.0999307811167771
 20
-0.0093899117399836
 11
0.0971121846305394
 21
-0.0077931965530098
 72
     1
 10
0.0971121846305394
 20
-0.0077931965530098
 11
0.0942186361664219
 21
-0.0063367066538511
 72
     1
 10
0.0942186361664219
 20
-0.0063367066538511
 11
0.0912571065361183
 21
-0.0050239508542553
 72
     1
 10
0.0912571065361183
 20
-0.0050239508542553
 11
0.088234730323908
 21
-0.0038580916979214
 72
     1
 10
0.088234730323908
 20
-0.0038580916979214
 11
0.085158788698815
 21
-0.0028419378416764
 72
     1
 10
0.085158788698815
 20
-0.0028419378416764
 11
0.0820366918736348
 21
-0.001977937289162
 72
     1
 10
0.0820366918736348
 20
-0.001977937289162
 11
0.0788759612530834
 21
-0.0012681714933862
 72
     1
 10
0.0788759612530834
 20
-0.0012681714933862
 11
0.0756842113140719
 21
-0.0007143503423244
 72
     1
 10
0.0756842113140719
 20
-0.0007143503423244
 11
0.0724691312617685
 21
-0.000317808039636
 72
     1
 10
0.0724691312617685
 20
-0.000317808039636
 11
0.0692384665056261
 21
-0.0000794998904574
 72
     1
 10
0.0692384665056261
 20
-0.0000794998904574
 11
0.0660000000000158
 21
0.0
 72
     1
 10
0.0660000000000158
 20
0.0
 11
0.0627615334944052
 21
-0.0000794998904574
 72
     1
 10
0.0627615334944052
 20
-0.0000794998904574
 11
0.0595308687382632
 21
-0.000317808039636
 72
     1
 10
0.0595308687382632
 20
-0.000317808039636
 11
0.0563157886859593
 21
-0.0007143503423244
 72
     1
 10
0.0563157886859593
 20
-0.0007143503423244
 11
0.0531240387469483
 21
-0.0012681714933898
 72
     1
 10
0.0531240387469483
 20
-0.0012681714933898
 11
0.0499633081263959
 21
-0.001977937289162
 72
     1
 10
0.0499633081263959
 20
-0.001977937289162
 11
0.0468412113012167
 21
-0.0028419378416764
 72
     1
 10
0.0468412113012167
 20
-0.0028419378416764
 11
0.0437652696761237
 21
-0.0038580916979214
 72
     1
 10
0.0437652696761237
 20
-0.0038580916979214
 11
0.0407428934639134
 21
-0.0050239508542553
 72
     1
 10
0.0407428934639134
 20
-0.0050239508542553
 11
0.0377813638336102
 21
-0.0063367066538547
 72
     1
 10
0.0377813638336102
 20
-0.0063367066538547
 11
0.0348878153694923
 21
-0.0077931965530098
 72
     1
 10
0.0348878153694923
 20
-0.0077931965530098
 11
0.0320692188832545
 21
-0.0093899117399836
 72
     1
 10
0.0320692188832545
 20
-0.0093899117399836
 11
0.0293323646207129
 21
-0.0111230055880363
 72
     1
 10
0.0293323646207129
 20
-0.0111230055880363
 11
0.0266838459035053
 21
-0.0129883029222811
 72
     1
 10
0.0266838459035053
 20
-0.0129883029222811
 11
0.0241300432452047
 21
-0.0149813100780634
 72
     1
 10
0.0241300432452047
 20
-0.0149813100780634
 11
0.0216771089801018
 21
-0.0170972257265767
 72
     1
 10
0.0216771089801018
 20
-0.0170972257265767
 11
0.0193309524416927
 21
-0.0193309524416918
 72
     1
 10
0.0193309524416927
 20
-0.0193309524416918
 11
0.0170972257265767
 21
-0.0216771089801036
 72
     1
 10
0.0170972257265767
 20
-0.0216771089801036
 11
0.0149813100780629
 21
-0.0241300432452043
 72
     1
 10
0.0149813100780629
 20
-0.0241300432452043
 11
0.0129883029222806
 21
-0.0266838459035057
 72
     1
 10
0.0129883029222806
 20
-0.0266838459035057
 11
0.0111230055880349
 21
-0.0293323646207142
 72
     1
 10
0.0111230055880349
 20
-0.0293323646207142
 11
0.0093899117399845
 21
-0.0320692188832545
 72
     1
 10
0.0093899117399845
 20
-0.0320692188832545
 11
0.0077931965530107
 21
-0.034887815369494
 72
     1
 10
0.0077931965530107
 20
-0.034887815369494
 11
0.0063367066538547
 21
-0.0377813638336093
 72
     1
 10
0.0063367066538547
 20
-0.0377813638336093
 11
0.0050239508542567
 21
-0.0407428934639143
 72
     1
 10
0.0050239508542567
 20
-0.0407428934639143
 11
0.0038580916979218
 21
-0.0437652696761219
 72
     1
 10
0.0038580916979218
 20
-0.0437652696761219
 11
0.0028419378416751
 21
-0.0468412113012171
 72
     1
 10
0.0028419378416751
 20
-0.0468412113012171
 11
0.0019779372891611
 21
-0.0499633081263973
 72
     1
 10
0.0019779372891611
 20
-0.0499633081263973
 11
0.0012681714933875
 21
-0.0531240387469509
 72
     1
 10
0.0012681714933875
 20
-0.0531240387469509
 11
0.0007143503423253
 21
-0.0563157886859607
 72
     1
 10
0.0007143503423253
 20
-0.0563157886859607
 11
0.000317808039636
 21
-0.0595308687382641
 72
     1
 10
0.000317808039636
 20
-0.0595308687382641
 11
0.0000794998904596
 21
-0.0627615334944061
 72
     1
 10
0.0000794998904596
 20
-0.0627615334944061
 11
0.0000000000000009
 21
-0.0660000000000167
 72
     1
 10
0.0000000000000009
 20
-0.0660000000000167
 11
0.0000000000000009
 21
-0.1214999999999833
 97
        0
 75
     0
 76
     1
 52
90.0
 41
0.25
 77
     0
 78
     1
 53
315.0
 43
-8.193344402733156
 44
8.108921739217226
 45
0.0220970869120796
 46
0.0220970869120796
 79
     0
 98
        1
 10
-3.134168425386246
 20
-17.9142790158413
1001
ACAD
1010
0.0
1020
0.0
1030
0.0
  0
LWPOLYLINE
  5
4B38DA
330
4B38D8
100
AcDbEntity
  8
THIN
100
AcDbPolyline
 90
        4
 70
     1
 43
0.0
 10
0.1320000000000343
 20
-0.1214999999999833
 10
0.1320000000000343
 20
-0.0660000000000167
 42
0.9999999999999998
 10
0.0000000000000009
 20
-0.0660000000000167
 10
0.0000000000000009
 20
-0.1214999999999833
 42
0.9999999999999998
  0
ENDBLK
  5
4B38DE
330
4B38D8
100
AcDbEntity
  8
0
100
AcDbBlockEnd
  0
BLOCK
  5
4B427F
330
4B427C
100
AcDbEntity
  8
0
100
AcDbBlockBegin
  2
B4823 small offset flat casing
 70
     0
 10
0.0
 20
0.0
 30
0.0
  3
B4823 small offset flat casing
  1

  0
LWPOLYLINE
  5
4B4280
330
4B427C
100
AcDbEntity
  8
0
100
AcDbPolyline
 90
        8
 70
     1
 43
0.0
 10
-1.003000042119352
 20
0.1550000000000011
 42
-0.4142135623729563
 10
-0.9880000421193376
 20
0.1700000000000017
 10
-0.055000000000021
 20
0.1700000000000088
 42
-0.4142135623730951
 10
-0.0400000000000205
 20
0.1550000000000082
 10
-0.0400000000000205
 20
0.0849999999999991
 42
-0.4142135623730256
 10
-0.055000000000021
 20
0.0700000000000056
 10
-0.9880000421193376
 20
0.0699999999999985
 42
-0.4142135623732336
 10
-1.003000042119365
 20
0.0849999999999991
  0
LWPOLYLINE
  5
4B4281
330
4B427C
100
AcDbEntity
  8
0
100
AcDbPolyline
 90
        8
 70
     1
 43
0.0
 10
-2.356000000000006
 20
1.306000000000055
 42
-0.4142135623729561
 10
-2.341000000000021
 20
1.321000000000055
 10
-1.801000000000166
 20
1.321000000000041
 42
-0.4142135623730604
 10
-1.786000000000164
 20
1.30600000000004
 10
-1.786000000000164
 20
0.9350000000068874
 42
-0.4142135623730953
 10
-1.801000000000166
 20
0.920000000006885
 10
-2.340999999999993
 20
0.9200000000068866
 42
-0.4142135623729563
 10
-2.355999999999993
 20
0.9350000000069016
  0
LWPOLYLINE
  5
4B4282
330
4B427C
100
AcDbEntity
  8
0
100
AcDbPolyline
 90
        8
 70
     1
 43
0.0
 10
0.4840526532194076
 20
1.306785039343692
 42
0.3989595459737407
 10
0.4690732101980882
 20
1.321000000000049
 10
0.0449999999999831
 20
1.321000000000027
 42
0.4142135623731992
 10
0.0299999999999843
 20
1.306000000000021
 10
0.0300000000000864
 20
1.043000000000439
 42
0.4142135623733376
 10
0.045000000000087
 20
1.028000000000439
 10
0.4828564561495057
 20
1.028000000000502
 42
0.4296339059668246
 10
0.4978358991708234
 20
1.043785039344143
  0
LINE
  5
4B4283
330
4B427C
100
AcDbEntity
  8
THIN
100
AcDbLine
 10
0.5240000000000009
 20
0.9280000033753664
 30
0.0
 11
0.6197809453401675
 21
0.8972221650786663
 31
0.0
  0
ARC
  5
4B4284
330
4B427C
100
AcDbEntity
  8
THIN
100
AcDbCircle
 10
0.6233400399463564
 20
0.9043868594604449
 30
0.0
 40
0.008
100
AcDbArc
 50
243.5839018601615
 51
60.000000000001
  0
LINE
  5
4B4285
330
4B427C
100
AcDbEntity
  8
THIN
100
AcDbLine
 10
0.5739999999999981
 20
0.9280000033753664
 30
0.0
 11
0.6273400399463469
 21
0.9113150626907183
 31
0.0
  0
LWPOLYLINE
  5
4B4286
330
4B427C
100
AcDbEntity
  8
0
100
AcDbPolyline
 90
       28
 70
     1
 43
0.0
 10
-3.641000000000047
 20
-0.0149999999931065
 10
-1.801
 20
-0.0149999999931492
 42
0.4142135623731645
 10
-1.786
 20
0.0000000000068514
 10
-1.78600000000017
 20
0.8350000000069002
 42
0.4142135623730951
 10
-1.801000000000185
 20
0.8500000000068864
 10
-2.330999999999974
 20
0.8500000000068935
 42
0.4142135623733725
 10
-2.345999999999989
 20
0.8350000000068931
 10
-2.345999999999989
 20
0.8130000000069086
 42
-0.4142135623730256
 10
-2.360999999999989
 20
0.7980000000069083
 10
-2.395999999999984
 20
0.7980000000069083
 42
-0.4142135623730776
 10
-2.425999999999985
 20
0.8280000000069023
 10
-2.426000000000001
 20
1.361000000000045
 42
-0.4142135623731125
 10
-2.395999999999999
 20
1.391000000000047
 10
0.5212662613674013
 20
1.391000000000075
 42
-0.3989595459737314
 10
0.5512251474100367
 20
1.362570078687362
 10
0.5739999999999981
 20
0.9280000033753807
 10
0.5039039357801443
 20
0.9280000033753807
 10
0.5030766770991022
 20
0.943785039344192
 42
0.3989595459733684
 10
0.4880972340777845
 20
0.9580000000005457
 10
0.0449999999999875
 20
0.9580000000003323
 42
0.414213562372887
 10
0.0300000000000011
 20
0.9430000000003316
 10
0.0300000000000011
 20
0.0299999999999869
 42
-0.4142135623729735
 10
0.0
 20
0.0
 10
-1.700999999999991
 20
0.0
 42
0.4142135623730951
 10
-1.715999999999993
 20
-0.0150000000000006
 10
-1.716000000000006
 20
-0.0549999999931554
 42
-0.4142135623730605
 10
-1.746000000000007
 20
-0.0849999999931495
 10
-3.641000000000047
 20
-0.0849999999931068
 42
-0.9999999999999998
  0
LWPOLYLINE
  5
4B4287
330
4B427C
100
AcDbEntity
  8
0
100
AcDbPolyline
 90
       22
 70
     1
 43
0.0
 10
-1.71600000000002
 20
0.8450000000069033
 42
0.1195350615024158
 10
-1.724333333333475
 20
0.8793592135539203
 42
-0.1195350615024871
 10
-1.726000000000166
 20
0.8862310562633286
 10
-1.726000000000165
 20
1.076000000774999
 42
-0.4142135623731644
 10
-1.711000000000164
 20
1.091000000775
 10
-1.218999999999998
 20
1.091000000775004
 42
0.4142135623730416
 10
-1.144
 20
1.16600000077499
 10
-1.143999999999975
 20
1.306000000000027
 42
-0.4142135623733035
 10
-1.128999999999988
 20
1.321000000000027
 10
-0.0450000000000159
 20
1.321000000000055
 42
-0.4142135623729894
 10
-0.0300000000000162
 20
1.306000000000062
 10
-0.0299999999998946
 20
0.9942310562570073
 42
-0.119535061502954
 10
-0.0316666666665997
 20
0.9873592135475766
 42
0.1195350615029104
 10
-0.0400000000001004
 20
0.953000000000423
 10
-0.0399999999999494
 20
0.2550000000000097
 42
-0.4142135623730951
 10
-0.05499999999995
 20
0.2400000000000091
 10
-0.9980000421193675
 20
0.2399999999999949
 42
0.4142135623730118
 10
-1.073000042119367
 20
0.1650000000000151
 10
-1.073000042119387
 20
0.0850000000000009
 42
-0.4142135623733724
 10
-1.088000042119388
 20
0.0700000000000003
 10
-1.700999999999835
 20
0.0700000000000003
 42
-0.4142135623730259
 10
-1.715999999999835
 20
0.0850000000000009
  0
LWPOLYLINE
  5
4B4288
330
4B427C
100
AcDbEntity
  8
0
100
AcDbPolyline
 90
        8
 70
     1
 43
0.0
 10
-1.711000000000206
 20
1.321000000000053
 10
-1.399000000000014
 20
1.321000000000034
 42
-0.4142135623730951
 10
-1.384000000000012
 20
1.306000000000034
 10
-1.383999999999985
 20
1.166000000774998
 42
-0.4142135623730951
 10
-1.398999999999985
 20
1.151000000774998
 10
-1.711000000000164
 20
1.151000000775001
 42
-0.4142135623730429
 10
-1.726000000000165
 20
1.166000000775002
 10
-1.726000000000206
 20
1.306000000000044
 42
-0.4142135623731596
  0
LWPOLYLINE
  5
4B4289
330
4B427C
100
AcDbEntity
  8
0
100
AcDbPolyline
 90
       16
 70
     1
 43
0.0
 10
-1.30400000000001
 20
1.316000000000058
 42
-0.414213562373099
 10
-1.289
 20
1.301000000000057
 10
-1.289
 20
1.286000000774998
 42
0.4142135623730951
 10
-1.274
 20
1.271000000774997
 10
-1.254
 20
1.271000000774997
 42
0.4142135623730951
 10
-1.23900000000001
 20
1.286000000774998
 10
-1.23900000000001
 20
1.301000000000057
 42
-0.4142135623731213
 10
-1.224000000000001
 20
1.316000000000058
 10
-1.21900000000001
 20
1.316000000000054
 42
-0.4142135623730623
 10
-1.204000000000009
 20
1.301000000000057
 10
-1.204000000000001
 20
1.166000000775002
 42
-0.4142135623731289
 10
-1.21899999999999
 20
1.151000000774998
 10
-1.309
 20
1.151000000774998
 42
-0.4142135623730951
 10
-1.324
 20
1.166000000774998
 10
-1.324
 20
1.301000000000057
 42
-0.4142135623730935
 10
-1.309
 20
1.316000000000058
  0
ENDBLK
  5
4B428A
330
4B427C
100
AcDbEntity
  8
0
100
AcDbBlockEnd
  0
BLOCK
  5
4B448D
330
4B448C
100
AcDbEntity
  8
0
100
AcDbBlockBegin
  2
*U14
 70
     1
 10
0.0
 20
0.0
 30
0.0
  3
*U14
  1

  0
LWPOLYLINE
  5
4B4493
330
4B448C
100
AcDbEntity
  8
XTHIN
100
AcDbPolyline
 90
        4
 70
     1
 43
0.0
 10
0.0084759698492505
 20
0.0074552287097387
 42
1.000000000000093
 10
-0.0101538856719756
 20
0.0049316433123675
 10
-0.0084759698492647
 20
-0.0074552287097323
 42
0.9999999999999996
 10
0.0101538856719756
 20
-0.0049316433123597
  0
ENDBLK
  5
4B448E
330
4B448C
100
AcDbEntity
  8
0
100
AcDbBlockEnd
  0
BLOCK
  5
4B4490
330
4B448F
100
AcDbEntity
  8
0
100
AcDbBlockBegin
  2
*U15
 70
     1
 10
0.0
 20
0.0
 30
0.0
  3
*U15
  1

  0
INSERT
  5
4B44A2
330
4B448F
100
AcDbEntity
  8
THIN
  6
ByBlock
347
4B41E0
 62
     0
440
 16777216
370
    -2
380
     1
100
AcDbBlockReference
  2
*U14
 10
-0.6063211903270212
 20
2.124743121866479
 30
0.0
  0
INSERT
  5
4B44A3
330
4B448F
100
AcDbEntity
  8
THIN
  6
ByBlock
347
4B41E0
 62
     0
440
 16777216
370
    -2
380
     1
100
AcDbBlockReference
  2
*U14
 10
-0.7720514677358122
 20
2.910193774765451
 30
0.0
 50
10.28499999999993
  0
INSERT
  5
4B44A4
330
4B448F
100
AcDbEntity
  8
THIN
  6
ByBlock
347
4B41E0
 62
     0
440
 16777216
370
    -2
380
     1
100
AcDbBlockReference
  2
*U14
 10
-1.075356755328632
 20
3.653433410083463
 30
0.0
 41
1.0
 42
1.0
 43
1.0
 50
20.56999999999989
  0
INSERT
  5
4B44A5
330
4B448F
100
AcDbEntity
  8
THIN
  6
ByBlock
347
4B41E0
 62
     0
440
 16777216
370
    -2
380
     1
100
AcDbBlockReference
  2
*U14
 10
-1.506489921873062
 20
4.330577003197056
 30
0.0
 41
1.0
 42
1.0
 43
1.0
 50
30.85499999999981
  0
INSERT
  5
4B44A6
330
4B448F
100
AcDbEntity
  8
THIN
  6
ByBlock
347
4B41E0
 62
     0
440
 16777216
370
    -2
380
     1
100
AcDbBlockReference
  2
*U14
 10
-2.051595912001264
 20
4.919863616413214
 30
0.0
 41
1.0
 42
1.0
 43
1.0
 50
41.13999999999973
  0
INSERT
  5
4B44A7
330
4B448F
100
AcDbEntity
  8
THIN
  6
ByBlock
347
4B41E0
 62
     0
440
 16777216
370
    -2
380
     1
100
AcDbBlockReference
  2
*U14
 10
-2.693156997408775
 20
5.402355716535227
 30
0.0
 41
1.0
 42
1.0
 43
1.0
 50
51.42499999999973
  0
INSERT
  5
4B44A8
330
4B448F
100
AcDbEntity
  8
THIN
  6
ByBlock
347
4B41E0
 62
     0
440
 16777216
370
    -2
380
     1
100
AcDbBlockReference
  2
*U14
 10
-3.410555733069463
 20
5.762547758454342
 30
0.0
 41
1.0
 42
1.0
 43
1.0
 50
61.7099999999997
  0
INSERT
  5
4B44A9
330
4B448F
100
AcDbEntity
  8
THIN
  6
ByBlock
347
4B41E0
 62
     0
440
 16777216
370
    -2
380
     1
100
AcDbBlockReference
  2
*U14
 10
-4.180737527096875
 20
5.988864477099109
 30
0.0
 41
1.0
 42
1.0
 43
1.0
 50
71.99499999999966
  0
INSERT
  5
4B44AA
330
4B448F
100
AcDbEntity
  8
THIN
  6
ByBlock
347
4B41E0
 62
     0
440
 16777216
370
    -2
380
     1
100
AcDbBlockReference
  2
*U14
 10
-4.978951531661136
 20
6.07403287444754
 30
0.0
 41
1.0
 42
1.0
 43
1.0
 50
82.27999999999964
  0
INSERT
  5
4B44AB
330
4B448F
100
AcDbEntity
  8
THIN
  6
ByBlock
347
4B41E0
 62
     0
440
 16777216
370
    -2
380
     1
100
AcDbBlockReference
  2
*U14
 10
-5.779546045416087
 20
6.015315947289443
 30
0.0
 41
1.0
 42
1.0
 43
1.0
 50
92.56499999999958
  0
INSERT
  5
4B44AC
330
4B448F
100
AcDbEntity
  8
THIN
  6
ByBlock
347
4B41E0
 62
     0
440
 16777216
370
    -2
380
     1
100
AcDbBlockReference
  2
*U14
 10
-6.556792866089169
 20
5.814600644576866
 30
0.0
 41
1.000000000000001
 42
1.000000000000001
 43
1.000000000000001
 50
102.8499999999994
  0
INSERT
  5
4B44AD
330
4B448F
100
AcDbEntity
  8
THIN
  6
ByBlock
347
4B41E0
 62
     0
440
 16777216
370
    -2
380
     1
100
AcDbBlockReference
  2
*U14
 10
-7.285714101533473
 20
5.478337227732621
 30
0.0
 41
1.000000000000001
 42
1.000000000000001
 43
1.000000000000001
 50
113.1349999999994
  0
INSERT
  5
4B44AE
330
4B448F
100
AcDbEntity
  8
THIN
  6
ByBlock
347
4B41E0
 62
     0
440
 16777216
370
    -2
380
     1
100
AcDbBlockReference
  2
*U14
 10
-7.942884868535252
 20
5.017331982656489
 30
0.0
 41
1.000000000000001
 42
1.000000000000001
 43
1.000000000000001
 50
123.4199999999994
  0
INSERT
  5
4B44AF
330
4B448F
100
AcDbEntity
  8
THIN
  6
ByBlock
347
4B41E0
 62
     0
440
 16777216
370
    -2
380
     1
100
AcDbBlockReference
  2
*U14
 10
-8.507186083550294
 20
4.446399944912969
 30
0.0
 41
1.000000000000001
 42
1.000000000000001
 43
1.000000000000001
 50
133.7049999999994
  0
INSERT
  5
4B44B0
330
4B448F
100
AcDbEntity
  8
THIN
  6
ByBlock
347
4B41E0
 62
     0
440
 16777216
370
    -2
380
     1
100
AcDbBlockReference
  2
*U14
 10
-8.960483153406746
 20
3.783888798252803
 30
0.0
 41
1.000000000000001
 42
1.000000000000001
 43
1.000000000000001
 50
143.9899999999994
  0
INSERT
  5
4B44B1
330
4B448F
100
AcDbEntity
  8
THIN
  6
ByBlock
347
4B41E0
 62
     0
440
 16777216
370
    -2
380
     1
100
AcDbBlockReference
  2
*U14
 10
-9.288208755318294
 20
3.051089246641909
 30
0.0
 41
1.000000000000001
 42
1.000000000000001
 43
1.000000000000001
 50
154.2749999999994
  0
INSERT
  5
4B44B2
330
4B448F
100
AcDbEntity
  8
THIN
  6
ByBlock
347
4B41E0
 62
     0
440
 16777216
370
    -2
380
     1
100
AcDbBlockReference
  2
*U14
 10
-9.479830977772916
 20
2.271550808301009
 30
0.0
 41
1.000000000000001
 42
1.000000000000001
 43
1.000000000000001
 50
164.5599999999993
  0
ENDBLK
  5
4B4491
330
4B448F
100
AcDbEntity
  8
0
100
AcDbBlockEnd
  0
BLOCK
  5
4B44ED
330
4B44EB
100
AcDbEntity
  8
0
100
AcDbBlockBegin
  2
AS extents block
 70
     0
 10
0.0
 20
0.0
 30
0.0
  3
AS extents block
  1

  0
LWPOLYLINE
  5
4B44EE
330
4B44EB
100
AcDbEntity
  8
PAPER
100
AcDbPolyline
 90
        4
 70
     1
 43
0.0
 10
0.0
 20
0.0
 10
17.0
 20
0.0
 10
17.0
 20
22.0
 10
0.0
 20
22.0
  0
ENDBLK
  5
4B44EF
330
4B44EB
100
AcDbEntity
  8
0
100
AcDbBlockEnd
  0
BLOCK
  5
4B45D5
330
4B45D4
100
AcDbEntity
  8
0
100
AcDbBlockBegin
  2
*D17
 70
     1
 10
0.0
 20
0.0
 30
0.0
  3
*D17
  1

  0
LINE
  5
4B45F5
330
4B45D4
100
AcDbEntity
  8
DIM
 62
     9
440
 16777216
370
    -2
100
AcDbLine
 10
15.87631912752331
 20
4.669012701196372
 30
0.0
 11
15.87631912752331
 21
1.569587034336603
 31
0.0
  0
LINE
  5
4B45F6
330
4B45D4
100
AcDbEntity
  8
DIM
 62
     9
440
 16777216
370
    -2
100
AcDbLine
 10
11.97031912752327
 20
2.38201270625185
 30
0.0
 11
11.97031912752327
 21
1.569587034336603
 31
0.0
  0
LINE
  5
4B45F7
330
4B45D4
100
AcDbEntity
  8
DIM
 62
   112
440
 16777216
370
    -2
100
AcDbLine
 10
15.62631912752331
 20
1.729587034336603
 30
0.0
 11
14.54342023081536
 21
1.729587034336603
 31
0.0
  0
LINE
  5
4B45F8
330
4B45D4
100
AcDbEntity
  8
DIM
 62
   112
440
 16777216
370
    -2
100
AcDbLine
 10
12.22031912752327
 20
1.729587034336603
 30
0.0
 11
13.30321802423122
 21
1.729587034336603
 31
0.0
  0
SOLID
  5
4B45F9
330
4B45D4
100
AcDbEntity
  8
DIM
 62
   112
440
 16777216
100
AcDbTrace
 10
15.62631912752331
 20
1.77125370100327
 30
0.0
 11
15.62631912752331
 21
1.687920367669937
 31
0.0
 12
15.87631912752331
 22
1.729587034336603
 32
0.0
 13
15.87631912752331
 23
1.729587034336603
 33
0.0
  0
SOLID
  5
4B45FA
330
4B45D4
100
AcDbEntity
  8
DIM
 62
   112
440
 16777216
100
AcDbTrace
 10
12.22031912752327
 20
1.77125370100327
 30
0.0
 11
12.22031912752327
 21
1.687920367669937
 31
0.0
 12
11.97031912752327
 22
1.729587034336603
 32
0.0
 13
11.97031912752327
 23
1.729587034336603
 33
0.0
  0
MTEXT
  5
4B45FB
330
4B45D4
100
AcDbEntity
  8
DIM
440
 16777216
100
AcDbMText
 10
13.92331912752329
 20
1.729587034336603
 30
0.0
 40
0.16
 41
0.0
 46
0.0
 71
     5
 72
     1
  1
\A1;3 7/8"
  7
ROMANS
 73
     1
 44
1.0
  0
POINT
  5
4B45FC
330
4B45D4
100
AcDbEntity
  8
DEFPOINTS
 62
     0
440
 16777216
100
AcDbPoint
 10
15.87631912752331
 20
4.759012701196372
 30
0.0
  0
POINT
  5
4B45FD
330
4B45D4
100
AcDbEntity
  8
DEFPOINTS
 62
     0
440
 16777216
100
AcDbPoint
 10
11.97031912752327
 20
2.47201270625185
 30
0.0
  0
POINT
  5
4B45FE
330
4B45D4
100
AcDbEntity
  8
DEFPOINTS
 62
     0
440
 16777216
100
AcDbPoint
 10
11.97031912752327
 20
1.729587034336603
 30
0.0
  0
ENDBLK
  5
4B45D6
330
4B45D4
100
AcDbEntity
  8
0
100
AcDbBlockEnd
  0
BLOCK
  5
4B4601
330
4B4600
100
AcDbEntity
  8
0
100
AcDbBlockBegin
  2
*D18
 70
     1
 10
0.0
 20
0.0
 30
0.0
  3
*D18
  1

  0
LINE
  5
4B4621
330
4B4600
100
AcDbEntity
  8
DIM
 62
     9
440
 16777216
370
    -2
100
AcDbLine
 10
14.62631912752327
 20
6.260012701189524
 30
0.0
 11
14.62631912752327
 21
8.069151547808086
 31
0.0
  0
LINE
  5
4B4622
330
4B4600
100
AcDbEntity
  8
DIM
 62
     9
440
 16777216
370
    -2
100
AcDbLine
 10
10.20088651701763
 20
4.38844835108139
 30
0.0
 11
10.20088651701763
 21
8.069151547808086
 31
0.0
  0
LINE
  5
4B4623
330
4B4600
100
AcDbEntity
  8
DIM
 62
   112
440
 16777216
370
    -2
100
AcDbLine
 10
14.37631912752326
 20
7.909151547808086
 30
0.0
 11
13.10787923625919
 21
7.909151547808086
 31
0.0
  0
LINE
  5
4B4624
330
4B4600
100
AcDbEntity
  8
DIM
 62
   112
440
 16777216
370
    -2
100
AcDbLine
 10
10.45088651701763
 20
7.909151547808086
 30
0.0
 11
11.71932640828171
 21
7.909151547808086
 31
0.0
  0
SOLID
  5
4B4625
330
4B4600
100
AcDbEntity
  8
DIM
 62
   112
440
 16777216
100
AcDbTrace
 10
14.37631912752326
 20
7.950818214474753
 30
0.0
 11
14.37631912752326
 21
7.867484881141419
 31
0.0
 12
14.62631912752327
 22
7.909151547808086
 32
0.0
 13
14.62631912752327
 23
7.909151547808086
 33
0.0
  0
SOLID
  5
4B4626
330
4B4600
100
AcDbEntity
  8
DIM
 62
   112
440
 16777216
100
AcDbTrace
 10
10.45088651701763
 20
7.950818214474753
 30
0.0
 11
10.45088651701763
 21
7.867484881141419
 31
0.0
 12
10.20088651701763
 22
7.909151547808086
 32
0.0
 13
10.20088651701763
 23
7.909151547808086
 33
0.0
  0
MTEXT
  5
4B4627
330
4B4600
100
AcDbEntity
  8
DIM
440
 16777216
100
AcDbMText
 10
12.41360282227045
 20
7.909151547808086
 30
0.0
 40
0.16
 41
0.0
 46
0.0
 71
     5
 72
     1
  1
\A1;4 7/16"
  7
ROMANS
 73
     1
 44
1.0
  0
POINT
  5
4B4628
330
4B4600
100
AcDbEntity
  8
DEFPOINTS
 62
     0
440
 16777216
100
AcDbPoint
 10
14.62631912752327
 20
6.170012701189524
 30
0.0
  0
POINT
  5
4B4629
330
4B4600
100
AcDbEntity
  8
DEFPOINTS
 62
     0
440
 16777216
100
AcDbPoint
 10
10.20088651701763
 20
4.298448351081391
 30
0.0
  0
POINT
  5
4B462A
330
4B4600
100
AcDbEntity
  8
DEFPOINTS
 62
     0
440
 16777216
100
AcDbPoint
 10
10.20088651701763
 20
7.909151547808086
 30
0.0
  0
ENDBLK
  5
4B4602
330
4B4600
100
AcDbEntity
  8
0
100
AcDbBlockEnd
  0
BLOCK
  5
4B462D
330
4B462C
100
AcDbEntity
  8
0
100
AcDbBlockBegin
  2
*D19
 70
     1
 10
0.0
 20
0.0
 30
0.0
  3
*D19
  1

  0
LINE
  5
4B4657
330
4B462C
100
AcDbEntity
  8
DIM
 62
     9
440
 16777216
370
    -2
100
AcDbLine
 10
14.62631912752327
 20
6.260012701189524
 30
0.0
 11
14.62631912752327
 21
7.196490076364657
 31
0.0
  0
LINE
  5
4B4658
330
4B462C
100
AcDbEntity
  8
DIM
 62
     9
440
 16777216
370
    -2
100
AcDbLine
 10
11.62631912752327
 20
5.827012704564859
 30
0.0
 11
11.62631912752327
 21
7.196490076364657
 31
0.0
  0
LINE
  5
4B4659
330
4B462C
100
AcDbEntity
  8
DIM
 62
   112
440
 16777216
370
    -2
100
AcDbLine
 10
14.37631912752326
 20
7.036490076364657
 30
0.0
 11
13.22673760736623
 21
7.036490076364657
 31
0.0
  0
LINE
  5
4B465A
330
4B462C
100
AcDbEntity
  8
DIM
 62
   112
440
 16777216
370
    -2
100
AcDbLine
 10
11.87631912752326
 20
7.036490076364657
 30
0.0
 11
12.61891635316303
 21
7.036490076364657
 31
0.0
  0
SOLID
  5
4B465B
330
4B462C
100
AcDbEntity
  8
DIM
 62
   112
440
 16777216
100
AcDbTrace
 10
14.37631912752326
 20
7.078156743031324
 30
0.0
 11
14.37631912752326
 21
6.99482340969799
 31
0.0
 12
14.62631912752327
 22
7.036490076364657
 32
0.0
 13
14.62631912752327
 23
7.036490076364657
 33
0.0
  0
SOLID
  5
4B465C
330
4B462C
100
AcDbEntity
  8
DIM
 62
   112
440
 16777216
100
AcDbTrace
 10
11.87631912752326
 20
7.078156743031324
 30
0.0
 11
11.87631912752326
 21
6.99482340969799
 31
0.0
 12
11.62631912752327
 22
7.036490076364657
 32
0.0
 13
11.62631912752327
 23
7.036490076364657
 33
0.0
  0
MTEXT
  5
4B465D
330
4B462C
100
AcDbEntity
  8
DIM
440
 16777216
100
AcDbMText
 10
12.92282698026463
 20
7.036490076364657
 30
0.0
 40
0.16
 41
0.0
 46
0.0
 71
     5
 72
     1
  1
\A1;3"
  7
ROMANS
 73
     1
 44
1.0
  0
POINT
  5
4B465E
330
4B462C
100
AcDbEntity
  8
DEFPOINTS
 62
     0
440
 16777216
100
AcDbPoint
 10
14.62631912752327
 20
6.170012701189524
 30
0.0
  0
POINT
  5
4B465F
330
4B462C
100
AcDbEntity
  8
DEFPOINTS
 62
     0
440
 16777216
100
AcDbPoint
 10
11.62631912752327
 20
5.737012704564859
 30
0.0
  0
POINT
  5
4B4660
330
4B462C
100
AcDbEntity
  8
DEFPOINTS
 62
     0
440
 16777216
100
AcDbPoint
 10
11.62631912752327
 20
7.036490076364657
 30
0.0
  0
ENDBLK
  5
4B462E
330
4B462C
100
AcDbEntity
  8
0
100
AcDbBlockEnd
  0
ENDSEC
  0
SECTION
  2
ENTITIES
  0
LINE
  5
4B1E29
330
4B1AC8
100
AcDbEntity
  8
CYAN
100
AcDbLine
 10
8.701569127523242
 20
4.28401270625179
 30
0.0
 11
6.701569127523242
 21
4.28401270625179
 31
0.0
  0
LINE
  5
4B1E2A
330
4B1AC8
100
AcDbEntity
  8
CYAN
100
AcDbLine
 10
8.701569127523242
 20
4.15901270625179
 30
0.0
 11
6.701569127523242
 21
4.15901270625179
 31
0.0
  0
LINE
  5
4B1E2B
330
4B1AC8
100
AcDbEntity
  8
CYAN
100
AcDbLine
 10
8.701569127523242
 20
3.534012706251783
 30
0.0
 11
6.701569127523242
 21
3.534012706251762
 31
0.0
  0
LINE
  5
4B1E2C
330
4B1AC8
100
AcDbEntity
  8
CYAN
100
AcDbLine
 10
8.701569127523242
 20
3.409012706251802
 30
0.0
 11
6.701569127523242
 21
3.409012706251763
 31
0.0
  0
LINE
  5
4B1E2F
330
4B1AC8
100
AcDbEntity
  8
CYAN
100
AcDbLine
 10
8.751569127523247
 20
3.534012706251803
 30
0.0
 11
10.75156912752325
 21
3.534012706251763
 31
0.0
  0
LINE
  5
4B1E30
330
4B1AC8
100
AcDbEntity
  8
CYAN
100
AcDbLine
 10
8.751569127523245
 20
3.409012706251802
 30
0.0
 11
10.75156912752325
 21
3.409012706251763
 31
0.0
  0
LINE
  5
4B21B5
330
4B1AC8
100
AcDbEntity
  8
CYAN
100
AcDbLine
 10
4.027285417030563
 20
14.31598531292289
 30
0.0
 11
4.027285417030578
 21
12.31598531292289
 31
0.0
  0
LINE
  5
4B21B6
330
4B1AC8
100
AcDbEntity
  8
CYAN
100
AcDbLine
 10
3.902285417030563
 20
14.31598531292289
 30
0.0
 11
3.902285417030578
 21
12.31598531292289
 31
0.0
  0
LINE
  5
4B21D5
330
4B1AC8
100
AcDbEntity
  8
CYAN
100
AcDbLine
 10
3.902285417030563
 20
14.36598531292289
 30
0.0
 11
3.902285417030578
 21
16.36598531292289
 31
0.0
  0
LINE
  5
4B21D6
330
4B1AC8
100
AcDbEntity
  8
CYAN
100
AcDbLine
 10
4.027285417030563
 20
14.36598531292289
 30
0.0
 11
4.027285417030578
 21
16.36598531292289
 31
0.0
  0
DIMENSION
  5
4B221A
330
4B1AC8
100
AcDbEntity
  8
DIM
100
AcDbDimension
280
     0
  2
*D1
 10
1.186440007352886
 20
6.200012701189526
 30
0.0
 11
1.186440007352885
 21
4.077091466881846
 31
0.0
 70
   160
 71
     5
 42
3.742999994937682
 73
     0
 74
     0
 75
     0
  3
Copy of HSTANDARD
100
AcDbAlignedDimension
 13
5.497819127523313
 23
2.457012706251843
 33
0.0
 14
2.856819127523304
 24
6.200012701189526
 34
0.0
 50
90.0
100
AcDbRotatedDimension
1001
ACAD
1000
DSTYLE
1002
{
1070
    40
1040
2.0
1070
   146
1040
1.0
1070
   276
1070
     2
1002
}
  0
DIMENSION
  5
4B2232
330
4B1AC8
100
AcDbEntity
  8
DIM
100
AcDbDimension
280
     0
  2
*D2
 10
5.482819127523264
 20
1.729587034336603
 30
0.0
 11
6.350561147237121
 21
1.729587034336603
 31
0.0
 70
    32
 71
     5
 42
1.735484039427712
 73
     0
 74
     0
 75
     0
  3
Copy of HSTANDARD
100
AcDbAlignedDimension
 13
7.218303166950977
 23
3.390516011012765
 33
0.0
 14
5.482819127523264
 24
2.472012706251846
 34
0.0
100
AcDbRotatedDimension
1001
ACAD
1000
DSTYLE
1002
{
1070
    40
1040
2.0
1070
   146
1040
1.0
1070
   276
1070
     2
1002
}
  0
TEXT
  5
4B224A
330
4B1AC8
100
AcDbEntity
  8
DIM
100
AcDbText
 10
6.815701827380682
 20
6.647907721899878
 30
0.0
 40
0.2
  1
3
 51
10.0
  7
SIMPLEX
 72
     1
 11
6.882368494047349
 21
6.747907721899878
 31
0.0
100
AcDbText
 73
     2
  0
CIRCLE
  5
4B224B
330
4B1AC8
100
AcDbEntity
  8
DIM
100
AcDbCircle
 10
6.882368494047349
 20
6.747907721899878
 30
0.0
 40
0.24
  0
TEXT
  5
4B224C
330
4B1AC8
100
AcDbEntity
  8
DIM
100
AcDbText
 10
4.665227080174003
 20
13.38882780507187
 30
0.0
 40
0.2
  1
2
 51
10.0
  7
SIMPLEX
 72
     1
 11
4.731893746840669
 21
13.48882780507187
 31
0.0
100
AcDbText
 73
     2
  0
CIRCLE
  5
4B224D
330
4B1AC8
100
AcDbEntity
  8
DIM
100
AcDbCircle
 10
4.731893746840669
 20
13.48882780507187
 30
0.0
 40
0.24
  0
CIRCLE
  5
4B224E
330
4B1AC8
100
AcDbEntity
  8
DIM
100
AcDbCircle
 10
4.71944732564414
 20
15.60202937486683
 30
0.0
 40
0.24
  0
TEXT
  5
4B224F
330
4B1AC8
100
AcDbEntity
  8
DIM
100
AcDbText
 10
4.695637801834616
 20
15.50202937486683
 30
0.0
 40
0.2
  1
1
 51
10.0
  7
SIMPLEX
 72
     1
 11
4.71944732564414
 21
15.60202937486683
 31
0.0
100
AcDbText
 73
     2
  0
DIMENSION
  5
4B2250
330
4B1AC8
100
AcDbEntity
  8
DIM
100
AcDbDimension
280
     0
  2
*D3
 10
15.58232202849976
 20
4.794012701196372
 30
0.0
 11
15.58232202849976
 21
5.200512701196382
 31
0.0
 70
   160
 71
     5
 42
0.8130000000000148
 73
     0
 74
     0
 75
     0
  3
Copy of HSTANDARD
100
AcDbAlignedDimension
 13
14.59631912752325
 23
5.607012701196387
 33
0.0
 14
15.84131912752331
 24
4.794012701196372
 34
0.0
 50
90.0
100
AcDbRotatedDimension
1001
ACAD
1000
DSTYLE
1002
{
1070
    40
1040
2.0
1070
   146
1040
1.0
1070
   276
1070
     2
1002
}
  0
DIMENSION
  5
4B2268
330
4B1AC8
100
AcDbEntity
  8
DIM
100
AcDbDimension
280
     0
  2
*D4
 10
14.38320644817793
 20
4.724012701196328
 30
0.0
 11
14.38320644817793
 21
3.630267958809199
 31
0.0
 70
   160
 71
     5
 42
2.266999994944526
 73
     0
 74
     0
 75
     0
  3
Copy of HSTANDARD
100
AcDbAlignedDimension
 13
11.9553191275233
 23
2.457012706251803
 33
0.0
 14
13.94631912752327
 24
4.724012701196329
 34
0.0
 50
90.0
100
AcDbRotatedDimension
1001
ACAD
1000
DSTYLE
1002
{
1070
    40
1040
2.0
1070
   146
1040
1.0
1070
   276
1070
     2
1002
}
  0
MTEXT
  5
4B228D
330
4B1AC8
100
AcDbEntity
  8
DIM
100
AcDbMText
 10
12.70377924272446
 20
20.00233137841107
 30
0.0
 40
0.3
 41
6.184
 46
0.0
 71
     5
 72
     5
  1
Harvey Building Products\PDesigner Shape Half Round\PIntegral J-Fin with Flat Casing\P{\H0.8333x;(1/2 Scale)}
  7
TAHOMA
 73
     1
 44
1.0
  0
INSERT
  5
4B2293
330
4B1AC8
100
AcDbEntity
  8
DIM
100
AcDbBlockReference
 66
     1
  2
ASDTNUM
 10
0.0
 20
0.0
 30
0.0
1001
MTVPROFILELINK
1002
{
1000
#BlockRef=533e4a92-0xa7cf-11d7-A5DD-005004E2D0E9|
1002
}
1005
0
  0
ATTRIB
  5
4B2295
330
4B2293
100
AcDbEntity
  8
THIN
100
AcDbText
 10
1.645491964163355
 20
0.7077964671298738
 30
0.0
 40
0.18
  1
3/19
 51
10.0
  7
ROMANS
100
AcDbAttribute
280
     0
  2
REV:
 70
     0
280
     0
  0
ATTRIB
  5
4B2296
330
4B2293
100
AcDbEntity
  8
THIN
100
AcDbText
 10
14.18958977281909
 20
0.6570000000000001
 30
0.0
 40
0.25
  1
631
 51
10.0
  7
ROMANS
100
AcDbAttribute
280
     0
  2
AS#
 70
     0
280
     0
  0
SEQEND
  5
4B2297
330
4B2293
100
AcDbEntity
  8
DIM
  0
LINE
  5
4B239E
330
4B1AC8
100
AcDbEntity
  8
10
100
AcDbLine
 10
3.152285417030565
 20
12.89500479671731
 30
0.0
 11
3.151301913453854
 21
12.89435085799629
 31
0.0
  0
LINE
  5
4B23C9
330
4B1AC8
100
AcDbEntity
  8
10
100
AcDbLine
 10
3.152285417030564
 20
15.93696582912845
 30
0.0
 11
3.151301913453853
 21
15.93761976784946
 31
0.0
  0
LINE
  5
4B30CC
330
4B1AC8
100
AcDbEntity
  8
THIN
100
AcDbLine
 10
2.656285417030486
 20
12.37698531292288
 30
0.0
 11
2.823285417030493
 21
12.37698531292288
 31
0.0
  0
LINE
  5
4B3167
330
4B1AC8
100
AcDbEntity
  8
vent
100
AcDbLine
 10
2.751285417030493
 20
12.14812455342922
 30
0.0
 11
2.751285417030483
 21
12.23198531292288
 31
0.0
  0
CIRCLE
  5
4B316C
330
4B1AC8
100
AcDbEntity
  8
DIM
100
AcDbCircle
 10
2.751285417030483
 20
12.2767971305404
 30
0.0
 40
0.025
  0
LINE
  5
4B316D
330
4B1AC8
100
AcDbEntity
  8
vent
100
AcDbLine
 10
2.751285417030486
 20
12.23198531292288
 30
0.0
 11
2.790142559887633
 21
12.23198531292288
 31
0.0
  0
LINE
  5
4B316E
330
4B1AC8
100
AcDbEntity
  8
vent
100
AcDbLine
 10
2.734285417030487
 20
12.37698531292288
 30
0.0
 11
2.734285417030487
 21
12.39998531292288
 31
0.0
  0
LINE
  5
4B316F
330
4B1AC8
100
AcDbEntity
  8
vent
100
AcDbLine
 10
2.734285417030487
 20
12.39998531292288
 30
0.0
 11
2.757285417030487
 21
12.37998531292288
 31
0.0
  0
LINE
  5
4B3170
330
4B1AC8
100
AcDbEntity
  8
vent
100
AcDbLine
 10
2.757285417030487
 20
12.37998531292288
 30
0.0
 11
2.757285417030487
 21
12.39998531292288
 31
0.0
  0
LINE
  5
4B3171
330
4B1AC8
100
AcDbEntity
  8
vent
100
AcDbLine
 10
2.780285417030486
 20
12.39998531292288
 30
0.0
 11
2.803285417030486
 21
12.37998531292288
 31
0.0
  0
LINE
  5
4B3172
330
4B1AC8
100
AcDbEntity
  8
vent
100
AcDbLine
 10
2.780285417030486
 20
12.37998531292288
 30
0.0
 11
2.780285417030486
 21
12.39998531292288
 31
0.0
  0
LINE
  5
4B3173
330
4B1AC8
100
AcDbEntity
  8
vent
100
AcDbLine
 10
2.803285417030486
 20
12.37698531292288
 30
0.0
 11
2.803285417030486
 21
12.37998531292288
 31
0.0
  0
LINE
  5
4B3174
330
4B1AC8
100
AcDbEntity
  8
vent
100
AcDbLine
 10
2.757285417030487
 20
12.39998531292288
 30
0.0
 11
2.780285417030486
 21
12.37998531292288
 31
0.0
  0
LWPOLYLINE
  5
4B3689
330
4B1AC8
100
AcDbEntity
  8
10
100
AcDbPolyline
 90
        2
 70
     0
 43
0.0
 10
4.605796529636166
 20
16.86386759859945
 42
0.4931454260313043
 10
4.620285417030502
 20
16.84498531292294
  0
LWPOLYLINE
  5
4B36C2
330
4B1AC8
100
AcDbEntity
  8
CYAN
100
AcDbPolyline
 90
        2
 70
     0
 43
0.0
 10
3.152285417030564
 20
14.36598531292289
 10
3.152285417030564
 20
16.36598531292289
  0
LWPOLYLINE
  5
4B36C3
330
4B1AC8
100
AcDbEntity
  8
CYAN
100
AcDbPolyline
 90
        2
 70
     0
 43
0.0
 10
3.277285417030564
 20
14.36598531292289
 10
3.277285417030564
 20
16.36598531292289
  0
LWPOLYLINE
  5
4B36C8
330
4B1AC8
100
AcDbEntity
  8
vent
100
AcDbPolyline
 90
        5
 70
     0
 43
0.0
 10
2.656285417030491
 20
12.10698531292288
 10
2.686285417030492
 20
12.10698531292288
 10
2.765285417030489
 20
12.15698531292288
 10
2.823285417030493
 20
12.33198531292288
 10
2.823285417030493
 20
12.37698531292288
  0
LWPOLYLINE
  5
4B36C9
330
4B1AC8
100
AcDbEntity
  8
DIM
100
AcDbPolyline
 90
        4
 70
     1
 43
0.0
 10
2.721285417030474
 20
12.31198531292289
 10
2.721285417030478
 20
12.27698531292288
 42
0.9999999999999701
 10
2.78128541703048
 20
12.27698531292288
 10
2.781285417030477
 20
12.31198531292289
  0
LWPOLYLINE
  5
4B36CA
330
4B1AC8
100
AcDbEntity
  8
vent
100
AcDbPolyline
 90
        4
 70
     0
 43
0.0
 10
2.656285417030491
 20
12.39598531292288
 10
2.618285417030491
 20
12.39598531292288
 10
2.618285417030491
 20
12.08798531292288
 10
2.656285417030491
 20
12.08798531292288
  0
LWPOLYLINE
  5
4B36D0
330
4B1AC8
100
AcDbEntity
  8
CYAN
100
AcDbPolyline
 90
        2
 70
     0
 43
0.0
 10
3.152285417030564
 20
14.31598531292289
 10
3.152285417030564
 20
12.31598531292289
  0
LWPOLYLINE
  5
4B36D1
330
4B1AC8
100
AcDbEntity
  8
CYAN
100
AcDbPolyline
 90
        2
 70
     0
 43
0.0
 10
3.277285417030564
 20
14.31598531292289
 10
3.277285417030564
 20
12.31598531292289
  0
LWPOLYLINE
  5
4B36DB
330
4B1AC8
100
AcDbEntity
  8
10
100
AcDbPolyline
 90
        2
 70
     0
 43
0.0
 10
4.620285417030502
 20
12.11198531292282
 42
0.4931454260313044
 10
4.605796529636166
 20
12.09310302724631
  0
LWPOLYLINE
  5
4B370C
330
4B1AC8
100
AcDbEntity
  8
10
100
AcDbPolyline
 90
        2
 70
     0
 43
0.0
 10
11.14320141319985
 20
2.830501593646161
 42
0.4931454260313135
 10
11.12431912752333
 20
2.81601270625184
  0
LWPOLYLINE
  5
4B3734
330
4B1AC8
100
AcDbEntity
  8
10
100
AcDbPolyline
 90
        7
 70
     0
 43
0.0
 10
6.3099368418467
 20
2.83050159364619
 10
6.249701413199823
 20
2.814361559184462
 42
-0.4931454260309855
 10
6.230819127523312
 20
2.828850446578812
 10
6.230819127523312
 20
3.367012706251828
 42
-0.4142135623732336
 10
6.245819127523298
 20
3.382012706251814
 10
6.313819127523282
 20
3.382012706251814
 42
-0.414213562373234
 10
6.328819127523268
 20
3.367012706251828
  0
LWPOLYLINE
  5
4B373A
330
4B1AC8
100
AcDbEntity
  8
10
100
AcDbPolyline
 90
        3
 70
     0
 43
0.0
 10
6.328819127523268
 20
3.224512706251843
 42
0.9999999999999998
 10
6.407819127523276
 20
3.224512706251843
 10
6.407819127523219
 20
4.28287475969391
  0
LWPOLYLINE
  5
4B373C
330
4B1AC8
100
AcDbEntity
  8
10
100
AcDbPolyline
 90
        2
 70
     0
 43
0.0
 10
6.328819127523211
 20
2.81601270625184
 42
0.4931454260313135
 10
6.3099368418467
 20
2.830501593646161
  0
LWPOLYLINE
  5
4B3760
330
4B1AC8
100
AcDbEntity
  8
CYAN
100
AcDbPolyline
 90
        4
 70
     0
 43
0.0
 10
8.751569127523247
 20
4.28401270625179
 10
10.75156912752325
 20
4.28401270625179
 10
10.75156912752325
 20
4.15901270625179
 10
8.751569127523247
 20
4.15901270625179
  0
LINE
  5
4B3824
330
4B1AC8
100
AcDbEntity
  8
THIN
100
AcDbLine
 10
6.328819127523268
 20
3.367012706251828
 30
0.0
 11
6.328819127523268
 21
3.224512706251843
 31
0.0
  0
INSERT
  5
4B3835
330
4B1AC8
100
AcDbEntity
  8
THIN
100
AcDbBlockReference
  2
Glazing Bead
 10
10.92031912752334
 20
3.409012706251866
 30
0.0
 50
90.0
1001
MTVPROFILELINK
1002
{
1000
#BlockRef=13b2f151-0x4b1c-4f74-A1E9-79DCC11120FF|
1002
}
1005
AA
  0
INSERT
  5
4B3837
330
4B1AC8
100
AcDbEntity
  8
THIN
100
AcDbBlockReference
  2
Glazing Bead
 10
6.532819127523246
 20
3.409012706251866
 30
0.0
 41
-1.0
 50
270.0
1001
MTVPROFILELINK
1002
{
1000
#BlockRef=13b2f151-0x4b1c-4f74-A1E9-79DCC11120FF| 
1002
}
1005
0
  0
INSERT
  5
4B3838
330
4B1AC8
100
AcDbEntity
  8
THIN
100
AcDbBlockReference
  2
Glazing Bead
 10
4.027285417030462
 20
12.31598531292279
 30
0.0
 41
-1.0
1001
MTVPROFILELINK
1002
{
1000
#BlockRef=13b2f151-0x4b1c-4f74-A1E9-79DCC11120FF| 
1002
}
1005
0
  0
INSERT
  5
4B383A
330
4B1AC8
100
AcDbEntity
  8
THIN
100
AcDbBlockReference
  2
Glazing Bead
 10
4.027285417030462
 20
16.64098531292293
 30
0.0
 50
180.0
1001
MTVPROFILELINK
1002
{
1000
#BlockRef=13b2f151-0x4b1c-4f74-A1E9-79DCC11120FF| 
1002
}
1005
0
  0
LINE
  5
4B3858
330
4B1AC8
100
AcDbEntity
  8
CYAN
100
AcDbLine
 10
6.701569127523242
 20
4.28401270625179
 30
0.0
 11
6.701569127523242
 21
4.15901270625179
 31
0.0
  0
LINE
  5
4B3860
330
4B1AC8
100
AcDbEntity
  8
CYAN
100
AcDbLine
 10
6.701569127523242
 20
3.409012706251763
 30
0.0
 11
6.701569127523242
 21
3.534012706251762
 31
0.0
  0
LINE
  5
4B3866
330
4B1AC8
100
AcDbEntity
  8
CYAN
100
AcDbLine
 10
10.75156912752325
 20
3.409012706251763
 30
0.0
 11
10.75156912752325
 21
3.534012706251763
 31
0.0
  0
INSERT
  5
4B3885
330
4B1AC8
100
AcDbEntity
  8
THIN
100
AcDbBlockReference
  2
Reinforced Bytyl Spacer
 10
6.701569127523242
 20
4.15901270625179
 30
0.0
1001
MTVPROFILELINK
1002
{
1000
#BlockRef=5294f65e-0x2a6f-49f8-9DBD-D9FC677B36F6|
1002
}
1005
AA
  0
INSERT
  5
4B3887
330
4B1AC8
100
AcDbEntity
  8
THIN
100
AcDbBlockReference
  2
Reinforced Bytyl Spacer
 10
10.75156912752325
 20
4.15901270625179
 30
0.0
 41
-1.0
1001
MTVPROFILELINK
1002
{
1000
#BlockRef=5294f65e-0x2a6f-49f8-9DBD-D9FC677B36F6| 
1002
}
1005
0
  0
INSERT
  5
4B3891
330
4B1AC8
100
AcDbEntity
  8
THIN
100
AcDbBlockReference
  2
Weather Seal
 10
10.44877619320345
 20
4.386012706251833
 30
0.0
1001
MTVPROFILELINK
1002
{
1000
#BlockRef=dbadb4fc-0xc76d-43c6-BEA3-0F179EB77B8A|
1002
}
1005
AA
  0
INSERT
  5
4B3893
330
4B1AC8
100
AcDbEntity
  8
THIN
100
AcDbBlockReference
  2
Weather Seal
 10
7.004362061843109
 20
4.386012706251664
 30
0.0
 41
-1.0
1001
MTVPROFILELINK
1002
{
1000
#BlockRef=dbadb4fc-0xc76d-43c6-BEA3-0F179EB77B8A| 
1002
}
1005
0
  0
INSERT
  5
4B389F
330
4B1AC8
100
AcDbEntity
  8
THIN
100
AcDbBlockReference
  2
Silicon Horizontal Small
 10
6.701569127523242
 20
4.28401270625179
 30
0.0
1001
MTVPROFILELINK
1002
{
1000
#BlockRef=2700c0d9-0xb1e-4ead-828B-0BE682CF338B|
1002
}
1005
AA
  0
INSERT
  5
4B38A1
330
4B1AC8
100
AcDbEntity
  8
THIN
100
AcDbBlockReference
  2
Silicon Horizontal Small
 10
10.75156912752325
 20
4.28401270625179
 30
0.0
 41
-1.0
1001
MTVPROFILELINK
1002
{
1000
#BlockRef=2700c0d9-0xb1e-4ead-828B-0BE682CF338B| 
1002
}
1005
0
  0
INSERT
  5
4B38A3
330
4B1AC8
100
AcDbEntity
  8
THIN
100
AcDbBlockReference
  2
Weather Seal
 10
3.050285417030476
 20
12.78752824724253
 30
0.0
 41
-1.0
 50
90.0
1001
MTVPROFILELINK
1002
{
1000
#BlockRef=dbadb4fc-0xc76d-43c6-BEA3-0F179EB77B8A| 
1002
}
1005
0
  0
INSERT
  5
4B38A4
330
4B1AC8
100
AcDbEntity
  8
THIN
100
AcDbBlockReference
  2
Weather Seal
 10
3.050285417030495
 20
16.16944237860302
 30
0.0
 50
90.0
1001
MTVPROFILELINK
1002
{
1000
#BlockRef=dbadb4fc-0xc76d-43c6-BEA3-0F179EB77B8A| 
1002
}
1005
0
  0
LINE
  5
4B38B1
330
4B1AC8
100
AcDbEntity
  8
CYAN
100
AcDbLine
 10
4.027285417030578
 20
12.31598531292289
 30
0.0
 11
3.902285417030578
 21
12.31598531292289
 31
0.0
  0
LINE
  5
4B38B7
330
4B1AC8
100
AcDbEntity
  8
CYAN
100
AcDbLine
 10
3.152285417030564
 20
12.31598531292289
 30
0.0
 11
3.277285417030564
 21
12.31598531292289
 31
0.0
  0
LINE
  5
4B38BD
330
4B1AC8
100
AcDbEntity
  8
CYAN
100
AcDbLine
 10
3.152285417030564
 20
16.36598531292289
 30
0.0
 11
3.277285417030564
 21
16.36598531292289
 31
0.0
  0
LINE
  5
4B38C3
330
4B1AC8
100
AcDbEntity
  8
CYAN
100
AcDbLine
 10
4.027285417030578
 20
16.36598531292289
 30
0.0
 11
3.902285417030578
 21
16.36598531292289
 31
0.0
  0
INSERT
  5
4B38C6
330
4B1AC8
100
AcDbEntity
  8
THIN
100
AcDbBlockReference
  2
Reinforced Bytyl Spacer
 10
3.277285417030565
 20
12.31598531292289
 30
0.0
 50
90.0
1001
MTVPROFILELINK
1002
{
1000
#BlockRef=5294f65e-0x2a6f-49f8-9DBD-D9FC677B36F6| 
1002
}
1005
0
  0
INSERT
  5
4B38C7
330
4B1AC8
100
AcDbEntity
  8
THIN
100
AcDbBlockReference
  2
Reinforced Bytyl Spacer
 10
3.27728541703055
 20
16.36598531292293
 30
0.0
 41
-1.0
 50
90.0
1001
MTVPROFILELINK
1002
{
1000
#BlockRef=5294f65e-0x2a6f-49f8-9DBD-D9FC677B36F6| 
1002
}
1005
0
  0
INSERT
  5
4B38D4
330
4B1AC8
100
AcDbEntity
  8
THIN
100
AcDbBlockReference
  2
Silicon Vertical Bottom
 10
3.152285417030564
 20
12.31598531292289
 30
0.0
1001
MTVPROFILELINK
1002
{
1000
#BlockRef=43cfe8ea-0x622d-4913-95E0-B1FCB226BC51|
1002
}
1005
AA
  0
INSERT
  5
4B38E0
330
4B1AC8
100
AcDbEntity
  8
THIN
100
AcDbBlockReference
  2
Silicon Small Vertical Top
 10
3.152285417030564
 20
16.36598531292289
 30
0.0
 41
-1.0
1001
MTVPROFILELINK
1002
{
1000
#BlockRef=dd5988cd-0xe1ef-42b2-8E76-4BD449D000C6|
1002
}
1005
AA
  0
LWPOLYLINE
  5
4B392A
330
4B1AC8
100
AcDbEntity
  8
10
100
AcDbPolyline
 90
        8
 70
     1
 43
0.0
 10
5.595819127523298
 20
2.850012706251844
 10
6.117819127523303
 20
2.850012706251847
 42
0.4142135623730857
 10
6.132819127523304
 20
2.865012706251848
 10
6.132819127523304
 20
3.385012706251841
 42
0.4142135623730953
 10
6.117819127523303
 20
3.400012706251842
 10
5.59581912752334
 20
3.400012706251842
 42
0.4142135623730839
 10
5.58081912752334
 20
3.385012706251841
 10
5.580819127523297
 20
2.865012706251844
 42
0.4142135623731205
  0
LWPOLYLINE
  5
4B392B
330
4B1AC8
100
AcDbEntity
  8
10
100
AcDbPolyline
 90
        8
 70
     1
 43
0.0
 10
5.58081912752331
 20
4.699012706251792
 42
-0.4142135623730951
 10
5.595819127523311
 20
4.714012706251793
 10
6.214819127523316
 20
4.714012706251835
 42
-0.4142135623731151
 10
6.229819127523317
 20
4.699012706251835
 10
6.229819127523317
 20
4.481012706251832
 42
-0.4142135623729563
 10
6.214819127523302
 20
4.466012706251825
 10
5.595819127523298
 20
4.466012706251846
 42
-0.4142135623732337
 10
5.580819127523311
 20
4.481012706251846
  0
LWPOLYLINE
  5
4B392F
330
4B1AC8
100
AcDbEntity
  8
10
100
AcDbPolyline
 90
       12
 70
     1
 43
0.0
 10
6.009819127523328
 20
2.555012706251845
 10
6.215819127523288
 20
2.555012706251856
 42
0.4142135623730906
 10
6.230819127523289
 20
2.570012706251857
 10
6.230819127523303
 20
2.688012706251848
 42
0.4142135623731157
 10
6.215819127523302
 20
2.703012706251849
 10
6.147819127523319
 20
2.703012706251845
 42
-0.4142135623730701
 10
6.132819127523318
 20
2.718012706251846
 10
6.132819127523304
 20
2.755012706251839
 42
0.414213562373009
 10
6.117819127523303
 20
2.770012706251836
 10
6.009819127523285
 20
2.770012706251846
 42
0.4142135623731397
 10
5.994819127523284
 20
2.755012706251846
 10
5.994819127523327
 20
2.570012706251846
 42
0.4142135623730836
  0
LWPOLYLINE
  5
4B3930
330
4B1AC8
100
AcDbEntity
  8
10
100
AcDbPolyline
 90
        8
 70
     1
 43
0.0
 10
6.324819127523304
 20
4.514012706251858
 42
-0.4142135623730984
 10
6.309819127523303
 20
4.529012706251859
 10
6.309819127523303
 20
4.66701270625185
 42
-0.4142135623730951
 10
6.324819127523304
 20
4.682012706251851
 10
6.913539196063813
 20
4.682012706251819
 42
-0.3394542588633731
 10
6.928028083458149
 20
4.670894991928357
 10
6.965005072013648
 20
4.532894991928359
 42
-0.4931454260313063
 10
6.950516184619313
 20
4.514012706251819
  0
LWPOLYLINE
  5
4B3931
330
4B1AC8
100
AcDbEntity
  8
10
100
AcDbPolyline
 90
        8
 70
     1
 43
0.0
 10
5.971209873407843
 20
5.603083258612668
 42
0.3394542588634429
 10
5.963482466797529
 20
5.609012706251851
 10
5.950819127523317
 20
5.609012706251851
 42
0.4142135623729975
 10
5.942819127523321
 20
5.601012706251848
 10
5.942819127523292
 20
4.809012706251796
 42
0.4142135623731549
 10
5.957819127523295
 20
4.794012706251796
 10
6.168451293940117
 20
4.794012706251831
 42
0.4931454260312531
 10
6.18294018133445
 20
4.812894991928368
  0
LWPOLYLINE
  5
4B3932
330
4B1AC8
100
AcDbEntity
  8
10
100
AcDbPolyline
 90
       12
 70
     1
 43
0.0
 10
6.298665648008693
 20
4.136581457808602
 42
-0.3401424000459158
 10
6.309819127523326
 20
4.122083034440675
 10
6.309819127523311
 20
3.495012706251847
 42
-0.4142135623730951
 10
6.29481912752331
 20
3.480012706251846
 10
5.595819127523312
 20
3.480012706251843
 42
-0.4142135623730951
 10
5.580819127523311
 20
3.495012706251843
 10
5.580819127523297
 20
4.371012706251859
 42
-0.4142135623730951
 10
5.595819127523298
 20
4.386012706251859
 10
6.196819127523311
 20
4.386012706251859
 42
-0.4142135623731213
 10
6.211819127523311
 20
4.371012706251859
 10
6.211819127523283
 20
4.171161708372855
 42
0.3401424000459496
 10
6.222972607037916
 20
4.156663285004926
  0
LWPOLYLINE
  5
4B3934
330
4B1AC8
100
AcDbEntity
  8
10
100
AcDbPolyline
 90
       65
 70
     1
 43
0.0
 10
6.309819127523269
 20
4.246552043217954
 10
6.309819127523286
 20
4.401012706251869
 42
-0.4142135623730864
 10
6.324819127523287
 20
4.416012706251867
 10
6.99632358607018
 20
4.416012706251827
 10
7.004362061843111
 20
4.386012706251833
 10
7.105819127523299
 20
4.386012706251833
 10
7.01216307600404
 20
4.735541848957963
 42
0.3394542588633526
 10
6.9542075264267
 20
4.78001270625181
 10
6.304717933726633
 20
4.780012706251857
 42
-0.3394542588633642
 10
6.290229046332298
 20
4.791130420575319
 10
6.056735057821898
 20
5.662541848958036
 42
0.3394542588634112
 10
5.998779508244545
 20
5.707012706251885
 10
5.29781912752331
 20
5.707012706251793
 42
0.4142135623730951
 10
5.28281912752331
 20
5.692012706251793
 10
5.282819127523311
 20
5.637012706251858
 42
0.4142135623730688
 10
5.312819127523309
 20
5.607012706251858
 10
5.372819127523317
 20
5.607012706251853
 42
0.41421356237303
 10
5.380819127523316
 20
5.615012706251854
 10
5.380819127523321
 20
5.639012706251833
 42
-0.4142135623729325
 10
5.388819127523318
 20
5.647012706251826
 10
5.411799889636847
 20
5.64701270625184
 42
-0.131652497587552
 10
5.419299889636856
 20
5.645003087308606
 10
5.478156296097422
 20
5.611022325195064
 42
0.131652497587376
 10
5.48565629609742
 20
5.609012706251828
 10
5.829819127523307
 20
5.609012706251794
 42
-0.4142135623732339
 10
5.844819127523294
 20
5.594012706251794
 10
5.844819127523307
 20
4.809012706251811
 42
-0.4142135623730951
 10
5.829819127523307
 20
4.794012706251811
 10
4.277819127523329
 20
4.794012706251797
 42
0.9999999999999998
 10
4.277819127523329
 20
4.714012706251785
 10
5.467819127523312
 20
4.714012706251798
 42
-0.4142135623730951
 10
5.482819127523312
 20
4.699012706251798
 10
5.482819127523298
 20
2.472012706251851
 42
0.4142135623729564
 10
5.497819127523313
 20
2.457012706251843
 10
5.664819127523315
 20
2.45701270625185
 42
0.4142135623732338
 10
5.679819127523301
 20
2.472012706251851
 10
5.679819127523301
 20
2.540012706251848
 42
0.4142135623732338
 10
5.664819127523315
 20
2.555012706251842
 10
5.595819127523298
 20
2.555012706251849
 42
-0.4142135623732337
 10
5.580819127523311
 20
2.57001270625185
 10
5.580819127523311
 20
2.737012706251851
 42
-0.4142135623732337
 10
5.595819127523298
 20
2.752012706251845
 10
5.881819127523299
 20
2.752012706251852
 42
-0.4142135623729561
 10
5.896819127523314
 20
2.737012706251851
 10
5.896819127523314
 20
2.57001270625185
 42
-0.4142135623729563
 10
5.881819127523299
 20
2.555012706251842
 10
5.812819127523311
 20
2.555012706251849
 42
0.4142135623729563
 10
5.797819127523296
 20
2.540012706251848
 10
5.797819127523296
 20
2.472012706251851
 42
0.4142135623729564
 10
5.812819127523311
 20
2.457012706251843
 10
6.268819127523302
 20
2.457012706251846
 42
0.4142135623730864
 10
6.328819127523302
 20
2.517012706251846
 10
6.328819127523302
 20
2.81601270625183
 42
0.4931454260309717
 10
6.309936841846762
 20
2.830501593646181
 10
6.249701413199857
 20
2.814361559184481
 42
-0.4931454260309717
 10
6.230819127523317
 20
2.828850446578831
 10
6.230819127523317
 20
3.367012706251847
 42
-0.414213562373234
 10
6.245819127523303
 20
3.382012706251847
 10
6.313819127523315
 20
3.382012706251847
 42
-0.4142135623732339
 10
6.328819127523302
 20
3.367012706251847
 10
6.328819127523302
 20
3.224512706251848
 42
0.9999999999999998
 10
6.40781912752331
 20
3.224512706251848
 10
6.407819127523309
 20
4.197473369285776
 42
0.3401424000459107
 10
6.396665648008676
 20
4.211971792653703
 10
6.320972607037901
 20
4.232053619850026
 42
-0.3401424000459436
  0
ARC
  5
4B3935
330
4B1AC8
100
AcDbEntity
  8
10
100
AcDbCircle
 10
5.580819127523318
 20
3.125012706251843
 30
0.0
 40
0.015
100
AcDbArc
 50
270.0
 51
90.0
  0
LINE
  5
4B3938
330
4B1AC8
100
AcDbEntity
  8
CENTER
  6
CENTER2
 48
0.4
100
AcDbLine
 10
4.487819127523309
 20
4.436456533195785
 30
0.0
 11
4.487819127523309
 21
5.065207017073809
 31
0.0
  0
LINE
  5
4B3939
330
4B1AC8
100
AcDbEntity
  8
HIDDEN
  6
HIDDEN
 48
0.125
100
AcDbLine
 10
4.3938191275233
 20
4.714012706251778
 30
0.0
 11
4.3938191275233
 21
4.794012706251797
 31
0.0
  0
LINE
  5
4B393A
330
4B1AC8
100
AcDbEntity
  8
HIDDEN
  6
HIDDEN
 48
0.125
100
AcDbLine
 10
4.581819127523303
 20
4.714012706251785
 30
0.0
 11
4.581819127523303
 21
4.794012706251797
 31
0.0
  0
ARC
  5
4B3941
330
4B1AC8
100
AcDbEntity
  8
10
100
AcDbCircle
 10
5.580819127523318
 20
3.125012706251843
 30
0.0
 40
0.015
100
AcDbArc
 50
270.0
 51
90.0
  0
LWPOLYLINE
  5
4B3943
330
4B1AC8
100
AcDbEntity
  8
10
100
AcDbPolyline
 90
        8
 70
     1
 43
0.0
 10
11.85731912752327
 20
2.850012706251843
 10
11.33531912752326
 20
2.850012706251846
 42
-0.4142135623730857
 10
11.32031912752326
 20
2.865012706251847
 10
11.32031912752326
 20
3.38501270625184
 42
-0.4142135623730953
 10
11.33531912752326
 20
3.400012706251841
 10
11.85731912752323
 20
3.400012706251841
 42
-0.4142135623730839
 10
11.87231912752323
 20
3.38501270625184
 10
11.87231912752327
 20
2.865012706251843
 42
-0.4142135623731205
  0
LWPOLYLINE
  5
4B3944
330
4B1AC8
100
AcDbEntity
  8
10
100
AcDbPolyline
 90
        8
 70
     1
 43
0.0
 10
11.87231912752326
 20
4.699012706251791
 42
0.4142135623730951
 10
11.85731912752326
 20
4.714012706251792
 10
11.23831912752325
 20
4.714012706251835
 42
0.4142135623731151
 10
11.22331912752325
 20
4.699012706251834
 10
11.22331912752325
 20
4.481012706251831
 42
0.4142135623729563
 10
11.23831912752326
 20
4.466012706251824
 10
11.85731912752327
 20
4.466012706251845
 42
0.4142135623732337
 10
11.87231912752326
 20
4.481012706251846
  0
LWPOLYLINE
  5
4B3945
330
4B1AC8
100
AcDbEntity
  8
10
100
AcDbPolyline
 90
       12
 70
     1
 43
0.0
 10
11.44331912752324
 20
2.555012706251845
 10
11.23731912752328
 20
2.555012706251855
 42
-0.4142135623730906
 10
11.22231912752328
 20
2.570012706251856
 10
11.22231912752327
 20
2.688012706251847
 42
-0.4142135623731157
 10
11.23731912752327
 20
2.703012706251848
 10
11.30531912752325
 20
2.703012706251844
 42
0.4142135623730701
 10
11.32031912752325
 20
2.718012706251845
 10
11.32031912752326
 20
2.755012706251838
 42
-0.414213562373009
 10
11.33531912752326
 20
2.770012706251835
 10
11.44331912752328
 20
2.770012706251845
 42
-0.4142135623731397
 10
11.45831912752328
 20
2.755012706251845
 10
11.45831912752324
 20
2.570012706251845
 42
-0.4142135623730836
  0
LWPOLYLINE
  5
4B3946
330
4B1AC8
100
AcDbEntity
  8
10
100
AcDbPolyline
 90
        8
 70
     1
 43
0.0
 10
11.12831912752326
 20
4.514012706251858
 42
0.4142135623730984
 10
11.14331912752327
 20
4.529012706251858
 10
11.14331912752327
 20
4.667012706251849
 42
0.4142135623730951
 10
11.12831912752326
 20
4.68201270625185
 10
10.53959905898275
 20
4.682012706251818
 42
0.3394542588633731
 10
10.52511017158842
 20
4.670894991928356
 10
10.48813318303292
 20
4.532894991928358
 42
0.4931454260313063
 10
10.50262207042725
 20
4.514012706251818
  0
LWPOLYLINE
  5
4B3947
330
4B1AC8
100
AcDbEntity
  8
10
100
AcDbPolyline
 90
        8
 70
     1
 43
0.0
 10
11.48192838163872
 20
5.603083258612667
 42
-0.3394542588634429
 10
11.48965578824904
 20
5.60901270625185
 10
11.50231912752325
 20
5.60901270625185
 42
-0.4142135623729975
 10
11.51031912752324
 20
5.601012706251847
 10
11.51031912752328
 20
4.809012706251795
 42
-0.4142135623731549
 10
11.49531912752327
 20
4.794012706251795
 10
11.28468696110645
 20
4.79401270625183
 42
-0.4931454260312531
 10
11.27019807371212
 20
4.812894991928367
  0
LWPOLYLINE
  5
4B3948
330
4B1AC8
100
AcDbEntity
  8
10
100
AcDbPolyline
 90
       12
 70
     1
 43
0.0
 10
11.15447260703787
 20
4.136581457808601
 42
0.3401424000459158
 10
11.14331912752324
 20
4.122083034440674
 10
11.14331912752326
 20
3.495012706251846
 42
0.4142135623730951
 10
11.15831912752326
 20
3.480012706251845
 10
11.85731912752326
 20
3.480012706251842
 42
0.4142135623730951
 10
11.87231912752326
 20
3.495012706251842
 10
11.87231912752327
 20
4.371012706251858
 42
0.4142135623730951
 10
11.85731912752327
 20
4.386012706251858
 10
11.25631912752326
 20
4.386012706251858
 42
0.4142135623731213
 10
11.24131912752326
 20
4.371012706251858
 10
11.24131912752329
 20
4.171161708372854
 42
-0.3401424000459496
 10
11.23016564800865
 20
4.156663285004925
  0
LWPOLYLINE
  5
4B394A
330
4B1AC8
100
AcDbEntity
  8
10
100
AcDbPolyline
 90
       65
 70
     1
 43
0.0
 10
11.1433191275233
 20
4.246552043217953
 10
11.14331912752328
 20
4.401012706251868
 42
0.4142135623730864
 10
11.12831912752328
 20
4.416012706251866
 10
10.45681466897639
 20
4.416012706251827
 10
10.44877619320345
 20
4.386012706251833
 10
10.34731912752326
 20
4.386012706251833
 10
10.44097517904253
 20
4.735541848957962
 42
-0.3394542588633526
 10
10.49893072861987
 20
4.780012706251809
 10
11.14842032131993
 20
4.780012706251856
 42
0.3394542588633642
 10
11.16290920871427
 20
4.791130420575318
 10
11.39640319722467
 20
5.662541848958035
 42
-0.3394542588634112
 10
11.45435874680202
 20
5.707012706251884
 10
12.15531912752326
 20
5.707012706251792
 42
-0.4142135623730951
 10
12.17031912752326
 20
5.692012706251792
 10
12.17031912752325
 20
5.637012706251857
 42
-0.4142135623730688
 10
12.14031912752326
 20
5.607012706251857
 10
12.08031912752325
 20
5.607012706251852
 42
-0.41421356237303
 10
12.07231912752325
 20
5.615012706251853
 10
12.07231912752324
 20
5.639012706251832
 42
0.4142135623729325
 10
12.06431912752325
 20
5.647012706251826
 10
12.04133836540972
 20
5.647012706251839
 42
0.131652497587552
 10
12.03383836540971
 20
5.645003087308605
 10
11.97498195894914
 20
5.611022325195063
 42
-0.131652497587376
 10
11.96748195894914
 20
5.609012706251827
 10
11.62331912752326
 20
5.609012706251793
 42
0.4142135623732339
 10
11.60831912752327
 20
5.594012706251793
 10
11.60831912752326
 20
4.80901270625181
 42
0.4142135623730951
 10
11.62331912752326
 20
4.79401270625181
 10
13.17531912752324
 20
4.794012706251796
 42
-0.9999999999999998
 10
13.17531912752324
 20
4.714012706251784
 10
11.98531912752326
 20
4.714012706251797
 42
0.4142135623730951
 10
11.97031912752326
 20
4.699012706251797
 10
11.97031912752327
 20
2.47201270625185
 42
-0.4142135623729564
 10
11.95531912752326
 20
2.457012706251842
 10
11.78831912752325
 20
2.457012706251849
 42
-0.4142135623732338
 10
11.77331912752327
 20
2.47201270625185
 10
11.77331912752327
 20
2.540012706251848
 42
-0.4142135623732338
 10
11.78831912752325
 20
2.555012706251841
 10
11.85731912752327
 20
2.555012706251848
 42
0.4142135623732337
 10
11.87231912752326
 20
2.570012706251849
 10
11.87231912752326
 20
2.73701270625185
 42
0.4142135623732337
 10
11.85731912752327
 20
2.752012706251844
 10
11.57131912752327
 20
2.752012706251851
 42
0.4142135623729561
 10
11.55631912752325
 20
2.73701270625185
 10
11.55631912752325
 20
2.570012706251849
 42
0.4142135623729563
 10
11.57131912752327
 20
2.555012706251841
 10
11.64031912752326
 20
2.555012706251848
 42
-0.4142135623729563
 10
11.65531912752327
 20
2.540012706251848
 10
11.65531912752327
 20
2.47201270625185
 42
-0.4142135623729564
 10
11.64031912752326
 20
2.457012706251842
 10
11.18431912752327
 20
2.457012706251846
 42
-0.4142135623730864
 10
11.12431912752327
 20
2.517012706251845
 10
11.12431912752327
 20
2.81601270625183
 42
-0.4931454260309717
 10
11.14320141319981
 20
2.83050159364618
 10
11.20343684184671
 20
2.81436155918448
 42
0.4931454260309717
 10
11.22231912752325
 20
2.82885044657883
 10
11.22231912752325
 20
3.367012706251846
 42
0.414213562373234
 10
11.20731912752326
 20
3.382012706251846
 10
11.13931912752325
 20
3.382012706251846
 42
0.4142135623732339
 10
11.12431912752327
 20
3.367012706251846
 10
11.12431912752327
 20
3.224512706251847
 42
-0.9999999999999998
 10
11.04531912752326
 20
3.224512706251847
 10
11.04531912752326
 20
4.197473369285775
 42
-0.3401424000459107
 10
11.05647260703789
 20
4.211971792653702
 10
11.13216564800866
 20
4.232053619850025
 42
0.3401424000459436
  0
ARC
  5
4B394B
330
4B1AC8
100
AcDbEntity
  8
10
100
AcDbCircle
 10
11.87231912752325
 20
3.125012706251842
 30
0.0
 40
0.015
100
AcDbArc
 50
90.0
 51
270.0
  0
LINE
  5
4B394C
330
4B1AC8
100
AcDbEntity
  8
CENTER
  6
CENTER2
 48
0.4
100
AcDbLine
 10
12.96531912752326
 20
4.436456533195785
 30
0.0
 11
12.96531912752326
 21
5.065207017073808
 31
0.0
  0
LINE
  5
4B394D
330
4B1AC8
100
AcDbEntity
  8
HIDDEN
  6
HIDDEN
 48
0.125
100
AcDbLine
 10
13.05931912752327
 20
4.714012706251777
 30
0.0
 11
13.05931912752327
 21
4.794012706251796
 31
0.0
  0
LINE
  5
4B394E
330
4B1AC8
100
AcDbEntity
  8
HIDDEN
  6
HIDDEN
 48
0.125
100
AcDbLine
 10
12.87131912752326
 20
4.714012706251784
 30
0.0
 11
12.87131912752326
 21
4.794012706251796
 31
0.0
  0
ARC
  5
4B3950
330
4B1AC8
100
AcDbEntity
  8
10
100
AcDbCircle
 10
11.87231912752325
 20
3.125012706251842
 30
0.0
 40
0.015
100
AcDbArc
 50
90.0
 51
270.0
  0
LWPOLYLINE
  5
4B395C
330
4B1AC8
100
AcDbEntity
  8
10
100
AcDbPolyline
 90
        8
 70
     1
 43
0.0
 10
4.586285417030485
 20
17.57798531292284
 10
4.586285417030482
 20
17.05598531292283
 42
-0.4142135623730857
 10
4.571285417030481
 20
17.04098531292283
 10
4.051285417030489
 20
17.04098531292283
 42
-0.4142135623730953
 10
4.036285417030488
 20
17.05598531292283
 10
4.036285417030488
 20
17.5779853129228
 42
-0.4142135623730839
 10
4.051285417030489
 20
17.5929853129228
 10
4.571285417030485
 20
17.59298531292284
 42
-0.4142135623731205
  0
LWPOLYLINE
  5
4B395D
330
4B1AC8
100
AcDbEntity
  8
10
100
AcDbPolyline
 90
        8
 70
     1
 43
0.0
 10
2.737285417030538
 20
17.59298531292283
 42
0.4142135623730951
 10
2.722285417030538
 20
17.57798531292283
 10
2.722285417030495
 20
16.95898531292282
 42
0.4142135623731151
 10
2.737285417030496
 20
16.94398531292282
 10
2.955285417030496
 20
16.94398531292282
 42
0.4142135623729563
 10
2.970285417030503
 20
16.95898531292283
 10
2.970285417030482
 20
17.57798531292284
 42
0.4142135623732337
 10
2.955285417030482
 20
17.59298531292283
  0
LWPOLYLINE
  5
4B395E
330
4B1AC8
100
AcDbEntity
  8
10
100
AcDbPolyline
 90
       12
 70
     1
 43
0.0
 10
4.881285417030484
 20
17.16398531292281
 10
4.881285417030473
 20
16.95798531292285
 42
-0.4142135623730906
 10
4.866285417030472
 20
16.94298531292285
 10
4.748285417030481
 20
16.94298531292283
 42
-0.4142135623731157
 10
4.73328541703048
 20
16.95798531292284
 10
4.733285417030484
 20
17.02598531292282
 42
0.4142135623730701
 10
4.718285417030483
 20
17.04098531292282
 10
4.681285417030491
 20
17.04098531292283
 42
-0.414213562373009
 10
4.666285417030494
 20
17.05598531292283
 10
4.666285417030484
 20
17.16398531292285
 42
-0.4142135623731397
 10
4.681285417030484
 20
17.17898531292285
 10
4.866285417030483
 20
17.17898531292281
 42
-0.4142135623730836
  0
LWPOLYLINE
  5
4B395F
330
4B1AC8
100
AcDbEntity
  8
10
100
AcDbPolyline
 90
        8
 70
     1
 43
0.0
 10
2.922285417030473
 20
16.84898531292283
 42
0.4142135623730984
 10
2.907285417030473
 20
16.86398531292283
 10
2.769285417030482
 20
16.86398531292283
 42
0.4142135623730951
 10
2.754285417030481
 20
16.84898531292283
 10
2.754285417030509
 20
16.26026524438232
 42
0.3394542588633731
 10
2.765403131353971
 20
16.24577635698799
 10
2.903403131353969
 20
16.20879936843248
 42
0.4931454260313063
 10
2.922285417030509
 20
16.22328825582682
  0
LWPOLYLINE
  5
4B3960
330
4B1AC8
100
AcDbEntity
  8
10
100
AcDbPolyline
 90
        8
 70
     1
 43
0.0
 10
1.833214864669661
 20
17.20259456703829
 42
-0.3394542588634429
 10
1.827285417030478
 20
17.2103219736486
 10
1.827285417030478
 20
17.22298531292281
 42
-0.4142135623729975
 10
1.835285417030481
 20
17.23098531292281
 10
2.627285417030535
 20
17.23098531292285
 42
-0.4142135623731549
 10
2.642285417030536
 20
17.21598531292284
 10
2.642285417030501
 20
17.00535314650602
 42
-0.4931454260312531
 10
2.623403131353961
 20
16.99086425911169
  0
LWPOLYLINE
  5
4B3961
330
4B1AC8
100
AcDbEntity
  8
10
100
AcDbPolyline
 90
       12
 70
     1
 43
0.0
 10
3.299716665473728
 20
16.87513879243744
 42
0.3401424000459158
 10
3.314215088841657
 20
16.86398531292281
 10
3.941285417030482
 20
16.86398531292283
 42
0.4142135623730951
 10
3.956285417030483
 20
16.87898531292283
 10
3.956285417030486
 20
17.57798531292283
 42
0.4142135623730951
 10
3.941285417030486
 20
17.59298531292283
 10
3.06528541703047
 20
17.59298531292284
 42
0.4142135623730951
 10
3.05028541703047
 20
17.57798531292284
 10
3.05028541703047
 20
16.97698531292283
 42
0.4142135623731213
 10
3.06528541703047
 20
16.96198531292283
 10
3.265136414909474
 20
16.96198531292285
 42
-0.3401424000459496
 10
3.279634838277403
 20
16.95083183340822
  0
LWPOLYLINE
  5
4B3962
330
4B1AC8
100
AcDbEntity
  8
10
100
AcDbPolyline
 90
       65
 70
     1
 43
0.0
 10
3.189746080064375
 20
16.86398531292286
 10
3.035285417030462
 20
16.86398531292285
 42
0.4142135623730864
 10
3.020285417030465
 20
16.84898531292285
 10
3.020285417030501
 20
16.17748085437596
 10
3.050285417030495
 20
16.16944237860302
 10
3.050285417030495
 20
16.06798531292283
 10
2.700756274324366
 20
16.1616413644421
 42
-0.3394542588633526
 10
2.656285417030521
 20
16.21959691401943
 10
2.656285417030475
 20
16.8690865067195
 42
0.3394542588633642
 10
2.64516770270701
 20
16.88357539411384
 10
1.773756274324292
 20
17.11706938262423
 42
-0.3394542588634112
 10
1.729285417030447
 20
17.17502493220159
 10
1.729285417030536
 20
17.87598531292283
 42
-0.4142135623730951
 10
1.744285417030536
 20
17.89098531292283
 10
1.799285417030472
 20
17.89098531292282
 42
-0.4142135623730688
 10
1.82928541703047
 20
17.86098531292283
 10
1.829285417030477
 20
17.80098531292282
 42
-0.41421356237303
 10
1.821285417030474
 20
17.79298531292282
 10
1.797285417030498
 20
17.79298531292281
 42
0.4142135623729325
 10
1.789285417030503
 20
17.78498531292282
 10
1.789285417030492
 20
17.76200455080928
 42
0.131652497587552
 10
1.791295035973726
 20
17.75450455080928
 10
1.825275798087266
 20
17.69564814434871
 42
-0.131652497587376
 10
1.827285417030503
 20
17.68814814434871
 10
1.827285417030535
 20
17.34398531292282
 42
0.4142135623732339
 10
1.842285417030535
 20
17.32898531292284
 10
2.627285417030518
 20
17.32898531292283
 42
0.4142135623730951
 10
2.642285417030518
 20
17.34398531292283
 10
2.642285417030532
 20
18.8959853129228
 42
-0.9999999999999998
 10
2.722285417030545
 20
18.8959853129228
 10
2.722285417030531
 20
17.70598531292282
 42
0.4142135623730951
 10
2.737285417030531
 20
17.69098531292282
 10
4.964285417030478
 20
17.69098531292284
 42
-0.4142135623729564
 10
4.979285417030486
 20
17.67598531292282
 10
4.979285417030479
 20
17.50898531292282
 42
-0.4142135623732338
 10
4.964285417030478
 20
17.49398531292284
 10
4.896285417030481
 20
17.49398531292284
 42
-0.4142135623732338
 10
4.881285417030487
 20
17.50898531292282
 10
4.88128541703048
 20
17.57798531292284
 42
0.4142135623732337
 10
4.866285417030479
 20
17.59298531292283
 10
4.699285417030478
 20
17.59298531292283
 42
0.4142135623732337
 10
4.684285417030484
 20
17.57798531292284
 10
4.684285417030477
 20
17.29198531292284
 42
0.4142135623729561
 10
4.699285417030478
 20
17.27698531292282
 10
4.866285417030479
 20
17.27698531292282
 42
0.4142135623729563
 10
4.881285417030487
 20
17.29198531292284
 10
4.88128541703048
 20
17.36098531292283
 42
-0.4142135623729563
 10
4.896285417030481
 20
17.37598531292284
 10
4.964285417030478
 20
17.37598531292284
 42
-0.4142135623729564
 10
4.979285417030486
 20
17.36098531292283
 10
4.979285417030482
 20
16.90498531292283
 42
-0.4142135623730864
 10
4.919285417030484
 20
16.84498531292283
 10
4.620285417030498
 20
16.84498531292283
 42
-0.4931454260309717
 10
4.605796529636148
 20
16.86386759859938
 10
4.621936564097848
 20
16.92410302724628
 42
0.4931454260309717
 10
4.607447676703498
 20
16.94298531292282
 10
4.069285417030482
 20
16.94298531292282
 42
0.414213562373234
 10
4.054285417030482
 20
16.92798531292283
 10
4.054285417030482
 20
16.85998531292282
 42
0.4142135623732339
 10
4.069285417030482
 20
16.84498531292283
 10
4.211785417030481
 20
16.84498531292283
 42
-0.9999999999999998
 10
4.211785417030481
 20
16.76598531292283
 10
3.238824753996554
 20
16.76598531292283
 42
-0.3401424000459107
 10
3.224326330628628
 20
16.77713879243746
 10
3.204244503432303
 20
16.85283183340823
 42
0.3401424000459436
  0
ARC
  5
4B3963
330
4B1AC8
100
AcDbEntity
  8
10
100
AcDbCircle
 10
4.311285417030487
 20
17.59298531292282
 30
0.0
 40
0.015
100
AcDbArc
 50
180.0
 51
0.0
  0
LINE
  5
4B3964
330
4B1AC8
100
AcDbEntity
  8
CENTER
  6
CENTER2
 48
0.4
100
AcDbLine
 10
2.999841590086544
 20
18.68598531292282
 30
0.0
 11
2.371091106208521
 21
18.68598531292282
 31
0.0
  0
LINE
  5
4B3965
330
4B1AC8
100
AcDbEntity
  8
HIDDEN
  6
HIDDEN
 48
0.125
100
AcDbLine
 10
2.722285417030552
 20
18.77998531292283
 30
0.0
 11
2.642285417030532
 21
18.77998531292283
 31
0.0
  0
LINE
  5
4B3966
330
4B1AC8
100
AcDbEntity
  8
HIDDEN
  6
HIDDEN
 48
0.125
100
AcDbLine
 10
2.722285417030545
 20
18.59198531292283
 30
0.0
 11
2.642285417030532
 21
18.59198531292283
 31
0.0
  0
ARC
  5
4B3967
330
4B1AC8
100
AcDbEntity
  8
10
100
AcDbCircle
 10
4.311285417030487
 20
17.59298531292282
 30
0.0
 40
0.015
100
AcDbArc
 50
180.0
 51
0.0
  0
LWPOLYLINE
  5
4B3968
330
4B1AC8
100
AcDbEntity
  8
10
100
AcDbPolyline
 90
        8
 70
     1
 43
0.0
 10
4.586285417030467
 20
11.37898531292272
 10
4.586285417030463
 20
11.90098531292272
 42
0.4142135623730857
 10
4.571285417030463
 20
11.91598531292272
 10
4.05128541703047
 20
11.91598531292272
 42
0.4142135623730953
 10
4.03628541703047
 20
11.90098531292272
 10
4.03628541703047
 20
11.37898531292276
 42
0.4142135623730839
 10
4.05128541703047
 20
11.36398531292276
 10
4.571285417030466
 20
11.36398531292272
 42
0.4142135623731205
  0
LWPOLYLINE
  5
4B3969
330
4B1AC8
100
AcDbEntity
  8
10
100
AcDbPolyline
 90
        8
 70
     1
 43
0.0
 10
2.73728541703052
 20
11.36398531292273
 42
-0.4142135623730951
 10
2.722285417030519
 20
11.37898531292273
 10
2.722285417030477
 20
11.99798531292274
 42
-0.4142135623731151
 10
2.737285417030477
 20
12.01298531292274
 10
2.955285417030477
 20
12.01298531292274
 42
-0.4142135623729563
 10
2.970285417030485
 20
11.99798531292272
 10
2.970285417030464
 20
11.37898531292272
 42
-0.4142135623732337
 10
2.955285417030463
 20
11.36398531292273
  0
LWPOLYLINE
  5
4B396A
330
4B1AC8
100
AcDbEntity
  8
10
100
AcDbPolyline
 90
       12
 70
     1
 43
0.0
 10
4.881285417030465
 20
11.79298531292275
 10
4.881285417030454
 20
11.99898531292271
 42
0.4142135623730906
 10
4.866285417030454
 20
12.01398531292271
 10
4.748285417030462
 20
12.01398531292272
 42
0.4142135623731157
 10
4.733285417030462
 20
11.99898531292272
 10
4.733285417030465
 20
11.93098531292274
 42
-0.4142135623730701
 10
4.718285417030465
 20
11.91598531292274
 10
4.681285417030473
 20
11.91598531292272
 42
0.414213562373009
 10
4.666285417030476
 20
11.90098531292272
 10
4.666285417030465
 20
11.7929853129227
 42
0.4142135623731397
 10
4.681285417030466
 20
11.7779853129227
 10
4.866285417030464
 20
11.77798531292275
 42
0.4142135623730836
  0
LWPOLYLINE
  5
4B396B
330
4B1AC8
100
AcDbEntity
  8
10
100
AcDbPolyline
 90
        8
 70
     1
 43
0.0
 10
2.922285417030455
 20
12.10798531292272
 42
-0.4142135623730984
 10
2.907285417030454
 20
12.09298531292272
 10
2.769285417030463
 20
12.09298531292272
 42
-0.4142135623730951
 10
2.754285417030462
 20
12.10798531292272
 10
2.754285417030491
 20
12.69670538146323
 42
-0.3394542588633731
 10
2.765403131353952
 20
12.71119426885757
 10
2.90340313135395
 20
12.74817125741307
 42
-0.4931454260313063
 10
2.92228541703049
 20
12.73368237001873
  0
LWPOLYLINE
  5
4B396C
330
4B1AC8
100
AcDbEntity
  8
10
100
AcDbPolyline
 90
        8
 70
     1
 43
0.0
 10
1.833214864669642
 20
11.75437605880726
 42
0.3394542588634429
 10
1.827285417030459
 20
11.74664865219695
 10
1.827285417030459
 20
11.73398531292274
 42
0.4142135623729975
 10
1.835285417030462
 20
11.72598531292274
 10
2.627285417030517
 20
11.72598531292271
 42
0.4142135623731549
 10
2.642285417030517
 20
11.74098531292272
 10
2.642285417030482
 20
11.95161747933954
 42
0.4931454260312531
 10
2.623403131353942
 20
11.96610636673387
  0
LWPOLYLINE
  5
4B396D
330
4B1AC8
100
AcDbEntity
  8
10
100
AcDbPolyline
 90
       12
 70
     1
 43
0.0
 10
3.29971666547371
 20
12.08183183340812
 42
-0.3401424000459158
 10
3.314215088841638
 20
12.09298531292275
 10
3.941285417030464
 20
12.09298531292273
 42
-0.4142135623730951
 10
3.956285417030464
 20
12.07798531292273
 10
3.956285417030468
 20
11.37898531292273
 42
-0.4142135623730951
 10
3.941285417030467
 20
11.36398531292273
 10
3.065285417030452
 20
11.36398531292272
 42
-0.4142135623730951
 10
3.050285417030451
 20
11.37898531292272
 10
3.050285417030451
 20
11.97998531292273
 42
-0.4142135623731213
 10
3.065285417030452
 20
11.99498531292273
 10
3.265136414909456
 20
11.9949853129227
 42
0.3401424000459496
 10
3.279634838277385
 20
12.00613879243733
  0
LWPOLYLINE
  5
4B396E
330
4B1AC8
100
AcDbEntity
  8
10
100
AcDbPolyline
 90
       65
 70
     1
 43
0.0
 10
3.189746080064356
 20
12.09298531292269
 10
3.035285417030443
 20
12.09298531292271
 42
-0.4142135623730864
 10
3.020285417030446
 20
12.10798531292271
 10
3.020285417030482
 20
12.7794897714696
 10
3.050285417030476
 20
12.78752824724253
 10
3.050285417030476
 20
12.88898531292272
 10
2.700756274324348
 20
12.79532926140346
 42
0.3394542588633526
 10
2.656285417030503
 20
12.73737371182612
 10
2.656285417030456
 20
12.08788411912605
 42
-0.3394542588633642
 10
2.645167702706991
 20
12.07339523173172
 10
1.773756274324274
 20
11.83990124322132
 42
0.3394542588634112
 10
1.729285417030428
 20
11.78194569364397
 10
1.729285417030517
 20
11.08098531292273
 42
0.4142135623730951
 10
1.744285417030518
 20
11.06598531292273
 10
1.799285417030453
 20
11.06598531292273
 42
0.4142135623730688
 10
1.829285417030451
 20
11.09598531292273
 10
1.829285417030458
 20
11.15598531292274
 42
0.41421356237303
 10
1.821285417030455
 20
11.16398531292273
 10
1.797285417030479
 20
11.16398531292274
 42
-0.4142135623729325
 10
1.789285417030484
 20
11.17198531292274
 10
1.789285417030473
 20
11.19496607503627
 42
-0.131652497587552
 10
1.791295035973707
 20
11.20246607503628
 10
1.825275798087247
 20
11.26132248149684
 42
0.131652497587376
 10
1.827285417030484
 20
11.26882248149684
 10
1.827285417030516
 20
11.61298531292273
 42
-0.4142135623732339
 10
1.842285417030517
 20
11.62798531292271
 10
2.627285417030499
 20
11.62798531292273
 42
-0.4142135623730951
 10
2.6422854170305
 20
11.61298531292273
 10
2.642285417030514
 20
10.06098531292275
 42
0.9999999999999998
 10
2.722285417030526
 20
10.06098531292275
 10
2.722285417030512
 20
11.25098531292273
 42
-0.4142135623730951
 10
2.737285417030513
 20
11.26598531292273
 10
4.96428541703046
 20
11.26598531292272
 42
0.4142135623729564
 10
4.979285417030467
 20
11.28098531292273
 10
4.97928541703046
 20
11.44798531292273
 42
0.4142135623732338
 10
4.96428541703046
 20
11.46298531292272
 10
4.896285417030462
 20
11.46298531292272
 42
0.4142135623732338
 10
4.881285417030468
 20
11.44798531292273
 10
4.881285417030461
 20
11.37898531292272
 42
-0.4142135623732337
 10
4.866285417030461
 20
11.36398531292273
 10
4.699285417030459
 20
11.36398531292273
 42
-0.4142135623732337
 10
4.684285417030466
 20
11.37898531292272
 10
4.684285417030459
 20
11.66498531292272
 42
-0.4142135623729561
 10
4.699285417030459
 20
11.67998531292273
 10
4.866285417030461
 20
11.67998531292273
 42
-0.4142135623729563
 10
4.881285417030468
 20
11.66498531292272
 10
4.881285417030461
 20
11.59598531292273
 42
0.4142135623729563
 10
4.896285417030462
 20
11.58098531292272
 10
4.96428541703046
 20
11.58098531292272
 42
0.4142135623729564
 10
4.979285417030467
 20
11.59598531292273
 10
4.979285417030464
 20
12.05198531292272
 42
0.4142135623730864
 10
4.919285417030465
 20
12.11198531292272
 10
4.62028541703048
 20
12.11198531292272
 42
0.4931454260309717
 10
4.60579652963613
 20
12.09310302724618
 10
4.621936564097829
 20
12.03286759859928
 42
-0.4931454260309717
 10
4.607447676703479
 20
12.01398531292274
 10
4.069285417030464
 20
12.01398531292274
 42
-0.414213562373234
 10
4.054285417030463
 20
12.02898531292272
 10
4.054285417030463
 20
12.09698531292273
 42
-0.4142135623732339
 10
4.069285417030464
 20
12.11198531292272
 10
4.211785417030462
 20
12.11198531292272
 42
0.9999999999999998
 10
4.211785417030462
 20
12.19098531292273
 10
3.238824753996535
 20
12.19098531292273
 42
0.3401424000459107
 10
3.22432633062861
 20
12.1798318334081
 10
3.204244503432285
 20
12.10413879243732
 42
-0.3401424000459436
  0
ARC
  5
4B396F
330
4B1AC8
100
AcDbEntity
  8
10
100
AcDbCircle
 10
4.311285417030468
 20
11.36398531292274
 30
0.0
 40
0.015
100
AcDbArc
 50
0.0
 51
180.0
  0
LINE
  5
4B3970
330
4B1AC8
100
AcDbEntity
  8
CENTER
  6
CENTER2
 48
0.4
100
AcDbLine
 10
2.999841590086525
 20
10.27098531292273
 30
0.0
 11
2.371091106208503
 21
10.27098531292273
 31
0.0
  0
LINE
  5
4B3971
330
4B1AC8
100
AcDbEntity
  8
HIDDEN
  6
HIDDEN
 48
0.125
100
AcDbLine
 10
2.722285417030533
 20
10.17698531292272
 30
0.0
 11
2.642285417030514
 21
10.17698531292272
 31
0.0
  0
LINE
  5
4B3972
330
4B1AC8
100
AcDbEntity
  8
HIDDEN
  6
HIDDEN
 48
0.125
100
AcDbLine
 10
2.722285417030526
 20
10.36498531292272
 30
0.0
 11
2.642285417030514
 21
10.36498531292272
 31
0.0
  0
ARC
  5
4B3973
330
4B1AC8
100
AcDbEntity
  8
10
100
AcDbCircle
 10
4.311285417030468
 20
11.36398531292274
 30
0.0
 40
0.015
100
AcDbArc
 50
0.0
 51
180.0
  0
LWPOLYLINE
  5
4B39B6
330
4B1AC8
100
AcDbEntity
  8
THIN
100
AcDbPolyline
 90
        4
 70
     1
 43
0.0
 10
6.40781912752331
 20
3.363512706251847
 10
6.532819127523219
 20
3.363512706251847
 10
6.532819127523219
 20
4.363512706251847
 10
6.40781912752331
 20
4.363512706251847
1001
GENIUS_GENREC_14
1002
{
1000
PYDIR
1011
6.40781912752331
1021
4.363512706251847
1031
0.0
1002
}
1002
{
1000
PXDIR
1011
6.532819127523219
1021
3.363512706251847
1031
0.0
1002
}
1002
{
1000
PORI
1011
6.40781912752331
1021
3.363512706251847
1031
0.0
1002
}
1002
{
1000
PINS
1011
6.40781912752331
1021
3.363512706251847
1031
0.0
1002
}
1002
{
1000
PINS2
1011
6.532819127523219
1021
4.363512706251847
1031
0.0
1002
}
1002
{
1000
C
1070
     1
1002
}
1001
GENIUS_GENOBJ-N-REC_13
1002
{
1000
OWNER
1000
GEN
1002
}
1001
GENIUS_GENODEF_13
1002
{
1000
HIER
1070
     0
1002
}
1002
{
1000
MANEDIT
1070
     0
1002
}
1002
{
1000
NOSEL
1070
     0
1002
}
1002
{
1000
BEHIND
1070
     0
1002
}
1002
{
1000
OTHER
1070
     0
1002
}
1002
{
1000
REACTOR
1002
}
  0
LWPOLYLINE
  5
4B39BA
330
4B1AC8
100
AcDbEntity
  8
THIN
100
AcDbPolyline
 90
        4
 70
     1
 43
0.0
 10
10.92031912752327
 20
3.363512706251847
 10
11.04531912752318
 20
3.363512706251847
 10
11.04531912752318
 20
4.363512706251847
 10
10.92031912752327
 20
4.363512706251847
1001
GENIUS_GENREC_14
1002
{
1000
PYDIR
1011
10.92031912752327
1021
4.363512706251847
1031
0.0
1002
}
1002
{
1000
PXDIR
1011
11.04531912752318
1021
3.363512706251847
1031
0.0
1002
}
1002
{
1000
PORI
1011
10.92031912752327
1021
3.363512706251847
1031
0.0
1002
}
1002
{
1000
PINS
1011
10.92031912752327
1021
3.363512706251847
1031
0.0
1002
}
1002
{
1000
PINS2
1011
11.04531912752318
1021
4.363512706251847
1031
0.0
1002
}
1002
{
1000
C
1070
     1
1002
}
1001
GENIUS_GENOBJ-N-REC_13
1002
{
1000
OWNER
1000
GEN
1002
}
1001
GENIUS_GENODEF_13
1002
{
1000
HIER
1070
     0
1002
}
1002
{
1000
MANEDIT
1070
     0
1002
}
1002
{
1000
NOSEL
1070
     0
1002
}
1002
{
1000
BEHIND
1070
     0
1002
}
1002
{
1000
OTHER
1070
     0
1002
}
1002
{
1000
REACTOR
1002
}
  0
LWPOLYLINE
  5
4B39DB
330
4B1AC8
100
AcDbEntity
  8
THIN
100
AcDbPolyline
 90
        4
 70
     1
 43
0.0
 10
4.07278541703053
 20
12.19098531292298
 10
4.07278541703053
 20
12.31598531292289
 10
3.07278541703053
 20
12.31598531292289
 10
3.07278541703053
 20
12.19098531292298
1001
GENIUS_GENREC_14
1002
{
1000
PYDIR
1011
3.07278541703053
1021
12.19098531292298
1031
0.0
1002
}
1002
{
1000
PXDIR
1011
4.07278541703053
1021
12.31598531292289
1031
0.0
1002
}
1002
{
1000
PORI
1011
4.07278541703053
1021
12.19098531292298
1031
0.0
1002
}
1002
{
1000
PINS
1011
4.07278541703053
1021
12.19098531292298
1031
0.0
1002
}
1002
{
1000
PINS2
1011
3.07278541703053
1021
12.31598531292289
1031
0.0
1002
}
1002
{
1000
C
1070
     1
1002
}
1001
GENIUS_GENOBJ-N-REC_13
1002
{
1000
OWNER
1000
GEN
1002
}
1001
GENIUS_GENODEF_13
1002
{
1000
HIER
1070
     0
1002
}
1002
{
1000
MANEDIT
1070
     0
1002
}
1002
{
1000
NOSEL
1070
     0
1002
}
1002
{
1000
BEHIND
1070
     0
1002
}
1002
{
1000
OTHER
1070
     0
1002
}
1002
{
1000
REACTOR
1002
}
  0
LWPOLYLINE
  5
4B39FA
330
4B1AC8
100
AcDbEntity
  8
THIN
100
AcDbPolyline
 90
        4
 70
     1
 43
0.0
 10
4.072785417030483
 20
16.64098531292293
 10
4.072785417030483
 20
16.76598531292284
 10
3.072785417030483
 20
16.76598531292284
 10
3.072785417030483
 20
16.64098531292293
1001
GENIUS_GENREC_14
1002
{
1000
PYDIR
1011
3.072785417030483
1021
16.64098531292293
1031
0.0
1002
}
1002
{
1000
PXDIR
1011
4.072785417030483
1021
16.76598531292284
1031
0.0
1002
}
1002
{
1000
PORI
1011
4.072785417030483
1021
16.64098531292293
1031
0.0
1002
}
1002
{
1000
PINS
1011
4.072785417030483
1021
16.64098531292293
1031
0.0
1002
}
1002
{
1000
PINS2
1011
3.072785417030483
1021
16.76598531292284
1031
0.0
1002
}
1002
{
1000
C
1070
     1
1002
}
1001
GENIUS_GENOBJ-N-REC_13
1002
{
1000
OWNER
1000
GEN
1002
}
1001
GENIUS_GENODEF_13
1002
{
1000
HIER
1070
     0
1002
}
1002
{
1000
MANEDIT
1070
     0
1002
}
1002
{
1000
NOSEL
1070
     0
1002
}
1002
{
1000
BEHIND
1070
     0
1002
}
1002
{
1000
OTHER
1070
     0
1002
}
1002
{
1000
REACTOR
1002
}
  0
ARC
  5
4B429A
330
4B1AC8
100
AcDbEntity
  8
THIN
100
AcDbCircle
 10
1.699285418717604
 20
17.72252977394556
 30
0.0
 40
0.0299999983129121
100
AcDbArc
 50
0.0
 51
179.9999999999788
  0
HATCH
  5
4B429B
330
4B1AC8
100
AcDbEntity
  8
XTHIN
100
AcDbHatch
 10
0.0
 20
0.0
 30
0.0
210
0.0
220
0.0
230
1.0
  2
ANSI31
 70
     0
 71
     0
 91
        1
 92
       33
 93
        4
 72
     2
 10
1.699285418717604
 20
17.72252977394556
 40
0.0299999983129121
 50
0.0
 51
179.9999999999796
 73
     1
 72
     1
 10
1.729285417030521
 20
17.45847701595341
 11
1.729285419630937
 21
17.72140235391777
 72
     1
 10
1.669285420404744
 20
17.72252977394556
 11
1.669285420404687
 21
17.45847701595338
 72
     2
 10
1.699285418717604
 20
17.45847701595341
 40
0.0299999983129121
 50
179.9999999999796
 51
360.0
 73
     1
 97
        0
 75
     0
 76
     1
 52
90.0
 41
0.25
 77
     0
 78
     1
 53
45.0
 43
25.94180138488079
 44
-0.3026841899771249
 45
0.0220970869120796
 46
-0.0220970869120796
 79
     0
 98
        1
 10
6.526371941588959
 20
-0.3026841899771249
  0
INSERT
  5
4B429C
330
4B1AC8
100
AcDbEntity
  8
THIN
100
AcDbBlockReference
  2
B4823 small offset flat casing
 10
2.62728542209285
 20
17.92098531292283
 30
0.0
 41
-1.0
 50
90.0
1001
MTVPROFILELINK
1002
{
1000
#BlockRef=a127c25-0x7035-4a29-9E04-55E5A20013DE| 
1002
}
1005
0
  0
ARC
  5
4B429D
330
4B1AC8
100
AcDbEntity
  8
THIN
100
AcDbCircle
 10
1.699285418717604
 20
17.45847701647279
 30
0.0
 40
0.0299999983129121
100
AcDbArc
 50
180.0000000000212
 51
0.0
  0
ARC
  5
4B42A3
330
4B1AC8
100
AcDbEntity
  8
THIN
100
AcDbCircle
 10
1.699285418717604
 20
11.2344408519
 30
0.0
 40
0.0299999983129121
100
AcDbArc
 50
180.0000000000212
 51
0.0
  0
HATCH
  5
4B42A4
330
4B1AC8
100
AcDbEntity
  8
XTHIN
100
AcDbHatch
 10
0.0
 20
0.0
 30
0.0
210
0.0
220
0.0
230
1.0
  2
ANSI31
 70
     0
 71
     0
 91
        1
 92
       33
 93
        4
 72
     2
 10
1.699285418717604
 20
11.2344408519
 40
0.0299999983129121
 50
0.0
 51
179.9999999999796
 73
     0
 72
     1
 10
1.729285417030521
 20
11.49849360989215
 11
1.729285419630937
 21
11.23556827192778
 72
     1
 10
1.669285420404744
 20
11.2344408519
 11
1.669285420404687
 21
11.49849360989217
 72
     2
 10
1.699285418717604
 20
11.49849360989215
 40
0.0299999983129121
 50
179.9999999999796
 51
360.0
 73
     0
 97
        0
 75
     0
 76
     1
 52
90.0
 41
0.25
 77
     0
 78
     1
 53
45.0
 43
25.94180138488079
 44
3.772315810022872
 45
0.0220970869120796
 46
-0.0220970869120796
 79
     0
 98
        1
 10
6.526371941588959
 20
29.25965481582269
  0
INSERT
  5
4B42A5
330
4B1AC8
100
AcDbEntity
  8
THIN
100
AcDbBlockReference
  2
B4823 small offset flat casing
 10
2.62728542209285
 20
11.03598531292273
 30
0.0
 50
90.0
1001
MTVPROFILELINK
1002
{
1000
#BlockRef=a127c25-0x7035-4a29-9E04-55E5A20013DE| 
1002
}
1005
0
  0
ARC
  5
4B42A6
330
4B1AC8
100
AcDbEntity
  8
THIN
100
AcDbCircle
 10
1.699285418717604
 20
11.49849360937277
 30
0.0
 40
0.0299999983129121
100
AcDbArc
 50
0.0
 51
179.9999999999788
  0
ARC
  5
4B42AD
330
4B1AC8
100
AcDbEntity
  8
THIN
100
AcDbCircle
 10
12.00186358854599
 20
5.737012704564724
 30
0.0
 40
0.0299999983129121
100
AcDbArc
 50
270.0
 51
89.99999999997882
  0
HATCH
  5
4B42AE
330
4B1AC8
100
AcDbEntity
  8
XTHIN
100
AcDbHatch
 10
0.0
 20
0.0
 30
0.0
210
0.0
220
0.0
230
1.0
  2
ANSI31
 70
     0
 71
     0
 91
        1
 92
       33
 93
        4
 72
     2
 10
12.00186358854599
 20
5.737012704564724
 40
0.0299999983129121
 50
-90.00000000000001
 51
89.99999999997964
 73
     1
 72
     1
 10
11.73781083055384
 20
5.707012706251807
 11
12.00073616851821
 21
5.707012703651392
 72
     1
 10
12.00186358854599
 20
5.767012702877584
 11
11.73781083055382
 21
5.767012702877641
 72
     2
 10
11.73781083055384
 20
5.737012704564724
 40
0.0299999983129121
 50
89.99999999997964
 51
270.0
 73
     1
 97
        0
 75
     0
 76
     1
 52
-0.0000000000000127
 41
0.25
 77
     0
 78
     1
 53
315.0
 43
-6.023350375376692
 44
-18.50550326159846
 45
-0.0220970869120796
 46
-0.0220970869120796
 79
     0
 98
        1
 10
-6.023350375376688
 20
0.9099261816933736
  0
INSERT
  5
4B42AF
330
4B1AC8
100
AcDbEntity
  8
THIN
100
AcDbBlockReference
  2
B4823 small offset flat casing
 10
12.20031912752326
 20
4.809012701189478
 30
0.0
 41
-1.0
1001
MTVPROFILELINK
1002
{
1000
#BlockRef=a127c25-0x7035-4a29-9E04-55E5A20013DE| 
1002
}
1005
0
  0
ARC
  5
4B42B0
330
4B1AC8
100
AcDbEntity
  8
THIN
100
AcDbCircle
 10
11.73781083107322
 20
5.737012704564724
 30
0.0
 40
0.0299999983129121
100
AcDbArc
 50
90.0000000000211
 51
270.0
  0
ARC
  5
4B42B2
330
4B1AC8
100
AcDbEntity
  8
THIN
100
AcDbCircle
 10
5.451274666500574
 20
5.737012704564724
 30
0.0
 40
0.0299999983129121
100
AcDbArc
 50
90.0000000000211
 51
270.0
  0
HATCH
  5
4B42B3
330
4B1AC8
100
AcDbEntity
  8
XTHIN
100
AcDbHatch
 10
0.0
 20
0.0
 30
0.0
210
0.0
220
0.0
230
1.0
  2
ANSI31
 70
     0
 71
     0
 91
        1
 92
       33
 93
        4
 72
     2
 10
5.451274666500574
 20
5.737012704564724
 40
0.0299999983129121
 50
-270.0
 51
-90.00000000002037
 73
     0
 72
     1
 10
5.715327424492721
 20
5.707012706251807
 11
5.452402086528359
 21
5.707012703651392
 72
     1
 10
5.451274666500574
 20
5.767012702877584
 11
5.715327424492749
 21
5.767012702877641
 72
     2
 10
5.715327424492721
 20
5.737012704564724
 40
0.0299999983129121
 50
-90.00000000002037
 51
90.0
 73
     0
 97
        0
 75
     0
 76
     1
 52
-0.0000000000000127
 41
0.25
 77
     0
 78
     1
 53
315.0
 43
-4.510850375376716
 44
-18.50550326159846
 45
-0.0220970869120796
 46
-0.0220970869120796
 79
     0
 98
        1
 10
23.47648863042326
 20
0.9099261816933736
  0
INSERT
  5
4B42B4
330
4B1AC8
100
AcDbEntity
  8
THIN
100
AcDbBlockReference
  2
B4823 small offset flat casing
 10
5.252819127523303
 20
4.809012701189478
 30
0.0
1001
MTVPROFILELINK
1002
{
1000
#BlockRef=a127c25-0x7035-4a29-9E04-55E5A20013DE| 
1002
}
1005
0
  0
ARC
  5
4B42B5
330
4B1AC8
100
AcDbEntity
  8
THIN
100
AcDbCircle
 10
5.715327423973342
 20
5.737012704564724
 30
0.0
 40
0.0299999983129121
100
AcDbArc
 50
270.0
 51
89.99999999997882
  0
ARC
  5
4B42C8
330
4B1AC8
100
AcDbEntity
  8
XTHIN
100
AcDbCircle
 10
11.44454416886036
 20
10.76739929779123
 30
0.0
 40
3.640502785999999
100
AcDbArc
 50
5.667155941688123
 51
174.3328440583119
  0
LINE
  5
4B42C9
330
4B1AC8
100
AcDbEntity
  8
XTHIN
100
AcDbLine
 10
7.821834921901665
 20
11.12689651179123
 30
0.0
 11
15.06725341581905
 21
11.12689651179123
 31
0.0
  0
ARC
  5
4B42CA
330
4B1AC8
100
AcDbEntity
  8
XTHIN
100
AcDbCircle
 10
11.44454416886036
 20
10.76739929779123
 30
0.0
 40
3.588446521999999
100
AcDbArc
 50
6.585657397926252
 51
173.4143426020737
  0
LINE
  5
4B42CB
330
4B1AC8
100
AcDbEntity
  8
XTHIN
100
AcDbLine
 10
7.879775989020327
 20
11.17895277579123
 30
0.0
 11
15.00931234870039
 21
11.17895277579123
 31
0.0
  0
ARC
  5
4B42CC
330
4B1AC8
100
AcDbEntity
  8
XTHIN
100
AcDbCircle
 10
11.44454416886036
 20
10.76739929779123
 30
0.0
 40
3.449417181999999
100
AcDbArc
 50
9.18461905286667
 51
170.8153809471333
  0
LINE
  5
4B42CD
330
4B1AC8
100
AcDbEntity
  8
XTHIN
100
AcDbLine
 10
8.039351449497768
 20
11.31798211579123
 30
0.0
 11
14.84973688822295
 21
11.31798211579123
 31
0.0
  0
ARC
  5
4B42CE
330
4B1AC8
100
AcDbEntity
  8
XTHIN
100
AcDbCircle
 10
11.44454416886036
 20
10.76739929779123
 30
0.0
 40
3.426399998
100
AcDbArc
 50
9.637033947775563
 51
170.3629660522244
  0
LINE
  5
4B42CF
330
4B1AC8
100
AcDbEntity
  8
XTHIN
100
AcDbLine
 10
8.06649739831381
 20
11.34099929979123
 30
0.0
 11
14.8225909394069
 21
11.34099929979123
 31
0.0
  0
ARC
  5
4B42D0
330
4B1AC8
100
AcDbEntity
  8
XTHIN
100
AcDbCircle
 10
11.44454416886036
 20
10.76739929779123
 30
0.0
 40
3.396916982
100
AcDbArc
 50
10.22640805734644
 51
169.7735919426534
  0
LINE
  5
4B42D1
330
4B1AC8
100
AcDbEntity
  8
XTHIN
100
AcDbLine
 10
8.101591004964699
 20
11.37048231579123
 30
0.0
 11
14.78749733275602
 21
11.37048231579123
 31
0.0
  0
LINE
  5
4B42D2
330
4B1AC8
100
AcDbEntity
  8
XTHIN
100
AcDbLine
 10
7.793118715733687
 20
11.09666729779123
 30
0.0
 11
8.102335010137778
 21
11.37459195416224
 31
0.0
  0
LINE
  5
4B42D3
330
4B1AC8
100
AcDbEntity
  8
XTHIN
100
AcDbLine
 10
8.359309697919364
 20
11.20719929779125
 30
0.0
 11
8.539309697919392
 21
11.20719929779125
 31
0.0
  0
LINE
  5
4B42D4
330
4B1AC8
100
AcDbEntity
  8
XTHIN
100
AcDbLine
 10
8.359309697919364
 20
11.21119929779124
 30
0.0
 11
8.539309697919392
 21
11.21119929779124
 31
0.0
  0
LINE
  5
4B42D5
330
4B1AC8
100
AcDbEntity
  8
XTHIN
100
AcDbLine
 10
8.359309697919364
 20
11.21879929779124
 30
0.0
 11
8.539309697919392
 21
11.21879929779124
 31
0.0
  0
LINE
  5
4B42D6
330
4B1AC8
100
AcDbEntity
  8
XTHIN
100
AcDbLine
 10
8.359309697919364
 20
11.22519929779123
 30
0.0
 11
8.539309697919392
 21
11.22519929779123
 31
0.0
  0
LINE
  5
4B42D7
330
4B1AC8
100
AcDbEntity
  8
XTHIN
100
AcDbLine
 10
8.359309697919364
 20
11.18479929779123
 30
0.0
 11
8.539309697919392
 21
11.18479929779123
 31
0.0
  0
LINE
  5
4B42D8
330
4B1AC8
100
AcDbEntity
  8
XTHIN
100
AcDbLine
 10
8.349709697919365
 20
11.23919929779122
 30
0.0
 11
8.54890969791937
 21
11.23919929779122
 31
0.0
  0
LINE
  5
4B42D9
330
4B1AC8
100
AcDbEntity
  8
XTHIN
100
AcDbLine
 10
8.349709697919365
 20
11.17719929779123
 30
0.0
 11
8.54890969791937
 21
11.17719929779123
 31
0.0
  0
LINE
  5
4B42DA
330
4B1AC8
100
AcDbEntity
  8
XTHIN
100
AcDbLine
 10
8.359309697919364
 20
11.22519929779123
 30
0.0
 11
8.359309697919364
 21
11.18479929779123
 31
0.0
  0
ARC
  5
4B42DB
330
4B1AC8
100
AcDbEntity
  8
XTHIN
100
AcDbCircle
 10
8.349709697919365
 20
11.20819929779122
 30
0.0
 40
0.0310000000000002
100
AcDbArc
 50
90.0
 51
270.0
  0
LINE
  5
4B42DC
330
4B1AC8
100
AcDbEntity
  8
XTHIN
100
AcDbLine
 10
8.539309697919392
 20
11.22519929779123
 30
0.0
 11
8.539309697919392
 21
11.18479929779123
 31
0.0
  0
ARC
  5
4B42DD
330
4B1AC8
100
AcDbEntity
  8
XTHIN
100
AcDbCircle
 10
8.44930969791936
 20
11.18479929779123
 30
0.0
 40
0.01
100
AcDbArc
 50
0.0
 51
180.0
  0
ARC
  5
4B42DE
330
4B1AC8
100
AcDbEntity
  8
XTHIN
100
AcDbCircle
 10
8.54890969791937
 20
11.20819929779122
 30
0.0
 40
0.0310000000000002
100
AcDbArc
 50
270.0
 51
89.99999999999388
  0
LINE
  5
4B42DF
330
4B1AC8
100
AcDbEntity
  8
XTHIN
100
AcDbLine
 10
14.78675332758294
 20
11.37459195416224
 30
0.0
 11
15.09596962198702
 21
11.09666729779123
 31
0.0
  0
LINE
  5
4B42E3
330
4B1AC8
100
AcDbEntity
  8
XTHIN
100
AcDbLine
 10
14.52977863980135
 20
11.20719929779125
 30
0.0
 11
14.34977863980133
 21
11.20719929779125
 31
0.0
  0
LINE
  5
4B42E4
330
4B1AC8
100
AcDbEntity
  8
XTHIN
100
AcDbLine
 10
14.52977863980135
 20
11.21119929779124
 30
0.0
 11
14.34977863980133
 21
11.21119929779124
 31
0.0
  0
LINE
  5
4B42E5
330
4B1AC8
100
AcDbEntity
  8
XTHIN
100
AcDbLine
 10
14.52977863980135
 20
11.21879929779124
 30
0.0
 11
14.34977863980133
 21
11.21879929779124
 31
0.0
  0
LINE
  5
4B42E6
330
4B1AC8
100
AcDbEntity
  8
XTHIN
100
AcDbLine
 10
14.52977863980135
 20
11.22519929779123
 30
0.0
 11
14.34977863980133
 21
11.22519929779123
 31
0.0
  0
LINE
  5
4B42E7
330
4B1AC8
100
AcDbEntity
  8
XTHIN
100
AcDbLine
 10
14.52977863980135
 20
11.18479929779123
 30
0.0
 11
14.34977863980133
 21
11.18479929779123
 31
0.0
  0
LINE
  5
4B42E8
330
4B1AC8
100
AcDbEntity
  8
XTHIN
100
AcDbLine
 10
14.53937863980135
 20
11.23919929779122
 30
0.0
 11
14.34017863980135
 21
11.23919929779122
 31
0.0
  0
LINE
  5
4B42E9
330
4B1AC8
100
AcDbEntity
  8
XTHIN
100
AcDbLine
 10
14.53937863980135
 20
11.17719929779123
 30
0.0
 11
14.34017863980135
 21
11.17719929779123
 31
0.0
  0
ARC
  5
4B42EA
330
4B1AC8
100
AcDbEntity
  8
XTHIN
100
AcDbCircle
 10
14.34017863980135
 20
11.20819929779122
 30
0.0
 40
0.0310000000000002
100
AcDbArc
 50
90.00000000000612
 51
270.0
  0
ARC
  5
4B42EB
330
4B1AC8
100
AcDbEntity
  8
XTHIN
100
AcDbCircle
 10
14.43977863980136
 20
11.18479929779123
 30
0.0
 40
0.01
100
AcDbArc
 50
0.0
 51
180.0
  0
LINE
  5
4B42EC
330
4B1AC8
100
AcDbEntity
  8
XTHIN
100
AcDbLine
 10
14.34977863980133
 20
11.22519929779123
 30
0.0
 11
14.34977863980133
 21
11.18479929779123
 31
0.0
  0
LINE
  5
4B42ED
330
4B1AC8
100
AcDbEntity
  8
XTHIN
100
AcDbLine
 10
14.52977863980135
 20
11.22519929779123
 30
0.0
 11
14.52977863980135
 21
11.18479929779123
 31
0.0
  0
ARC
  5
4B42EE
330
4B1AC8
100
AcDbEntity
  8
XTHIN
100
AcDbCircle
 10
14.53937863980135
 20
11.20819929779122
 30
0.0
 40
0.0310000000000002
100
AcDbArc
 50
270.0
 51
90.0
  0
LWPOLYLINE
  5
4B42FF
330
4B1AC8
100
AcDbEntity
  8
XTHIN
100
AcDbPolyline
 90
        4
 70
     1
 43
0.0
 10
15.18614416886044
 20
10.29459929779123
 42
0.9999999999999998
 10
15.18614416886044
 20
10.27579929779123
 10
15.19864416886039
 20
10.27579929779123
 42
0.9999999999999998
 10
15.19864416886039
 20
10.29459929779123
  0
LWPOLYLINE
  5
4B4300
330
4B1AC8
100
AcDbEntity
  8
XTHIN
100
AcDbPolyline
 90
        4
 70
     1
 43
0.0
 10
13.58614416886038
 20
10.29459929779122
 42
0.9999999999999998
 10
13.58614416886038
 20
10.27579929779122
 10
13.59864416886038
 20
10.27579929779122
 42
0.9999999999999998
 10
13.59864416886038
 20
10.29459929779122
  0
LWPOLYLINE
  5
4B4301
330
4B1AC8
100
AcDbEntity
  8
XTHIN
100
AcDbPolyline
 90
        4
 70
     1
 43
0.0
 10
12.78614416886037
 20
10.29459929779122
 42
0.9999999999999998
 10
12.78614416886037
 20
10.27579929779122
 10
12.79864416886036
 20
10.27579929779122
 42
0.9999999999999998
 10
12.79864416886036
 20
10.29459929779122
  0
LWPOLYLINE
  5
4B4302
330
4B1AC8
100
AcDbEntity
  8
XTHIN
100
AcDbPolyline
 90
        4
 70
     1
 43
0.0
 10
14.38614416886039
 20
10.29459929779122
 42
0.9999999999999998
 10
14.38614416886039
 20
10.27579929779122
 10
14.39864416886042
 20
10.27579929779122
 42
0.9999999999999998
 10
14.39864416886042
 20
10.29459929779122
  0
LWPOLYLINE
  5
4B4303
330
4B1AC8
100
AcDbEntity
  8
XTHIN
100
AcDbPolyline
 90
        4
 70
     1
 43
0.0
 10
11.98614416886037
 20
10.29459929779122
 42
0.9999999999999998
 10
11.98614416886037
 20
10.27579929779122
 10
11.9986441688604
 20
10.27579929779122
 42
0.9999999999999998
 10
11.9986441688604
 20
10.29459929779122
  0
LWPOLYLINE
  5
4B4304
330
4B1AC8
100
AcDbEntity
  8
XTHIN
100
AcDbPolyline
 90
        4
 70
     1
 43
0.0
 10
11.18614416886037
 20
10.29459929779122
 42
0.9999999999999998
 10
11.18614416886037
 20
10.27579929779122
 10
11.19864416886036
 20
10.27579929779122
 42
0.9999999999999998
 10
11.19864416886036
 20
10.29459929779122
  0
LWPOLYLINE
  5
4B4305
330
4B1AC8
100
AcDbEntity
  8
XTHIN
100
AcDbPolyline
 90
        4
 70
     1
 43
0.0
 10
10.38614416886037
 20
10.29459929779122
 42
0.9999999999999998
 10
10.38614416886037
 20
10.27579929779122
 10
10.39864416886036
 20
10.27579929779122
 42
0.9999999999999998
 10
10.39864416886036
 20
10.29459929779122
  0
LWPOLYLINE
  5
4B4306
330
4B1AC8
100
AcDbEntity
  8
XTHIN
100
AcDbPolyline
 90
        4
 70
     1
 43
0.0
 10
9.586144168860379
 20
10.29459929779122
 42
0.9999999999999998
 10
9.586144168860379
 20
10.27579929779122
 10
9.598644168860367
 20
10.27579929779122
 42
0.9999999999999998
 10
9.598644168860367
 20
10.29459929779122
  0
LWPOLYLINE
  5
4B4308
330
4B1AC8
100
AcDbEntity
  8
XTHIN
100
AcDbPolyline
 90
        4
 70
     1
 43
0.0
 10
8.786144168860374
 20
10.29459929779122
 42
0.9999999999999998
 10
8.786144168860374
 20
10.27579929779122
 10
8.798644168860363
 20
10.27579929779122
 42
0.9999999999999998
 10
8.798644168860363
 20
10.29459929779122
  0
LINE
  5
4B430B
330
4B1AC8
100
AcDbEntity
  8
XTHIN
100
AcDbLine
 10
15.97674416886037
 20
10.23519929779122
 30
0.0
 11
6.912344168860343
 21
10.23519929779122
 31
0.0
  0
LINE
  5
4B430C
330
4B1AC8
100
AcDbEntity
  8
XTHIN
100
AcDbLine
 10
15.72674416886036
 20
10.48519929779123
 30
0.0
 11
7.162344168860357
 21
10.48519929779122
 31
0.0
  0
LINE
  5
4B43A4
330
4B1AC8
100
AcDbEntity
  8
XTHIN
100
AcDbLine
 10
6.912344168860343
 20
10.23519929779122
 30
0.0
 11
6.912344168860343
 21
10.76739929779123
 31
0.0
  0
LINE
  5
4B43A6
330
4B1AC8
100
AcDbEntity
  8
XTHIN
100
AcDbLine
 10
15.97674416886037
 20
10.23519929779122
 30
0.0
 11
15.97674416886037
 21
10.76739929779123
 31
0.0
  0
ARC
  5
4B43C4
330
4B1AC8
100
AcDbEntity
  8
XTHIN
100
AcDbCircle
 10
11.44454416886036
 20
10.76739929779123
 30
0.0
 40
4.5322
100
AcDbArc
 50
0.0
 51
180.0
  0
ARC
  5
4B43C5
330
4B1AC8
100
AcDbEntity
  8
XTHIN
100
AcDbCircle
 10
11.44454416886036
 20
10.76739929779123
 30
0.0
 40
4.2822
100
AcDbArc
 50
0.0
 51
180.0
  0
LINE
  5
4B43C6
330
4B1AC8
100
AcDbEntity
  8
XTHIN
100
AcDbLine
 10
15.72674416886036
 20
10.76739929779123
 30
0.0
 11
15.72674416886036
 21
10.48519929779123
 31
0.0
  0
LINE
  5
4B43C7
330
4B1AC8
100
AcDbEntity
  8
XTHIN
100
AcDbLine
 10
7.162344168860357
 20
10.76739929779123
 30
0.0
 11
7.162344168860357
 21
10.48519929779122
 31
0.0
  0
ARC
  5
4B43D0
330
4B1AC8
100
AcDbEntity
  8
XTHIN
100
AcDbCircle
 10
11.44454416886036
 20
10.76739929779123
 30
0.0
 40
3.6822
100
AcDbArc
 50
4.951192374119798
 51
175.0488076258802
  0
LINE
  5
4B43D1
330
4B1AC8
100
AcDbEntity
  8
XTHIN
100
AcDbLine
 10
15.11300433628756
 20
11.08519929779123
 30
0.0
 11
7.776084001433154
 21
11.08519929779123
 31
0.0
  0
ARC
  5
4B43D4
330
4B1AC8
100
AcDbEntity
  8
XTHIN
100
AcDbCircle
 10
11.44454416886036
 20
10.76739929779123
 30
0.0
 40
3.670732
100
AcDbArc
 50
5.146400889654167
 51
174.8535991103458
  0
LINE
  5
4B43D5
330
4B1AC8
100
AcDbEntity
  8
XTHIN
100
AcDbLine
 10
15.10047852275677
 20
11.09666729779123
 30
0.0
 11
7.78860981496394
 21
11.09666729779123
 31
0.0
  0
LWPOLYLINE
  5
4B43D6
330
4B1AC8
100
AcDbEntity
  8
XTHIN
100
AcDbPolyline
 90
        4
 70
     1
 43
0.0
 10
7.986144168860363
 20
10.29459929779122
 42
0.9999999999999998
 10
7.986144168860363
 20
10.27579929779122
 10
7.998644168860352
 20
10.27579929779122
 42
0.9999999999999998
 10
7.998644168860352
 20
10.29459929779122
  0
LWPOLYLINE
  5
4B43D7
330
4B1AC8
100
AcDbEntity
  8
XTHIN
100
AcDbPolyline
 90
        4
 70
     1
 43
0.0
 10
7.186144168860352
 20
10.29459929779122
 42
0.9999999999999998
 10
7.186144168860352
 20
10.27579929779122
 10
7.19864416886034
 20
10.27579929779122
 42
0.9999999999999998
 10
7.19864416886034
 20
10.29459929779122
  0
INSERT
  5
4B4492
102
{ACAD_REACTORS
330
4B449F
102
}
330
4B1AC8
100
AcDbEntity
  8
THIN
100
AcDbBlockReference
  2
*U15
 10
16.49757093429878
 20
9.170702235206681
 30
0.0
  0
LWPOLYLINE
  5
4B44B6
330
4B1AC8
100
AcDbEntity
  8
XTHIN
100
AcDbPolyline
 90
        4
 70
     1
 43
0.0
 10
15.93614416886036
 20
10.55656225716375
 42
0.9999999999999998
 10
15.91734416886037
 20
10.55656225716375
 10
15.91734416886037
 20
10.5440622571638
 42
0.9999999999999998
 10
15.93614416886036
 20
10.5440622571638
  0
LWPOLYLINE
  5
4B44B7
330
4B1AC8
100
AcDbEntity
  8
XTHIN
100
AcDbPolyline
 90
        4
 70
     1
 43
0.0
 10
6.952944168860341
 20
10.55656225716375
 42
-0.9999999999999998
 10
6.97174416886034
 20
10.55656225716375
 10
6.97174416886034
 20
10.5440622571638
 42
-0.9999999999999998
 10
6.952944168860341
 20
10.5440622571638
  0
LINE
  5
4B44C2
330
4B1AC8
100
AcDbEntity
  8
XTHIN
100
AcDbLine
 10
15.10047852275677
 20
11.09666729779123
 30
0.0
 11
15.97674416886037
 21
10.23519929779122
 31
0.0
  0
CIRCLE
  5
4B44C4
330
4B1AC8
100
AcDbEntity
  8
DIM
100
AcDbCircle
 10
6.664478194906887
 20
12.09126788662432
 30
0.0
 40
0.24
  0
TEXT
  5
4B44C5
330
4B1AC8
100
AcDbEntity
  8
DIM
100
AcDbText
 10
6.597811528240221
 20
11.99126788662432
 30
0.0
 40
0.2
  1
3
 51
10.0
  7
SIMPLEX
 72
     1
 11
6.664478194906887
 21
12.09126788662432
 31
0.0
100
AcDbText
 73
     2
  0
LINE
  5
4B44C6
330
4B1AC8
100
AcDbEntity
  8
DIM
100
AcDbLine
 10
6.904478194906896
 20
12.09126788662432
 30
0.0
 11
8.473395657573306
 21
12.09126788662432
 31
0.0
  0
LINE
  5
4B44C7
330
4B1AC8
100
AcDbEntity
  8
DIM
100
AcDbLine
 10
10.59754860956262
 20
11.6257241680022
 30
0.0
 11
10.59754860956262
 21
10.05680670533581
 31
0.0
  0
LINE
  5
4B44C8
330
4B1AC8
100
AcDbEntity
  8
DIM
100
AcDbLine
 10
10.59754860956262
 20
15.48477088650631
 30
0.0
 11
10.59754860956262
 21
13.91585342383992
 31
0.0
  0
CIRCLE
  5
4B44C9
330
4B1AC8
100
AcDbEntity
  8
DIM
100
AcDbCircle
 10
10.59754860956262
 20
11.8657241680022
 30
0.0
 40
0.24
  0
TEXT
  5
4B44CA
330
4B1AC8
100
AcDbEntity
  8
DIM
100
AcDbText
 10
10.53088194289595
 20
11.7657241680022
 30
0.0
 40
0.2
  1
2
 51
10.0
  7
SIMPLEX
 72
     1
 11
10.59754860956262
 21
11.8657241680022
 31
0.0
100
AcDbText
 73
     2
  0
CIRCLE
  5
4B44CB
330
4B1AC8
100
AcDbEntity
  8
DIM
100
AcDbCircle
 10
10.59754860956262
 20
15.7247708865063
 30
0.0
 40
0.24
  0
TEXT
  5
4B44CC
330
4B1AC8
100
AcDbEntity
  8
DIM
100
AcDbText
 10
10.5737390857531
 20
15.6247708865063
 30
0.0
 40
0.2
  1
1
 51
10.0
  7
SIMPLEX
 72
     1
 11
10.59754860956262
 21
15.7247708865063
 31
0.0
100
AcDbText
 73
     2
  0
LWPOLYLINE
  5
4B44DA
330
4B1AC8
100
AcDbEntity
  8
THIN
100
AcDbPolyline
 90
        6
 70
     0
 43
0.0
 10
8.701569127523242
 20
4.358696835616775
 10
8.701569127523242
 20
3.919656711415142
 10
8.749740847500831
 20
3.88844196899788
 10
8.586459276627337
 20
3.832579040986495
 10
8.701569127523242
 20
3.757989129165246
 10
8.701569127523242
 20
3.334328576886777
  0
LWPOLYLINE
  5
4B44DB
330
4B1AC8
100
AcDbEntity
  8
THIN
100
AcDbPolyline
 90
        6
 70
     0
 43
0.0
 10
8.751569127523247
 20
4.358696835616775
 10
8.751569127523247
 20
3.94683682575268
 10
8.863288092950952
 20
3.874444170257469
 10
8.700006522077451
 20
3.818581242246083
 10
8.751569127523247
 20
3.785169243502783
 10
8.751569127523247
 20
3.334328576886777
  0
LWPOLYLINE
  5
4B44DF
330
4B1AC8
100
AcDbEntity
  8
THIN
100
AcDbPolyline
 90
        6
 70
     0
 43
0.0
 10
4.10196954639557
 20
14.36598531292289
 10
3.662929422193938
 20
14.36598531292289
 10
3.631714679776676
 20
14.3178135929453
 10
3.57585175176529
 20
14.4810951638188
 10
3.50126183994404
 20
14.36598531292289
 10
3.077601287665572
 20
14.36598531292289
  0
LWPOLYLINE
  5
4B44E0
330
4B1AC8
100
AcDbEntity
  8
THIN
100
AcDbPolyline
 90
        6
 70
     0
 43
0.0
 10
4.10196954639557
 20
14.31598531292288
 10
3.690109536531474
 20
14.31598531292288
 10
3.617716881036264
 20
14.20426634749518
 10
3.561853953024877
 20
14.36754791836868
 10
3.528441954281579
 20
14.31598531292289
 10
3.077601287665572
 20
14.31598531292289
  0
INSERT
  5
4B44F9
330
4B1AC8
100
AcDbEntity
  8
PAPER
100
AcDbBlockReference
  2
AS extents block
 10
0.0000000365091921
 20
-0.0000000082428926
 30
0.0
  0
DIMENSION
  5
4B45D3
330
4B1AC8
100
AcDbEntity
  8
DIM
100
AcDbDimension
280
     0
  2
*D17
 10
11.97031912752327
 20
1.729587034336603
 30
0.0
 11
13.92331912752329
 21
1.729587034336603
 31
0.0
 70
    32
 71
     5
 42
3.906000000000041
 73
     0
 74
     0
 75
     0
  3
Copy of HSTANDARD
100
AcDbAlignedDimension
 13
15.87631912752331
 23
4.759012701196372
 33
0.0
 14
11.97031912752327
 24
2.47201270625185
 34
0.0
100
AcDbRotatedDimension
1001
ACAD
1000
DSTYLE
1002
{
1070
    40
1040
2.0
1070
   146
1040
1.0
1070
   276
1070
     2
1002
}
  0
DIMENSION
  5
4B45FF
330
4B1AC8
100
AcDbEntity
  8
DIM
100
AcDbDimension
280
     0
  2
*D18
 10
10.20088651701763
 20
7.909151547808086
 30
0.0
 11
12.41360282227045
 21
7.909151547808086
 31
0.0
 70
    32
 71
     5
 42
4.425432610505636
 73
     0
 74
     0
 75
     0
  3
Copy of HSTANDARD
100
AcDbAlignedDimension
 13
14.62631912752327
 23
6.170012701189524
 33
0.0
 14
10.20088651701763
 24
4.298448351081391
 34
0.0
100
AcDbRotatedDimension
1001
ACAD
1000
DSTYLE
1002
{
1070
    40
1040
2.0
1070
   146
1040
1.0
1070
   276
1070
     2
1002
}
  0
DIMENSION
  5
4B462B
330
4B1AC8
100
AcDbEntity
  8
DIM
100
AcDbDimension
280
     0
  2
*D19
 10
11.62631912752327
 20
7.036490076364657
 30
0.0
 11
12.92282698026463
 21
7.036490076364657
 31
0.0
 70
   160
 71
     5
 42
3.0
 73
     0
 74
     0
 75
     0
  3
Copy of HSTANDARD
100
AcDbAlignedDimension
 13
14.62631912752327
 23
6.170012701189524
 33
0.0
 14
11.62631912752327
 24
5.737012704564859
 34
0.0
100
AcDbRotatedDimension
1001
ACAD
1000
DSTYLE
1002
{
1070
    40
1040
2.0
1070
   146
1040
1.0
1070
   276
1070
     2
1002
}
  0
LINE
  5
4B46AC
330
4B1AC8
100
AcDbEntity
  8
XTHIN
100
AcDbLine
 10
7.78860981496394
 20
11.09666729779123
 30
0.0
 11
6.912344168860343
 21
10.23519929779122
 31
0.0
  0
ENDSEC
  0
SECTION
  2
OBJECTS
  0
DICTIONARY
  5
4B1ABC
330
0
100
AcDbDictionary
281
     1
  3
ACAD_ASSOCNETWORK
350
4B4497
  3
ACAD_CIP_PREVIOUS_PRODUCT_INFO
350
4B4228
  3
ACAD_COLOR
350
4B3767
  3
ACAD_DETAILVIEWSTYLE
350
4B421F
  3
ACAD_GROUP
350
4B1ABD
  3
ACAD_IMAGE_DICT
350
4B1D3D
  3
ACAD_LAYOUT
350
4B1D14
  3
ACAD_MATERIAL
350
4B3766
  3
ACAD_MLEADERSTYLE
350
4B421B
  3
ACAD_MLINESTYLE
350
4B1ABE
  3
ACAD_PLOTSETTINGS
350
4B1D15
  3
ACAD_PLOTSTYLENAME
350
4B1D12
  3
ACAD_SCALELIST
350
4B4209
  3
ACAD_SECTIONVIEWSTYLE
350
4B421D
  3
ACAD_TABLESTYLE
350
4B3768
  3
ACAD_VISUALSTYLE
350
4B41F0
  3
AcAmCatalogState
350
4B37CC
  3
ACDB_RECOMPOSE_DATA
350
4B47A4
  3
AcDbVariableDictionary
350
4B3181
  3
ACDMSYSVARMGR
350
4B3787
  3
ACGREF_MASTER
350
4B3781
  3
ACGREFACAD_MASTER
350
4B37AA
  3
AcmDictionary
350
4B37CA
  3
ACME_BOM_MANAGER_NAME
350
4B377B
  3
ACME_COMMAND_HISTORY
350
4B3778
  3
ACME_SCOPE_NAME
350
4B3777
  3
ACMESTATEMGR
350
4B3780
  3
AcmeSysVarManager
350
4B3779
  3
AcmSystemVariableManager
350
4B37AF
  3
AD_APPL
350
4B37B7
  3
ADSYSVARMGR
350
4B37B6
  3
AmdtNamedDwgMgr
350
4B37A5
  3
AMG
350
4B3770
  3
AMGSNAPSETTINGS
350
4B381D
  3
AMI_MASTER
350
4B37AD
  3
AUTOCAD_ASSEMBLIES_PROJECT
350
4B37BF
  3
Designer_Assemblies_SysVars
350
4B37BA
  3
GREFAM_MODULE
350
4B37AE
  3
MTV_XATTACH
350
4B228A
  0
DICTIONARY
  5
4B1D43
330
4B1AB2
100
AcDbDictionary
280
     1
281
     1
  3
ACAD_LAYERSTATES
360
4B1D44
  0
DICTIONARY
  5
4B422A
330
4B1ABF
100
AcDbDictionary
280
     1
281
     1
  3
ADSK_XREC_LAYER_RECONCILED
360
4B422B
  0
DICTIONARY
  5
4B422C
330
4B1AE0
100
AcDbDictionary
280
     1
281
     1
  3
ADSK_XREC_LAYER_RECONCILED
360
4B422D
  0
DICTIONARY
  5
4B422E
330
4B1AE2
100
AcDbDictionary
280
     1
281
     1
  3
ADSK_XREC_LAYER_RECONCILED
360
4B422F
  0
DICTIONARY
  5
4B4230
330
4B1AE3
100
AcDbDictionary
280
     1
281
     1
  3
ADSK_XREC_LAYER_RECONCILED
360
4B4231
  0
DICTIONARY
  5
4B4232
330
4B1AE5
100
AcDbDictionary
280
     1
281
     1
  3
ADSK_XREC_LAYER_RECONCILED
360
4B4233
  0
DICTIONARY
  5
4B4234
330
4B1D42
100
AcDbDictionary
280
     1
281
     1
  3
ADSK_XREC_LAYER_RECONCILED
360
4B4235
  0
DICTIONARY
  5
4B4236
330
4B30ED
100
AcDbDictionary
280
     1
281
     1
  3
ADSK_XREC_LAYER_RECONCILED
360
4B4237
  0
DICTIONARY
  5
4B4238
330
4B3896
100
AcDbDictionary
280
     1
281
     1
  3
ADSK_XREC_LAYER_RECONCILED
360
4B4239
  0
DICTIONARY
  5
4B423A
330
4B3907
100
AcDbDictionary
280
     1
281
     1
  3
ADSK_XREC_LAYER_RECONCILED
360
4B423B
  0
DICTIONARY
  5
4B423C
330
4B3908
100
AcDbDictionary
280
     1
281
     1
  3
ADSK_XREC_LAYER_RECONCILED
360
4B423D
  0
DICTIONARY
  5
4B44F1
330
4B44F0
100
AcDbDictionary
280
     1
281
     1
  0
DICTIONARY
  5
4B3859
330
4B1AC8
100
AcDbDictionary
280
     1
281
     1
  3
ACAD_ASSOCNETWORK
360
4B4495
  3
ACAD_SORTENTS
360
4B385A
  0
DICTIONARY
  5
4B382F
330
4B382B
100
AcDbDictionary
280
     1
281
     1
  3
ACAD_SORTENTS
360
4B3830
  0
DICTIONARY
  5
4B388C
330
4B388A
100
AcDbDictionary
280
     1
281
     1
  3
ACAD_SORTENTS
360
4B388D
  0
DICTIONARY
  5
4B389A
330
4B3897
100
AcDbDictionary
280
     1
281
     1
  3
ACAD_SORTENTS
360
4B389B
  0
DICTIONARY
  5
4B38CE
330
4B38CB
100
AcDbDictionary
280
     1
281
     1
  3
ACAD_SORTENTS
360
4B38CF
  0
DICTIONARY
  5
4B38DB
330
4B38D8
100
AcDbDictionary
280
     1
281
     1
  3
ACAD_SORTENTS
360
4B38DC
  0
DICTIONARY
  5
4B427D
330
4B427C
100
AcDbDictionary
280
     1
281
     1
  3
ACAD_SORTENTS
360
4B427E
  0
DICTIONARY
  5
4B44EC
330
4B44EB
100
AcDbDictionary
280
     1
281
     1
  0
DICTIONARY
  5
4B4497
102
{ACAD_REACTORS
330
4B1ABC
102
}
330
4B1ABC
100
AcDbDictionary
281
     1
  3
ACAD_ASSOCNETWORK
350
4B4498
  0
XRECORD
  5
4B4228
102
{ACAD_REACTORS
330
4B1ABC
102
}
330
4B1ABC
100
AcDbXrecord
280
     1
300
ACDLT
300
2019
300

  0
DICTIONARY
  5
4B3767
102
{ACAD_REACTORS
330
4B1ABC
102
}
330
4B1ABC
100
AcDbDictionary
281
     1
  0
DICTIONARY
  5
4B421F
102
{ACAD_REACTORS
330
4B1ABC
102
}
330
4B1ABC
100
AcDbDictionary
281
     1
  3
Imperial24
350
4B4220
  0
DICTIONARY
  5
4B1ABD
102
{ACAD_REACTORS
330
4B1ABC
102
}
330
4B1ABC
100
AcDbDictionary
281
     1
  0
DICTIONARY
  5
4B1D3D
102
{ACAD_REACTORS
330
4B1ABC
102
}
330
4B1ABC
100
AcDbDictionary
281
     1
  0
DICTIONARY
  5
4B1D14
102
{ACAD_REACTORS
330
4B1ABC
102
}
330
4B1ABC
100
AcDbDictionary
281
     1
  3
Layout1
350
4B1D17
  3
Model
350
4B1D16
  0
DICTIONARY
  5
4B3766
102
{ACAD_REACTORS
330
4B1ABC
102
}
330
4B1ABC
100
AcDbDictionary
281
     1
  3
ByBlock
350
4B41E0
  3
ByLayer
350
4B41D8
  3
Global
350
4B41E8
  0
DICTIONARY
  5
4B421B
102
{ACAD_REACTORS
330
4B1ABC
102
}
330
4B1ABC
100
AcDbDictionary
281
     1
  3
Standard
350
4B421C
  0
DICTIONARY
  5
4B1ABE
102
{ACAD_REACTORS
330
4B1ABC
102
}
330
4B1ABC
100
AcDbDictionary
281
     1
  3
STANDARD
350
4B1ACB
  0
DICTIONARY
  5
4B1D15
102
{ACAD_REACTORS
330
4B1ABC
102
}
330
4B1ABC
100
AcDbDictionary
281
     1
  3
A_size_1_to_1
350
4B1D2C
  3
B_size_1_to_1
350
4B1D2E
  0
ACDBDICTIONARYWDFLT
  5
4B1D12
102
{ACAD_REACTORS
330
4B1ABC
102
}
330
4B1ABC
100
AcDbDictionary
281
     1
  3
Normal
350
4B1D13
100
AcDbDictionaryWithDefault
340
4B1D13
  0
DICTIONARY
  5
4B4209
102
{ACAD_REACTORS
330
4B1ABC
102
}
330
4B1ABC
100
AcDbDictionary
281
     1
  3
A0
350
4B420A
  3
A1
350
4B420B
  3
A2
350
4B420C
  3
A3
350
4B420D
  3
A4
350
4B420E
  3
A5
350
4B420F
  3
A6
350
4B4210
  3
A7
350
4B4211
  3
A8
350
4B4212
  3
A9
350
4B4213
  3
B0
350
4B4214
  3
B1
350
4B4215
  3
B2
350
4B4216
  3
B3
350
4B4217
  3
B4
350
4B4218
  3
B5
350
4B4219
  3
B6
350
4B421A
  0
DICTIONARY
  5
4B421D
102
{ACAD_REACTORS
330
4B1ABC
102
}
330
4B1ABC
100
AcDbDictionary
281
     1
  3
Imperial24
350
4B421E
  0
DICTIONARY
  5
4B3768
102
{ACAD_REACTORS
330
4B1ABC
102
}
330
4B1ABC
100
AcDbDictionary
281
     1
  3
Standard
350
4B3769
  0
DICTIONARY
  5
4B41F0
102
{ACAD_REACTORS
330
4B1ABC
102
}
330
4B1ABC
100
AcDbDictionary
281
     1
  3
2dWireframe
350
4B41F6
  3
Basic
350
4B41F5
  3
Brighten
350
4B41FC
  3
ColorChange
350
4B4200
  3
Conceptual
350
4B41F9
  3
Dim
350
4B41FB
  3
EdgeColorOff
350
4B4208
  3
Facepattern
350
4B41FF
  3
Flat
350
4B41F1
  3
FlatWithEdges
350
4B41F2
  3
Gouraud
350
4B41F3
  3
GouraudWithEdges
350
4B41F4
  3
Hidden
350
4B41F8
  3
JitterOff
350
4B4206
  3
Linepattern
350
4B41FE
  3
OverhangOff
350
4B4207
  3
Realistic
350
4B41FA
  3
Shaded
350
4B4205
  3
Shaded with edges
350
4B4204
  3
Shades of Gray
350
4B4201
  3
Sketchy
350
4B4202
  3
Thicken
350
4B41FD
  3
Wireframe
350
4B41F7
  3
X-Ray
350
4B4203
  0
ACAD_PROXY_OBJECT
  5
4B37CC
102
{ACAD_REACTORS
330
4B1ABC
102
}
330
4B1ABC
100
AcDbProxyObject
 90
      499
 91
      550
 71
    25
 97
       77
 70
     0
161
               640
310
3FFFFFFFE00A02814029BA19D2E283937B3B930B6902334B632B9AE32A1B430B733B2AE2BB7B935B9B830B1B2AE20A9991C1A102F96AF9819989C9B98181818AF98C008415332380D08111145349474E00
 94
        0
  0
XRECORD
  5
4B47A4
102
{ACAD_REACTORS
330
4B1ABC
102
}
330
4B1ABC
100
AcDbXrecord
280
     1
 90
        1
330
4B3769
  0
DICTIONARY
  5
4B3181
102
{ACAD_REACTORS
330
4B1ABC
102
}
330
4B1ABC
100
AcDbDictionary
281
     1
  3
CANNOSCALE
350
4B46FC
  3
CMLEADERSTYLE
350
4B46F8
  3
CTABLESTYLE
350
4B3826
  3
CVIEWDETAILSTYLE
350
4B46F9
  3
CVIEWSECTIONSTYLE
350
4B46FA
  3
LAYEREVAL
350
4B46FE
  3
LAYERNOTIFY
350
4B46FF
  3
LIGHTINGUNITS
350
4B46FD
  3
MSLTSCALE
350
4B46FB
  3
SORTENTS
350
4B3182
  0
ACAD_PROXY_OBJECT
  5
4B3787
102
{ACAD_REACTORS
330
4B1ABC
102
}
330
4B1ABC
100
AcDbProxyObject
 90
      499
 91
      511
 71
    25
 97
       77
 70
     0
161
               240
310
4C51A47A000000000000000000000000000000000000000000000000000067
330
4B3788
330
4B3789
330
4B378A
330
4B378B
330
4B378C
330
4B378D
330
4B378E
330
4B378F
330
4B3790
330
4B3791
330
4B3792
330
4B3793
330
4B3794
330
4B3795
330
4B3796
330
4B3797
330
4B3798
330
4B3799
330
4B379A
330
4B379B
330
4B379C
330
4B379D
330
4B379E
330
4B379F
330
4B37A0
330
4B37A1
 94
        0
  0
ACAD_PROXY_OBJECT
  5
4B3781
102
{ACAD_REACTORS
330
4B1ABC
102
}
330
4B1ABC
100
AcDbProxyObject
 90
      499
 91
      519
 71
    25
 97
       77
 70
     0
161
                34
310
040000428C
 94
        0
  0
ACAD_PROXY_OBJECT
  5
4B37AA
102
{ACAD_REACTORS
330
4B1ABC
102
}
330
4B1ABC
100
AcDbProxyObject
 90
      499
 91
      528
 71
    25
 97
       77
 70
     0
161
               114
310
04000041C08000000000000000000C
 94
        0
  0
DICTIONARY
  5
4B37CA
102
{ACAD_REACTORS
330
4B1ABC
102
}
330
4B1ABC
100
AcDbDictionary
281
     1
  3
AcmBOMDATA
350
4B37CB
  3
AcmStdDictionary
350
4B37D5
  3
AMDTSECTSYM_ARROWCOLOR
350
4B37F3
  0
ACAD_PROXY_OBJECT
  5
4B377B
102
{ACAD_REACTORS
330
4B1ABC
102
}
330
4B1ABC
100
AcDbProxyObject
 90
      499
 91
      513
 71
    25
 97
       77
 70
     0
161
                50
310
0001004040000C
330
0
330
0
330
4B377C
 94
        0
  0
ACAD_PROXY_OBJECT
  5
4B3778
102
{ACAD_REACTORS
330
4B1ABC
102
}
330
4B1ABC
100
AcDbProxyObject
 90
      499
 91
      510
 71
    25
 97
       77
 70
     0
161
              5374
310
4780505455241534580504434F505940405184D5347202D20436F6D6D616E642043414E43454C4C45442E014151549054D16014115539113E014156131253916014115539113E014193D19194D15510101461354D1C80B4810DBDB5B585B990810D05390D1531311510B805044D4F5645805044D4F56458050545524153458
310
050444495354805055153415645404052E4D5347202D205050413A2020206465736B746F702E6172782046696C6556657273696F6E3A2031302E322E302E3501411693D3D3601415454D05591501014B9354D1C80B481414104E88080819195CDADD1BDC0B985C9E08119A5B1955995C9CDA5BDB8E880C4C0B8C8B8C0B8D40
310
50E414D4454524553455444424D4F4440805084E202D20554E444F014213880B4815539113C0504554E444F80504554E444F8050B434F4D4D414E444C494E45805044449535480504444953548050444495354805045A4F4F4D805055153415645404052E4D5347202D205050413A2020206465736B746F702E61727820466
310
96C6556657273696F6E3A2031302E322E302E35014390535115149154D15511109353D1102014213880B4815539113C05084E202D20554E444F0142135153955313D051102014213880B481693D3D3405184D5347202D20436F6D6D616E642043414E43454C4C45442E014311D4925417D4D514915510D22014211125354D5
310
16531160140D11253506014313880B4811125354D51653114050C4E202D2044494D5354594C45014313880B4811125354D5165311405084E202D205A4F4F4D014213880B481693D3D3405184D5347202D20436F6D6D616E642043414E43454C4C45442E014154155491D1601415454D05591501014B9354D1C80B481414104
310
E88080819195CDADD1BDC0B985C9E08119A5B1955995C9CDA5BDB8E880C4C0B8C8B8C0B8D4
 94
        0
  0
ACAD_PROXY_OBJECT
  5
4B3777
102
{ACAD_REACTORS
330
4B1ABC
102
}
330
4B1ABC
100
AcDbProxyObject
 90
      499
 91
      509
 71
    25
 97
       77
 70
     0
161
               546
310
0A0000480080000000000000000012F4CE0000000000000000000000000000000000000000000000000000000000000000000000000000000000000000000000AAA406AA8C
360
4B377A
360
4B377C
360
4B3782
360
4B3783
360
4B3784
360
4B3785
360
4B3788
360
4B3789
360
4B378A
360
4B378B
360
4B378C
360
4B378D
360
4B378E
360
4B378F
360
4B3790
360
4B3791
360
4B3792
360
4B3793
360
4B3794
360
4B3795
360
4B3796
360
4B3797
360
4B3798
360
4B3799
360
4B379A
360
4B379B
360
4B379C
360
4B379D
360
4B379E
360
4B379F
360
4B37A0
360
4B37A1
360
4B37B0
360
4B37B2
360
4B37B3
360
4B37B4
360
4B37B5
360
4B37BB
360
4B37BC
360
4B37BD
360
4B37BE
360
4B37C3
360
4B37C4
360
4B37C5
360
4B37C6
360
4B37C7
360
4B37C8
 94
        0
  0
ACAD_PROXY_OBJECT
  5
4B3780
102
{ACAD_REACTORS
330
4B1ABC
102
}
330
4B1ABC
100
AcDbProxyObject
 90
      499
 91
      518
 71
    25
 97
       77
 70
     0
161
                50
310
0A000042A4128C
 94
        0
  0
ACAD_PROXY_OBJECT
  5
4B3779
102
{ACAD_REACTORS
330
4B1ABC
102
}
330
4B1ABC
100
AcDbProxyObject
 90
      499
 91
      511
 71
    25
 97
       77
 70
     0
161
                32
310
90140A0000
330
4B377A
 94
        0
  0
ACAD_PROXY_OBJECT
  5
4B37AF
102
{ACAD_REACTORS
330
4B1ABC
102
}
330
4B1ABC
100
AcDbProxyObject
 90
      499
 91
      511
 71
    25
 97
       77
 70
     0
161
                32
310
90140A0000
330
4B37B0
 94
        0
  0
ACAD_PROXY_OBJECT
  5
4B37B7
102
{ACAD_REACTORS
330
4B1ABC
102
}
330
4B1ABC
100
AcDbProxyObject
 90
      499
 91
      539
 71
    25
 97
       77
 70
     0
161
                42
310
00090000404C
330
4B37B2
 94
        0
  0
ACAD_PROXY_OBJECT
  5
4B37B6
102
{ACAD_REACTORS
330
4B1ABC
102
}
330
4B1ABC
100
AcDbProxyObject
 90
      499
 91
      511
 71
    25
 97
       77
 70
     0
161
                 8
310
AA01
 94
        0
  0
ACAD_PROXY_OBJECT
  5
4B37A5
102
{ACAD_REACTORS
330
4B1ABC
102
}
330
4B1ABC
100
AcDbProxyObject
 90
      499
 91
      525
 71
    25
 97
       77
 70
     0
161
                42
310
000100005E8C
330
4B3782
 94
        0
  0
DICTIONARY
  5
4B3770
102
{ACAD_REACTORS
330
4B1ABC
102
}
330
4B1ABC
100
AcDbDictionary
281
     1
  3
AcMgSettings
350
4B3771
  3
AMGLAYCFG
350
4B37D7
  0
DICTIONARY
  5
4B381D
102
{ACAD_REACTORS
330
4B1ABC
102
}
330
4B1ABC
100
AcDbDictionary
281
     1
  3
DIMENSION
350
4B3822
  3
FEA
350
4B3821
  3
HATCH (1)
350
4B381E
  3
HATCH (2)
350
4B381F
  3
SIMPLE WELD
350
4B3823
  3
SYMBOLS
350
4B3820
  0
ACAD_PROXY_OBJECT
  5
4B37AD
102
{ACAD_REACTORS
330
4B1ABC
102
}
330
4B1ABC
100
AcDbProxyObject
 90
      499
 91
      531
 71
    25
 97
       77
 70
     0
161
                34
310
050000428C
 94
        0
  0
ACAD_PROXY_OBJECT
  5
4B37BF
102
{ACAD_REACTORS
330
4B1ABC
102
}
330
4B1ABC
100
AcDbProxyObject
 90
      499
 91
      542
 71
    25
 97
       77
 70
     0
161
                98
310
0A00004FC0000000000000000C
330
4B37C6
330
0
330
4B37C7
330
0
330
0
330
0
330
0
330
0
 94
        0
  0
ACAD_PROXY_OBJECT
  5
4B37BA
102
{ACAD_REACTORS
330
4B1ABC
102
}
330
4B1ABC
100
AcDbProxyObject
 90
      499
 91
      511
 71
    25
 97
       77
 70
     0
161
                56
310
90441600000000A0
330
4B37BB
330
4B37BC
330
4B37BD
330
4B37BE
 94
        0
  0
ACAD_PROXY_OBJECT
  5
4B37AE
102
{ACAD_REACTORS
330
4B1ABC
102
}
330
4B1ABC
100
AcDbProxyObject
 90
      499
 91
      532
 71
    25
 97
       77
 70
     0
161
                 8
310
0500
 94
        0
  0
DICTIONARY
  5
4B228A
102
{ACAD_REACTORS
330
4B1ABC
102
}
330
4B1ABC
100
AcDbDictionary
280
     1
281
     1
  3
13b2f151-0x4b1c-4f74-A1E9-79DCC11120FF
360
4B3836
  3
2700c0d9-0xb1e-4ead-828B-0BE682CF338B
360
4B38A0
  3
43cfe8ea-0x622d-4913-95E0-B1FCB226BC51
360
4B38D5
  3
5294f65e-0x2a6f-49f8-9DBD-D9FC677B36F6
360
4B3886
  3
533e4a92-0xa7cf-11d7-A5DD-005004E2D0E9
360
4B2294
  3
bb38635b-0xb2f7-11d7-A5E6-005004E2D0E9
360
4B3122
  3
dbadb4fc-0xc76d-43c6-BEA3-0F179EB77B8A
360
4B3892
  3
dd5988cd-0xe1ef-42b2-8E76-4BD449D000C6
360
4B38E1
  0
DICTIONARY
  5
4B1D44
102
{ACAD_REACTORS
330
4B1D43
102
}
330
4B1D43
100
AcDbDictionary
281
     1
  0
XRECORD
  5
4B422B
102
{ACAD_REACTORS
330
4B422A
102
}
330
4B422A
100
AcDbXrecord
280
     1
290
     1
  0
XRECORD
  5
4B422D
102
{ACAD_REACTORS
330
4B422C
102
}
330
4B422C
100
AcDbXrecord
280
     1
290
     1
  0
XRECORD
  5
4B422F
102
{ACAD_REACTORS
330
4B422E
102
}
330
4B422E
100
AcDbXrecord
280
     1
290
     1
  0
XRECORD
  5
4B4231
102
{ACAD_REACTORS
330
4B4230
102
}
330
4B4230
100
AcDbXrecord
280
     1
290
     1
  0
XRECORD
  5
4B4233
102
{ACAD_REACTORS
330
4B4232
102
}
330
4B4232
100
AcDbXrecord
280
     1
290
     1
  0
XRECORD
  5
4B4235
102
{ACAD_REACTORS
330
4B4234
102
}
330
4B4234
100
AcDbXrecord
280
     1
290
     1
  0
XRECORD
  5
4B4237
102
{ACAD_REACTORS
330
4B4236
102
}
330
4B4236
100
AcDbXrecord
280
     1
290
     1
  0
XRECORD
  5
4B4239
102
{ACAD_REACTORS
330
4B4238
102
}
330
4B4238
100
AcDbXrecord
280
     1
290
     1
  0
XRECORD
  5
4B423B
102
{ACAD_REACTORS
330
4B423A
102
}
330
4B423A
100
AcDbXrecord
280
     1
290
     1
  0
XRECORD
  5
4B423D
102
{ACAD_REACTORS
330
4B423C
102
}
330
4B423C
100
AcDbXrecord
280
     1
290
     1
  0
DICTIONARY
  5
4B4495
102
{ACAD_REACTORS
330
4B3859
102
}
330
4B3859
100
AcDbDictionary
281
     1
  3
ACAD_ASSOCNETWORK
350
4B4496
  0
SORTENTSTABLE
  5
4B385A
102
{ACAD_REACTORS
330
4B3859
102
}
330
4B3859
100
AcDbSortentsTable
330
4B1AC8
331
4B21B5
  5
4B21F0
331
4B21B6
  5
4B21F1
331
4B21D5
  5
4B221A
331
4B21D6
  5
4B2232
331
4B221A
  5
4B224D
331
4B2232
  5
4B224E
331
4B224A
  5
4B224F
331
4B224B
  5
4B2250
331
4B224C
  5
4B2268
331
4B224D
  5
4B228D
331
4B224E
  5
4B2293
331
4B224F
  5
4B239E
331
4B2250
  5
4B23C9
331
4B2268
  5
4B23D5
331
4B228D
  5
4B30CC
331
4B2293
  5
4B3167
331
4B239E
  5
4B316C
331
4B23C9
  5
4B316E
331
4B30CC
  5
4B316F
331
4B3167
  5
4B3170
331
4B316C
  5
4B3171
331
4B316D
  5
4B3172
331
4B316E
  5
4B3173
331
4B316F
  5
4B3174
331
4B3170
  5
4B31B4
331
4B3171
  5
4B31C6
331
4B3172
  5
4B31C7
331
4B3173
  5
4B31C8
331
4B3174
  5
4B31C9
331
4B3689
  5
4B36AC
331
4B36C2
  5
4B36CA
331
4B36C3
  5
4B36CB
331
4B36C8
  5
4B36CE
331
4B36C9
  5
4B36CF
331
4B36CA
  5
4B36D0
331
4B36D0
  5
4B36F9
331
4B36D1
  5
4B36FA
331
4B36DB
  5
4B3700
331
4B370C
  5
4B3731
331
4B3734
  5
4B375F
331
4B373A
  5
4B3760
331
4B373C
  5
4B3824
331
4B3760
  5
4B3858
331
4B3824
  5
4B3860
331
4B3835
  5
4B3866
331
4B3837
  5
4B386C
331
4B3838
  5
4B3885
331
4B383A
  5
4B3887
331
4B3858
  5
4B21D5
331
4B3860
  5
4B21B5
331
4B3866
  5
4B1E34
331
4B3885
  5
4B3891
331
4B3887
  5
4B3893
331
4B3891
  5
4B389F
331
4B3893
  5
4B38A1
331
4B389F
  5
4B38A3
331
4B38A1
  5
4B38A4
331
4B38A3
  5
4B38A6
331
4B38A4
  5
4B38A7
331
4B38B1
  5
4B38C3
331
4B38BD
  5
4B224C
331
4B38C3
  5
4B31CB
331
4B42C8
  5
4B42CD
331
4B42C9
  5
4B42CE
331
4B42CA
  5
4B42CF
331
4B42CB
  5
4B42D0
331
4B42CC
  5
4B42D1
331
4B42CD
  5
4B42D2
331
4B42CE
  5
4B42D3
331
4B42CF
  5
4B42D4
331
4B42D0
  5
4B42D5
331
4B42D1
  5
4B42D6
331
4B42D2
  5
4B42D7
331
4B42D3
  5
4B42D8
331
4B42D4
  5
4B42D9
331
4B42D5
  5
4B42DA
331
4B42D6
  5
4B42DB
331
4B42D7
  5
4B42DC
331
4B42D8
  5
4B42DD
331
4B42D9
  5
4B42DE
331
4B42DA
  5
4B42DF
331
4B42DB
  5
4B42E3
331
4B42DC
  5
4B42E4
331
4B42DD
  5
4B42E5
331
4B42DE
  5
4B42E6
331
4B42DF
  5
4B42E7
331
4B42E3
  5
4B42E8
331
4B42E4
  5
4B42E9
331
4B42E5
  5
4B42EA
331
4B42E6
  5
4B42EB
331
4B42E7
  5
4B42EC
331
4B42E8
  5
4B42ED
331
4B42E9
  5
4B42EE
331
4B42EA
  5
4B42EF
331
4B42EB
  5
4B42F0
331
4B42EC
  5
4B42F1
331
4B42ED
  5
4B42F2
331
4B42EE
  5
4B42F3
331
4B42FF
  5
4B4304
331
4B4300
  5
4B4305
331
4B4301
  5
4B4306
331
4B4302
  5
4B4307
331
4B4303
  5
4B4308
331
4B4304
  5
4B4309
331
4B4305
  5
4B430B
331
4B4306
  5
4B430C
331
4B4308
  5
4B430F
331
4B430B
  5
4B4312
331
4B430C
  5
4B4313
331
4B43A4
  5
4B43A9
331
4B43A6
  5
4B43AA
331
4B43C4
  5
4B42C6
331
4B43C5
  5
4B42C9
331
4B43C6
  5
4B43D1
331
4B43C7
  5
4B43D4
331
4B43D0
  5
4B42C7
331
4B43D1
  5
4B43D5
331
4B43D4
  5
4B42C8
331
4B43D5
  5
4B43D6
331
4B43D6
  5
4B43D7
331
4B43D7
  5
4B4444
331
4B4492
  5
4B44B3
  0
SORTENTSTABLE
  5
4B3830
102
{ACAD_REACTORS
330
4B382F
102
}
330
4B382F
100
AcDbSortentsTable
330
4B382B
  0
SORTENTSTABLE
  5
4B388D
102
{ACAD_REACTORS
330
4B388C
102
}
330
4B388C
100
AcDbSortentsTable
330
4B388A
  0
SORTENTSTABLE
  5
4B389B
102
{ACAD_REACTORS
330
4B389A
102
}
330
4B389A
100
AcDbSortentsTable
330
4B3897
  0
SORTENTSTABLE
  5
4B38CF
102
{ACAD_REACTORS
330
4B38CE
102
}
330
4B38CE
100
AcDbSortentsTable
330
4B38CB
  0
SORTENTSTABLE
  5
4B38DC
102
{ACAD_REACTORS
330
4B38DB
102
}
330
4B38DB
100
AcDbSortentsTable
330
4B38D8
  0
SORTENTSTABLE
  5
4B427E
102
{ACAD_REACTORS
330
4B427D
102
}
330
4B427D
100
AcDbSortentsTable
330
4B427C
  0
ACDBASSOCNETWORK
  5
4B4498
102
{ACAD_REACTORS
330
4B4497
102
}
330
4B4497
100
AcDbAssocAction
 90
        2
 90
        0
330
0
360
0
 90
        0
 90
        0
 90
        0
 90
        0
 90
        0
 90
        0
 90
        0
100
AcDbAssocNetwork
 90
        0
 90
        1
 90
        1
330
4B4496
 90
        0
  0
ACDBDETAILVIEWSTYLE
  5
4B4220
102
{ACAD_REACTORS
330
4B421F
102
}
330
4B421F
100
AcDbModelDocViewStyle
 70
     0
  3
Imperial24
290
     0
300
Imperial24
 90
        0
100
AcDbDetailViewStyle
 70
     0
 71
     0
 90
        3
 71
     1
340
4B1AC0
 62
   256
 40
0.24
340
0
 62
   256
 40
0.24
300

 40
0.36
280
     3
 71
     2
340
4B1AC4
 90
       25
 62
   256
 71
     3
340
4B1AC0
 62
   256
 40
0.24
 90
        1
 40
0.75
 90
        1
300
%<\AcVar ViewType \f "%tc1">% %<\AcVar ViewDetailId>%\PSCALE %<\AcVar ViewScale \f "%sn">%
 71
     4
340
4B1AC4
 90
       25
 62
   256
340
4B1AC4
 90
       25
 62
   256
280
     0
  0
LAYOUT
  5
4B1D17
102
{ACAD_REACTORS
330
4B1D14
102
}
330
4B1D14
100
AcDbPlotSettings
  1

  2
\\CADSERVER\Jet25 Eng
  4

  6

 40
0.0
 41
0.0
 42
0.0
 43
0.0
 44
0.0
 45
0.0
 46
0.0
 47
0.0
 48
0.0
 49
0.0
140
0.0
141
0.0
142
1.0
143
1.0
 70
   688
 72
     0
 73
     0
 74
     5
  7
Harvey Std Plot Style.ctb
 75
    16
147
1.0
 76
     0
 77
     2
 78
   300
148
0.0
149
0.0
100
AcDbLayout
  1
Layout1
 70
     1
 71
     1
 10
0.0
 20
0.0
 11
12.0
 21
9.0
 12
0.0
 22
0.0
 32
0.0
 14
1.000000000000000E+20
 24
1.000000000000000E+20
 34
1.000000000000000E+20
 15
-1.000000000000000E+20
 25
-1.000000000000000E+20
 35
-1.000000000000000E+20
146
0.0
 13
0.0
 23
0.0
 33
0.0
 16
1.0
 26
0.0
 36
0.0
 17
0.0
 27
1.0
 37
0.0
 76
     0
330
4B1AC5
  0
LAYOUT
  5
4B1D16
102
{ACAD_REACTORS
330
4B1D14
102
}
330
4B1D14
100
AcDbPlotSettings
  1

  2
LaserJet 4V.pc3
  4
ANSI_A_(8.50_x_11.00_Inches)
  6
OLE1
 40
5.027082920074462
 41
5.027082920074462
 42
9.345077514648437
 43
5.11175537109375
 44
215.8999938964844
 45
279.3999938964844
 46
0.0
 47
0.0
 48
0.0
 49
0.0
140
0.0
141
0.0
142
1.0
143
2.0
 70
 11952
 72
     0
 73
     0
 74
     1
  7
Harvey Std Plot Style.ctb
 75
    17
147
0.5
 76
     0
 77
     2
 78
   300
148
-11.83096059512709
149
-16.42668728283952
100
AcDbLayout
  1
Model
 70
     1
 71
     0
 10
0.0
 20
0.0
 11
12.0
 21
9.0
 12
0.0
 22
0.0
 32
0.0
 14
0.0
 24
0.0
 34
0.0
 15
0.0
 25
0.0
 35
0.0
146
0.0
 13
0.0
 23
0.0
 33
0.0
 16
1.0
 26
0.0
 36
0.0
 17
0.0
 27
1.0
 37
0.0
 76
     0
330
4B1AC8
331
4B41D6
  0
MATERIAL
  5
4B41E0
102
{ACAD_XDICTIONARY
360
4B41E1
102
}
102
{ACAD_REACTORS
330
4B3766
102
}
330
4B3766
100
AcDbMaterial
  1
ByBlock
 72
     0
 43
0.0208333333333333
 43
0.0
 43
0.0
 43
0.0
 43
0.0
 43
0.0208333333333333
 43
0.0
 43
0.0
 43
0.0
 43
0.0
 43
1.0
 43
0.0
 43
0.0
 43
0.0
 43
0.0
 43
1.0
 77
     0
 47
0.0208333333333333
 47
0.0
 47
0.0
 47
0.0
 47
0.0
 47
0.0208333333333333
 47
0.0
 47
0.0
 47
0.0
 47
0.0
 47
1.0
 47
0.0
 47
0.0
 47
0.0
 47
0.0
 47
1.0
171
     0
 49
0.0208333333333333
 49
0.0
 49
0.0
 49
0.0
 49
0.0
 49
0.0208333333333333
 49
0.0
 49
0.0
 49
0.0
 49
0.0
 49
1.0
 49
0.0
 49
0.0
 49
0.0
 49
0.0
 49
1.0
175
     0
142
0.0208333333333333
142
0.0
142
0.0
142
0.0
142
0.0
142
0.0208333333333333
142
0.0
142
0.0
142
0.0
142
0.0
142
1.0
142
0.0
142
0.0
142
0.0
142
0.0
142
1.0
179
     0
144
0.0208333333333333
144
0.0
144
0.0
144
0.0
144
0.0
144
0.0208333333333333
144
0.0
144
0.0
144
0.0
144
0.0
144
1.0
144
0.0
144
0.0
144
0.0
144
0.0
144
1.0
147
0.0208333333333333
147
0.0
147
0.0
147
0.0
147
0.0
147
0.0208333333333333
147
0.0
147
0.0
147
0.0
147
0.0
147
1.0
147
0.0
147
0.0
147
0.0
147
0.0
147
1.0
  0
MATERIAL
  5
4B41D8
102
{ACAD_XDICTIONARY
360
4B41D9
102
}
102
{ACAD_REACTORS
330
4B3766
102
}
330
4B3766
100
AcDbMaterial
  1
ByLayer
 72
     0
 43
0.0208333333333333
 43
0.0
 43
0.0
 43
0.0
 43
0.0
 43
0.0208333333333333
 43
0.0
 43
0.0
 43
0.0
 43
0.0
 43
1.0
 43
0.0
 43
0.0
 43
0.0
 43
0.0
 43
1.0
 77
     0
 47
0.0208333333333333
 47
0.0
 47
0.0
 47
0.0
 47
0.0
 47
0.0208333333333333
 47
0.0
 47
0.0
 47
0.0
 47
0.0
 47
1.0
 47
0.0
 47
0.0
 47
0.0
 47
0.0
 47
1.0
171
     0
 49
0.0208333333333333
 49
0.0
 49
0.0
 49
0.0
 49
0.0
 49
0.0208333333333333
 49
0.0
 49
0.0
 49
0.0
 49
0.0
 49
1.0
 49
0.0
 49
0.0
 49
0.0
 49
0.0
 49
1.0
175
     0
142
0.0208333333333333
142
0.0
142
0.0
142
0.0
142
0.0
142
0.0208333333333333
142
0.0
142
0.0
142
0.0
142
0.0
142
1.0
142
0.0
142
0.0
142
0.0
142
0.0
142
1.0
179
     0
144
0.0208333333333333
144
0.0
144
0.0
144
0.0
144
0.0
144
0.0208333333333333
144
0.0
144
0.0
144
0.0
144
0.0
144
1.0
144
0.0
144
0.0
144
0.0
144
0.0
144
1.0
147
0.0208333333333333
147
0.0
147
0.0
147
0.0
147
0.0
147
0.0208333333333333
147
0.0
147
0.0
147
0.0
147
0.0
147
1.0
147
0.0
147
0.0
147
0.0
147
0.0
147
1.0
  0
MATERIAL
  5
4B41E8
102
{ACAD_XDICTIONARY
360
4B41E9
102
}
102
{ACAD_REACTORS
330
4B3766
102
}
330
4B3766
100
AcDbMaterial
  1
Global
 72
     0
 43
0.0208333333333333
 43
0.0
 43
0.0
 43
0.0
 43
0.0
 43
0.0208333333333333
 43
0.0
 43
0.0
 43
0.0
 43
0.0
 43
1.0
 43
0.0
 43
0.0
 43
0.0
 43
0.0
 43
1.0
 77
     0
 47
0.0208333333333333
 47
0.0
 47
0.0
 47
0.0
 47
0.0
 47
0.0208333333333333
 47
0.0
 47
0.0
 47
0.0
 47
0.0
 47
1.0
 47
0.0
 47
0.0
 47
0.0
 47
0.0
 47
1.0
171
     0
 49
0.0208333333333333
 49
0.0
 49
0.0
 49
0.0
 49
0.0
 49
0.0208333333333333
 49
0.0
 49
0.0
 49
0.0
 49
0.0
 49
1.0
 49
0.0
 49
0.0
 49
0.0
 49
0.0
 49
1.0
175
     0
142
0.0208333333333333
142
0.0
142
0.0
142
0.0
142
0.0
142
0.0208333333333333
142
0.0
142
0.0
142
0.0
142
0.0
142
1.0
142
0.0
142
0.0
142
0.0
142
0.0
142
1.0
179
     0
144
0.0208333333333333
144
0.0
144
0.0
144
0.0
144
0.0
144
0.0208333333333333
144
0.0
144
0.0
144
0.0
144
0.0
144
1.0
144
0.0
144
0.0
144
0.0
144
0.0
144
1.0
147
0.0208333333333333
147
0.0
147
0.0
147
0.0
147
0.0
147
0.0208333333333333
147
0.0
147
0.0
147
0.0
147
0.0
147
1.0
147
0.0
147
0.0
147
0.0
147
0.0
147
1.0
  0
MLEADERSTYLE
  5
4B421C
102
{ACAD_REACTORS
330
4B421B
102
}
330
4B421B
100
AcDbMLeaderStyle
179
     2
170
     2
171
     1
172
     0
 90
        2
 40
0.0
 41
0.0
173
     1
 91
-1056964608
340
4B1AC2
 92
       -2
290
     1
 42
0.09
291
     1
 43
0.36
  3
Standard
 44
0.18
300

342
4B1AC0
174
     1
178
     6
175
     1
176
     0
 93
-1056964608
 45
0.18
292
     0
297
     0
 46
0.18
 94
-1056964608
 47
1.0
 49
1.0
140
1.0
293
     1
141
0.0
294
     1
177
     0
142
1.0
295
     0
296
     0
143
0.125
271
     0
272
     9
273
     9
298
     1
  0
MLINESTYLE
  5
4B1ACB
102
{ACAD_REACTORS
330
4B1ABE
102
}
330
4B1ABE
100
AcDbMlineStyle
  2
STANDARD
 70
     0
  3

 62
     0
 51
90.0
 52
90.0
 71
     2
 49
0.5
 62
   256
  6
BYLAYER
 49
-0.5
 62
   256
  6
BYLAYER
  0
PLOTSETTINGS
  5
4B1D2C
102
{ACAD_REACTORS
330
4B1D15
102
}
330
4B1D15
100
AcDbPlotSettings
  1
A_size_1_to_1
  2
\\CADSERVER\Jet25 Eng
  4
Letter
  6
OLE1
 40
7.143749713897705
 41
6.720414161682128
 42
7.14373779296875
 43
5.027069091796875
 44
215.8999938964844
 45
279.3999938964844
 46
0.0
 47
0.0
 48
0.0
 49
0.0
140
0.0
141
0.0
142
1.0
143
1.0
 70
  1712
 72
     0
 73
     1
 74
     2
  7
Harvey Std Plot Style.ctb
 75
    16
147
1.0
 76
     0
 77
     2
 78
   300
148
0.0
149
0.0
  0
PLOTSETTINGS
  5
4B1D2E
102
{ACAD_REACTORS
330
4B1D15
102
}
330
4B1D15
100
AcDbPlotSettings
  1
B_size_1_to_1
  2
\\CADSERVER\Jet25 Eng
  4
Tabloid
  6
OLE1
 40
7.143749713897705
 41
5.873736858367919
 42
7.143768310546875
 43
7.14373779296875
 44
279.3999938964844
 45
431.7999877929687
 46
0.0
 47
0.0
 48
0.0
 49
0.0
140
0.0
141
0.0
142
1.0
143
1.0
 70
  1712
 72
     0
 73
     1
 74
     2
  7
Harvey Std Plot Style.ctb
 75
    16
147
1.0
 76
     0
 77
     2
 78
   300
148
0.0
149
0.0
  0
ACDBPLACEHOLDER
  5
4B1D13
102
{ACAD_REACTORS
330
4B1D12
102
}
330
4B1D12
  0
SCALE
  5
4B420A
102
{ACAD_REACTORS
330
4B4209
102
}
330
4B4209
100
AcDbScale
 70
     0
300
1:1
140
1.0
141
1.0
290
     1
  0
SCALE
  5
4B420B
102
{ACAD_REACTORS
330
4B4209
102
}
330
4B4209
100
AcDbScale
 70
     0
300
1/128" = 1'-0"
140
0.0078125
141
12.0
290
     0
  0
SCALE
  5
4B420C
102
{ACAD_REACTORS
330
4B4209
102
}
330
4B4209
100
AcDbScale
 70
     0
300
1/64" = 1'-0"
140
0.015625
141
12.0
290
     0
  0
SCALE
  5
4B420D
102
{ACAD_REACTORS
330
4B4209
102
}
330
4B4209
100
AcDbScale
 70
     0
300
1/32" = 1'-0"
140
0.03125
141
12.0
290
     0
  0
SCALE
  5
4B420E
102
{ACAD_REACTORS
330
4B4209
102
}
330
4B4209
100
AcDbScale
 70
     0
300
1/16" = 1'-0"
140
0.0625
141
12.0
290
     0
  0
SCALE
  5
4B420F
102
{ACAD_REACTORS
330
4B4209
102
}
330
4B4209
100
AcDbScale
 70
     0
300
3/32" = 1'-0"
140
0.09375
141
12.0
290
     0
  0
SCALE
  5
4B4210
102
{ACAD_REACTORS
330
4B4209
102
}
330
4B4209
100
AcDbScale
 70
     0
300
1/8" = 1'-0"
140
0.125
141
12.0
290
     0
  0
SCALE
  5
4B4211
102
{ACAD_REACTORS
330
4B4209
102
}
330
4B4209
100
AcDbScale
 70
     0
300
3/16" = 1'-0"
140
0.1875
141
12.0
290
     0
  0
SCALE
  5
4B4212
102
{ACAD_REACTORS
330
4B4209
102
}
330
4B4209
100
AcDbScale
 70
     0
300
1/4" = 1'-0"
140
0.25
141
12.0
290
     0
  0
SCALE
  5
4B4213
102
{ACAD_REACTORS
330
4B4209
102
}
330
4B4209
100
AcDbScale
 70
     0
300
3/8" = 1'-0"
140
0.375
141
12.0
290
     0
  0
SCALE
  5
4B4214
102
{ACAD_REACTORS
330
4B4209
102
}
330
4B4209
100
AcDbScale
 70
     0
300
1/2" = 1'-0"
140
0.5
141
12.0
290
     0
  0
SCALE
  5
4B4215
102
{ACAD_REACTORS
330
4B4209
102
}
330
4B4209
100
AcDbScale
 70
     0
300
3/4" = 1'-0"
140
0.75
141
12.0
290
     0
  0
SCALE
  5
4B4216
102
{ACAD_REACTORS
330
4B4209
102
}
330
4B4209
100
AcDbScale
 70
     0
300
1" = 1'-0"
140
1.0
141
12.0
290
     0
  0
SCALE
  5
4B4217
102
{ACAD_REACTORS
330
4B4209
102
}
330
4B4209
100
AcDbScale
 70
     0
300
1-1/2" = 1'-0"
140
1.5
141
12.0
290
     0
  0
SCALE
  5
4B4218
102
{ACAD_REACTORS
330
4B4209
102
}
330
4B4209
100
AcDbScale
 70
     0
300
3" = 1'-0"
140
3.0
141
12.0
290
     0
  0
SCALE
  5
4B4219
102
{ACAD_REACTORS
330
4B4209
102
}
330
4B4209
100
AcDbScale
 70
     0
300
6" = 1'-0"
140
6.0
141
12.0
290
     0
  0
SCALE
  5
4B421A
102
{ACAD_REACTORS
330
4B4209
102
}
330
4B4209
100
AcDbScale
 70
     0
300
1'-0" = 1'-0"
140
12.0
141
12.0
290
     0
  0
ACDBSECTIONVIEWSTYLE
  5
4B421E
102
{ACAD_REACTORS
330
4B421D
102
}
330
4B421D
100
AcDbModelDocViewStyle
 70
     0
  3
Imperial24
290
     0
300
Imperial24
 90
        0
100
AcDbSectionViewStyle
 70
     0
 71
     0
 90
       78
 71
     1
340
4B1AC0
 62
   256
 40
0.24
340
0
340
0
 62
   256
 40
0.24
300
I, O, Q, S, X, Z
 40
0.48
 90
        3
 40
0.18
 90
        1
 71
     2
340
4B37A3
 90
       25
 62
   256
340
4B1AC4
 90
       50
 62
   256
 40
0.24
 40
0.0
 40
0.24
 71
     3
340
4B1AC0
 62
   256
 40
0.24
 90
        1
 40
0.75
 90
        1
300
%<\AcVar ViewType \f "%tc1">% %<\AcVar ViewSectionStartId>%-%<\AcVar ViewSectionEndId>%\PSCALE %<\AcVar ViewScale \f "%sn">%
 71
     4
 62
   256
 62
   257
300
ANSI31
 40
1.0
 90
        0
290
     0
290
     0
 90
        6
 40
0.0
 40
1.570796326794896
 40
0.2617993877991494
 40
1.308996938995747
 40
-0.2617993877991494
 40
1.832595714594046
  0
TABLESTYLE
  5
4B3769
102
{ACAD_XDICTIONARY
360
4B47A2
102
}
102
{ACAD_REACTORS
330
4B3768
102
}
330
4B3768
100
AcDbTableStyle
280
     0
  3
Standard
 70
     0
 71
     0
 40
0.06
 41
0.06
280
     0
281
     0
  7
STANDARD
140
0.18
170
     2
 62
     0
 63
     7
283
     0
 90
        4
 91
        0
  1

274
    -2
284
     1
 64
     0
275
    -2
285
     1
 65
     0
276
    -2
286
     1
 66
     0
277
    -2
287
     1
 67
     0
278
    -2
288
     1
 68
     0
279
    -2
289
     1
 69
     0
  7
STANDARD
140
0.25
170
     5
 62
     0
 63
     7
283
     0
 90
        4
 91
        0
  1

274
    -2
284
     1
 64
     0
275
    -2
285
     1
 65
     0
276
    -2
286
     1
 66
     0
277
    -2
287
     1
 67
     0
278
    -2
288
     1
 68
     0
279
    -2
289
     1
 69
     0
  7
STANDARD
140
0.18
170
     5
 62
     0
 63
     7
283
     0
 90
        4
 91
        0
  1

274
    -2
284
     1
 64
     0
275
    -2
285
     1
 65
     0
276
    -2
286
     1
 66
     0
277
    -2
287
     1
 67
     0
278
    -2
288
     1
 68
     0
279
    -2
289
     1
 69
     0
  0
VISUALSTYLE
  5
4B41F6
102
{ACAD_REACTORS
330
4B41F0
102
}
330
4B41F0
100
AcDbVisualStyle
  2
2dWireframe
 70
     4
177
     3
291
     0
 70
    58
 90
        0
176
     1
 90
        2
176
     1
 90
        0
176
     1
 90
        0
176
     1
 40
0.6
176
     1
 40
30.0
176
     1
 62
     7
420
 16777215
176
     1
 90
        1
176
     1
 90
        4
176
     1
 62
     7
176
     1
 62
   257
176
     1
 90
        1
176
     1
 90
        1
176
     1
 40
1.0
176
     1
 90
        0
176
     1
 62
   257
176
     1
 40
1.0
176
     1
 90
        1
176
     1
 90
        6
176
     1
 90
        2
176
     1
 62
     7
176
     1
 90
        5
176
     1
 90
        0
176
     1
 90
        0
176
     1
290
     0
176
     1
 90
        1
176
     1
 40
0.0
176
     1
 90
        0
176
     1
290
     1
176
     1
290
     1
176
     1
290
     0
176
     1
290
     0
176
     1
290
     0
176
     1
290
     0
176
     1
290
     0
176
     1
290
     0
176
     1
290
     0
176
     1
 90
       50
176
     1
 40
0.0
176
     1
 40
1.0
176
     1
 90
        0
176
     1
 62
    18
420
        0
176
     1
 90
       50
176
     1
 90
        3
176
     1
 62
     5
420
      255
176
     1
290
     0
176
     1
 90
       50
176
     1
 90
       50
176
     1
 90
       50
176
     1
290
     0
176
     1
 90
       50
176
     1
 62
   256
176
     0
 40
1.0
176
     0
 90
        2
176
     1
  1
strokes_ogs.tif
176
     1
290
     0
176
     1
 40
1.0
176
     1
 40
1.0
176
     1
  0
VISUALSTYLE
  5
4B41F5
102
{ACAD_REACTORS
330
4B41F0
102
}
330
4B41F0
100
AcDbVisualStyle
  2
Basic
 70
     7
177
     3
291
     1
 70
    58
 90
        1
176
     1
 90
        0
176
     1
 90
        1
176
     1
 90
        0
176
     1
 40
0.6
176
     1
 40
30.0
176
     1
 62
     7
420
 16777215
176
     1
 90
        0
176
     1
 90
        4
176
     1
 62
     7
176
     1
 62
   257
176
     1
 90
        1
176
     1
 90
        1
176
     1
 40
1.0
176
     1
 90
        8
176
     1
 62
     7
176
     1
 40
1.0
176
     1
 90
        1
176
     1
 90
        6
176
     1
 90
        2
176
     1
 62
     7
176
     1
 90
        5
176
     1
 90
        0
176
     1
 90
        0
176
     1
290
     0
176
     1
 90
        1
176
     1
 40
0.0
176
     1
 90
        0
176
     1
290
     0
176
     1
290
     1
176
     1
290
     1
176
     1
290
     0
176
     1
290
     0
176
     1
290
     0
176
     1
290
     0
176
     1
290
     0
176
     1
290
     0
176
     1
 90
       50
176
     1
 40
0.0
176
     1
 40
1.0
176
     1
 90
        0
176
     1
 62
    18
420
        0
176
     1
 90
       50
176
     1
 90
        3
176
     1
 62
     5
420
      255
176
     1
290
     0
176
     1
 90
       50
176
     1
 90
       50
176
     1
 90
       50
176
     1
290
     0
176
     1
 90
       50
176
     1
 62
   256
176
     0
 40
1.0
176
     0
 90
        2
176
     1
  1
strokes_ogs.tif
176
     1
290
     0
176
     1
 40
1.0
176
     1
 40
1.0
176
     1
  0
VISUALSTYLE
  5
4B41FC
102
{ACAD_REACTORS
330
4B41F0
102
}
330
4B41F0
100
AcDbVisualStyle
  2
Brighten
 70
    12
177
     3
291
     1
 70
    58
 90
        2
176
     1
 90
        2
176
     1
 90
        0
176
     1
 90
        0
176
     1
 40
0.6
176
     1
 40
30.0
176
     1
 62
     7
420
 16777215
176
     1
 90
        1
176
     1
 90
        4
176
     1
 62
     7
176
     1
 62
   257
176
     1
 90
        1
176
     1
 90
        1
176
     1
 40
1.0
176
     1
 90
        8
176
     1
 62
     7
176
     1
 40
1.0
176
     1
 90
        1
176
     1
 90
        6
176
     1
 90
        2
176
     1
 62
     7
176
     1
 90
        5
176
     1
 90
        0
176
     1
 90
        0
176
     1
290
     0
176
     1
 90
        1
176
     1
 40
50.0
176
     1
 90
        0
176
     1
290
     0
176
     1
290
     1
176
     1
290
     1
176
     1
290
     0
176
     1
290
     0
176
     1
290
     0
176
     1
290
     0
176
     1
290
     0
176
     1
290
     0
176
     1
 90
       50
176
     1
 40
0.0
176
     1
 40
1.0
176
     1
 90
        0
176
     1
 62
    18
420
        0
176
     1
 90
       50
176
     1
 90
        3
176
     1
 62
     5
420
      255
176
     1
290
     0
176
     1
 90
       50
176
     1
 90
       50
176
     1
 90
       50
176
     1
290
     0
176
     1
 90
       50
176
     1
 62
   256
176
     0
 40
1.0
176
     0
 90
        2
176
     1
  1
strokes_ogs.tif
176
     1
290
     0
176
     1
 40
1.0
176
     1
 40
1.0
176
     1
  0
VISUALSTYLE
  5
4B4200
102
{ACAD_REACTORS
330
4B41F0
102
}
330
4B41F0
100
AcDbVisualStyle
  2
ColorChange
 70
    16
177
     3
291
     1
 70
    58
 90
        2
176
     1
 90
        2
176
     1
 90
        3
176
     1
 90
        0
176
     1
 40
0.6
176
     1
 40
30.0
176
     1
 62
     8
420
  8421504
176
     1
 90
        1
176
     1
 90
        4
176
     1
 62
     7
176
     1
 62
   257
176
     1
 90
        1
176
     1
 90
        1
176
     1
 40
1.0
176
     1
 90
        8
176
     1
 62
     8
420
  8421504
176
     1
 40
1.0
176
     1
 90
        1
176
     1
 90
        6
176
     1
 90
        2
176
     1
 62
     7
176
     1
 90
        5
176
     1
 90
        0
176
     1
 90
        0
176
     1
290
     0
176
     1
 90
        1
176
     1
 40
0.0
176
     1
 90
        0
176
     1
290
     0
176
     1
290
     1
176
     1
290
     1
176
     1
290
     0
176
     1
290
     0
176
     1
290
     0
176
     1
290
     0
176
     1
290
     0
176
     1
290
     0
176
     1
 90
       50
176
     1
 40
0.0
176
     1
 40
1.0
176
     1
 90
        0
176
     1
 62
    18
420
        0
176
     1
 90
       50
176
     1
 90
        3
176
     1
 62
     5
420
      255
176
     1
290
     0
176
     1
 90
       50
176
     1
 90
       50
176
     1
 90
       50
176
     1
290
     0
176
     1
 90
       50
176
     1
 62
   256
176
     0
 40
1.0
176
     0
 90
        2
176
     1
  1
strokes_ogs.tif
176
     1
290
     0
176
     1
 40
1.0
176
     1
 40
1.0
176
     1
  0
VISUALSTYLE
  5
4B41F9
102
{ACAD_REACTORS
330
4B41F0
102
}
330
4B41F0
100
AcDbVisualStyle
  2
Conceptual
 70
     9
177
     3
291
     0
 70
    58
 90
        3
176
     1
 90
        2
176
     1
 90
        0
176
     1
 90
        0
176
     1
 40
0.6
176
     1
 40
30.0
176
     1
 62
     7
420
 16777215
176
     1
 90
        2
176
     1
 90
        2
176
     1
 62
     7
176
     1
 62
   257
176
     1
 90
        1
176
     1
 90
        1
176
     1
 40
179.0
176
     1
 90
        8
176
     1
 62
     7
176
     1
 40
1.0
176
     1
 90
        1
176
     1
 90
        6
176
     1
 90
        2
176
     1
 62
     7
176
     1
 90
        3
176
     1
 90
        0
176
     1
 90
        0
176
     1
290
     0
176
     1
 90
        1
176
     1
 40
0.0
176
     1
 90
        0
176
     1
290
     0
176
     1
290
     1
176
     1
290
     1
176
     1
290
     0
176
     1
290
     0
176
     1
290
     0
176
     1
290
     0
176
     1
290
     0
176
     1
290
     0
176
     1
 90
       50
176
     1
 40
0.0
176
     1
 40
1.0
176
     1
 90
        0
176
     1
 62
    18
420
        0
176
     1
 90
       50
176
     1
 90
        3
176
     1
 62
     5
420
      255
176
     1
290
     0
176
     1
 90
       50
176
     1
 90
       50
176
     1
 90
       50
176
     1
290
     0
176
     1
 90
       50
176
     1
 62
   256
176
     0
 40
1.0
176
     0
 90
        2
176
     1
  1
strokes_ogs.tif
176
     1
290
     0
176
     1
 40
1.0
176
     1
 40
1.0
176
     1
  0
VISUALSTYLE
  5
4B41FB
102
{ACAD_REACTORS
330
4B41F0
102
}
330
4B41F0
100
AcDbVisualStyle
  2
Dim
 70
    11
177
     3
291
     1
 70
    58
 90
        2
176
     1
 90
        2
176
     1
 90
        0
176
     1
 90
        0
176
     1
 40
0.6
176
     1
 40
30.0
176
     1
 62
     7
420
 16777215
176
     1
 90
        1
176
     1
 90
        4
176
     1
 62
     7
176
     1
 62
   257
176
     1
 90
        1
176
     1
 90
        1
176
     1
 40
1.0
176
     1
 90
        8
176
     1
 62
     7
176
     1
 40
1.0
176
     1
 90
        1
176
     1
 90
        6
176
     1
 90
        2
176
     1
 62
     7
176
     1
 90
        5
176
     1
 90
        0
176
     1
 90
        0
176
     1
290
     0
176
     1
 90
        1
176
     1
 40
-50.0
176
     1
 90
        0
176
     1
290
     0
176
     1
290
     1
176
     1
290
     1
176
     1
290
     0
176
     1
290
     0
176
     1
290
     0
176
     1
290
     0
176
     1
290
     0
176
     1
290
     0
176
     1
 90
       50
176
     1
 40
0.0
176
     1
 40
1.0
176
     1
 90
        0
176
     1
 62
    18
420
        0
176
     1
 90
       50
176
     1
 90
        3
176
     1
 62
     5
420
      255
176
     1
290
     0
176
     1
 90
       50
176
     1
 90
       50
176
     1
 90
       50
176
     1
290
     0
176
     1
 90
       50
176
     1
 62
   256
176
     0
 40
1.0
176
     0
 90
        2
176
     1
  1
strokes_ogs.tif
176
     1
290
     0
176
     1
 40
1.0
176
     1
 40
1.0
176
     1
  0
VISUALSTYLE
  5
4B4208
102
{ACAD_REACTORS
330
4B41F0
102
}
330
4B41F0
100
AcDbVisualStyle
  2
EdgeColorOff
 70
    22
177
     3
291
     1
 70
    58
 90
        2
176
     0
 90
        2
176
     0
 90
        0
176
     0
 90
        0
176
     0
 40
0.6
176
     0
 40
30.0
176
     0
 62
     7
420
 16777215
176
     0
 90
        1
176
     0
 90
        4
176
     0
 62
     7
176
     0
 62
   257
176
     0
 90
        1
176
     0
 90
        1
176
     0
 40
1.0
176
     0
 90
        8
176
     2
 62
     7
176
     0
 40
1.0
176
     0
 90
        1
176
     0
 90
        6
176
     0
 90
        2
176
     0
 62
     7
176
     0
 90
        5
176
     0
 90
        0
176
     0
 90
        0
176
     0
290
     0
176
     0
 90
        1
176
     0
 40
0.0
176
     0
 90
        0
176
     0
290
     0
176
     0
290
     1
176
     0
290
     1
176
     0
290
     0
176
     0
290
     0
176
     0
290
     0
176
     0
290
     0
176
     0
290
     0
176
     0
290
     0
176
     0
 90
       50
176
     0
 40
0.0
176
     0
 40
1.0
176
     0
 90
        0
176
     0
 62
    18
420
        0
176
     0
 90
       50
176
     0
 90
        3
176
     0
 62
     5
420
      255
176
     0
290
     0
176
     0
 90
       50
176
     0
 90
       50
176
     0
 90
       50
176
     0
290
     0
176
     0
 90
       50
176
     0
 62
   256
176
     0
 40
1.0
176
     0
 90
        2
176
     0
  1
strokes_ogs.tif
176
     0
290
     0
176
     0
 40
1.0
176
     0
 40
1.0
176
     0
  0
VISUALSTYLE
  5
4B41FF
102
{ACAD_REACTORS
330
4B41F0
102
}
330
4B41F0
100
AcDbVisualStyle
  2
Facepattern
 70
    15
177
     3
291
     1
 70
    58
 90
        2
176
     1
 90
        2
176
     1
 90
        0
176
     1
 90
        0
176
     1
 40
0.6
176
     1
 40
30.0
176
     1
 62
     7
420
 16777215
176
     1
 90
        1
176
     1
 90
        4
176
     1
 62
     7
176
     1
 62
   257
176
     1
 90
        1
176
     1
 90
        1
176
     1
 40
1.0
176
     1
 90
        8
176
     1
 62
     7
176
     1
 40
1.0
176
     1
 90
        1
176
     1
 90
        6
176
     1
 90
        2
176
     1
 62
     7
176
     1
 90
        5
176
     1
 90
        0
176
     1
 90
        0
176
     1
290
     0
176
     1
 90
        1
176
     1
 40
0.0
176
     1
 90
        0
176
     1
290
     0
176
     1
290
     1
176
     1
290
     1
176
     1
290
     0
176
     1
290
     0
176
     1
290
     0
176
     1
290
     0
176
     1
290
     0
176
     1
290
     0
176
     1
 90
       50
176
     1
 40
0.0
176
     1
 40
1.0
176
     1
 90
        0
176
     1
 62
    18
420
        0
176
     1
 90
       50
176
     1
 90
        3
176
     1
 62
     5
420
      255
176
     1
290
     0
176
     1
 90
       50
176
     1
 90
       50
176
     1
 90
       50
176
     1
290
     0
176
     1
 90
       50
176
     1
 62
   256
176
     0
 40
1.0
176
     0
 90
        2
176
     1
  1
strokes_ogs.tif
176
     1
290
     0
176
     1
 40
1.0
176
     1
 40
1.0
176
     1
  0
VISUALSTYLE
  5
4B41F1
102
{ACAD_REACTORS
330
4B41F0
102
}
330
4B41F0
100
AcDbVisualStyle
  2
Flat
 70
     0
177
     3
291
     1
 70
    58
 90
        2
176
     1
 90
        1
176
     1
 90
        1
176
     1
 90
        2
176
     1
 40
0.6
176
     1
 40
30.0
176
     1
 62
     7
420
 16777215
176
     1
 90
        0
176
     1
 90
        0
176
     1
 62
     7
176
     1
 62
   257
176
     1
 90
        1
176
     1
 90
        1
176
     1
 40
1.0
176
     1
 90
        8
176
     1
 62
     7
176
     1
 40
1.0
176
     1
 90
        1
176
     1
 90
        6
176
     1
 90
        2
176
     1
 62
     7
176
     1
 90
        5
176
     1
 90
        0
176
     1
 90
        0
176
     1
290
     0
176
     1
 90
       13
176
     1
 40
0.0
176
     1
 90
        0
176
     1
290
     0
176
     1
290
     1
176
     1
290
     1
176
     1
290
     0
176
     1
290
     0
176
     1
290
     0
176
     1
290
     0
176
     1
290
     0
176
     1
290
     0
176
     1
 90
       50
176
     1
 40
0.0
176
     1
 40
1.0
176
     1
 90
        0
176
     1
 62
    18
420
        0
176
     1
 90
       50
176
     1
 90
        3
176
     1
 62
     5
420
      255
176
     1
290
     0
176
     1
 90
       50
176
     1
 90
       50
176
     1
 90
       50
176
     1
290
     0
176
     1
 90
       50
176
     1
 62
   256
176
     0
 40
1.0
176
     0
 90
        2
176
     1
  1
strokes_ogs.tif
176
     1
290
     0
176
     1
 40
1.0
176
     1
 40
1.0
176
     1
  0
VISUALSTYLE
  5
4B41F2
102
{ACAD_REACTORS
330
4B41F0
102
}
330
4B41F0
100
AcDbVisualStyle
  2
FlatWithEdges
 70
     1
177
     3
291
     1
 70
    58
 90
        2
176
     1
 90
        1
176
     1
 90
        1
176
     1
 90
        2
176
     1
 40
0.6
176
     1
 40
30.0
176
     1
 62
     7
420
 16777215
176
     1
 90
        1
176
     1
 90
        0
176
     1
 62
     7
176
     1
 62
   257
176
     1
 90
        1
176
     1
 90
        1
176
     1
 40
1.0
176
     1
 90
        0
176
     1
 62
   257
176
     1
 40
1.0
176
     1
 90
        1
176
     1
 90
        6
176
     1
 90
        2
176
     1
 62
     7
176
     1
 90
        5
176
     1
 90
        0
176
     1
 90
        0
176
     1
290
     0
176
     1
 90
       13
176
     1
 40
0.0
176
     1
 90
        0
176
     1
290
     0
176
     1
290
     1
176
     1
290
     1
176
     1
290
     0
176
     1
290
     0
176
     1
290
     0
176
     1
290
     0
176
     1
290
     0
176
     1
290
     0
176
     1
 90
       50
176
     1
 40
0.0
176
     1
 40
1.0
176
     1
 90
        0
176
     1
 62
    18
420
        0
176
     1
 90
       50
176
     1
 90
        3
176
     1
 62
     5
420
      255
176
     1
290
     0
176
     1
 90
       50
176
     1
 90
       50
176
     1
 90
       50
176
     1
290
     0
176
     1
 90
       50
176
     1
 62
   256
176
     0
 40
1.0
176
     0
 90
        2
176
     1
  1
strokes_ogs.tif
176
     1
290
     0
176
     1
 40
1.0
176
     1
 40
1.0
176
     1
  0
VISUALSTYLE
  5
4B41F3
102
{ACAD_REACTORS
330
4B41F0
102
}
330
4B41F0
100
AcDbVisualStyle
  2
Gouraud
 70
     2
177
     3
291
     1
 70
    58
 90
        2
176
     1
 90
        2
176
     1
 90
        1
176
     1
 90
        2
176
     1
 40
0.6
176
     1
 40
30.0
176
     1
 62
     7
420
 16777215
176
     1
 90
        0
176
     1
 90
        0
176
     1
 62
     7
176
     1
 62
   257
176
     1
 90
        1
176
     1
 90
        1
176
     1
 40
1.0
176
     1
 90
        0
176
     1
 62
     7
176
     1
 40
1.0
176
     1
 90
        1
176
     1
 90
        6
176
     1
 90
        2
176
     1
 62
     7
176
     1
 90
        5
176
     1
 90
        0
176
     1
 90
        0
176
     1
290
     0
176
     1
 90
       13
176
     1
 40
0.0
176
     1
 90
        0
176
     1
290
     0
176
     1
290
     1
176
     1
290
     1
176
     1
290
     0
176
     1
290
     0
176
     1
290
     0
176
     1
290
     0
176
     1
290
     0
176
     1
290
     0
176
     1
 90
       50
176
     1
 40
0.0
176
     1
 40
1.0
176
     1
 90
        0
176
     1
 62
    18
420
        0
176
     1
 90
       50
176
     1
 90
        3
176
     1
 62
     5
420
      255
176
     1
290
     0
176
     1
 90
       50
176
     1
 90
       50
176
     1
 90
       50
176
     1
290
     0
176
     1
 90
       50
176
     1
 62
   256
176
     0
 40
1.0
176
     0
 90
        2
176
     1
  1
strokes_ogs.tif
176
     1
290
     0
176
     1
 40
1.0
176
     1
 40
1.0
176
     1
  0
VISUALSTYLE
  5
4B41F4
102
{ACAD_REACTORS
330
4B41F0
102
}
330
4B41F0
100
AcDbVisualStyle
  2
GouraudWithEdges
 70
     3
177
     3
291
     1
 70
    58
 90
        2
176
     1
 90
        2
176
     1
 90
        1
176
     1
 90
        2
176
     1
 40
0.6
176
     1
 40
30.0
176
     1
 62
     7
420
 16777215
176
     1
 90
        1
176
     1
 90
        0
176
     1
 62
     7
176
     1
 62
   257
176
     1
 90
        1
176
     1
 90
        1
176
     1
 40
1.0
176
     1
 90
        0
176
     1
 62
   257
176
     1
 40
1.0
176
     1
 90
        1
176
     1
 90
        6
176
     1
 90
        2
176
     1
 62
     7
176
     1
 90
        5
176
     1
 90
        0
176
     1
 90
        0
176
     1
290
     0
176
     1
 90
       13
176
     1
 40
0.0
176
     1
 90
        0
176
     1
290
     0
176
     1
290
     1
176
     1
290
     1
176
     1
290
     0
176
     1
290
     0
176
     1
290
     0
176
     1
290
     0
176
     1
290
     0
176
     1
290
     0
176
     1
 90
       50
176
     1
 40
0.0
176
     1
 40
1.0
176
     1
 90
        0
176
     1
 62
    18
420
        0
176
     1
 90
       50
176
     1
 90
        3
176
     1
 62
     5
420
      255
176
     1
290
     0
176
     1
 90
       50
176
     1
 90
       50
176
     1
 90
       50
176
     1
290
     0
176
     1
 90
       50
176
     1
 62
   256
176
     0
 40
1.0
176
     0
 90
        2
176
     1
  1
strokes_ogs.tif
176
     1
290
     0
176
     1
 40
1.0
176
     1
 40
1.0
176
     1
  0
VISUALSTYLE
  5
4B41F8
102
{ACAD_REACTORS
330
4B41F0
102
}
330
4B41F0
100
AcDbVisualStyle
  2
Hidden
 70
     6
177
     3
291
     0
 70
    58
 90
        1
176
     1
 90
        2
176
     1
 90
        2
176
     1
 90
        0
176
     1
 40
0.6
176
     1
 40
30.0
176
     1
 62
     7
420
 16777215
176
     1
 90
        2
176
     1
 90
        2
176
     1
 62
     7
176
     1
 62
   257
176
     1
 90
        2
176
     1
 90
        1
176
     1
 40
40.0
176
     1
 90
        0
176
     1
 62
   257
176
     1
 40
1.0
176
     1
 90
        1
176
     1
 90
        6
176
     1
 90
        2
176
     1
 62
     7
176
     1
 90
        3
176
     1
 90
        0
176
     1
 90
        0
176
     1
290
     0
176
     1
 90
        1
176
     1
 40
0.0
176
     1
 90
        0
176
     1
290
     0
176
     1
290
     1
176
     1
290
     1
176
     1
290
     0
176
     1
290
     0
176
     1
290
     0
176
     1
290
     0
176
     1
290
     0
176
     1
290
     0
176
     1
 90
       50
176
     1
 40
0.0
176
     1
 40
1.0
176
     1
 90
        0
176
     1
 62
    18
420
        0
176
     1
 90
       50
176
     1
 90
        3
176
     1
 62
     5
420
      255
176
     1
290
     0
176
     1
 90
       50
176
     1
 90
       50
176
     1
 90
       50
176
     1
290
     0
176
     1
 90
       50
176
     1
 62
   256
176
     0
 40
1.0
176
     0
 90
        2
176
     1
  1
strokes_ogs.tif
176
     1
290
     0
176
     1
 40
1.0
176
     1
 40
1.0
176
     1
  0
VISUALSTYLE
  5
4B4206
102
{ACAD_REACTORS
330
4B41F0
102
}
330
4B41F0
100
AcDbVisualStyle
  2
JitterOff
 70
    20
177
     3
291
     1
 70
    58
 90
        2
176
     0
 90
        2
176
     0
 90
        0
176
     0
 90
        0
176
     0
 40
0.6
176
     0
 40
30.0
176
     0
 62
     7
420
 16777215
176
     0
 90
        1
176
     0
 90
        4
176
     0
 62
     7
176
     0
 62
   257
176
     0
 90
        1
176
     0
 90
        1
176
     0
 40
1.0
176
     0
 90
       10
176
     2
 62
     7
176
     0
 40
1.0
176
     0
 90
        1
176
     0
 90
        6
176
     0
 90
        2
176
     0
 62
     7
176
     0
 90
        5
176
     0
 90
        0
176
     0
 90
        0
176
     0
290
     0
176
     0
 90
        1
176
     0
 40
0.0
176
     0
 90
        0
176
     0
290
     0
176
     0
290
     1
176
     0
290
     1
176
     0
290
     0
176
     0
290
     0
176
     0
290
     0
176
     0
290
     0
176
     0
290
     0
176
     0
290
     0
176
     0
 90
       50
176
     0
 40
0.0
176
     0
 40
1.0
176
     0
 90
        0
176
     0
 62
    18
420
        0
176
     0
 90
       50
176
     0
 90
        3
176
     0
 62
     5
420
      255
176
     0
290
     0
176
     0
 90
       50
176
     0
 90
       50
176
     0
 90
       50
176
     0
290
     0
176
     0
 90
       50
176
     0
 62
   256
176
     0
 40
1.0
176
     0
 90
        2
176
     0
  1
strokes_ogs.tif
176
     0
290
     0
176
     0
 40
1.0
176
     0
 40
1.0
176
     0
  0
VISUALSTYLE
  5
4B41FE
102
{ACAD_REACTORS
330
4B41F0
102
}
330
4B41F0
100
AcDbVisualStyle
  2
Linepattern
 70
    14
177
     3
291
     1
 70
    58
 90
        2
176
     1
 90
        2
176
     1
 90
        0
176
     1
 90
        0
176
     1
 40
0.6
176
     1
 40
30.0
176
     1
 62
     7
420
 16777215
176
     1
 90
        1
176
     1
 90
        4
176
     1
 62
     7
176
     1
 62
   257
176
     1
 90
        7
176
     1
 90
        7
176
     1
 40
1.0
176
     1
 90
        8
176
     1
 62
     7
176
     1
 40
1.0
176
     1
 90
        1
176
     1
 90
        6
176
     1
 90
        2
176
     1
 62
     7
176
     1
 90
        5
176
     1
 90
        0
176
     1
 90
        0
176
     1
290
     0
176
     1
 90
        1
176
     1
 40
0.0
176
     1
 90
        0
176
     1
290
     0
176
     1
290
     1
176
     1
290
     1
176
     1
290
     0
176
     1
290
     0
176
     1
290
     0
176
     1
290
     0
176
     1
290
     0
176
     1
290
     0
176
     1
 90
       50
176
     1
 40
0.0
176
     1
 40
1.0
176
     1
 90
        0
176
     1
 62
    18
420
        0
176
     1
 90
       50
176
     1
 90
        3
176
     1
 62
     5
420
      255
176
     1
290
     0
176
     1
 90
       50
176
     1
 90
       50
176
     1
 90
       50
176
     1
290
     0
176
     1
 90
       50
176
     1
 62
   256
176
     0
 40
1.0
176
     0
 90
        2
176
     1
  1
strokes_ogs.tif
176
     1
290
     0
176
     1
 40
1.0
176
     1
 40
1.0
176
     1
  0
VISUALSTYLE
  5
4B4207
102
{ACAD_REACTORS
330
4B41F0
102
}
330
4B41F0
100
AcDbVisualStyle
  2
OverhangOff
 70
    21
177
     3
291
     1
 70
    58
 90
        2
176
     0
 90
        2
176
     0
 90
        0
176
     0
 90
        0
176
     0
 40
0.6
176
     0
 40
30.0
176
     0
 62
     7
420
 16777215
176
     0
 90
        1
176
     0
 90
        4
176
     0
 62
     7
176
     0
 62
   257
176
     0
 90
        1
176
     0
 90
        1
176
     0
 40
1.0
176
     0
 90
        9
176
     2
 62
     7
176
     0
 40
1.0
176
     0
 90
        1
176
     0
 90
        6
176
     0
 90
        2
176
     0
 62
     7
176
     0
 90
        5
176
     0
 90
        0
176
     0
 90
        0
176
     0
290
     0
176
     0
 90
        1
176
     0
 40
0.0
176
     0
 90
        0
176
     0
290
     0
176
     0
290
     1
176
     0
290
     1
176
     0
290
     0
176
     0
290
     0
176
     0
290
     0
176
     0
290
     0
176
     0
290
     0
176
     0
290
     0
176
     0
 90
       50
176
     0
 40
0.0
176
     0
 40
1.0
176
     0
 90
        0
176
     0
 62
    18
420
        0
176
     0
 90
       50
176
     0
 90
        3
176
     0
 62
     5
420
      255
176
     0
290
     0
176
     0
 90
       50
176
     0
 90
       50
176
     0
 90
       50
176
     0
290
     0
176
     0
 90
       50
176
     0
 62
   256
176
     0
 40
1.0
176
     0
 90
        2
176
     0
  1
strokes_ogs.tif
176
     0
290
     0
176
     0
 40
1.0
176
     0
 40
1.0
176
     0
  0
VISUALSTYLE
  5
4B41FA
102
{ACAD_REACTORS
330
4B41F0
102
}
330
4B41F0
100
AcDbVisualStyle
  2
Realistic
 70
     8
177
     3
291
     0
 70
    58
 90
        2
176
     1
 90
        3
176
     1
 90
        0
176
     1
 90
        2
176
     1
 40
0.6
176
     1
 40
30.0
176
     1
 62
     7
420
 16777215
176
     1
 90
        0
176
     1
 90
        0
176
     1
 62
     7
176
     1
 62
   257
176
     1
 90
        1
176
     1
 90
        1
176
     1
 40
1.0
176
     1
 90
        8
176
     1
 62
   257
176
     1
 40
1.0
176
     1
 90
        1
176
     1
 90
        6
176
     1
 90
        2
176
     1
 62
     7
176
     1
 90
        3
176
     1
 90
        0
176
     1
 90
        0
176
     1
290
     0
176
     1
 90
       13
176
     1
 40
0.0
176
     1
 90
        0
176
     1
290
     0
176
     1
290
     1
176
     1
290
     1
176
     1
290
     0
176
     1
290
     0
176
     1
290
     0
176
     1
290
     0
176
     1
290
     0
176
     1
290
     0
176
     1
 90
       50
176
     1
 40
0.0
176
     1
 40
1.0
176
     1
 90
        0
176
     1
 62
    18
420
        0
176
     1
 90
       50
176
     1
 90
        3
176
     1
 62
     5
420
      255
176
     1
290
     0
176
     1
 90
       50
176
     1
 90
       50
176
     1
 90
       50
176
     1
290
     0
176
     1
 90
       50
176
     1
 62
   256
176
     0
 40
1.0
176
     0
 90
        2
176
     1
  1
strokes_ogs.tif
176
     1
290
     0
176
     1
 40
1.0
176
     1
 40
1.0
176
     1
  0
VISUALSTYLE
  5
4B4205
102
{ACAD_REACTORS
330
4B41F0
102
}
330
4B41F0
100
AcDbVisualStyle
  2
Shaded
 70
    27
177
     3
291
     0
 70
    58
 90
        2
176
     1
 90
        2
176
     1
 90
        1
176
     1
 90
        2
176
     1
 40
0.6
176
     1
 40
30.0
176
     1
 62
     7
420
 16777215
176
     1
 90
        0
176
     1
 90
        4
176
     1
 62
     7
176
     1
 62
   257
176
     1
 90
        1
176
     1
 90
        1
176
     1
 40
1.0
176
     1
 90
        8
176
     1
 62
   257
176
     1
 40
1.0
176
     1
 90
        1
176
     1
 90
        6
176
     1
 90
        2
176
     1
 62
     8
420
  7895160
176
     1
 90
        3
176
     1
 90
        0
176
     1
 90
        0
176
     1
290
     0
176
     1
 90
        5
176
     1
 40
0.0
176
     1
 90
        0
176
     1
290
     0
176
     1
290
     1
176
     1
290
     1
176
     1
290
     0
176
     1
290
     0
176
     1
290
     0
176
     1
290
     0
176
     1
290
     0
176
     1
290
     0
176
     1
 90
       50
176
     1
 40
0.0
176
     1
 40
1.0
176
     1
 90
        0
176
     1
 62
    18
420
        0
176
     1
 90
       50
176
     1
 90
        3
176
     1
 62
     5
420
      255
176
     1
290
     0
176
     1
 90
       50
176
     1
 90
       50
176
     1
 90
       50
176
     1
290
     0
176
     1
 90
       50
176
     1
 62
   256
176
     0
 40
1.0
176
     0
 90
        2
176
     1
  1
strokes_ogs.tif
176
     1
290
     0
176
     1
 40
1.0
176
     1
 40
1.0
176
     1
  0
VISUALSTYLE
  5
4B4204
102
{ACAD_REACTORS
330
4B41F0
102
}
330
4B41F0
100
AcDbVisualStyle
  2
Shaded with edges
 70
    26
177
     3
291
     0
 70
    58
 90
        2
176
     1
 90
        2
176
     1
 90
        1
176
     1
 90
        2
176
     1
 40
0.6
176
     1
 40
30.0
176
     1
 62
     7
420
 16777215
176
     1
 90
        1
176
     1
 90
        2
176
     1
 62
     7
176
     1
 62
   257
176
     1
 90
        2
176
     1
 90
        1
176
     1
 40
1.0
176
     1
 90
        8
176
     1
 62
   257
176
     1
 40
1.0
176
     1
 90
        1
176
     1
 90
        6
176
     1
 90
        2
176
     1
 62
     7
176
     1
 90
        3
176
     1
 90
        0
176
     1
 90
        0
176
     1
290
     0
176
     1
 90
        5
176
     1
 40
0.0
176
     1
 90
        0
176
     1
290
     0
176
     1
290
     1
176
     1
290
     1
176
     1
290
     0
176
     1
290
     0
176
     1
290
     0
176
     1
290
     0
176
     1
290
     0
176
     1
290
     0
176
     1
 90
       50
176
     1
 40
0.0
176
     1
 40
1.0
176
     1
 90
        0
176
     1
 62
    18
420
        0
176
     1
 90
       50
176
     1
 90
        3
176
     1
 62
     5
420
      255
176
     1
290
     0
176
     1
 90
       50
176
     1
 90
       50
176
     1
 90
       50
176
     1
290
     0
176
     1
 90
       50
176
     1
 62
   256
176
     0
 40
1.0
176
     0
 90
        2
176
     1
  1
strokes_ogs.tif
176
     1
290
     0
176
     1
 40
1.0
176
     1
 40
1.0
176
     1
  0
VISUALSTYLE
  5
4B4201
102
{ACAD_REACTORS
330
4B41F0
102
}
330
4B41F0
100
AcDbVisualStyle
  2
Shades of Gray
 70
    23
177
     3
291
     0
 70
    58
 90
        2
176
     1
 90
        2
176
     1
 90
        3
176
     1
 90
        0
176
     1
 40
0.6
176
     1
 40
30.0
176
     1
 62
     7
420
 16777215
176
     1
 90
        2
176
     1
 90
        2
176
     1
 62
     7
176
     1
 62
     7
176
     1
 90
        1
176
     1
 90
        1
176
     1
 40
40.0
176
     1
 90
        8
176
     1
 62
     7
176
     1
 40
1.0
176
     1
 90
        1
176
     1
 90
        6
176
     1
 90
        2
176
     1
 62
     7
176
     1
 90
        3
176
     1
 90
        0
176
     1
 90
        0
176
     1
290
     0
176
     1
 90
        1
176
     1
 40
0.0
176
     1
 90
        0
176
     1
290
     0
176
     1
290
     1
176
     1
290
     1
176
     1
290
     0
176
     1
290
     0
176
     1
290
     0
176
     1
290
     0
176
     1
290
     0
176
     1
290
     0
176
     1
 90
       50
176
     1
 40
0.0
176
     1
 40
1.0
176
     1
 90
        0
176
     1
 62
    18
420
        0
176
     1
 90
       50
176
     1
 90
        3
176
     1
 62
     5
420
      255
176
     1
290
     0
176
     1
 90
       50
176
     1
 90
       50
176
     1
 90
       50
176
     1
290
     0
176
     1
 90
       50
176
     1
 62
   256
176
     0
 40
1.0
176
     0
 90
        2
176
     1
  1
strokes_ogs.tif
176
     1
290
     0
176
     1
 40
1.0
176
     1
 40
1.0
176
     1
  0
VISUALSTYLE
  5
4B4202
102
{ACAD_REACTORS
330
4B41F0
102
}
330
4B41F0
100
AcDbVisualStyle
  2
Sketchy
 70
    24
177
     3
291
     0
 70
    58
 90
        1
176
     1
 90
        2
176
     1
 90
        2
176
     1
 90
        0
176
     1
 40
0.6
176
     1
 40
30.0
176
     1
 62
     7
420
 16777215
176
     1
 90
        2
176
     1
 90
        2
176
     1
 62
     7
176
     1
 62
     7
176
     1
 90
        1
176
     1
 90
        1
176
     1
 40
40.0
176
     1
 90
       11
176
     1
 62
     7
176
     1
 40
1.0
176
     1
 90
        1
176
     1
 90
        6
176
     1
 90
        2
176
     1
 62
     7
176
     1
 90
        6
176
     1
 90
        0
176
     1
 90
        0
176
     1
290
     0
176
     1
 90
        1
176
     1
 40
0.0
176
     1
 90
        0
176
     1
290
     0
176
     1
290
     1
176
     1
290
     1
176
     1
290
     0
176
     1
290
     0
176
     1
290
     0
176
     1
290
     0
176
     1
290
     0
176
     1
290
     0
176
     1
 90
       50
176
     1
 40
0.0
176
     1
 40
1.0
176
     1
 90
        0
176
     1
 62
    18
420
        0
176
     1
 90
       50
176
     1
 90
        3
176
     1
 62
     5
420
      255
176
     1
290
     0
176
     1
 90
       50
176
     1
 90
       50
176
     1
 90
       50
176
     1
290
     0
176
     1
 90
       50
176
     1
 62
   256
176
     0
 40
1.0
176
     0
 90
        2
176
     1
  1
strokes_ogs.tif
176
     1
290
     0
176
     1
 40
1.0
176
     1
 40
1.0
176
     1
  0
VISUALSTYLE
  5
4B41FD
102
{ACAD_REACTORS
330
4B41F0
102
}
330
4B41F0
100
AcDbVisualStyle
  2
Thicken
 70
    13
177
     3
291
     1
 70
    58
 90
        2
176
     1
 90
        2
176
     1
 90
        0
176
     1
 90
        0
176
     1
 40
0.6
176
     1
 40
30.0
176
     1
 62
     7
420
 16777215
176
     1
 90
        1
176
     1
 90
        4
176
     1
 62
     7
176
     1
 62
   257
176
     1
 90
        1
176
     1
 90
        1
176
     1
 40
1.0
176
     1
 90
       12
176
     1
 62
     7
176
     1
 40
1.0
176
     1
 90
        1
176
     1
 90
        6
176
     1
 90
        2
176
     1
 62
     7
176
     1
 90
        5
176
     1
 90
        0
176
     1
 90
        0
176
     1
290
     0
176
     1
 90
        1
176
     1
 40
0.0
176
     1
 90
        0
176
     1
290
     0
176
     1
290
     1
176
     1
290
     1
176
     1
290
     0
176
     1
290
     0
176
     1
290
     0
176
     1
290
     0
176
     1
290
     0
176
     1
290
     0
176
     1
 90
       50
176
     1
 40
0.0
176
     1
 40
1.0
176
     1
 90
        0
176
     1
 62
    18
420
        0
176
     1
 90
       50
176
     1
 90
        3
176
     1
 62
     5
420
      255
176
     1
290
     0
176
     1
 90
       50
176
     1
 90
       50
176
     1
 90
       50
176
     1
290
     0
176
     1
 90
       50
176
     1
 62
   256
176
     0
 40
1.0
176
     0
 90
        2
176
     1
  1
strokes_ogs.tif
176
     1
290
     0
176
     1
 40
1.0
176
     1
 40
1.0
176
     1
  0
VISUALSTYLE
  5
4B41F7
102
{ACAD_REACTORS
330
4B41F0
102
}
330
4B41F0
100
AcDbVisualStyle
  2
Wireframe
 70
     5
177
     3
291
     0
 70
    58
 90
        0
176
     1
 90
        2
176
     1
 90
        0
176
     1
 90
        0
176
     1
 40
0.6
176
     1
 40
30.0
176
     1
 62
     7
420
 16777215
176
     1
 90
        1
176
     1
 90
        4
176
     1
 62
     7
176
     1
 62
   257
176
     1
 90
        1
176
     1
 90
        1
176
     1
 40
1.0
176
     1
 90
        0
176
     1
 62
   257
176
     1
 40
1.0
176
     1
 90
        1
176
     1
 90
        6
176
     1
 90
        2
176
     1
 62
     7
176
     1
 90
        3
176
     1
 90
        0
176
     1
 90
        0
176
     1
290
     0
176
     1
 90
        1
176
     1
 40
0.0
176
     1
 90
        0
176
     1
290
     0
176
     1
290
     1
176
     1
290
     1
176
     1
290
     0
176
     1
290
     0
176
     1
290
     0
176
     1
290
     0
176
     1
290
     0
176
     1
290
     0
176
     1
 90
       50
176
     1
 40
0.0
176
     1
 40
1.0
176
     1
 90
        0
176
     1
 62
    18
420
        0
176
     1
 90
       50
176
     1
 90
        3
176
     1
 62
     5
420
      255
176
     1
290
     0
176
     1
 90
       50
176
     1
 90
       50
176
     1
 90
       50
176
     1
290
     0
176
     1
 90
       50
176
     1
 62
   256
176
     0
 40
1.0
176
     0
 90
        2
176
     1
  1
strokes_ogs.tif
176
     1
290
     0
176
     1
 40
1.0
176
     1
 40
1.0
176
     1
  0
VISUALSTYLE
  5
4B4203
102
{ACAD_REACTORS
330
4B41F0
102
}
330
4B41F0
100
AcDbVisualStyle
  2
X-Ray
 70
    25
177
     3
291
     0
 70
    58
 90
        2
176
     1
 90
        2
176
     1
 90
        1
176
     1
 90
        1
176
     1
 40
0.5
176
     1
 40
30.0
176
     1
 62
     7
420
 16777215
176
     1
 90
        1
176
     1
 90
        0
176
     1
 62
     7
176
     1
 62
   257
176
     1
 90
        1
176
     1
 90
        1
176
     1
 40
1.0
176
     1
 90
        8
176
     1
 62
     7
176
     1
 40
1.0
176
     1
 90
        1
176
     1
 90
        6
176
     1
 90
        2
176
     1
 62
     7
176
     1
 90
        3
176
     1
 90
        0
176
     1
 90
        0
176
     1
290
     0
176
     1
 90
       13
176
     1
 40
0.0
176
     1
 90
        0
176
     1
290
     0
176
     1
290
     1
176
     1
290
     1
176
     1
290
     0
176
     1
290
     0
176
     1
290
     0
176
     1
290
     0
176
     1
290
     0
176
     1
290
     0
176
     1
 90
       50
176
     1
 40
0.0
176
     1
 40
1.0
176
     1
 90
        0
176
     1
 62
    18
420
        0
176
     1
 90
       50
176
     1
 90
        3
176
     1
 62
     5
420
      255
176
     1
290
     0
176
     1
 90
       50
176
     1
 90
       50
176
     1
 90
       50
176
     1
290
     0
176
     1
 90
       50
176
     1
 62
   256
176
     0
 40
1.0
176
     0
 90
        2
176
     1
  1
strokes_ogs.tif
176
     1
290
     0
176
     1
 40
1.0
176
     1
 40
1.0
176
     1
  0
DICTIONARYVAR
  5
4B46FC
102
{ACAD_REACTORS
330
4B3181
102
}
330
4B3181
100
DictionaryVariables
280
     0
  1
1:1
  0
DICTIONARYVAR
  5
4B46F8
102
{ACAD_REACTORS
330
4B3181
102
}
330
4B3181
100
DictionaryVariables
280
     0
  1
STANDARD
  0
DICTIONARYVAR
  5
4B3826
102
{ACAD_REACTORS
330
4B3181
102
}
330
4B3181
100
DictionaryVariables
280
     0
  1
STANDARD
  0
DICTIONARYVAR
  5
4B46F9
102
{ACAD_REACTORS
330
4B3181
102
}
330
4B3181
100
DictionaryVariables
280
     0
  1
Imperial24
  0
DICTIONARYVAR
  5
4B46FA
102
{ACAD_REACTORS
330
4B3181
102
}
330
4B3181
100
DictionaryVariables
280
     0
  1
Imperial24
  0
DICTIONARYVAR
  5
4B46FE
102
{ACAD_REACTORS
330
4B3181
102
}
330
4B3181
100
DictionaryVariables
280
     0
  1
1
  0
DICTIONARYVAR
  5
4B46FF
102
{ACAD_REACTORS
330
4B3181
102
}
330
4B3181
100
DictionaryVariables
280
     0
  1
15
  0
DICTIONARYVAR
  5
4B46FD
102
{ACAD_REACTORS
330
4B3181
102
}
330
4B3181
100
DictionaryVariables
280
     0
  1
0
  0
DICTIONARYVAR
  5
4B46FB
102
{ACAD_REACTORS
330
4B3181
102
}
330
4B3181
100
DictionaryVariables
280
     0
  1
0
  0
DICTIONARYVAR
  5
4B3182
102
{ACAD_REACTORS
330
4B3181
102
}
330
4B3181
100
DictionaryVariables
280
     0
  1
96
  0
ACAD_PROXY_OBJECT
  5
4B37CB
102
{ACAD_REACTORS
330
4B37CA
102
}
330
4B37CA
100
AcDbProxyObject
 90
      499
 91
      549
 71
    25
 97
       77
 70
     0
161
                78
310
90100057356C1D8241E8
 94
        0
  0
DICTIONARY
  5
4B37D5
102
{ACAD_REACTORS
330
4B37CA
102
}
330
4B37CA
100
AcDbDictionary
281
     1
  3
ANSI
350
4B37D6
  0
XRECORD
  5
4B37F3
102
{ACAD_REACTORS
330
4B37CA
102
}
330
4B37CA
100
AcDbXrecord
280
     1
 90
-1023410169
  0
ACAD_PROXY_OBJECT
  5
4B377A
330
0
100
AcDbProxyObject
 90
      499
 91
      512
 71
    25
 97
       77
 70
     0
161
               156
310
000101439050D35154D6535093D314D25691508C
330
4B3777
 94
        0
  0
ACAD_PROXY_OBJECT
  5
4B377C
330
0
100
AcDbProxyObject
 90
      499
 91
      514
 71
    25
 97
       77
 70
     0
161
                88
310
000101411093D34C402B0001
330
4B3777
330
0
330
0
 94
        0
  0
ACAD_PROXY_OBJECT
  5
4B3782
330
0
100
AcDbProxyObject
 90
      499
 91
      520
 71
    25
 97
       77
 70
     0
161
               382
310
0001014119185D194050831302E322E302E35014119185D194050831302E322E302E3540501000041905394D24CCC658
330
4B3777
330
4B3783
330
4B3787
 94
        0
  0
ACAD_PROXY_OBJECT
  5
4B3783
330
0
100
AcDbProxyObject
 90
      499
 91
      521
 71
    25
 97
       77
 70
     0
161
                48
310
000190140A00C0
330
4B3777
330
4B3784
 94
        0
  0
ACAD_PROXY_OBJECT
  5
4B3784
330
0
100
AcDbProxyObject
 90
      499
 91
      522
 71
    25
 97
       77
 70
     0
161
                48
310
0001AA00000030
330
4B3777
330
4B1D17
330
4B3785
330
0
 94
        0
  0
ACAD_PROXY_OBJECT
  5
4B3785
330
0
100
AcDbProxyObject
 90
      499
 91
      523
 71
    25
 97
       77
 70
     0
161
                28
310
0001AAAC
330
4B3777
 94
        0
  0
ACAD_PROXY_OBJECT
  5
4B3788
330
0
100
AcDbProxyObject
 90
      499
 91
      512
 71
    25
 97
       77
 70
     0
161
               108
310
000101421053521310D05310D01C
330
4B3777
 94
        0
  0
ACAD_PROXY_OBJECT
  5
4B3789
330
0
100
AcDbProxyObject
 90
      499
 91
      512
 71
    25
 97
       77
 70
     0
161
               124
310
00010142905354915554D1511253501C
330
4B3777
 94
        0
  0
ACAD_PROXY_OBJECT
  5
4B378A
330
0
100
AcDbProxyObject
 90
      499
 91
      512
 71
    25
 97
       77
 70
     0
161
               132
310
00010143105354D150D51253D39112536C
330
4B3777
 94
        0
  0
ACAD_PROXY_OBJECT
  5
4B378B
330
0
100
AcDbProxyObject
 90
      499
 91
      512
 71
    25
 97
       77
 70
     0
161
               124
310
00010142905355941093D4911154901C
330
4B3777
 94
        0
  0
ACAD_PROXY_OBJECT
  5
4B378C
330
0
100
AcDbProxyObject
 90
      499
 91
      512
 71
    25
 97
       77
 70
     0
161
               116
310
0001014290535115D1D0D3D313D4AC
330
4B3777
 94
        0
  0
ACAD_PROXY_OBJECT
  5
4B378D
330
0
100
AcDbProxyObject
 90
      499
 91
      512
 71
    25
 97
       77
 70
     0
161
               148
310
00010143505355925155D49151949154D2101C
330
4B3777
 94
        0
  0
ACAD_PROXY_OBJECT
  5
4B378E
330
0
100
AcDbProxyObject
 90
      499
 91
      512
 71
    25
 97
       77
 70
     0
161
               172
310
00010144105350539393D51154149154D1549591501C
330
4B3777
 94
        0
  0
ACAD_PROXY_OBJECT
  5
4B378F
330
0
100
AcDbProxyObject
 90
      499
 91
      512
 71
    25
 97
       77
 70
     0
161
               172
310
00010144105350555513D11253505494905391D1501C
330
4B3777
 94
        0
  0
ACAD_PROXY_OBJECT
  5
4B3790
330
0
100
AcDbProxyObject
 90
      499
 91
      512
 71
    25
 97
       77
 70
     0
161
               124
310
00010142D0535156151491519112536C
330
4B3777
 94
        0
  0
ACAD_PROXY_OBJECT
  5
4B3791
330
0
100
AcDbProxyObject
 90
      499
 91
      512
 71
    25
 97
       77
 70
     0
161
               132
310
00010142D05355105410539393D511501C
330
4B3777
 94
        0
  0
ACAD_PROXY_OBJECT
  5
4B3792
330
0
100
AcDbProxyObject
 90
      499
 91
      512
 71
    25
 97
       77
 70
     0
161
               108
310
00010142105350555513D0D3101C
330
4B3777
 94
        0
  0
ACAD_PROXY_OBJECT
  5
4B3793
330
0
100
AcDbProxyObject
 90
      499
 91
      512
 71
    25
 97
       77
 70
     0
161
               108
310
00010142105350D311915055105C
330
4B3777
 94
        0
  0
ACAD_PROXY_OBJECT
  5
4B3794
330
0
100
AcDbProxyObject
 90
      499
 91
      512
 71
    25
 97
       77
 70
     0
161
               108
310
00010142105350D315925155D3FC
330
4B3777
 94
        0
  0
ACAD_PROXY_OBJECT
  5
4B3795
330
0
100
AcDbProxyObject
 90
      499
 91
      512
 71
    25
 97
       77
 70
     0
161
               148
310
0001014350535212511156915493D11253501C
330
4B3777
 94
        0
  0
ACAD_PROXY_OBJECT
  5
4B3796
330
0
100
AcDbProxyObject
 90
      499
 91
      512
 71
    25
 97
       77
 70
     0
161
               124
310
00010142905352105510D21254D3D01C
330
4B3777
 94
        0
  0
ACAD_PROXY_OBJECT
  5
4B3797
330
0
100
AcDbProxyObject
 90
      499
 91
      512
 71
    25
 97
       77
 70
     0
161
               148
310
00010143905354D25391D3115210551310566C
330
4B3777
 94
        0
  0
ACAD_PROXY_OBJECT
  5
4B3798
330
0
100
AcDbProxyObject
 90
      499
 91
      512
 71
    25
 97
       77
 70
     0
161
               124
310
00010142D0535115D1D193111254D42C
330
4B3777
 94
        0
  0
ACAD_PROXY_OBJECT
  5
4B3799
330
0
100
AcDbProxyObject
 90
      499
 91
      512
 71
    25
 97
       77
 70
     0
161
               100
310
00010142105350555513D213AC
330
4B3777
 94
        0
  0
ACAD_PROXY_OBJECT
  5
4B379A
330
0
100
AcDbProxyObject
 90
      499
 91
      512
 71
    25
 97
       77
 70
     0
161
               116
310
000101425053521390D3D55395101C
330
4B3777
 94
        0
  0
ACAD_PROXY_OBJECT
  5
4B379B
330
0
100
AcDbProxyObject
 90
      499
 91
      512
 71
    25
 97
       77
 70
     0
161
               108
310
0001014210535213941493D2901C
330
4B3777
 94
        0
  0
ACAD_PROXY_OBJECT
  5
4B379C
330
0
100
AcDbProxyObject
 90
      499
 91
      512
 71
    25
 97
       77
 70
     0
161
               108
310
000101421053521395165411507C
330
4B3777
 94
        0
  0
ACAD_PROXY_OBJECT
  5
4B379D
330
0
100
AcDbProxyObject
 90
      499
 91
      512
 71
    25
 97
       77
 70
     0
161
               108
310
000101421053521395925155D0FC
330
4B3777
 94
        0
  0
ACAD_PROXY_OBJECT
  5
4B379E
330
0
100
AcDbProxyObject
 90
      499
 91
      512
 71
    25
 97
       77
 70
     0
161
               140
310
00010143505354D150D51253D390D3D4166C
330
4B3777
 94
        0
  0
ACAD_PROXY_OBJECT
  5
4B379F
330
0
100
AcDbProxyObject
 90
      499
 91
      512
 71
    25
 97
       77
 70
     0
161
               108
310
00010142105350D3141493D2903C
330
4B3777
 94
        0
  0
ACAD_PROXY_OBJECT
  5
4B37A0
330
0
100
AcDbProxyObject
 90
      499
 91
      524
 71
    25
 97
       77
 70
     0
161
               212
310
00010143905350555513D2105510D21493D500000000000002E40C
330
4B3777
 94
        0
  0
ACAD_PROXY_OBJECT
  5
4B37A1
330
0
100
AcDbProxyObject
 90
      499
 91
      512
 71
    25
 97
       77
 70
     0
161
               156
310
00010143905350555513D2105510D2111155101C
330
4B3777
 94
        0
  0
ACAD_PROXY_OBJECT
  5
4B37B0
330
0
100
AcDbProxyObject
 90
      499
 91
      533
 71
    25
 97
       77
 70
     0
161
               148
310
00010142105350D55494D51100504414E5349C
330
4B3777
 94
        0
  0
ACAD_PROXY_OBJECT
  5
4B37B2
330
0
100
AcDbProxyObject
 90
      499
 91
      535
 71
    25
 97
       77
 70
     0
161
               714
310
0001000000009AA6A9AA4051E546875204A756E2031352031383A33383A3234203230303620285554432901420C4C0B8C8B8C0B8D40518576564204D61722032352030393A30373A3036203230303901420C4C0B8C8B8C0B8D4C
330
4B3777
330
4B37B3
330
4B37B4
330
4B37B6
330
0
 94
        0
  0
ACAD_PROXY_OBJECT
  5
4B37B3
330
0
100
AcDbProxyObject
 90
      499
 91
      536
 71
    25
 97
       77
 70
     0
161
                70
310
0001AAA80820000000
330
4B3777
330
4B37B3
330
4B37B3
 94
        0
  0
ACAD_PROXY_OBJECT
  5
4B37B4
330
0
100
AcDbProxyObject
 90
      499
 91
      537
 71
    25
 97
       77
 70
     0
161
                48
310
000100000000D4
330
4B3777
330
0
330
4B37B5
330
0
330
0
 94
        0
  0
ACAD_PROXY_OBJECT
  5
4B37B5
330
0
100
AcDbProxyObject
 90
      499
 91
      538
 71
    25
 97
       77
 70
     0
161
                40
310
000100AAAA00
330
4B3777
330
0
 94
        0
  0
ACAD_PROXY_OBJECT
  5
4B37BB
330
0
100
AcDbProxyObject
 90
      499
 91
      533
 71
    25
 97
       77
 70
     0
161
               180
310
00010143105050D3D35411119390535140504434F4D50C
330
4B3777
 94
        0
  0
ACAD_PROXY_OBJECT
  5
4B37BC
330
0
100
AcDbProxyObject
 90
      499
 91
      533
 71
    25
 97
       77
 70
     0
161
               212
310
0001014390505193D311115491119390535140506466F6C646572C
330
4B3777
 94
        0
  0
ACAD_PROXY_OBJECT
  5
4B37BD
330
0
100
AcDbProxyObject
 90
      499
 91
      533
 71
    25
 97
       77
 70
     0
161
               180
310
00010143105050539393D111939053514050428415629C
330
4B3777
 94
        0
  0
ACAD_PROXY_OBJECT
  5
4B37BE
330
0
100
AcDbProxyObject
 90
      499
 91
      533
 71
    25
 97
       77
 70
     0
161
               420
310
00010143905050D3D35415925155D31254D500520546F700A46726F6E740A52696768740A4C6566740A426F74746F6D0A41757831C
330
4B3777
 94
        0
  0
ACAD_PROXY_OBJECT
  5
4B37C3
330
0
100
AcDbProxyObject
 90
      499
 91
      543
 71
    25
 97
       77
 70
     0
161
                32
310
0001000000
330
4B3777
340
4B37C0
330
4B37C5
330
4B37C0
 94
        0
  0
ACAD_PROXY_OBJECT
  5
4B37C4
330
0
100
AcDbProxyObject
 90
      499
 91
      544
 71
    25
 97
       77
 70
     0
161
                18
310
00018C
330
4B3777
 94
        0
  0
ACAD_PROXY_OBJECT
  5
4B37C5
330
0
100
AcDbProxyObject
 90
      499
 91
      545
 71
    25
 97
       77
 70
     0
161
               458
310
0001014B9054CC8E0D08111154D251D391548814D21054114812105311881493D55391081253951151D4905308128B519253905005540155000C
330
4B3777
330
4B37C3
330
4B37C4
 94
        0
  0
ACAD_PROXY_OBJECT
  5
4B37C6
330
0
100
AcDbProxyObject
 90
      499
 91
      546
 71
    25
 97
       77
 70
     0
161
               178
310
000100AAAAAAB62AF8F49525A712A1E00037A99934044C
330
4B3777
330
4B37C5
 94
        0
  0
ACAD_PROXY_OBJECT
  5
4B37C7
330
0
100
AcDbProxyObject
 90
      499
 91
      547
 71
    25
 97
       77
 70
     0
161
               108
310
000190140A000000000000AAAAAC
330
4B3777
330
4B37C8
330
4B37C8
330
4B37C8
330
4B37C8
330
4B37C8
330
0
 94
        0
  0
ACAD_PROXY_OBJECT
  5
4B37C8
330
0
100
AcDbProxyObject
 90
      499
 91
      548
 71
    25
 97
       77
 70
     0
161
                51
310
00010000AAAA8C
330
4B3777
330
4B37C7
330
4B37C5
 94
        0
  0
DICTIONARY
  5
4B3771
102
{ACAD_REACTORS
330
4B3770
102
}
330
4B3770
100
AcDbDictionary
281
     1
  3
DWGSETTINGS
350
4B3772
  3
TRANSSETTINGS
350
4B3773
  0
ACAD_PROXY_OBJECT
  5
4B37D7
102
{ACAD_REACTORS
330
4B3770
102
}
330
4B3770
100
AcDbProxyObject
 90
      499
 91
      556
 71
    25
 97
       77
 70
     0
161
             17992
310
41903491013041105357CC201C00030C011E442404C504414D5F3180E0000C300479109013241105357CCA01400030C011E442404CD04414D5F338060000C30043E9013441105357CD200C00030C010FA404D504414D5F358030000C30043E9013641105357CDA00800030C011EA404DD04414D5F378040000C30043E90138
310
41105357CE200400030C010FA404E504414D5F398FD0000C300904902324141505357CC4C201C00030C011EA408D10505414D5F31318030000C30043E902495041505357CC4CA01C00030C011E40A408C13905414D5F304E8070000C30047A902314E41505357CC53A03800030C011EA408C93905414D5F324E8050000C300
310
47A902334E41505357CCD3A01800030C010FA408D13905414D5F344E8030000C30043E902354E41505357CD53A00C00030C010FA408D93905414D5F364E8020000C30047A902374E41505357CDD3A01000030C010FA408E13905414D5F384E8010000C30043E902394E41505357CE53A3F400030C0241240CC9053906414D5
310
F31304E8070000C30047A90334414E41905357CC4C53A00C00030C010FA40D25413906414D5F31324E8070000C300479029044B4C494E41505357D0D3200400030C010F4264112539193D08414D5F50415245468040000C30043D0B9055241484D3541905357D093D4A01C00030C011E4264115925155D08414D5F56494557
310
538010000C30043D0B906424548494E4441905357D25395A3F400030C02436415514905253105414D5F54528030000C30043D0990348494441905357D21251201C00030C010F42640D59254D06414D5F5649538070000C3004790990650415244494D42505357D41054911253600C00030C010F42641949151911253509414
310
D5F52454644494D8040000C30043D099534110921395901398000000C0003FFFFFFFE415092139594D06424548494E448000000C0003FFFFFFFE411093D48C9055241484D358010000C30043E411093D48CD055241484D358020000C30047A411093D48D5055241484D358000000C0003FFFFFFFE4110D0530C90134800000
310
0C0003FFFFFFFE4110D0530CD01348020000C30047A4110D0530D501348070000C30047A4110D0530DD013481E0000C3004F24110D15393901378000000C0003FFFFFFFE4110D15395D01378000000C0003FFFFFFFE4110D312539044B4C494E8000000C0003FFFFFFFE4110D3D38C501308000000C0003FFFFFFFD034110D
310
3D38C901318000000C0003FFFFFFFD034110D3D38CD01328000000C0003FFFFFFFD034110D3D38D101328000000C0003FFFFFFFD034111115510501348000000C0003FFFFFFFE4111125051D01358000000C0003FFFFFFFE4111125312501358000000C0003FFFFFFFE411112535410650415244494D8000000C0003FFFFFF
310
FE411112535490652454644494D8000000C0003FFFFFFFE4111915353901388000000C0003FFFFFFFE415191535413901388030000C3003FFFFFFFE4151915354D410234418000000C0003FFFFFFFE4151915354D510234418030000C30043E415191535593901328000000C0003FFFFFFFE415191535595101328030000C3
310
0043E4112105510D01388000000C0003FFFFFFFD014112125113901338000000C0003FFFFFFFD034112125115D01338000000C0003FFFFFFFD034112131253901348000000C0003FFFFFFFD01411213D0D3901378000000C0003FFFFFFFE411213D0D5D01378000000C0003FFFFFFFE4112539193D04494E464F8000000C00
310
03FFFFFFFE4113115051101358000000C0003FFFFFFFE419397D0921395902394E8000000C0003FFFFFFFE419397D0D3D38C502304E8000000C0003FFFFFFFD03419397D0D3D38C902314E8000000C0003FFFFFFFD03419397D0D3D38CD02324E8000000C0003FFFFFFFD03419397D0D3D38D102324E8000000C0003FFFFFF
310
FD03419397D0D15393902374E8000000C0003FFFFFFFE419397D0D15395D02374E8000000C0003FFFFFFFE419397D1125312502354E8000000C0003FFFFFFFE419397D2105510D02384E8000000C0003FFFFFFFD01419397D2125113902334E8000000C0003FFFFFFFD03419397D2125115D02334E8000000C0003FFFFFFFD
310
03419397D3115051102354E8000000C0003FFFFFFFE419397D391D25410349504E8000000C0003FFFFFFFE419397D412105390334414E8000000C0003FFFFFFFE419397D510D3D3902304E8000000C0003FFFFFFFD03419397D5121312502344E8000000C0003FFFFFFFD01419397D5131153902304E8000000C0003FFFFFF
310
FD03419397D594131250332414E8000000C0003FFFFFFFE411391D25410249508000000C0003FFFFFFFE411410530C9055241484D358010000C30043E411410530CD055241484D358020000C30047A411410530D5055241484D358000000C0003FFFFFFFE411412105390234418000000C0003FFFFFFFE411413D4D3901358
310
000000C0003FFFFFFFE411490D1D3901378000000C0003FFFFFFFE411490D1D5D01378000000C0003FFFFFFFE4114D09492D01348070000C300479014114D150D5101348000000C0003FFFFFFFD014114D6508CD01358020000C30047A411354D653501358020000C30047A411510D3D3901308000000C0003FFFFFFFD0341
310
15121312501348000000C0003FFFFFFFD01411512550C9055241484D358010000C30043E411512550CD055241484D358020000C30047A411512550D5055241484D358000000C0003FFFFFFFE4115131153901308000000C0003FFFFFFFD03415514905253105545241494C8000000C0003FFFFFFFE41151493125013480000
310
00C0003FFFFFFFD01411516150C501368030000C30043E411516150C901368030000C30043E411516150CD01368000000C0003FFFFFFFE411516150D501368070000C30047A411516150DD013681E0000C3004F24115925155D04564945578000000C0003FFFFFFFE41159151121034849448000000C0003FFFFFFFD024115
310
9151159035649538000000C0003FFFFFFFD02411594131250232418000000C0003FFFFFFFE4116925690501348000000C0003FFFFFFFD01AAA3F400030C01013F90A4391E41D1E4190F4151E4110F40D0F4091E4050F4793C7F6CC
340
4B1AC4
340
4B1AC4
340
4B1AC4
340
4B37A2
340
4B1AC4
340
4B1AC4
340
4B1AC4
340
4B37A4
340
4B1AC4
340
4B1AC4
340
4B37A4
340
4B37A3
340
4B1AC4
340
4B1AC4
340
4B1AC4
340
4B1AC4
340
4B37A2
340
4B1AC4
340
4B1AC4
340
4B1AC4
340
4B37A4
340
4B1AC4
340
4B1AC4
340
4B37A4
340
4B37A3
340
4B1AC4
340
4B37DB
340
4B1AC4
340
4B1AC4
340
4B1AC4
340
4B1AC4
340
4B1AC4
340
4B37A2
340
4B1AC4
340
4B1AC4
340
4B1AC4
340
4B1AC3
340
4B1AC3
340
4B1AC3
340
4B1AC3
340
4B1AC3
340
4B1AC3
340
4B1AC3
340
4B1AC3
340
4B1AC3
340
4B37E1
340
4B1AC3
340
4B1AC3
340
4B1AC3
340
4B1AC3
340
4B1AC3
340
4B1AC3
340
4B1AC3
340
4B1AC3
340
4B1AC3
340
4B1AC3
340
4B1AC3
340
4B1AC3
340
4B1AC3
340
4B1AC4
340
4B1AC3
340
4B1AC3
340
4B1AC3
340
4B1AC3
340
4B37E2
340
4B1AC3
340
4B1AC3
340
4B37E1
340
4B1AC3
340
4B1AC3
340
4B1AC3
340
4B1AC3
340
4B1AC3
340
4B1AC3
340
4B1AC3
340
4B1AC3
340
4B37E1
340
4B1AC3
340
4B1AC3
340
4B1AC3
340
4B37E2
340
4B1AC3
340
4B1AC3
340
4B1AC3
340
4B1AC3
340
4B1AC3
340
4B37E2
340
4B1AC3
340
4B37A3
340
4B1AC3
340
4B1AC3
340
4B1AC3
340
4B1AC3
340
4B1AC3
340
4B1AC3
340
4B37E1
340
4B1AC3
340
4B1AC3
340
4B1AC3
340
4B1AC3
340
4B1AC3
340
4B1AC3
340
4B37E2
340
4B1AC3
340
4B1AC3
340
4B1AC3
340
4B1AC3
340
4B1AC3
340
4B1AC3
340
4B1AC3
340
4B1AC3
340
4B1AC3
340
4B1AC3
340
4B1AC3
340
4B1AC3
340
4B1AC3
340
4B1AC3
340
4B37A3
340
4B37E3
 94
        0
  0
ACAD_PROXY_OBJECT
  5
4B3822
102
{ACAD_REACTORS
330
4B381D
102
}
330
4B381D
100
AcDbProxyObject
 90
      499
 91
      573
 71
    25
 97
       77
 70
     0
161
               253
310
43D1444494D454E53494F4E2C414D44545F2A5F44494D404A9012A404A9012AC
 94
        0
  0
ACAD_PROXY_OBJECT
  5
4B3821
102
{ACAD_REACTORS
330
4B381D
102
}
330
4B381D
100
AcDbProxyObject
 90
      499
 91
      573
 71
    25
 97
       77
 70
     0
161
               181
310
43D012A42D05357D191504B505357CA9012A404A9012AC
 94
        0
  0
ACAD_PROXY_OBJECT
  5
4B381E
102
{ACAD_REACTORS
330
4B381D
102
}
330
4B381D
100
AcDbProxyObject
 90
      499
 91
      573
 71
    25
 97
       77
 70
     0
161
               133
310
43D054841544348404A9012A404A9012AC
 94
        0
  0
ACAD_PROXY_OBJECT
  5
4B381F
102
{ACAD_REACTORS
330
4B381D
102
}
330
4B381D
100
AcDbProxyObject
 90
      499
 91
      573
 71
    25
 97
       77
 70
     0
161
               549
310
43D044C494E4549CE0B0E138B0A8B4E0B0A8B4E138B105357CE0B105357CE138B0A8B505357CE0B0A8B505357CE139012A404A910494E534552542C535444504152543244C
 94
        0
  0
ACAD_PROXY_OBJECT
  5
4B3823
102
{ACAD_REACTORS
330
4B381D
102
}
330
4B381D
100
AcDbProxyObject
 90
      499
 91
      573
 71
    25
 97
       77
 70
     0
161
               181
310
43D0341524341105357CD5012A404C906494E534552544
 94
        0
  0
ACAD_PROXY_OBJECT
  5
4B3820
102
{ACAD_REACTORS
330
4B381D
102
}
330
4B381D
100
AcDbProxyObject
 90
      499
 91
      573
 71
    25
 97
       77
 70
     0
161
              1053
310
43D7841434D46434652414D452C41434D444154554D5441524745542C41434D444154554D49442C41434D57454C4453594D2C41434D5355524653594D2C41434D4645415449442C41434D504152545245462C41434D42414C4C4F4F4E2C414D44544544474553594D2C414D47534352455743414C435441424C45404A9012A
310
404A9012AC
 94
        0
  0
ACAD_PROXY_OBJECT
  5
4B3836
102
{ACAD_REACTORS
330
4B228A
102
}
330
4B228A
100
AcDbProxyObject
 90
      499
 91
      504
 71
    25
 97
       77
 70
     0
161
               484
310
404810C476C617A696E672042656164498C4CD88C998C4D4C4B4C1E0D188C58CB4D198DCD0B504C514E4B4DCE5110D0CC4C4C4C8C1191A02800010104C
 94
        0
  0
ACAD_PROXY_OBJECT
  5
4B38A0
102
{ACAD_REACTORS
330
4B228A
102
}
330
4B228A
100
AcDbProxyObject
 90
      499
 91
      504
 71
    25
 97
       77
 70
     0
161
               572
310
404811853696C69636F6E20486F72697A6F6E74616C20536D616C6C494C8DCC0C18CC190E4B4C1E188C594B4D1958590B4E0C8E108B4C10914D8E0C90D18CCCCE10A02800010102C
 94
        0
  0
ACAD_PROXY_OBJECT
  5
4B38D5
102
{ACAD_REACTORS
330
4B228A
102
}
330
4B228A
100
AcDbProxyObject
 90
      499
 91
      504
 71
    25
 97
       77
 70
     0
161
               572
310
404811753696C69636F6E20566572746963616C20426F74746F6D498D0CD8D9994E19584B4C1E0D8C8C990B4D0E4C4CCB4E4D514C0B508C5190D08C8C8D9090CD4C602800010101C
 94
        0
  0
ACAD_PROXY_OBJECT
  5
4B3886
102
{ACAD_REACTORS
330
4B228A
102
}
330
4B228A
100
AcDbProxyObject
 90
      499
 91
      504
 71
    25
 97
       77
 70
     0
161
               572
310
40481175265696E666F7263656420427974796C20537061636572498D4C8E4D198D8D594B4C1E0C984D998B4D0E598E0B4E5110910B510E5190CD8DCDD08CCD918DA02800010104C
 94
        0
  0
ACAD_PROXY_OBJECT
  5
4B2294
102
{ACAD_REACTORS
330
4B228A
102
}
330
4B228A
100
AcDbProxyObject
 90
      499
 91
      504
 71
    25
 97
       77
 70
     0
161
               444
310
4048107415344544E554D498D4CCCD94D184E4C8B4C1E184DD8D98B4C4C590DCB504D51110B4C0C0D4C0C0D114C910C114E602800010101C
 94
        0
  0
ACAD_PROXY_OBJECT
  5
4B3122
102
{ACAD_REACTORS
330
4B228A
102
}
330
4B228A
100
AcDbProxyObject
 90
      499
 91
      504
 71
    25
 97
       77
 70
     0
161
               452
310
404810857656570636170324998988CCE0D8CCD588B4C1E188C998DCB4C4C590DCB504D514D8B4C0C0D4C0C0D114C910C114E602800010101C
 94
        0
  0
ACAD_PROXY_OBJECT
  5
4B3892
102
{ACAD_REACTORS
330
4B228A
102
}
330
4B228A
100
AcDbProxyObject
 90
      499
 91
      504
 71
    25
 97
       77
 70
     0
161
               484
310
404810C57656174686572205365616C4999189859188D1998CB4C1E18CDCD990B4D0CD8CD8B5091504CCB4C118C4DCE51508DCDD08E10602800010104C
 94
        0
  0
ACAD_PROXY_OBJECT
  5
4B38E1
102
{ACAD_REACTORS
330
4B228A
102
}
330
4B228A
100
AcDbProxyObject
 90
      499
 91
      504
 71
    25
 97
       77
 70
     0
161
               596
310
404811A53696C69636F6E20536D616C6C20566572746963616C20546F704999190D4E4E0E18D90B4C1E194C59598B4D0C988C8B4E114DCD8B4D10910D0D0E510C0C0C10CDA02800010101C
 94
        0
  0
ACDBASSOCNETWORK
  5
4B4496
102
{ACAD_REACTORS
330
4B4495
102
}
330
4B4495
100
AcDbAssocAction
 90
        2
 90
        0
330
4B4498
360
0
 90
        1
 90
        0
 90
        0
 90
        0
 90
        0
 90
        0
 90
        0
100
AcDbAssocNetwork
 90
        0
 90
        1
 90
        1
360
4B4499
 90
        0
  0
DICTIONARY
  5
4B41E1
330
4B41E0
100
AcDbDictionary
280
     1
281
     1
  3
BUMPTILE
360
4B41E3
  3
DIFFUSETILE
360
4B41E2
  3
OPACITYTILE
360
4B41E6
  3
REFLECTIONTILE
360
4B41E5
  3
REFRACTIONTILE
360
4B41E7
  3
SPECULARTILE
360
4B41E4
  0
DICTIONARY
  5
4B41D9
330
4B41D8
100
AcDbDictionary
280
     1
281
     1
  3
BUMPTILE
360
4B41DB
  3
DIFFUSETILE
360
4B41DA
  3
OPACITYTILE
360
4B41DE
  3
REFLECTIONTILE
360
4B41DD
  3
REFRACTIONTILE
360
4B41DF
  3
SPECULARTILE
360
4B41DC
  0
DICTIONARY
  5
4B41E9
330
4B41E8
100
AcDbDictionary
280
     1
281
     1
  3
BUMPTILE
360
4B41EB
  3
DIFFUSETILE
360
4B41EA
  3
OPACITYTILE
360
4B41EE
  3
REFLECTIONTILE
360
4B41ED
  3
REFRACTIONTILE
360
4B41EF
  3
SPECULARTILE
360
4B41EC
  0
DICTIONARY
  5
4B47A2
330
4B3769
100
AcDbDictionary
280
     1
281
     1
  3
ACAD_ROUNDTRIP_2008_TABLESTYLE_CELLSTYLEMAP
360
4B47A3
  0
ACAD_PROXY_OBJECT
  5
4B37D6
102
{ACAD_REACTORS
330
4B37D5
102
}
330
4B37D5
100
AcDbProxyObject
 90
      499
 91
      555
 71
    25
 97
       77
 70
     0
161
              2431
310
608B81E85EB51B8BE3F8030000C30041105394D2501640600800030C0200800030C00B81E85EB51B8BE3F48821E8720B1B6A9BAB9332A32BC3A29BA3220480A1282C6DA8C868CA6E8C88120286A0B1B6ABB2B63234B733A9BA3220480A1082C6DA92C8A6E8C88120285A0B1B6A230BA3AB6A9BA3220480A1282C6DA849E9AA
310
6E8C8812028820B6B23A2232BA30B4B629BCB6A9BA3220480A2282DAC8E8A6CAC6E8D2DEDCA6F2DAA6E8C88120288A0B6B23A21B2B73A32B92634B732A9BA3220480A2282DAC8E8A8D0E4CAC2C898D2DCCAA6E8C88120285A0B6B23A2737BA32A9BA3220480A1682C682DACE98C2F2A6E8C88120285A0B1A0B6B3A234B6A9B
310
A3220480A2282C682DACE90DED8CA86D0C2E4E8A6E8C88120286A0B1A0B6B3AA34BA3632A9BA3220480A02812027FFF9FFFE
340
4B37E4
360
4B37E5
360
4B37E6
360
4B37E7
360
4B37E8
360
4B37E9
360
4B37EA
360
4B37EB
360
4B37EC
360
4B37ED
360
4B37EE
360
4B37EF
360
4B37FA
360
4B37FB
360
4B381A
360
4B381B
340
0
340
0
340
0
340
0
 94
        0
  0
ACAD_PROXY_OBJECT
  5
4B3772
102
{ACAD_REACTORS
330
4B3771
102
}
330
4B3771
100
AcDbProxyObject
 90
      499
 91
      508
 71
    25
 97
       77
 70
     0
161
              2436
310
4050B44574753455454494E4753A1286829C8E82A4A482B282A106660F8686AF86C608321A2A720A723A0A849A1ABE1C983E18999AA0C868A9C889282940000000000001C07E83A1A2A72224A0A9A0A8598171ABE1897183E18971AA0E868A9C8892A6A8940000000000001807E8321A2A72622A7250000000000000701FA0
310
C868A9C9E8C8C940000000000001C07E84A1A624A720A92920ACA0A851817181A991A981818182108698929C8AA8B2A082A0AB098929C8A84A22BA3AAA9A1A0A622A50A0E9882A6A89E849482A02608426A0A5A2AB24A2ABA7E8120CA0A68682988A0C00800010652455649534941501304154D0D0531150540CC4E8C50954
310
494D455354414D504A0FF6A7251DD28734141D5915494D253D3905414C4D4B8C0C1107B44574753455454494E4753454E447DC
 94
        0
  0
ACAD_PROXY_OBJECT
  5
4B3773
102
{ACAD_REACTORS
330
4B3771
102
}
330
4B3771
100
AcDbProxyObject
 90
      499
 91
      508
 71
    25
 97
       77
 70
     0
161
               852
310
4050D5452414E5353455454494E4753A2488A482AE929C8EA8A4829CA69882A8929E9C0C00800050D4F524947494E414C4C595F4F4E0600400008529A7AAA921A2A620A723A0A81A2A72AA12AAA0A48AA68AA4AC8A0C0080001107B44574753455454494E4753454E447DC
 94
        0
  0
ACDBASSOCACTION
  5
4B4499
330
4B4496
100
AcDbAssocAction
 90
        2
 90
        0
330
4B4496
360
4B449A
 90
        1
 90
        3
 90
        3
360
4B449D
360
4B449E
360
4B449F
 90
        0
 90
        3
360
4B449B
360
4B449C
360
4B44A0
 90
        0
 90
       10
 90
        0
  1
FillAngle
 90
        2
 90
        1
 40
2.872113817081868
330
0
330
0
 90
        0
  1
ItemSpacing
 90
        2
 90
        1
 40
0.1795071135676168
330
0
330
0
 90
        0
  1
Items
 90
        0
 90
        1
 90
       17
330
0
330
0
 90
        0
  1
LevelSpacing
 90
        1
 90
        1
 40
0.0307168797340713
330
0
330
0
 90
        0
  1
Levels
 90
        0
 90
        1
 90
        1
330
0
330
0
 90
        0
  1
RowElevation
 90
        1
 90
        1
 40
0.0
330
0
330
0
 90
        0
  1
RowSpacing
 90
        1
 90
        1
 40
0.0467803140331436
330
0
330
0
 90
        0
  1
Rows
 90
        0
 90
        1
 90
        1
330
0
330
0
 90
        0
  1
Radius
 90
        1
 90
        1
 40
4.47794853838786
330
0
330
0
 90
        0
  1
StartAngle
 90
        2
 90
        1
 40
0.1181964383721597
330
0
330
0
  0
XRECORD
  5
4B41E3
102
{ACAD_REACTORS
330
4B41E1
102
}
330
4B41E1
100
AcDbXrecord
280
     1
270
     1
271
     1
  0
XRECORD
  5
4B41E2
102
{ACAD_REACTORS
330
4B41E1
102
}
330
4B41E1
100
AcDbXrecord
280
     1
270
     1
271
     1
  0
XRECORD
  5
4B41E6
102
{ACAD_REACTORS
330
4B41E1
102
}
330
4B41E1
100
AcDbXrecord
280
     1
270
     1
271
     1
  0
XRECORD
  5
4B41E5
102
{ACAD_REACTORS
330
4B41E1
102
}
330
4B41E1
100
AcDbXrecord
280
     1
270
     1
271
     1
  0
XRECORD
  5
4B41E7
102
{ACAD_REACTORS
330
4B41E1
102
}
330
4B41E1
100
AcDbXrecord
280
     1
270
     1
271
     1
  0
XRECORD
  5
4B41E4
102
{ACAD_REACTORS
330
4B41E1
102
}
330
4B41E1
100
AcDbXrecord
280
     1
270
     1
271
     1
  0
XRECORD
  5
4B41DB
102
{ACAD_REACTORS
330
4B41D9
102
}
330
4B41D9
100
AcDbXrecord
280
     1
270
     1
271
     1
  0
XRECORD
  5
4B41DA
102
{ACAD_REACTORS
330
4B41D9
102
}
330
4B41D9
100
AcDbXrecord
280
     1
270
     1
271
     1
  0
XRECORD
  5
4B41DE
102
{ACAD_REACTORS
330
4B41D9
102
}
330
4B41D9
100
AcDbXrecord
280
     1
270
     1
271
     1
  0
XRECORD
  5
4B41DD
102
{ACAD_REACTORS
330
4B41D9
102
}
330
4B41D9
100
AcDbXrecord
280
     1
270
     1
271
     1
  0
XRECORD
  5
4B41DF
102
{ACAD_REACTORS
330
4B41D9
102
}
330
4B41D9
100
AcDbXrecord
280
     1
270
     1
271
     1
  0
XRECORD
  5
4B41DC
102
{ACAD_REACTORS
330
4B41D9
102
}
330
4B41D9
100
AcDbXrecord
280
     1
270
     1
271
     1
  0
XRECORD
  5
4B41EB
102
{ACAD_REACTORS
330
4B41E9
102
}
330
4B41E9
100
AcDbXrecord
280
     1
270
     1
271
     1
  0
XRECORD
  5
4B41EA
102
{ACAD_REACTORS
330
4B41E9
102
}
330
4B41E9
100
AcDbXrecord
280
     1
270
     1
271
     1
  0
XRECORD
  5
4B41EE
102
{ACAD_REACTORS
330
4B41E9
102
}
330
4B41E9
100
AcDbXrecord
280
     1
270
     1
271
     1
  0
XRECORD
  5
4B41ED
102
{ACAD_REACTORS
330
4B41E9
102
}
330
4B41E9
100
AcDbXrecord
280
     1
270
     1
271
     1
  0
XRECORD
  5
4B41EF
102
{ACAD_REACTORS
330
4B41E9
102
}
330
4B41E9
100
AcDbXrecord
280
     1
270
     1
271
     1
  0
XRECORD
  5
4B41EC
102
{ACAD_REACTORS
330
4B41E9
102
}
330
4B41E9
100
AcDbXrecord
280
     1
270
     1
271
     1
  0
CELLSTYLEMAP
  5
4B47A3
102
{ACAD_REACTORS
330
4B47A2
102
}
330
4B47A2
100
AcDbCellStyleMap
 90
        3
300
CELLSTYLE
  1
TABLEFORMAT_BEGIN
 90
        5
170
     1
 91
        0
 92
    32768
 62
   257
 93
        1
300
CONTENTFORMAT
  1
CONTENTFORMAT_BEGIN
 90
        0
 91
        0
 92
        4
 93
        0
300

 40
0.0
140
1.0
 94
        5
 62
     0
340
4B1AC0
144
0.25
309
CONTENTFORMAT_END
171
     0
 94
        6
 95
        1
302
GRIDFORMAT
  1
GRIDFORMAT_BEGIN
 90
        0
 91
        1
 62
     0
 92
       -2
340
0
 93
        0
 40
0.045
309
GRIDFORMAT_END
 95
        2
302
GRIDFORMAT
  1
GRIDFORMAT_BEGIN
 90
        0
 91
        1
 62
     0
 92
       -2
340
0
 93
        0
 40
0.045
309
GRIDFORMAT_END
 95
        4
302
GRIDFORMAT
  1
GRIDFORMAT_BEGIN
 90
        0
 91
        1
 62
     0
 92
       -2
340
0
 93
        0
 40
0.045
309
GRIDFORMAT_END
 95
        8
302
GRIDFORMAT
  1
GRIDFORMAT_BEGIN
 90
        0
 91
        1
 62
     0
 92
       -2
340
0
 93
        0
 40
0.045
309
GRIDFORMAT_END
 95
       16
302
GRIDFORMAT
  1
GRIDFORMAT_BEGIN
 90
        0
 91
        1
 62
     0
 92
       -2
340
0
 93
        0
 40
0.045
309
GRIDFORMAT_END
 95
       32
302
GRIDFORMAT
  1
GRIDFORMAT_BEGIN
 90
        0
 91
        1
 62
     0
 92
       -2
340
0
 93
        0
 40
0.045
309
GRIDFORMAT_END
309
TABLEFORMAT_END
  1
CELLSTYLE_BEGIN
 90
        1
 91
        1
300
_TITLE
309
CELLSTYLE_END
300
CELLSTYLE
  1
TABLEFORMAT_BEGIN
 90
        5
170
     1
 91
        0
 92
        0
 62
   257
 93
        1
300
CONTENTFORMAT
  1
CONTENTFORMAT_BEGIN
 90
        0
 91
        0
 92
        4
 93
        0
300

 40
0.0
140
1.0
 94
        5
 62
     0
340
4B1AC0
144
0.18
309
CONTENTFORMAT_END
171
     0
 94
        6
 95
        1
302
GRIDFORMAT
  1
GRIDFORMAT_BEGIN
 90
        0
 91
        1
 62
     0
 92
       -2
340
0
 93
        0
 40
0.045
309
GRIDFORMAT_END
 95
        2
302
GRIDFORMAT
  1
GRIDFORMAT_BEGIN
 90
        0
 91
        1
 62
     0
 92
       -2
340
0
 93
        0
 40
0.045
309
GRIDFORMAT_END
 95
        4
302
GRIDFORMAT
  1
GRIDFORMAT_BEGIN
 90
        0
 91
        1
 62
     0
 92
       -2
340
0
 93
        0
 40
0.045
309
GRIDFORMAT_END
 95
        8
302
GRIDFORMAT
  1
GRIDFORMAT_BEGIN
 90
        0
 91
        1
 62
     0
 92
       -2
340
0
 93
        0
 40
0.045
309
GRIDFORMAT_END
 95
       16
302
GRIDFORMAT
  1
GRIDFORMAT_BEGIN
 90
        0
 91
        1
 62
     0
 92
       -2
340
0
 93
        0
 40
0.045
309
GRIDFORMAT_END
 95
       32
302
GRIDFORMAT
  1
GRIDFORMAT_BEGIN
 90
        0
 91
        1
 62
     0
 92
       -2
340
0
 93
        0
 40
0.045
309
GRIDFORMAT_END
309
TABLEFORMAT_END
  1
CELLSTYLE_BEGIN
 90
        2
 91
        1
300
_HEADER
309
CELLSTYLE_END
300
CELLSTYLE
  1
TABLEFORMAT_BEGIN
 90
        5
170
     1
 91
        0
 92
        0
 62
   257
 93
        1
300
CONTENTFORMAT
  1
CONTENTFORMAT_BEGIN
 90
        0
 91
        0
 92
        4
 93
        0
300

 40
0.0
140
1.0
 94
        2
 62
     0
340
4B1AC0
144
0.18
309
CONTENTFORMAT_END
171
     0
 94
        6
 95
        1
302
GRIDFORMAT
  1
GRIDFORMAT_BEGIN
 90
        0
 91
        1
 62
     0
 92
       -2
340
0
 93
        0
 40
0.045
309
GRIDFORMAT_END
 95
        2
302
GRIDFORMAT
  1
GRIDFORMAT_BEGIN
 90
        0
 91
        1
 62
     0
 92
       -2
340
0
 93
        0
 40
0.045
309
GRIDFORMAT_END
 95
        4
302
GRIDFORMAT
  1
GRIDFORMAT_BEGIN
 90
        0
 91
        1
 62
     0
 92
       -2
340
0
 93
        0
 40
0.045
309
GRIDFORMAT_END
 95
        8
302
GRIDFORMAT
  1
GRIDFORMAT_BEGIN
 90
        0
 91
        1
 62
     0
 92
       -2
340
0
 93
        0
 40
0.045
309
GRIDFORMAT_END
 95
       16
302
GRIDFORMAT
  1
GRIDFORMAT_BEGIN
 90
        0
 91
        1
 62
     0
 92
       -2
340
0
 93
        0
 40
0.045
309
GRIDFORMAT_END
 95
       32
302
GRIDFORMAT
  1
GRIDFORMAT_BEGIN
 90
        0
 91
        1
 62
     0
 92
       -2
340
0
 93
        0
 40
0.045
309
GRIDFORMAT_END
309
TABLEFORMAT_END
  1
CELLSTYLE_BEGIN
 90
        3
 91
        2
300
_DATA
309
CELLSTYLE_END
  0
ACAD_PROXY_OBJECT
  5
4B37E5
330
4B37D6
100
AcDbProxyObject
 90
      499
 91
      557
 71
    25
 97
       77
 70
     0
161
                96
310
60820E80A0280A0280A0280800
 94
        0
  0
ACAD_PROXY_OBJECT
  5
4B37E6
330
4B37D6
100
AcDbProxyObject
 90
      499
 91
      558
 71
    25
 97
       77
 70
     0
161
               332
310
6090E405014050140501405014050140501405014250140501405014050140501200000000000000040C
340
4B37F0
 94
        0
  0
ACAD_PROXY_OBJECT
  5
4B37E7
330
4B37D6
100
AcDbProxyObject
 90
      499
 91
      559
 71
    25
 97
       77
 70
     0
161
               403
310
608C199999999999E99F91F405014050140501405014050140501405014050140501405014050140501405014050140501404C
340
0
 94
        0
  0
ACAD_PROXY_OBJECT
  5
4B37E8
330
4B37D6
100
AcDbProxyObject
 90
      499
 91
      560
 71
    25
 97
       77
 70
     0
161
                10
310
608C
 94
        0
  0
ACAD_PROXY_OBJECT
  5
4B37E9
330
4B37D6
100
AcDbProxyObject
 90
      499
 91
      561
 71
    25
 97
       77
 70
     0
161
               257
310
60A290EA22A7D90F49F9353333333333727F44D4CCCCCCCCCDC9FC01000061804C
340
4B37F1
340
4B37F2
 94
        0
  0
ACAD_PROXY_OBJECT
  5
4B37EA
330
4B37D6
100
AcDbProxyObject
 90
      499
 91
      562
 71
    25
 97
       77
 70
     0
161
             13595
310
6090E41125511535014112551153501405014069011309A4F2590CB64FD3347454E545241434F2C454E552C302C4954454D2C47454E54524154582C25732C2847454E4D53472067656E647767203232322940690120281A8AA2CA0281A8AA2CA028120280A03202261349E4B2196C9FA648E8A9CA8A482869E588A9CAA5860
310
58A2A8B2588E8A9CA8A482A8B0584AE658508E8A9C9AA68E40CECADCC8EECE406464665280D202405044E414D45405044E414D454051C40640A8B95C2E97CBE502404CD1D15395149050D3CB1153954B0C0B139053514B11D15395149055160B095CCB0A11D1539354D1C819D95B991DD9C80C8C8D8A50192C3D4946284953
310
424C414E4B28504152543A4E414D45292C424C4F434B3A4E414D452C504152543A4E414D452940480A0A888AA686A480A16888AA686A492A0A8929E9C80A3A80C81D10782C06030180C809D23A2A72A2920A1A79622A72A9618162222A9A1A924A82A24A7A71623A2A72A2920AA2C1612B9961423A2A726A9A39033B2B7323
310
BB39019189B94A024809014214D51053911054911014214D510539110549110147501904A383BFDFEFF5FBFCFD3747454E545241434F2C454E552C302C5354414E444152442C47454E54524154582C25732C2847454E4D53472067656E64776720323138294049012028426A0AA22A924A0A62028426A0AA22A924A0A62028
310
EA0320B41396D838E9017D9FA6E8E8A9CA8A482869E588A9CAA5860589A82A88AA4928298588E8A9CA8A482A8B0584AE658508E8A9C9AA68E40CECADCC8EECE406464625280D202405044E4F5445405044E4F54454051D40641A8B95C2E97CBE5F23F4CD1D15395149050D3CB1153954B0C0B1393D5114B11D153951490551
310
60B095CCB0A11D1539354D1C819D95B991DD9C80C8C8D4A501A40480A0CAC8A9C889EA480A0CAC8A9C889EA480A3A80C83D172B85D2F97CBE47E9AA3A2A72A2920A1A79622A72A9618162B22A72227A91623A2A72A2920AA2C1612B9961423A2A726A9A39033B2B7323BB39019191A14A0348090141911154D0D48C9014351
310
1154D0D49254151253D3880C90147501908A20F0580C0603019013B47454E545241434F2C454E552C302C4445534352495054494F4E20322C47454E54524154582C25732C2847454E4D53472067656E6477672033362940490120284A9AA20A72220A922192028529AA20A72220A92210192028EA0321347077FBFDFEBF7F9
310
FA728E8A9CA8A482869E588A9CAA586058A6A8829C8882A4884064588E8A9CA8A482A8B0584AE658508E8A9C9AA68E40CECADCC8EECE4064646052809202405094D4154455249414C324050A4D4154455249414C20324051D40642A8272DB071D202FB3F4E11D15395149050D3CB1153954B0C0B1350551154925053080C8B
310
11D15395149055160B095CCB0A11D1539354D1C819D95B991DD9C80D0C0A501240480A089A82A6A680A089A82A6A680A3A80A0485A0681172B85D2F97CBE47E9923A2A72A2920A1A79622A72A96181626A0A9A99623A2A72A2920AA2C1612B9961423A2A726A9A39033B2B7323BB3901A1914A024809014154149250D15014
310
154149250D1501475014090C409022E570BA5F2F97C8FD3347454E545241434F2C454E552C302C50524943452C47454E54524154582C25732C2847454E4D53472067656E6477672034332940490120281A224A6A0285A6A2A0A9AAA922A6A2A72A2028EA028121A81A047DC2910F05877A1FA728E8A9CA8A482869E588A9CA
310
A5860589A8A82A6AAA48A9A8A9CA8588E8A9CA8A482A8B0584AE658508E8A9C9AA68E40CECADCC8EECE406868528092024050E441022E07A17AD46E338FE07800030C0001018ACD56AB55AADF63F2B355AAD56AB7D8FD073D3C4954454D3E405018ACD56AB55AADF63F2B355AAD56AB7D8FD073D3C4954454D3E40501890C7
310
E3F1783CEE3F2431F8FC5E0F3B8FD073D3C4954454D3E40501890C7E3F1783CEE3F2431F8FC5E0F3B8FD073D3C4954454D3E405029012B355AAD56AB7D8FCACD56AB55AADF63F41CF4F125511534F901418F4F1455164F9014062B355AAD56AB7D8FCACD56AB55AADF63F41CF4F125511534F9014061309A4F2590CBA4FC4C
310
2693C96432E93F41CF4F125511534F901901002B355AAD56AB7D8FCACD56AB55AADF63FA2000000000000008204018000618048220681A048120280C882148448820348520348452028521485214814000000000000F0BF0000000000003C2FD018020000C3008070000C3000EF7D3E365DBA88FC3BDF4F8D976EA23F2E07A
310
17AD46E2F8FF20341A405024150741A4069703D0BD6A3717C7F0040001860100400018601002000186002026280A03202C
340
0
340
0
 94
        0
  0
ACAD_PROXY_OBJECT
  5
4B37EB
330
4B37D6
100
AcDbProxyObject
 90
      499
 91
      563
 71
    25
 97
       77
 70
     0
161
               994
310
6080B81E85EB51B8CE3F4BCF511155105253080F11115510525317D3105091530F971414D0D05311480F11115510525317D05094D4D0D053114F92341C9A9999999999B93F26A666666666724FC000000000000E03F4000000000000004000000000000005100000000000000244081E0000C3002E07A17AD46E338FCC
340
4B37A3
340
4B37E4
 94
        0
  0
ACAD_PROXY_OBJECT
  5
4B37EC
330
4B37D6
100
AcDbProxyObject
 90
      499
 91
      564
 71
    25
 97
       77
 70
     0
161
               823
310
608031703D0BD6A3719C7E999EA9A2A1AA24A7A7101E29A2A1AA24A7A72FA620A122A62FA324A929AA1F169E29A2A1AA24A7A72FA620A122A62FA620A9AA1F1353333333333B27E3FFFE01C00030C008840F000061801353333333333B27F1703D0BD6A3719C7E
340
4B37A3
340
4B37E4
 94
        0
  0
ACAD_PROXY_OBJECT
  5
4B37ED
330
4B37D6
100
AcDbProxyObject
 90
      499
 91
      565
 71
    25
 97
       77
 70
     0
161
               280
310
6082B8716D9CEF7C33F0A5723F0BD4A2F0FC295C8FC2F528BC3FA199999999999F99FC00
 94
        0
  0
ACAD_PROXY_OBJECT
  5
4B37EE
330
4B37D6
100
AcDbProxyObject
 90
      499
 91
      566
 71
    25
 97
       77
 70
     0
161
                14
310
60A4
340
0
 94
        0
  0
ACAD_PROXY_OBJECT
  5
4B37EF
330
4B37D6
100
AcDbProxyObject
 90
      499
 91
      567
 71
    25
 97
       77
 70
     0
161
              7408
310
609084050BA4050AA405024050A54656D706C617465203140405013D3C696628657175616C28486F6C653A7461707065642C223022292C22252563222C486F6C653A6E6F6D696E616C2022202220696628657175616C28486F6C653A756E6974732C223122292C2278222C222D222920222022293E3C696628657175616C28
310
486F6C653A7461707065642C223022292C486F6C653A6469612C486F6C653A706974636864657363293E207B5C46414D4744543B787D203C696628657175616C28486F6C653A7465726D696E6174696F6E2C223022292C486F6C653A64657074682C225448525522293E5C507B5C46414D4744543B767D2525633C486F6C65
310
3A63746469613E207B5C46414D4744543B787D203C486F6C653A637464657074683E406901405034050A54656D706C6174652031405FE3D3C696628657175616C28486F6C653A7461707065642C223022292C22252563222C486F6C653A6E6F6D696E616C2022202220696628657175616C28486F6C653A756E6974732C223
310
122292C2278222C222D222920222022293E3C696628657175616C28486F6C653A7461707065642C223022292C486F6C653A6469612C486F6C653A706974636864657363293E207B5C46414D4744543B787D203C696628657175616C28486F6C653A7465726D696E6174696F6E2C223022292C486F6C653A64657074682C225
310
448525522293E5C507B5C46414D4744543B777D2525633C486F6C653A63746469613E2058203C486F6C653A6374616E676C653E252564406901405014050A54656D706C6174652031405CF3D3C696628657175616C28486F6C653A7461707065642C223022292C22252563222C486F6C653A6E6F6D696E616C202220222069
310
6628657175616C28486F6C653A756E6974732C223122292C2278222C222D222920222022293E3C696628657175616C28486F6C653A7461707065642C223022292C486F6C653A6469612C486F6C653A706974636864657363293E5C507B5C46414D4744543B787D203C696628657175616C28486F6C653A7465726D696E6174
310
696F6E2C223022292C486F6C653A64657074682C225448525522293E4069014051E40D0A54656D706C6174652032405173D3C535444503A444553433E203C535444503A5354443E40690A54656D706C61746520314050C3D3C535444503A444553433E40690A54656D706C61746520334050B3D3C535444503A5354443E406
310
90340515AAAC145C0F42F5A8DC5F1F9703D0BD6A3717C7F8020000C3008030000C3004410300
360
4B37F8
330
4B37F8
360
4B37F9
330
4B37F9
360
4B37F7
330
4B37F7
360
4B37F5
360
4B37F4
360
4B37F6
330
4B37F5
330
4B37F4
330
4B37F6
 94
        0
  0
ACAD_PROXY_OBJECT
  5
4B37FA
330
4B37D6
100
AcDbProxyObject
 90
      499
 91
      569
 71
    25
 97
       77
 70
     0
161
                26
310
60902A8C
340
4B37D7
 94
        0
  0
ACAD_PROXY_OBJECT
  5
4B37FB
330
4B37D6
100
AcDbProxyObject
 90
      499
 91
      570
 71
    25
 97
       77
 70
     0
161
               258
310
60902000000000000380FC000000000000E03F408F0F9023C3E40DB18CCCFFFF8C
340
4B37FC
340
0
340
0
340
4B3805
340
4B3808
340
0
340
4B380D
340
4B3810
340
4B3817
340
0
 94
        0
  0
ACAD_PROXY_OBJECT
  5
4B381A
330
4B37D6
100
AcDbProxyObject
 90
      499
 91
      571
 71
    25
 97
       77
 70
     0
161
             17510
310
6091F023FFFFFFFD010300002E07A17AD46E2F8FE00800030C01010300002E07A17AD46E2F8FE00800030C0005134C495354204F4620434F4F5244494E41544553015091D15395149050D3CB1153954B0C0B131254D50813D18810D3D3D491125390551154CB11D15395149055160B095CCB0A11D1539354D1C819D95B991A
310
5B5E880CCC0A78000C000000000000000000000000000000007B14AE47E17AA43F2E07A17AD46E2F8FE00800030C007B14AE47E17AA43F2E07A17AD46E2F8FE00800030C020143CF4F111959985D5B1D151A5D1B194F8050A484F4C45205441424C45014E51D15395149050D3CB1153954B0C0B1213D3114815105093114B1
310
1D15395149055160B095CCB0A11D1539354D1C819D95B991A5B5E880CCC4A78000C000000000000000000000000000000007B14AE47E17AA43F2E07A17AD46E2F8FE00800030C007B14AE47E17AA43F2E07A17AD46E2F8FE00800030C020143CF4F111959985D5B1D151A5D1B194F90E4410F4450240D04415074310143912
310
44D154151241D144310D4400005064F524947494E014D11D15395149050D3CB1153954B0C0B13D49251D2538B11D15395149055160B095CCB0A11D1539354D1C819D95B991A5B5E880C4A400040410008850000A0C9EA4928E929C029A23A2A72A2920A1A79622A72A96181627A924A3A4A71623A2A72A2920AA2C1612B996
310
1423A2A726A9A39033B2B73234B6BD101894800080820010FA0001411213D3114053247454E545241434F2C454E552C302C484F4C452C47454E54524154582C25732C2847454E4D53472067656E64696D7A20322901538F4F12518A1254D093105392CA121BDB19525D195B4A4B13DC9A59DA5B8B08121BDB19525D195B4A4
310
F8F12518A1254D093105392CA121BDB19525D195B4A4B08888B08121BDB19525B99195E0A4F80404100088D0000A02B00297A3A2A72A2920A1A79622A72A9618162C1623A2A72A2920AA2C1612B9961423A2A726A9A39033B2B73234B6BD1019948000808000102A000140564052F47454E545241434F2C454E552C302C592
310
C47454E54524154582C25732C2847454E4D53472067656E64696D7A20342900010100002074000280A900A5E8E8A9CA8A482869E588A9CAA586058A4588E8A9CA8A482A8B0584AE658508E8A9C9AA68E40CECADCC8D2DAF4406C52000202000041280005187B5C4653594D424F4C7C42307C49307C43327C50303B4A7D0151
310
91D15395149050D3CB1153954B0C0B1ED71194D6535093D31F108C1F124C1F10CC9F140C0ED29F4B11D15395149055160B095CCB0A11D1539354D1C819D95B991A5B5E880DCA40004040C0082D0000A064A4A860298A3A2A72A2920A1A79622A72A9618161292A19623A2A72A2920AA2C1612B9961423A2A726A9A39033B2B
310
73234B6BD101C148000808080107A000142D11154D0D49254151253D38053A47454E545241434F2C454E552C302C4445534352495054494F4E2C47454E54524154582C25732C2847454E4D53472067656E64696D7A203230290001000400219400028224AA22A680A668E8A9CA8A482869E588A9CAA58605892A88A9A588E8
310
A9CA8A482A8B0584AE658508E8A9C9AA68E40CECADCC8D2DAF4406268520002020A014068000505494E444558014D11D15395149050D3CB1153954B0C0B12539111560B11D15395149055160B095CCB0A11D1539354D1C819D95B991A5B5E880C4D4A400040414028750000A08909E988A0299A3A2A72A2920A1A79622A72A
310
9618162427A6229623A2A72A2920AA2C1612B9961423A2A726A9A39033B2B73234B6BD10189B148000808200112A0001429213D3114812539111560053947454E545241434F2C454E552C302C484F4C4520494E4445582C47454E54524154582C25732C2847454E4D53472067656E64696D7A2031372900010105002274000
310
284AAA9A2A91024AA22A680A708E8A9CA8A482869E588A9CAA586058AAA68AA44092A88A9A588E8A9CA8A482A8B0584AE658508E8A9C9AA68E40CECADCC8D2DAF4406464520002020A004568000503515459014C91D15395149050D3CB1153954B0C0B1455164B11D15395149055160B095CCB0A11D1539354D1C819D95B99
310
1A5B5E880C4E4A400040418008A50000A10A6A8829C8882A488029BA3A2A72A2920A1A79622A72A96181629AA20A72220A9221623A2A72A2920AA2C1612B9961423A2A726A9A39033B2B73234B6BD10191894800080020010DA440019FFFFFFFE004D4CCCCCCCCCF49FCFFFFFFFF0326A6666666667A4FE7FFFFFFF8093533
310
33333333D27F3FFFFFFFC049A9999999999E93F9FFFFFFFE044D4CCCCCCCCCF49FCFFFFFFFF0226A6666666667A4FE7FFFFFFF81B3FFFFFFFC0C00000000000000409FFFFFFFE004D4CCCCCCCCCEC9FCFFFFFFFF0026A6666666667A4FE7FFFFFFF801353333333333D27F3FFFFFFFC009A9999999999E93F9FFFFFFFE004D
310
4CCCCCCCCCF49FCFFFFFFFF032E07A17AD46E378FE7FFFFFFF818CECCCCCCCCCC0C813FFFFFFFD100067FFFFFFF801353333333333D27F3FFFFFFFC0C9A9999999999E93F9FFFFFFFE064D4CCCCCCCCCF49FCFFFFFFFF0326A6666666667A4FE7FFFFFFF819353333333333D27F3FFFFFFFC0C9A9999999999E93F9FFFFFFF
310
E06CFFFFFFFF03000000000000001027FFFFFFF801353333333333B27F3FFFFFFFC009A9999999999E93F9FFFFFFFE064D4CCCCCCCCCF49FCFFFFFFFF0026A6666666667A4FE7FFFFFFF801353333333333D27F3FFFFFFFC0CB81E85EB51B8DE3F9FFFFFFFE0633B33333333303204FFFFFFFF4111000000043C0000011200
310
000044C0000010441C0004011200000040C000401020001003FFFFFFFD0240400054E3D3C4946284953424C414E4B28486F6C654974656D292C4F726967696E2C20486F6C654974656D293E3C4946284953424C414E4B28486F6C654974656D292C22222C20486F6C65496E646578293E4111000000043C000001120000004
310
4C0000010300004111000000043C00000112000000454000000FFFFFFFF8
340
0
340
0
340
0
340
0
340
4B37E4
340
4B37E4
 94
        0
  0
ACAD_PROXY_OBJECT
  5
4B381B
330
4B37D6
100
AcDbProxyObject
 90
      499
 91
      572
 71
    25
 97
       77
 70
     0
161
              5542
310
6099741105394D2506414E53495F4342905394D257D512551554D15414E53495F54525F5265766973696F6E6C697374614191143202831372E307832322E30696E63682941905394D257D0D1146202832382E307834302E30696E63682941905394D257D191142202831312E307831372E30696E63682941905394D257D091
310
144202832322E307833342E30696E63682941905394D257D111145202833342E307834342E30696E63682941905394D257D1510412028382E357831312E30696E63682941905394D257D0505439554C8151A5D1B1948109B1BD8DAD0A414E53495F544954555344D05B9CDA48151A5D1B1948109B1BD8DAC81110D0C414E53
310
495F5449544C45444344D05B9CDA48151A5D1B1948109B1BD8DAC81050D0C414E53495F5449544C45414344905B9CDA48151A5D1B1948109B1BD8DAC81050B414E53495F5449544C454144905B9CDA48151A5D1B1948109B1BD8DAC81110B414E53495F5449544C4544421125265766973696F6E6C69737420415F42525F45
310
505394D257D09497D4995D9A5CDA5BDB9B1A5CDD185125265766973696F6E6C69737420415F54525F45505394D257D51497D4995D9A5CDA5BDB9B1A5CDD185125265766973696F6E6C69737420445F42525F45505394D257D09497D4995D9A5CDA5BDB9B1A5CDD191125265766973696F6E6C69737420445F54525F4550539
310
4D257D51497D4995D9A5CDA5BDB9B1A5CDD191125265766973696F6E6C69737420415F424C5F45505394D257D09317D4995D9A5CDA5BDB9B1A5CDD185125265766973696F6E6C69737420415F544C5F45505394D257D51317D4995D9A5CDA5BDB9B1A5CDD185125265766973696F6E6C69737420445F424C5F45505394D257
310
D09317D4995D9A5CDA5BDB9B1A5CDD191125265766973696F6E6C69737420445F544C5F45505394D257D51317D4995D9A5CDA5BDB9B1A5CDD190
 94
        0
  0
ACDBASSOCARRAYACTIONBODY
  5
4B449A
330
4B4499
100
AcDbAssocActionBody
 90
        2
100
AcDbAssocArrayActionBody
 90
        1
  1
AcDbAssocArrayPolarParameters
 90
        0
 90
       17
  1
AcDbAssocArrayItem
100
AcDbAssocArrayItem
 90
        0
 90
        0
 90
        0
 90
        0
 90
        8
 11
-0.6063211903270212
 21
2.124743121866479
 31
0.0
330
4B44A2
100
AcDbAssocArrayItem
 90
        0
 90
        1
 90
        0
 90
        0
 90
       12
 40
0.9839318145262531
 40
-0.1785446284912406
 40
0.0
 40
-0.7720514677358122
 40
0.1785446284912401
 40
0.9839318145262529
 40
0.0
 40
2.910193774765451
 40
0.0
 40
0.0
 40
1.0
 40
0.0
 40
0.0
 40
0.0
 40
0.0
 40
1.0
330
4B44A3
100
AcDbAssocArrayItem
 90
        0
 90
        2
 90
        0
 90
        0
 90
       12
 40
0.9362436312738505
 40
-0.3513514805706044
 40
0.0
 40
-1.075356755328632
 40
0.3513514805706031
 40
0.9362436312738495
 40
0.0
 40
3.653433410083463
 40
0.0
 40
0.0
 40
1.0
 40
0.0
 40
0.0
 40
0.0
 40
0.0
 40
1.0
330
4B44A4
100
AcDbAssocArrayItem
 90
        0
 90
        3
 90
        0
 90
        0
 90
       12
 40
0.8584679753896027
 40
-0.5128671711374002
 40
0.0
 40
-1.506489921873062
 40
0.512867171137398
 40
0.8584679753896006
 40
0.0
 40
4.330577003197056
 40
0.0
 40
0.0
 40
1.0
 40
0.0
 40
0.0
 40
0.0
 40
0.0
 40
1.0
330
4B44A5
100
AcDbAssocArrayItem
 90
        0
 90
        4
 90
        0
 90
        0
 90
       12
 40
0.7531042742016912
 40
-0.6579011720457324
 40
0.0
 40
-2.051595912001264
 40
0.65790117204573
 40
0.7531042742016877
 40
0.0
 40
4.919863616413214
 40
0.0
 40
0.0
 40
1.0
 40
0.0
 40
0.0
 40
0.0
 40
0.0
 40
1.0
330
4B44A6
100
AcDbAssocArrayItem
 90
        0
 90
        5
 90
        0
 90
        0
 90
       12
 40
0.62353853469589
 40
-0.781792616842412
 40
0.0
 40
-2.693156997408775
 40
0.7817926168424103
 40
0.6235385346958861
 40
0.0
 40
5.402355716535227
 40
0.0
 40
0.0
 40
1.0
 40
0.0
 40
0.0
 40
0.0
 40
0.0
 40
1.0
330
4B44A7
100
AcDbAssocArrayItem
 90
        0
 90
        6
 90
        0
 90
        0
 90
       12
 40
0.4739345295390453
 40
-0.8805600841002318
 40
0.0
 40
-3.410555733069463
 40
0.8805600841002306
 40
0.4739345295390407
 40
0.0
 40
5.762547758454342
 40
0.0
 40
0.0
 40
1.0
 40
0.0
 40
0.0
 40
0.0
 40
0.0
 40
1.0
330
4B44A8
100
AcDbAssocArrayItem
 90
        0
 90
        7
 90
        0
 90
        0
 90
       12
 40
0.3090999885361078
 40
-0.95102954585385
 40
0.0
 40
-4.180737527096875
 40
0.9510295458538495
 40
0.3090999885361024
 40
0.0
 40
5.988864477099109
 40
0.0
 40
0.0
 40
1.0
 40
0.0
 40
0.0
 40
0.0
 40
0.0
 40
1.0
330
4B44A9
100
AcDbAssocArrayItem
 90
        0
 90
        8
 90
        0
 90
        0
 90
       12
 40
0.134332095641708
 40
-0.990936369339882
 40
0.0
 40
-4.978951531661136
 40
0.9909363693398828
 40
0.134332095641702
 40
0.0
 40
6.07403287444754
 40
0.0
 40
0.0
 40
1.0
 40
0.0
 40
0.0
 40
0.0
 40
0.0
 40
1.0
330
4B44AA
100
AcDbAssocArrayItem
 90
        0
 90
        9
 90
        0
 90
        0
 90
       12
 40
-0.0447527433083874
 40
-0.9989980940754447
 40
0.0
 40
-5.779546045416087
 40
0.9989980940754467
 40
-0.0447527433083943
 40
0.0
 40
6.015315947289443
 40
0.0
 40
0.0
 40
0.9999999999999998
 40
0.0
 40
0.0
 40
0.0
 40
0.0
 40
1.0
330
4B44AB
100
AcDbAssocArrayItem
 90
        0
 90
       10
 90
        0
 90
        0
 90
       12
 40
-0.2223993914986059
 40
-0.9749556454839595
 40
0.0
 40
-6.556792866089169
 40
0.9749556454839636
 40
-0.222399391498614
 40
0.0
 40
5.814600644576866
 40
0.0
 40
0.0
 40
1.0
 40
0.0
 40
0.0
 40
0.0
 40
0.0
 40
1.0
330
4B44AC
100
AcDbAssocArrayItem
 90
        0
 90
       11
 90
        0
 90
        0
 90
       12
 40
-0.3928989303451301
 40
-0.9195816606118484
 40
0.0
 40
-7.285714101533473
 40
0.9195816606118539
 40
-0.3928989303451377
 40
0.0
 40
5.478337227732621
 40
0.0
 40
0.0
 40
1.0
 40
0.0
 40
0.0
 40
0.0
 40
0.0
 40
1.0
330
4B44AD
100
AcDbAssocArrayItem
 90
        0
 90
       12
 90
        0
 90
        0
 90
       12
 40
-0.5507721234212097
 40
-0.8346556583778026
 40
0.0
 40
-7.942884868535252
 40
0.834655658377809
 40
-0.5507721234212158
 40
0.0
 40
5.017331982656489
 40
0.0
 40
0.0
 40
1.0
 40
0.0
 40
0.0
 40
0.0
 40
0.0
 40
1.0
330
4B44AE
100
AcDbAssocArrayItem
 90
        0
 90
       13
 90
        0
 90
        0
 90
       12
 40
-0.6909454992314862
 40
-0.7229068522927025
 40
0.0
 40
-8.507186083550294
 40
0.7229068522927103
 40
-0.6909454992314914
 40
0.0
 40
4.446399944912969
 40
0.0
 40
0.0
 40
0.9999999999999998
 40
0.0
 40
0.0
 40
0.0
 40
0.0
 40
1.0
330
4B44AF
100
AcDbAssocArrayItem
 90
        0
 90
       14
 90
        0
 90
        0
 90
       12
 40
-0.8089143941739585
 40
-0.5879264434418392
 40
0.0
 40
-8.960483153406746
 40
0.5879264434418478
 40
-0.8089143941739619
 40
0.0
 40
3.783888798252803
 40
0.0
 40
0.0
 40
1.0
 40
0.0
 40
0.0
 40
0.0
 40
0.0
 40
1.0
330
4B44B0
100
AcDbAssocArrayItem
 90
        0
 90
       15
 90
        0
 90
        0
 90
       12
 40
-0.9008877160804885
 40
-0.4340522123146883
 40
0.0
 40
-9.288208755318294
 40
0.4340522123146981
 40
-0.9008877160804903
 40
0.0
 40
3.051089246641909
 40
0.0
 40
0.0
 40
1.0
 40
0.0
 40
0.0
 40
0.0
 40
0.0
 40
1.0
330
4B44B1
100
AcDbAssocArrayItem
 90
        0
 90
       16
 90
        0
 90
        0
 90
       12
 40
-0.9639097761610157
 40
-0.2662291182820117
 40
0.0
 40
-9.479830977772916
 40
0.2662291182820225
 40
-0.9639097761610162
 40
0.0
 40
2.271550808301009
 40
0.0
 40
0.0
 40
1.0
 40
0.0
 40
0.0
 40
0.0
 40
0.0
 40
1.0
330
4B44B2
 40
1.0
 40
0.0
 40
0.0
 40
16.49757093429878
 40
0.0
 40
1.0
 40
0.0
 40
9.170702235206681
 40
0.0
 40
0.0
 40
1.0
 40
0.0
 40
0.0
 40
0.0
 40
0.0
 40
1.0
  0
ACDBASSOCDEPENDENCY
  5
4B449D
330
4B4499
100
AcDbAssocDependency
 90
        2
 90
        0
290
     0
290
     1
290
     1
290
     1
 90
        0
330
4B448F
290
     0
330
0
330
0
360
0
 90
        1
  0
ACDBASSOCDEPENDENCY
  5
4B449E
330
4B4499
100
AcDbAssocDependency
 90
        2
 90
        0
290
     1
290
     0
290
     1
290
     1
 90
        0
330
4B448C
290
     0
330
0
330
0
360
0
 90
        2
  0
ACDBASSOCDEPENDENCY
  5
4B449F
330
4B4499
100
AcDbAssocDependency
 90
        2
 90
        0
290
     1
290
     1
290
     1
290
     1
 90
-2147483648
330
4B4492
290
     0
330
0
330
0
360
0
 90
        3
  0
ACDBASSOCVERTEXACTIONPARAM
  5
4B449B
330
4B4499
100
AcDbAssocActionParam
 90
        1
 90
        0
  1
BaseNormal
100
AcDbAssocSingleDependencyActionParam
 90
        0
330
0
100
AcDbAssocVertexActionParam
 90
        0
 10
0.0
 20
0.0
 30
0.2
  0
ACDBASSOCVERTEXACTIONPARAM
  5
4B449C
330
4B4499
100
AcDbAssocActionParam
 90
        1
 90
        0
  1
Origin
100
AcDbAssocSingleDependencyActionParam
 90
        0
330
0
100
AcDbAssocVertexActionParam
 90
        0
 10
-5.053026765438421
 20
1.596697062584549
 30
0.0
  0
ACDBASSOCVERTEXACTIONPARAM
  5
4B44A0
330
4B4499
100
AcDbAssocActionParam
 90
        1
 90
        0
  1
basePoint
100
AcDbAssocSingleDependencyActionParam
 90
        0
330
0
100
AcDbAssocVertexActionParam
 90
        0
 10
0.0
 20
0.0
 30
0.0
  0
ACAD_PROXY_OBJECT
  5
4B37F8
330
0
100
AcDbProxyObject
 90
      499
 91
      568
 71
    25
 97
       77
 70
     0
161
              2224
310
60A014295195B5C1B185D19480C40405013D3C696628657175616C28486F6C653A7461707065642C223022292C22252563222C486F6C653A6E6F6D696E616C2022202220696628657175616C28486F6C653A756E6974732C223122292C2278222C222D222920222022293E3C696628657175616C28486F6C653A7461707065
310
642C223022292C486F6C653A6469612C486F6C653A706974636864657363293E207B5C46414D4744543B787D203C696628657175616C28486F6C653A7465726D696E6174696F6E2C223022292C486F6C653A64657074682C225448525522293E5C507B5C46414D4744543B767D2525633C486F6C653A63746469613E207B5C
310
46414D4744543B787D203C486F6C653A637464657074683EBE
 94
        0
  0
ACAD_PROXY_OBJECT
  5
4B37F9
330
0
100
AcDbProxyObject
 90
      499
 91
      568
 71
    25
 97
       77
 70
     0
161
              2160
310
60A014295195B5C1B185D19480C405FE3D3C696628657175616C28486F6C653A7461707065642C223022292C22252563222C486F6C653A6E6F6D696E616C2022202220696628657175616C28486F6C653A756E6974732C223122292C2278222C222D222920222022293E3C696628657175616C28486F6C653A746170706564
310
2C223022292C486F6C653A6469612C486F6C653A706974636864657363293E207B5C46414D4744543B787D203C696628657175616C28486F6C653A7465726D696E6174696F6E2C223022292C486F6C653A64657074682C225448525522293E5C507B5C46414D4744543B777D2525633C486F6C653A63746469613E2058203C
310
486F6C653A6374616E676C653E25256400
 94
        0
  0
ACAD_PROXY_OBJECT
  5
4B37F7
330
0
100
AcDbProxyObject
 90
      499
 91
      568
 71
    25
 97
       77
 70
     0
161
              1784
310
60A014295195B5C1B185D19480C405CF3D3C696628657175616C28486F6C653A7461707065642C223022292C22252563222C486F6C653A6E6F6D696E616C2022202220696628657175616C28486F6C653A756E6974732C223122292C2278222C222D222920222022293E3C696628657175616C28486F6C653A746170706564
310
2C223022292C486F6C653A6469612C486F6C653A706974636864657363293E5C507B5C46414D4744543B787D203C696628657175616C28486F6C653A7465726D696E6174696F6E2C223022292C486F6C653A64657074682C225448525522293E60
 94
        0
  0
ACAD_PROXY_OBJECT
  5
4B37F5
330
0
100
AcDbProxyObject
 90
      499
 91
      568
 71
    25
 97
       77
 70
     0
161
               312
310
60A014295195B5C1B185D19480C805173D3C535444503A444553433E203C535444503A5354443E00
 94
        0
  0
ACAD_PROXY_OBJECT
  5
4B37F4
330
0
100
AcDbProxyObject
 90
      499
 91
      568
 71
    25
 97
       77
 70
     0
161
               224
310
60A014295195B5C1B185D19480C4050C3D3C535444503A444553433E00
 94
        0
  0
ACAD_PROXY_OBJECT
  5
4B37F6
330
0
100
AcDbProxyObject
 90
      499
 91
      568
 71
    25
 97
       77
 70
     0
161
               216
310
60A014295195B5C1B185D19480CC050B3D3C535444503A5354443E00
 94
        0
  0
ENDSEC
  0
SECTION
  2
ACDSDATA
 70
     2
 71
     8
  0
ACDSSCHEMA
 90
        0
  1
AcDb_Thumbnail_Schema
  2
AcDbDs::ID
280
    10
 91
        8
  2
Thumbnail_Data
280
    15
 91
        0
101
ACDSRECORD
 95
        0
 90
        1
  2
AcDbDs::TreatedAsObjectData
280
     1
291
     1
101
ACDSRECORD
 95
        0
 90
        2
  2
AcDbDs::Legacy
280
     1
291
     1
101
ACDSRECORD
  1
AcDbDs::ID
 90
        3
  2
AcDs:Indexable
280
     1
291
     1
101
ACDSRECORD
  1
AcDbDs::ID
 90
        4
  2
AcDbDs::HandleAttribute
280
     7
282
     1
  0
ACDSSCHEMA
 90
        1
  1
AcDbDs::TreatedAsObjectDataSchema
  2
AcDbDs::TreatedAsObjectData
280
     1
 91
        0
  0
ACDSSCHEMA
 90
        2
  1
AcDbDs::LegacySchema
  2
AcDbDs::Legacy
280
     1
 91
        0
  0
ACDSSCHEMA
 90
        3
  1
AcDbDs::IndexedPropertySchema
  2
AcDs:Indexable
280
     1
 91
        0
  0
ACDSSCHEMA
 90
        4
  1
AcDbDs::HandleAttributeSchema
  2
AcDbDs::HandleAttribute
280
     7
 91
        1
284
     1
  0
ACDSRECORD
 90
        0
  2
AcDbDs::ID
280
    10
320
4B1D16
  2
Thumbnail_Data
280
    15
 94
     1738
310
89504E470D0A1A0A0000000D49484452000001000000007508030000009634CF9200000300504C5445000000000000C8C8C80000000000000000000000000000000000000000000000000000330000660000990000CC0000FF0033000033330033660033990033CC0033FF0066000066330066660066990066CC0066FF0099
310
000099330099660099990099CC0099FF00CC0000CC3300CC6600CC9900CCCC00CCFF00FF0000FF3300FF6600FF9900FFCC00FFFF3300003300333300663300993300CC3300FF3333003333333333663333993333CC3333FF3366003366333366663366993366CC3366FF3399003399333399663399993399CC3399FF33CC00
310
33CC3333CC6633CC9933CCCC33CCFF33FF0033FF3333FF6633FF9933FFCC33FFFF6600006600336600666600996600CC6600FF6633006633336633666633996633CC6633FF6666006666336666666666996666CC6666FF6699006699336699666699996699CC6699FF66CC0066CC3366CC6666CC9966CCCC66CCFF66FF0066
310
FF3366FF6666FF9966FFCC66FFFF9900009900339900669900999900CC9900FF9933009933339933669933999933CC9933FF9966009966339966669966999966CC9966FF9999009999339999669999999999CC9999FF99CC0099CC3399CC6699CC9999CCCC99CCFF99FF0099FF3399FF6699FF9999FFCC99FFFFCC0000CC00
310
33CC0066CC0099CC00CCCC00FFCC3300CC3333CC3366CC3399CC33CCCC33FFCC6600CC6633CC6666CC6699CC66CCCC66FFCC9900CC9933CC9966CC9999CC99CCCC99FFCCCC00CCCC33CCCC66CCCC99CCCCCCCCCCFFCCFF00CCFF33CCFF66CCFF99CCFFCCCCFFFFFF0000FF0033FF0066FF0099FF00CCFF00FFFF3300FF3333
310
FF3366FF3399FF33CCFF33FFFF6600FF6633FF6666FF6699FF66CCFF66FFFF9900FF9933FF9966FF9999FF99CCFF99FFFFCC00FFCC33FFCC66FFCC99FFCCCCFFCCFFFFFF00FFFF33FFFF66FFFF99FFFFCCFFFFFF0000000D0D0D1A1A1A2828283535354343435050505D5D5D6B6B6B787878868686939393A1A1A1AEAEAEBB
310
BBBBC9C9C9D6D6D6E4E4E4F1F1F1FFFFFF00000000000000000000000000000000000000000000000000000000000008F1915C000003854944415478DAED9D3B96EB300840B518156EBCFFCECD6C8886FE45FE0959203B2F49C18739F91C47F119AE01212439297D5FFE7E264987FCA93B7100F8E5FF090120000480478282
310
048000A01300BCE40D00288B5A0029003807B0CBA7FA570201401B80DD139C2642FF0B80E9FE340300CF00B6E7C5AF0B94E7A9886700E039080600EF00DE49848C0268407C0E431D80DC24440E01D0EB0E5F8807EA2A42ABC66E2D20A52E027804D022484E019C1C9C0298E7F591FC0228177F766B01BBF5CF4F0A014601CC
310
F3FAC0B18698CC03186B88DE2D60C3930D03184BCE1973156F008ACA0440E211580570688CDD111F004E9347F6A8090025131CE9BFBDC13602F4042C0238F56582606704065D605771531AC9FB8AC0348046FF3608D64F0C2742AC9683CF2C0290F4A704CCB8C015C0507F8E80B118D05FE1BB164A01ACB580B92F89AD8A8D
310
F4EF9AA8AE08C1B524762877038012B009E07690A41D00E25E14252EF00A878FF43F09280600C84C0C1400AF3F6C00B0E5928693420055EF0EC016E0A9FE0281DA4EE3DCA030398AA9F3001140560A603C3BCC8400BE62481BAA5D1FC04C0E9E9D2011CCBCE80530582192930B00F28C2863002280AC15C08E4102D0A500E2
310
AC414E1601F42910DE8C8A4CAD15E62C5D7481AC18C0342DEC5A613700DE591480CF4EACA817A81C7E5369090001406F22E402C05B1B2703804917080029EE2011001E0280362744EEB86900E74060DF37CAAD17736301281CF7E30201C01280F41E80ED15D138807E12049A605883A03B00E0C305DC03E8CB5FE600B4D3E2
310
F77BE74E0083E6BA2C2013D54E458E31F2B017003298DABE970D01C80F2CC01A0062C70500EF04403C807E73F5A49D9A52003492D58B2A02A0AD550F87BF07E0BCAB906E003001D0FDF42C80A34169DC0050690197FE6C5A463D21349DE032355FD50F60B58065940E40C3EB0580E604EA83E02A539BE8C8006AE36379980D
310
0034D32BEB46E74678DBD84FA210004A1B65B720375FF53F205C3A89DC44086D00C48CAFCD76529B02190120BBC005000C00D4FB0A5A8C01BC0B3431A0688FC92A00B80760D505847E10C052101C0348CC88E050DE3C00311362F3806C130037D6A56E6001C05AF96004EF011039EA471A2D208D4B5FF294993C560C00FA01
310
94A92EDCA64540DA31777C408613D90A8032EB772826EE1944BA52A2592611BF3415000280A23C00207DB852B84B0CF501F868AD788F305C200004001D0034FDE6E83F1FDA86CB5A1EDC700000000049454E44AE426082
  0
ENDSEC
  0
EOF
