  0
SECTION
  2
HEADER
  9
$ACADVER
  1
AC1032
  9
$ACADMAINTVER
 90
       55
  9
$DWGCODEPAGE
  3
ANSI_1252
  9
$LASTSAVEDBY
  1
Administrator
  9
$REQUIREDVERSIONS
160
                 0
  9
$INSBASE
 10
0.0
 20
0.0
 30
0.0
  9
$EXTMIN
 10
0.4817230211094913
 20
0.6477964671298739
 30
0.0
  9
$EXTMAX
 10
15.02390598312834
 20
20.97348531292281
 30
0.0
  9
$LIMMIN
 10
0.0
 20
0.0
  9
$LIMMAX
 10
16.5
 20
10.5
  9
$ORTHOMODE
 70
     0
  9
$REGENMODE
 70
     1
  9
$FILLMODE
 70
     1
  9
$QTEXTMODE
 70
     0
  9
$MIRRTEXT
 70
     0
  9
$LTSCALE
 40
1.0
  9
$ATTMODE
 70
     1
  9
$TEXTSIZE
 40
0.08
  9
$TRACEWID
 40
0.05
  9
$TEXTSTYLE
  7
ROMANS
  9
$CLAYER
  8
THIN
  9
$CELTYPE
  6
BYLAYER
  9
$CECOLOR
 62
   256
  9
$CELTSCALE
 40
1.0
  9
$DISPSILH
 70
     0
  9
$DIMSCALE
 40
2.0
  9
$DIMASZ
 40
0.125
  9
$DIMEXO
 40
0.045
  9
$DIMDLI
 40
0.38
  9
$DIMRND
 40
0.0
  9
$DIMDLE
 40
0.0
  9
$DIMEXE
 40
0.08
  9
$DIMTP
 40
0.0
  9
$DIMTM
 40
0.0
  9
$DIMTXT
 40
0.08
  9
$DIMCEN
 40
0.0
  9
$DIMTSZ
 40
0.0
  9
$DIMTOL
 70
     0
  9
$DIMLIM
 70
     0
  9
$DIMTIH
 70
     1
  9
$DIMTOH
 70
     1
  9
$DIMSE1
 70
     0
  9
$DIMSE2
 70
     0
  9
$DIMTAD
 70
     0
  9
$DIMZIN
 70
     0
  9
$DIMBLK
  1

  9
$DIMASO
 70
     1
  9
$DIMSHO
 70
     1
  9
$DIMPOST
  1

  9
$DIMAPOST
  1

  9
$DIMALT
 70
     0
  9
$DIMALTD
 70
     2
  9
$DIMALTF
 40
25.4
  9
$DIMLFAC
 40
1.0
  9
$DIMTOFL
 70
     0
  9
$DIMTVP
 40
0.0
  9
$DIMTIX
 70
     0
  9
$DIMSOXD
 70
     0
  9
$DIMSAH
 70
     0
  9
$DIMBLK1
  1

  9
$DIMBLK2
  1

  9
$DIMSTYLE
  2
Copy of HSTANDARD
  9
$DIMCLRD
 70
   112
  9
$DIMCLRE
 70
     9
  9
$DIMCLRT
 70
   256
  9
$DIMTFAC
 40
1.0
  9
$DIMGAP
 40
0.09
  9
$DIMJUST
 70
     0
  9
$DIMSD1
 70
     0
  9
$DIMSD2
 70
     0
  9
$DIMTOLJ
 70
     1
  9
$DIMTZIN
 70
     0
  9
$DIMALTZ
 70
     0
  9
$DIMALTTZ
 70
     0
  9
$DIMUPT
 70
     0
  9
$DIMDEC
 70
     4
  9
$DIMTDEC
 70
     4
  9
$DIMALTU
 70
     2
  9
$DIMALTTD
 70
     2
  9
$DIMTXSTY
  7
ROMANS
  9
$DIMAUNIT
 70
     0
  9
$DIMADEC
 70
     1
  9
$DIMALTRND
 40
0.0
  9
$DIMAZIN
 70
     0
  9
$DIMDSEP
 70
    46
  9
$DIMATFIT
 70
     3
  9
$DIMFRAC
 70
     2
  9
$DIMLDRBLK
  1

  9
$DIMLUNIT
 70
     4
  9
$DIMLWD
 70
    -2
  9
$DIMLWE
 70
    -2
  9
$DIMTMOVE
 70
     0
  9
$DIMFXL
 40
0.08
  9
$DIMFXLON
 70
     0
  9
$DIMJOGANG
 40
0.7853981633974483
  9
$DIMTFILL
 70
     0
  9
$DIMTFILLCLR
 70
     0
  9
$DIMARCSYM
 70
     1
  9
$DIMLTYPE
  6

  9
$DIMLTEX1
  6

  9
$DIMLTEX2
  6

  9
$DIMTXTDIRECTION
 70
     0
  9
$LUNITS
 70
     2
  9
$LUPREC
 70
     8
  9
$SKETCHINC
 40
0.1
  9
$FILLETRAD
 40
0.075
  9
$AUNITS
 70
     0
  9
$AUPREC
 70
     2
  9
$MENU
  1
TB
  9
$ELEVATION
 40
0.0
  9
$PELEVATION
 40
0.0
  9
$THICKNESS
 40
0.0
  9
$LIMCHECK
 70
     0
  9
$CHAMFERA
 40
0.0
  9
$CHAMFERB
 40
0.0
  9
$CHAMFERC
 40
0.0
  9
$CHAMFERD
 40
0.0
  9
$SKPOLY
 70
     0
  9
$TDCREATE
 40
2452817.346701389
  9
$TDUCREATE
 40
2452817.513371887
  9
$TDUPDATE
 40
2459264.425243055
  9
$TDUUPDATE
 40
2459264.633576389
  9
$TDINDWG
 40
0.8267152894
  9
$TDUSRTIMER
 40
0.8267151736
  9
$USRTIMER
 70
     1
  9
$ANGBASE
 50
0.0
  9
$ANGDIR
 70
     0
  9
$PDMODE
 70
     0
  9
$PDSIZE
 40
0.0
  9
$PLINEWID
 40
0.0
  9
$SPLFRAME
 70
     0
  9
$SPLINETYPE
 70
     6
  9
$SPLINESEGS
 70
     8
  9
$HANDSEED
  5
4B425D
  9
$SURFTAB1
 70
     6
  9
$SURFTAB2
 70
     6
  9
$SURFTYPE
 70
     6
  9
$SURFU
 70
     6
  9
$SURFV
 70
     6
  9
$UCSBASE
  2

  9
$UCSNAME
  2

  9
$UCSORG
 10
0.0
 20
0.0
 30
0.0
  9
$UCSXDIR
 10
1.0
 20
0.0
 30
0.0
  9
$UCSYDIR
 10
0.0
 20
1.0
 30
0.0
  9
$UCSORTHOREF
  2

  9
$UCSORTHOVIEW
 70
     0
  9
$UCSORGTOP
 10
0.0
 20
0.0
 30
0.0
  9
$UCSORGBOTTOM
 10
0.0
 20
0.0
 30
0.0
  9
$UCSORGLEFT
 10
0.0
 20
0.0
 30
0.0
  9
$UCSORGRIGHT
 10
0.0
 20
0.0
 30
0.0
  9
$UCSORGFRONT
 10
0.0
 20
0.0
 30
0.0
  9
$UCSORGBACK
 10
0.0
 20
0.0
 30
0.0
  9
$PUCSBASE
  2

  9
$PUCSNAME
  2

  9
$PUCSORG
 10
0.0
 20
0.0
 30
0.0
  9
$PUCSXDIR
 10
1.0
 20
0.0
 30
0.0
  9
$PUCSYDIR
 10
0.0
 20
1.0
 30
0.0
  9
$PUCSORTHOREF
  2

  9
$PUCSORTHOVIEW
 70
     0
  9
$PUCSORGTOP
 10
0.0
 20
0.0
 30
0.0
  9
$PUCSORGBOTTOM
 10
0.0
 20
0.0
 30
0.0
  9
$PUCSORGLEFT
 10
0.0
 20
0.0
 30
0.0
  9
$PUCSORGRIGHT
 10
0.0
 20
0.0
 30
0.0
  9
$PUCSORGFRONT
 10
0.0
 20
0.0
 30
0.0
  9
$PUCSORGBACK
 10
0.0
 20
0.0
 30
0.0
  9
$USERI1
 70
     0
  9
$USERI2
 70
     0
  9
$USERI3
 70
     0
  9
$USERI4
 70
     0
  9
$USERI5
 70
     0
  9
$USERR1
 40
0.0
  9
$USERR2
 40
0.0
  9
$USERR3
 40
0.0
  9
$USERR4
 40
0.0
  9
$USERR5
 40
0.0
  9
$WORLDVIEW
 70
     1
  9
$SHADEDGE
 70
     3
  9
$SHADEDIF
 70
    70
  9
$TILEMODE
 70
     1
  9
$MAXACTVP
 70
    16
  9
$PINSBASE
 10
0.0
 20
0.0
 30
0.0
  9
$PLIMCHECK
 70
     0
  9
$PEXTMIN
 10
1.000000000000000E+20
 20
1.000000000000000E+20
 30
1.000000000000000E+20
  9
$PEXTMAX
 10
-1.000000000000000E+20
 20
-1.000000000000000E+20
 30
-1.000000000000000E+20
  9
$PLIMMIN
 10
0.0
 20
0.0
  9
$PLIMMAX
 10
12.0
 20
9.0
  9
$UNITMODE
 70
     0
  9
$VISRETAIN
 70
     0
  9
$PLINEGEN
 70
     0
  9
$PSLTSCALE
 70
     1
  9
$TREEDEPTH
 70
  3020
  9
$CMLSTYLE
  2
STANDARD
  9
$CMLJUST
 70
     0
  9
$CMLSCALE
 40
1.0
  9
$PROXYGRAPHICS
 70
     1
  9
$MEASUREMENT
 70
     0
  9
$CELWEIGHT
370
    -1
  9
$ENDCAPS
280
     0
  9
$JOINSTYLE
280
     0
  9
$LWDISPLAY
290
     0
  9
$INSUNITS
 70
     0
  9
$HYPERLINKBASE
  1

  9
$STYLESHEET
  1
Harvey Std Plot Style.ctb
  9
$XEDIT
290
     1
  9
$CEPSNTYPE
380
     0
  9
$PSTYLEMODE
290
     1
  9
$FINGERPRINTGUID
  2
{E04C8470-A686-11D3-A221-005004E2D0E9}
  9
$VERSIONGUID
  2
{5C1B4755-E01D-224B-BBEB-23B319A7EB89}
  9
$EXTNAMES
290
     1
  9
$PSVPSCALE
 40
0.0
  9
$OLESTARTUP
290
     0
  9
$SORTENTS
280
    96
  9
$INDEXCTL
280
     0
  9
$HIDETEXT
280
     0
  9
$XCLIPFRAME
280
     0
  9
$HALOGAP
280
     0
  9
$OBSCOLOR
 70
   257
  9
$OBSLTYPE
280
     0
  9
$INTERSECTIONDISPLAY
280
     0
  9
$INTERSECTIONCOLOR
 70
   257
  9
$DIMASSOC
280
     1
  9
$PROJECTNAME
  1

  9
$CAMERADISPLAY
290
     0
  9
$LENSLENGTH
 40
50.0
  9
$CAMERAHEIGHT
 40
0.0
  9
$STEPSPERSEC
 40
2.0
  9
$STEPSIZE
 40
6.0
  9
$3DDWFPREC
 40
2.0
  9
$PSOLWIDTH
 40
0.25
  9
$PSOLHEIGHT
 40
4.0
  9
$LOFTANG1
 40
1.570796326794896
  9
$LOFTANG2
 40
1.570796326794896
  9
$LOFTMAG1
 40
0.0
  9
$LOFTMAG2
 40
0.0
  9
$LOFTPARAM
 70
     7
  9
$LOFTNORMALS
280
     1
  9
$LATITUDE
 40
37.795
  9
$LONGITUDE
 40
-122.394
  9
$NORTHDIRECTION
 40
0.0
  9
$TIMEZONE
 70
 -8000
  9
$LIGHTGLYPHDISPLAY
280
     1
  9
$TILEMODELIGHTSYNCH
280
     1
  9
$CMATERIAL
347
4B41D8
  9
$SOLIDHIST
280
     0
  9
$SHOWHIST
280
     1
  9
$DWFFRAME
280
     2
  9
$DGNFRAME
280
     0
  9
$REALWORLDSCALE
290
     1
  9
$INTERFERECOLOR
 62
     1
  9
$INTERFEREOBJVS
345
4B41FA
  9
$INTERFEREVPVS
346
4B41F7
  9
$CSHADOW
280
     0
  9
$SHADOWPLANELOCATION
 40
0.0
  0
ENDSEC
  0
SECTION
  2
CLASSES
  0
CLASS
  1
ACDBDICTIONARYWDFLT
  2
AcDbDictionaryWithDefault
  3
ObjectDBX Classes
 90
        0
 91
        1
280
     0
281
     0
  0
CLASS
  1
ACDBPLACEHOLDER
  2
AcDbPlaceHolder
  3
ObjectDBX Classes
 90
        0
 91
        1
280
     0
281
     0
  0
CLASS
  1
LAYOUT
  2
AcDbLayout
  3
ObjectDBX Classes
 90
        0
 91
        2
280
     0
281
     0
  0
CLASS
  1
PLOTSETTINGS
  2
AcDbPlotSettings
  3
ObjectDBX Classes
 90
        0
 91
        2
280
     0
281
     0
  0
CLASS
  1
MTV_DERIVED_OBJECT
  2
CMtvAcDerivedObject
  3
MTV_ADME_ARX
 90
     1023
 91
        9
280
     0
281
     0
  0
CLASS
  1
DICTIONARYVAR
  2
AcDbDictionaryVar
  3
ObjectDBX Classes
 90
        0
 91
       10
280
     0
281
     0
  0
CLASS
  1
TABLESTYLE
  2
AcDbTableStyle
  3
ObjectDBX Classes
 90
     4095
 91
        1
280
     0
281
     0
  0
CLASS
  1
ACME_DOCUMENT
  2
AcMeDbDoc
  3
AcMeServices
 90
        0
 91
        0
280
     0
281
     0
  0
CLASS
  1
AMGSETTINGSOBJ
  2
AmgSettingsObj
  3
"AcadM|Product Description: AutoCAD Mechanical 2000|Company: Autodesk"
 90
        0
 91
        3
280
     0
281
     0
  0
CLASS
  1
ACMESCOPE
  2
AcMeScope
  3
AcMeServices
 90
        0
 91
        2
280
     0
281
     0
  0
CLASS
  1
ACMECOMMANDHISTORY
  2
AcMeCommandHistory
  3
AcMeServices
 90
        0
 91
        2
280
     0
281
     0
  0
CLASS
  1
ACIMSYSVARMAN
  2
AcImSysVarManager
  3
AcMeServices
 90
        0
 91
        6
280
     0
281
     0
  0
CLASS
  1
ACIMINTSYSVAR
  2
AcImIntSysVar
  3
AcMeServices
 90
        0
 91
       27
280
     0
281
     0
  0
CLASS
  1
ACMEDRAWINGMAN
  2
AcMeDrawingMan
  3
AcMeServices
 90
        0
 91
        2
280
     0
281
     0
  0
CLASS
  1
ACMEVIEW
  2
AcMeView
  3
AcMeServices
 90
        0
 91
        2
280
     0
281
     0
  0
CLASS
  1
ACDBENTITYCACHE
  2
AcMeEntityCache
  3
AcMeServices
 90
        0
 91
        0
280
     0
281
     0
  0
CLASS
  1
GSMANAGER
  2
AcMeGSManager
  3
AcMeServices
 90
        0
 91
        0
280
     0
281
     0
  0
CLASS
  1
AMDTINTERNALREACTOR
  2
AmdtInternalReactor
  3
AcMeServices
 90
        0
 91
        0
280
     0
281
     0
  0
CLASS
  1
ACMESTATEMGR
  2
AcMeStateMgr
  3
AcMeServices
 90
        0
 91
        2
280
     0
281
     0
  0
CLASS
  1
ACGREFMASTER
  2
AcGrefMaster
  3
AcAttribServices
 90
        0
 91
        2
280
     0
281
     0
  0
CLASS
  1
AM_DRAWING_MGR
  2
AcDmDwgMgr
  3
AcMechDwgViewMgmt
 90
        0
 91
        2
280
     0
281
     0
  0
CLASS
  1
AM_DWG_DOCUMENT
  2
AcDmDwgDocument
  3
AcMechDwgViewMgmt
 90
        0
 91
        2
280
     0
281
     0
  0
CLASS
  1
AM_DWG_SHEET
  2
AcDmSheet
  3
AcMechDwgViewMgmt
 90
        0
 91
        2
280
     0
281
     0
  0
CLASS
  1
AM_VIEWDIMPARMAP
  2
AcDmViewDimParMap
  3
AcMechDwgViewMgmt
 90
        0
 91
        2
280
     0
281
     0
  0
CLASS
  1
ACIMREALSYSVAR
  2
AcImRealSysVar
  3
AcMeServices
 90
        0
 91
        2
280
     0
281
     0
  0
CLASS
  1
AM_DWGMGR_NAME
  2
AcDmDwgMgrName
  3
AcMechDwgViewMgmt
 90
        0
 91
        2
280
     0
281
     0
  0
CLASS
  1
ACME_DATABASE
  2
AcMeDbDatabase
  3
AcMeServices
 90
        0
 91
        0
280
     0
281
     0
  0
CLASS
  1
ACRFINSADJUSTERMGR
  2
AcRfInsAdjusterMgr
  3
AcMeServices
 90
        0
 91
        0
280
     0
281
     0
  0
CLASS
  1
ACGREFACADMASTER
  2
AcGrefacadMaster
  3
AcGrefServices
 90
        0
 91
        2
280
     0
281
     0
  0
CLASS
  1
AMDTMENUSTATEMGR
  2
AmdtMenuStateMgr
  3
McadcomServices
 90
        0
 91
        0
280
     0
281
     0
  0
CLASS
  1
AMDTMCOMMENUSTATE
  2
AmdtMcomMenuState
  3
McadcomServices
 90
        0
 91
        0
280
     0
281
     0
  0
CLASS
  1
AMIMASTER
  2
AmiMaster
  3
AmiServices
 90
        0
 91
        2
280
     0
281
     0
  0
CLASS
  1
MAPIAMMOUDLE
  2
MApiAmModule
  3
MApiAmServices
 90
        0
 91
        2
280
     0
281
     0
  0
CLASS
  1
ACIMSTRSYSVAR
  2
AcImStrSysVar
  3
AcMeServices
 90
        0
 91
        6
280
     0
281
     0
  0
CLASS
  1
AMDTADMENUSTATE
  2
AmdtAdMenuState
  3
DesignerServices
 90
        0
 91
        0
280
     0
281
     0
  0
CLASS
  1
ADAPPL
  2
AcAdAppl
  3
DesignerServices
 90
        0
 91
        2
280
     0
281
     0
  0
CLASS
  1
DEPMGR
  2
AcAdDepMgr
  3
DesignerServices
 90
        0
 91
        2
280
     0
281
     0
  0
CLASS
  1
PARAMMGR
  2
AcAdParamMgr
  3
DesignerServices
 90
        0
 91
        2
280
     0
281
     0
  0
CLASS
  1
PARAMSCOPE
  2
AcAdParamScope
  3
DesignerServices
 90
        0
 91
        2
280
     0
281
     0
  0
CLASS
  1
NAMEDAPPL
  2
AcAdNamedAppl
  3
DesignerServices
 90
        0
 91
        2
280
     0
281
     0
  0
CLASS
  1
AMDTDMMENUSTATE
  2
AmdtDmMenuState
  3
AcMechDwgViewMgmt
 90
        0
 91
        0
280
     0
281
     0
  0
CLASS
  1
AMDTAMMENUSTATE
  2
AmdtAmMenuState
  3
DesignerAssemblies
 90
        0
 91
        0
280
     0
281
     0
  0
CLASS
  1
ACAMPROJECT
  2
AcAmProject
  3
DesignerAssemblies
 90
        0
 91
        2
280
     0
281
     0
  0
CLASS
  1
ACAMGRCOMPDEF
  2
AcAmGrCompDef
  3
DesignerAssemblies
 90
        0
 91
        2
280
     0
281
     0
  0
CLASS
  1
ACCMCONTEXT
  2
AcCmContext
  3
DesignerAssemblies
 90
        0
 91
        2
280
     0
281
     0
  0
CLASS
  1
ACAMCOMPDEF
  2
AcAmCompDef
  3
DesignerAssemblies
 90
        0
 91
        2
280
     0
281
     0
  0
CLASS
  1
ACAMCOMPDEFMGR
  2
AcAmCompDefMgr
  3
DesignerAssemblies
 90
        0
 91
        2
280
     0
281
     0
  0
CLASS
  1
AMCONTEXTMGR
  2
AcAmContextMgr
  3
DesignerAssemblies
 90
        0
 91
        2
280
     0
281
     0
  0
CLASS
  1
ACAMCONTEXTMODELER
  2
AcAmContextModeler
  3
DesignerAssemblies
 90
        0
 91
        2
280
     0
281
     0
  0
CLASS
  1
ACMDATADICTIONARY
  2
AcmDataDictionary
  3
"AcmSymBB|Product Description: AutoCAD Mechanical 2004 DX|Company: Autodesk"
 90
        0
 91
        2
280
     0
281
     0
  0
CLASS
  1
CATALOGSTATE
  2
AcAmCatalogState
  3
DesignerAssemblies
 90
        0
 91
        2
280
     0
281
     0
  0
CLASS
  1
ACAMGRCOMPDEFSET
  2
AcAmGrCompDefSet
  3
DesignerAssemblies
 90
        0
 91
        0
280
     0
281
     0
  0
CLASS
  1
AMDTBROWSERDBTAB
  2
AmdtBrowserDbTab
  3
McadcomServices
 90
        0
 91
        0
280
     0
281
     0
  0
CLASS
  1
CBROWSERAPPOBJECT
  2
CBrowserAppObject
  3
McadcomServices
 90
        0
 91
        0
280
     0
281
     0
  0
CLASS
  1
DM_PLACEHOLDER
  2
AcDmSelsetPlaceholder
  3
AcMechDwgViewMgmt
 90
        0
 91
        0
280
     0
281
     0
  0
CLASS
  1
ACMSTANDARDANSI
  2
AcmStandardANSI
  3
"Amdt_StdImp|Product Description: AutoCAD Mechanical 2004 DX|Company: Autodesk"
 90
        0
 91
        2
280
     0
281
     0
  0
CLASS
  1
AMGOBJPROPCFG
  2
AmgObjPropCfg
  3
"AmgLay|Product Description: AutoCAD Mechanical 2000|Company: Autodesk"
 90
        1
 91
        2
280
     0
281
     0
  0
CLASS
  1
ACMSURFSTANDARDANSI
  2
AcmSurfTextStdANSI
  3
"Amdt_StdImp|Product Description: AutoCAD Mechanical 2004 DX|Company: Autodesk"
 90
        0
 91
        2
280
     0
281
     0
  0
CLASS
  1
ACMFCFSTANDARDANSI
  2
AcmFCFStdANSI
  3
"Amdt_StdImp|Product Description: AutoCAD Mechanical 2004 DX|Company: Autodesk"
 90
        0
 91
        2
280
     0
281
     0
  0
CLASS
  1
ACMWELDSTANDARDANSI
  2
AcmWeldingStdANSI
  3
"Amdt_StdImp|Product Description: AutoCAD Mechanical 2004 DX|Company: Autodesk"
 90
        0
 91
        2
280
     0
281
     0
  0
CLASS
  1
ACMIDSTANDARDANSI
  2
AcmIdStdANSI
  3
"Amdt_StdImp|Product Description: AutoCAD Mechanical 2004 DX|Company: Autodesk"
 90
        0
 91
        2
280
     0
281
     0
  0
CLASS
  1
ACMDATUMSTANDARDANSI
  2
AcmDatumStdANSI
  3
"Amdt_StdImp|Product Description: AutoCAD Mechanical 2004 DX|Company: Autodesk"
 90
        0
 91
        2
280
     0
281
     0
  0
CLASS
  1
ACMBOMSTANDARDANSI
  2
AcmBOMStdANSI
  3
"Amdt_StdImp|Product Description: AutoCAD Mechanical 2004 DX|Company: Autodesk"
 90
        0
 91
        2
280
     0
281
     0
  0
CLASS
  1
ACMDETAILSTANDARDANSI
  2
AmdtDetailSymStdANSI
  3
"Amdt_StdImp|Product Description: AutoCAD Mechanical 2004 DX|Company: Autodesk"
 90
        0
 91
        2
280
     0
281
     0
  0
CLASS
  1
ACMSECTIONSTANDARDANSI
  2
AmdtSectionSymStdANSI
  3
"Amdt_StdImp|Product Description: AutoCAD Mechanical 2004 DX|Company: Autodesk"
 90
        0
 91
        2
280
     0
281
     0
  0
CLASS
  1
ACMCENTERLINESTANDARDANSI
  2
AmdtCenterLineStdANSI
  3
"Amdt_StdImp|Product Description: AutoCAD Mechanical 2004 DX|Company: Autodesk"
 90
        0
 91
        2
280
     0
281
     0
  0
CLASS
  1
ACMTHREADLINESTANDARDANSI
  2
AmdtThreadLineStdANSI
  3
"Amdt_StdImp|Product Description: AutoCAD Mechanical 2004 DX|Company: Autodesk"
 90
        0
 91
        2
280
     0
281
     0
  0
CLASS
  1
ACMNOTESTANDARDANSI
  2
AmdtNoteStdANSI
  3
"Amdt_StdImp|Product Description: AutoCAD Mechanical 2004 DX|Company: Autodesk"
 90
        0
 91
        2
280
     0
281
     0
  0
CLASS
  1
AMDTNOTETEMPLATEDB
  2
AmdtNoteTemplateDB
  3
AMDT_STDIMP_MODULE_NAME
 90
        0
 91
        7
280
     0
281
     0
  0
CLASS
  1
ACAMGLAYSTD
  2
AcAmgLayStd
  3
"AcAmgLayStd|Product Description: AutoCAD Mechanical 2000|Company: Autodesk"
 90
        0
 91
        2
280
     0
281
     0
  0
CLASS
  1
ACAMGDIMSTD
  2
AcAmgDimStd
  3
"AcAmgDimStd|Product Description: AutoCAD Mechanical 2000|Company: Autodesk"
 90
        0
 91
        2
280
     0
281
     0
  0
CLASS
  1
ACAMGHOLECHARTSTDANSI
  2
AcAmgHoleChartStdANSI
  3
ACMSYMBB_MODULE_NAME
 90
        0
 91
        2
280
     0
281
     0
  0
CLASS
  1
ACAMGTITLESTD
  2
AcAmgTitleStd
  3
"TITLEAPP"
 90
        0
 91
        2
280
     0
281
     0
  0
CLASS
  1
ACAMGFILTERDAT
  2
AcAmgFilterDat
  3
"AcadM|Product Description: AutoCAD Mechanical 2000|Company: Autodesk"
 90
        0
 91
        7
280
     0
281
     0
  0
CLASS
  1
SORTENTSTABLE
  2
AcDbSortentsTable
  3
ObjectDBX Classes
 90
        0
 91
        6
280
     0
281
     0
  0
CLASS
  1
ACMDATAENTRYBLOCK
  2
AcmDataEntryBlock
  3
"AcmSymBB|Product Description: AutoCAD Mechanical 2004 DX|Company: Autodesk"
 90
        0
 91
        0
280
     0
281
     0
  0
CLASS
  1
MATERIAL
  2
AcDbMaterial
  3
ObjectDBX Classes
 90
     1153
 91
        3
280
     0
281
     0
  0
CLASS
  1
VISUALSTYLE
  2
AcDbVisualStyle
  3
ObjectDBX Classes
 90
     4095
 91
       24
280
     0
281
     0
  0
CLASS
  1
SCALE
  2
AcDbScale
  3
ObjectDBX Classes
 90
     1153
 91
       17
280
     0
281
     0
  0
CLASS
  1
MLEADERSTYLE
  2
AcDbMLeaderStyle
  3
ACDB_MLEADERSTYLE_CLASS
 90
     4095
 91
        1
280
     0
281
     0
  0
CLASS
  1
ACDBSECTIONVIEWSTYLE
  2
AcDbSectionViewStyle
  3
ObjectDBX Classes
 90
     1025
 91
        1
280
     0
281
     0
  0
CLASS
  1
ACDBDETAILVIEWSTYLE
  2
AcDbDetailViewStyle
  3
ObjectDBX Classes
 90
     1025
 91
        1
280
     0
281
     0
  0
CLASS
  1
CELLSTYLEMAP
  2
AcDbCellStyleMap
  3
ObjectDBX Classes
 90
     1152
 91
        1
280
     0
281
     0
  0
ENDSEC
  0
SECTION
  2
TABLES
  0
TABLE
  2
VPORT
  5
4B1AB8
330
0
100
AcDbSymbolTable
 70
     1
  0
VPORT
  5
4B41D6
330
4B1AB8
100
AcDbSymbolTableRecord
100
AcDbViewportTableRecord
  2
*Active
 70
     0
 10
0.0
 20
0.0
 11
1.0
 21
1.0
 12
14.82370596181971
 22
10.81093121697638
 13
0.0
 23
0.0
 14
0.125
 24
0.125
 15
0.25
 25
0.25
 16
0.0
 26
0.0
 36
1.0
 17
0.0
 27
0.0
 37
0.0
 40
20.46897516589464
 41
2.292712066905615
 42
50.0
 43
0.0
 44
0.0
 50
0.0
 51
0.0
 71
     0
 72
 20000
 73
     1
 74
     3
 75
     0
 76
     0
 77
     0
 78
     0
281
     0
 65
     1
110
0.0
120
0.0
130
0.0
111
1.0
121
0.0
131
0.0
112
0.0
122
1.0
132
0.0
 79
     0
146
0.0
348
4B41F6
 60
     3
 61
     5
292
     1
282
     1
141
0.0
142
0.0
 63
   250
421
  3355443
1001
ACAD_NAV_VCDISPLAY
1070
     3
  0
ENDTAB
  0
TABLE
  2
LTYPE
  5
4B1AB5
330
0
100
AcDbSymbolTable
 70
    10
  0
LTYPE
  5
4B1AC2
330
4B1AB5
100
AcDbSymbolTableRecord
100
AcDbLinetypeTableRecord
  2
BYBLOCK
 70
     0
  3

 72
    65
 73
     0
 40
0.0
  0
LTYPE
  5
4B1AC3
330
4B1AB5
100
AcDbSymbolTableRecord
100
AcDbLinetypeTableRecord
  2
BYLAYER
 70
     0
  3

 72
    65
 73
     0
 40
0.0
  0
LTYPE
  5
4B1AC4
330
4B1AB5
100
AcDbSymbolTableRecord
100
AcDbLinetypeTableRecord
  2
CONTINUOUS
 70
     0
  3
Solid line
 72
    65
 73
     0
 40
0.0
  0
LTYPE
  5
4B37A2
330
4B1AB5
100
AcDbSymbolTableRecord
100
AcDbLinetypeTableRecord
  2
HIDDEN
 70
     0
  3
Hidden __ __ __ __ __ __ __ __ __ __ __ __ __ _
 72
    65
 73
     2
 40
0.375
 49
0.25
 74
     0
 49
-0.125
 74
     0
  0
LTYPE
  5
4B37A3
330
4B1AB5
100
AcDbSymbolTableRecord
100
AcDbLinetypeTableRecord
  2
PHANTOM2
 70
     0
  3
Phantom (.5x) ___ _ _ ___ _ _ ___ _ _ ___ _ _
 72
    65
 73
     6
 40
1.25
 49
0.625
 74
     0
 49
-0.125
 74
     0
 49
0.125
 74
     0
 49
-0.125
 74
     0
 49
0.125
 74
     0
 49
-0.125
 74
     0
  0
LTYPE
  5
4B37A4
330
4B1AB5
100
AcDbSymbolTableRecord
100
AcDbLinetypeTableRecord
  2
CENTER
 70
     0
  3
Center ____ _ ____ _ ____ _ ____ _ ____ _ ____
 72
    65
 73
     4
 40
2.0
 49
1.25
 74
     0
 49
-0.25
 74
     0
 49
0.25
 74
     0
 49
-0.25
 74
     0
  0
LTYPE
  5
4B37DB
330
4B1AB5
100
AcDbSymbolTableRecord
100
AcDbLinetypeTableRecord
  2
Amconstr
 70
     0
  3
_______________________
 72
    65
 73
     2
 40
9999.0
 49
9999.0
 74
     0
 49
0.0
 74
     0
  0
LTYPE
  5
4B37E1
330
4B1AB5
100
AcDbSymbolTableRecord
100
AcDbLinetypeTableRecord
  2
CENTER2
 70
     0
  3
Center (.5x) ___ _ ___ _ ___ _ ___ _ ___ _ ___
 72
    65
 73
     4
 40
1.125
 49
0.75
 74
     0
 49
-0.125
 74
     0
 49
0.125
 74
     0
 49
-0.125
 74
     0
  0
LTYPE
  5
4B37E2
330
4B1AB5
100
AcDbSymbolTableRecord
100
AcDbLinetypeTableRecord
  2
HIDDEN2
 70
     0
  3
Hidden (.5x) _ _ _ _ _ _ _ _ _ _ _ _ _ _ _ _ _
 72
    65
 73
     2
 40
0.1875
 49
0.125
 74
     0
 49
-0.0625
 74
     0
  0
LTYPE
  5
4B37E3
330
4B1AB5
100
AcDbSymbolTableRecord
100
AcDbLinetypeTableRecord
  2
Amzigzag2
 70
     0
  3
/\/-/\/-/\/-/\/-/\/-/\/
 72
    65
 73
     2
 40
0.4401
 49
0.0001
 74
     4
 75
   136
340
4B37DF
 46
0.0016
 50
0.0
 44
0.0
 45
0.0
 49
-0.4400000000000001
 74
     0
  0
LTYPE
  5
4B37F1
330
4B1AB5
100
AcDbSymbolTableRecord
100
AcDbLinetypeTableRecord
  2
ACANSTGB
 70
     0
  3
__ . . __ . .
 72
    65
 73
     6
 40
0.35433070866
 49
0.15748031496
 74
     0
 49
-0.03937007874
 74
     0
 49
0.03937007874
 74
     0
 49
-0.03937007874
 74
     0
 49
0.03937007874
 74
     0
 49
-0.03937007874
 74
     0
  0
LTYPE
  5
4B37F2
330
4B1AB5
100
AcDbSymbolTableRecord
100
AcDbLinetypeTableRecord
  2
ACANSTGL
 70
     0
  3
_ _ _ _ _
 72
    65
 73
     2
 40
0.11811023622
 49
0.07874015748
 74
     0
 49
-0.03937007874
 74
     0
  0
ENDTAB
  0
TABLE
  2
LAYER
  5
4B1AB2
102
{ACAD_XDICTIONARY
360
4B1D43
102
}
330
0
100
AcDbSymbolTable
 70
    11
  0
LAYER
  5
4B1ABF
102
{ACAD_XDICTIONARY
360
4B422D
102
}
330
4B1AB2
100
AcDbSymbolTableRecord
100
AcDbLayerTableRecord
  2
0
 70
     0
 62
    31
  6
CONTINUOUS
370
    -3
390
4B1D13
347
4B41E8
348
0
  0
LAYER
  5
4B1AE0
102
{ACAD_XDICTIONARY
360
4B422F
102
}
330
4B1AB2
100
AcDbSymbolTableRecord
100
AcDbLayerTableRecord
  2
THIN
 70
     0
 62
     9
  6
CONTINUOUS
370
    -3
390
4B1D13
347
4B41E8
348
0
  0
LAYER
  5
4B1AE2
102
{ACAD_XDICTIONARY
360
4B4231
102
}
330
4B1AB2
100
AcDbSymbolTableRecord
100
AcDbLayerTableRecord
  2
DIM
 70
     0
 62
     7
  6
CONTINUOUS
370
    -3
390
4B1D13
347
4B41E8
348
0
  0
LAYER
  5
4B1AE3
102
{ACAD_XDICTIONARY
360
4B4233
102
}
330
4B1AB2
100
AcDbSymbolTableRecord
100
AcDbLayerTableRecord
  2
CYAN
 70
     0
 62
     4
  6
CONTINUOUS
370
    -3
390
4B1D13
347
4B41E8
348
0
  0
LAYER
  5
4B1AE5
102
{ACAD_XDICTIONARY
360
4B4235
102
}
330
4B1AB2
100
AcDbSymbolTableRecord
100
AcDbLayerTableRecord
  2
XTHIN
 70
     0
 62
   112
  6
CONTINUOUS
370
    -3
390
4B1D13
347
4B41E8
348
0
  0
LAYER
  5
4B1AE8
330
4B1AB2
100
AcDbSymbolTableRecord
100
AcDbLayerTableRecord
  2
DEFPOINTS
 70
     0
 62
     7
  6
CONTINUOUS
290
     0
370
    -3
390
4B1D13
347
4B41E8
348
0
  0
LAYER
  5
4B1D42
102
{ACAD_XDICTIONARY
360
4B4237
102
}
330
4B1AB2
100
AcDbSymbolTableRecord
100
AcDbLayerTableRecord
  2
10
 70
     0
 62
     9
  6
CONTINUOUS
370
    -3
390
4B1D13
347
4B41E8
348
0
  0
LAYER
  5
4B30ED
102
{ACAD_XDICTIONARY
360
4B4239
102
}
330
4B1AB2
100
AcDbSymbolTableRecord
100
AcDbLayerTableRecord
  2
vent
 70
     0
 62
     7
  6
CONTINUOUS
370
    -3
390
4B1D13
347
4B41E8
348
0
  0
LAYER
  5
4B3896
102
{ACAD_XDICTIONARY
360
4B423B
102
}
330
4B1AB2
100
AcDbSymbolTableRecord
100
AcDbLayerTableRecord
  2
3
 70
     0
 62
     3
  6
CONTINUOUS
370
    -3
390
4B1D13
347
4B41E8
348
0
  0
LAYER
  5
4B3907
102
{ACAD_XDICTIONARY
360
4B423D
102
}
330
4B1AB2
100
AcDbSymbolTableRecord
100
AcDbLayerTableRecord
  2
HIDDEN
 70
     0
 62
     1
  6
HIDDEN2
370
    -3
390
4B1D13
347
4B41E8
348
0
  0
LAYER
  5
4B3908
102
{ACAD_XDICTIONARY
360
4B423F
102
}
330
4B1AB2
100
AcDbSymbolTableRecord
100
AcDbLayerTableRecord
  2
CENTER
 70
     0
 62
     3
  6
CENTER2
370
    -3
390
4B1D13
347
4B41E8
348
0
  0
ENDTAB
  0
TABLE
  2
STYLE
  5
4B1AB3
330
0
100
AcDbSymbolTable
 70
     7
  0
STYLE
  5
4B1AC0
330
4B1AB3
100
AcDbSymbolTableRecord
100
AcDbTextStyleTableRecord
  2
STANDARD
 70
     0
 40
0.0
 41
1.0
 50
0.0
 71
     0
 42
0.2
  3
txt
  4

  0
STYLE
  5
4B1ACE
330
4B1AB3
100
AcDbSymbolTableRecord
100
AcDbTextStyleTableRecord
  2
ROMANS
 70
     0
 40
0.0
 41
1.0
 50
10.0
 71
     0
 42
0.08
  3
romans
  4

  0
STYLE
  5
4B1BF0
330
4B1AB3
100
AcDbSymbolTableRecord
100
AcDbTextStyleTableRecord
  2
SIMPLEX
 70
     0
 40
0.0
 41
1.0
 50
10.0
 71
     0
 42
0.04
  3
SIMPLEX
  4

  0
STYLE
  5
4B2280
330
4B1AB3
100
AcDbSymbolTableRecord
100
AcDbTextStyleTableRecord
  2
TAHOMA
 70
     0
 40
0.0
 41
1.0
 50
0.0
 71
     0
 42
0.045
  3
tahoma.ttf
  4

1001
ACAD
1000
Tahoma
1071
       34
  0
STYLE
  5
4B37DF
330
4B1AB3
100
AcDbSymbolTableRecord
100
AcDbTextStyleTableRecord
  2

 70
     1
 40
0.0
 41
1.0
 50
0.0
 71
     0
 42
0.08
  3
genltshp.shx
  4

  0
STYLE
  5
4B37E4
330
4B1AB3
100
AcDbSymbolTableRecord
100
AcDbTextStyleTableRecord
  2
ACANSTS
 70
     0
 40
1.0
 41
1.0
 50
0.0
 71
     0
 42
0.08
  3
romans.shx
  4

  0
STYLE
  5
4B37F0
330
4B1AB3
100
AcDbSymbolTableRecord
100
AcDbTextStyleTableRecord
  2
ACANSGDT
 70
     0
 40
0.0
 41
1.0
 50
0.0
 71
     0
 42
0.08
  3
amgdt.shx
  4

  0
ENDTAB
  0
TABLE
  2
VIEW
  5
4B1AB6
330
0
100
AcDbSymbolTable
 70
     1
  0
VIEW
  5
4B1AD8
330
4B1AB6
100
AcDbSymbolTableRecord
100
AcDbViewTableRecord
  2
OLE1
 70
     0
 40
5.004887585532746
 10
4.0
 20
2.502443792766373
 41
8.0
 11
0.0
 21
0.0
 31
1.0
 12
0.0
 22
0.0
 32
0.0
 42
50.0
 43
0.0
 44
0.0
 50
0.0
 71
     0
281
     0
 72
     0
 73
     0
348
4B41F6
  0
ENDTAB
  0
TABLE
  2
UCS
  5
4B1AB7
330
0
100
AcDbSymbolTable
 70
     0
  0
ENDTAB
  0
TABLE
  2
APPID
  5
4B1AB9
330
0
100
AcDbSymbolTable
 70
    26
  0
APPID
  5
4B1AC1
330
4B1AB9
100
AcDbSymbolTableRecord
100
AcDbRegAppTableRecord
  2
ACAD
 70
     0
  0
APPID
  5
4B1ADB
330
4B1AB9
100
AcDbSymbolTableRecord
100
AcDbRegAppTableRecord
  2
TB_S_MPD
 70
     0
  0
APPID
  5
4B1F14
330
4B1AB9
100
AcDbSymbolTableRecord
100
AcDbRegAppTableRecord
  2
RAK
 70
     0
  0
APPID
  5
4B2288
330
4B1AB9
100
AcDbSymbolTableRecord
100
AcDbRegAppTableRecord
  2
MTVPROFILELINK
 70
     0
  0
APPID
  5
4B2289
330
4B1AB9
100
AcDbSymbolTableRecord
100
AcDbRegAppTableRecord
  2
ADMEPROFILELINK
 70
     0
  0
APPID
  5
4B3775
330
4B1AB9
100
AcDbSymbolTableRecord
100
AcDbRegAppTableRecord
  2
MCAD_NO_VIS
 70
     0
  0
APPID
  5
4B3776
330
4B1AB9
100
AcDbSymbolTableRecord
100
AcDbRegAppTableRecord
  2
ACAD_TEMP_GRAPHIC
 70
     0
  0
APPID
  5
4B37A6
330
4B1AB9
100
AcDbSymbolTableRecord
100
AcDbRegAppTableRecord
  2
AD_DRAW
 70
     0
  0
APPID
  5
4B37A9
330
4B1AB9
100
AcDbSymbolTableRecord
100
AcDbRegAppTableRecord
  2
ACATTRIBSERVICES
 70
     0
  0
APPID
  5
4B37C9
330
4B1AB9
100
AcDbSymbolTableRecord
100
AcDbRegAppTableRecord
  2
DESIGNERASSEMBLIES
 70
     0
  0
APPID
  5
4B37CF
330
4B1AB9
100
AcDbSymbolTableRecord
100
AcDbRegAppTableRecord
  2
ACADM_DIM_EDIT
 70
     0
  0
APPID
  5
4B37D0
330
4B1AB9
100
AcDbSymbolTableRecord
100
AcDbRegAppTableRecord
  2
AMDT_DM_ADJ
 70
     0
  0
APPID
  5
4B37FD
330
4B1AB9
100
AcDbSymbolTableRecord
100
AcDbRegAppTableRecord
  2
ACAD_DSTYLE_DIMARC_LENGTH_SYMBOL
 70
     0
  0
APPID
  5
4B37FE
330
4B1AB9
100
AcDbSymbolTableRecord
100
AcDbRegAppTableRecord
  2
ACAD_DSTYLE_DIMJOGGED_JOGANGLE_SYMBOL
 70
     0
  0
APPID
  5
4B3843
330
4B1AB9
100
AcDbSymbolTableRecord
100
AcDbRegAppTableRecord
  2
AcAecLayerStandard
 70
     0
  0
APPID
  5
4B39B7
330
4B1AB9
100
AcDbSymbolTableRecord
100
AcDbRegAppTableRecord
  2
GENIUS_GENREC_14
 70
     0
  0
APPID
  5
4B39B8
330
4B1AB9
100
AcDbSymbolTableRecord
100
AcDbRegAppTableRecord
  2
GENIUS_GENOBJ-N-REC_13
 70
     0
  0
APPID
  5
4B39B9
330
4B1AB9
100
AcDbSymbolTableRecord
100
AcDbRegAppTableRecord
  2
GENIUS_GENODEF_13
 70
     0
  0
APPID
  5
4B3A56
330
4B1AB9
100
AcDbSymbolTableRecord
100
AcDbRegAppTableRecord
  2
ACAD_DSTYLE_DIMTEXT_FILL
 70
     0
  0
APPID
  5
4B3A57
330
4B1AB9
100
AcDbSymbolTableRecord
100
AcDbRegAppTableRecord
  2
ACAD_DSTYLE_DIMEXT_LENGTH
 70
     0
  0
APPID
  5
4B3A58
330
4B1AB9
100
AcDbSymbolTableRecord
100
AcDbRegAppTableRecord
  2
ACAD_DSTYLE_DIMEXT_ENABLED
 70
     0
  0
APPID
  5
4B3A59
330
4B1AB9
100
AcDbSymbolTableRecord
100
AcDbRegAppTableRecord
  2
ACAD_DSTYLE_DIM_LINETYPE
 70
     0
  0
APPID
  5
4B3A5A
330
4B1AB9
100
AcDbSymbolTableRecord
100
AcDbRegAppTableRecord
  2
ACAD_DSTYLE_DIM_EXT1_LINETYPE
 70
     0
  0
APPID
  5
4B3A5B
330
4B1AB9
100
AcDbSymbolTableRecord
100
AcDbRegAppTableRecord
  2
ACAD_DSTYLE_DIM_EXT2_LINETYPE
 70
     0
  0
APPID
  5
4B422A
330
4B1AB9
100
AcDbSymbolTableRecord
100
AcDbRegAppTableRecord
  2
ACAD_EXEMPT_FROM_CAD_STANDARDS
 70
     0
  0
APPID
  5
4B4248
330
4B1AB9
100
AcDbSymbolTableRecord
100
AcDbRegAppTableRecord
  2
ACAD_NAV_VCDISPLAY
 70
     0
  0
ENDTAB
  0
TABLE
  2
DIMSTYLE
  5
4B1ABA
330
0
100
AcDbSymbolTable
 70
     7
100
AcDbDimStyleTable
 71
     1
340
4B21AF
  0
DIMSTYLE
105
4B21AF
102
{ACAD_REACTORS
330
4B2268
330
4B2250
330
4B2232
330
4B221A
102
}
330
4B1ABA
100
AcDbSymbolTableRecord
100
AcDbDimStyleTableRecord
  2
Copy of HSTANDARD
 70
     0
 41
0.125
 42
0.045
 44
0.08
 49
0.08
140
0.08
141
0.0
146
0.4444444444444445
176
   112
177
     9
178
   256
179
     1
276
     1
277
     4
340
4B1ACE
1001
ACAD_DSTYLE_DIMJOGGED_JOGANGLE_SYMBOL
1070
   384
1040
0.7853981633974483
  0
DIMSTYLE
105
4B37FC
330
4B1ABA
100
AcDbSymbolTableRecord
100
AcDbDimStyleTableRecord
  2
AM_ANSI
 70
     0
  4
mm
 41
0.1
 42
0.05
 43
0.5
 44
0.1
 47
0.1
 48
0.1
 78
     7
 79
     2
 90
     1
140
0.12
141
0.0
146
0.71
147
0.06
176
   256
177
   256
178
     2
274
     4
284
     7
340
4B1AC0
371
    -1
372
    -1
1001
ACAD_DSTYLE_DIMJOGGED_JOGANGLE_SYMBOL
1070
   384
1040
0.7853981633974483
  0
DIMSTYLE
105
4B3805
330
4B1ABA
100
AcDbSymbolTableRecord
100
AcDbDimStyleTableRecord
  2
AM_ANSI$3
 70
     0
  4
mm
 41
0.1
 42
0.05
 43
0.5
 44
0.1
 47
0.1
 48
0.1
 78
     7
 79
     2
 90
     1
140
0.12
141
0.0
146
0.71
147
0.06
176
   256
177
   256
178
     2
274
     4
284
     7
288
     1
289
     0
340
4B1AC0
371
    -1
372
    -1
1001
ACAD_DSTYLE_DIMJOGGED_JOGANGLE_SYMBOL
1070
   384
1040
0.7853981633974483
  0
DIMSTYLE
105
4B3808
330
4B1ABA
100
AcDbSymbolTableRecord
100
AcDbDimStyleTableRecord
  2
AM_ANSI$4
 70
     0
  4
mm
 41
0.1
 42
0.05
 43
0.5
 44
0.1
 47
0.1
 48
0.1
 78
     7
 79
     2
 90
     1
140
0.12
141
0.0
146
0.71
147
0.06
176
   256
177
   256
178
     2
274
     4
284
     7
288
     1
289
     0
340
4B1AC0
371
    -1
372
    -1
1001
ACAD_DSTYLE_DIMJOGGED_JOGANGLE_SYMBOL
1070
   384
1040
0.7853981633974483
  0
DIMSTYLE
105
4B380D
330
4B1ABA
100
AcDbSymbolTableRecord
100
AcDbDimStyleTableRecord
  2
AM_ANSI$7
 70
     0
  4
mm
 41
0.1
 42
0.05
 43
0.5
 44
0.1
 47
0.1
 48
0.1
 78
     7
 79
     2
 90
     1
140
0.24
141
0.0
146
0.71
147
0.06
176
   256
177
   256
178
     2
274
     4
284
     7
340
4B1AC0
371
    -1
372
    -1
1001
ACAD_DSTYLE_DIMJOGGED_JOGANGLE_SYMBOL
1070
   384
1040
0.7853981633974483
  0
DIMSTYLE
105
4B3810
330
4B1ABA
100
AcDbSymbolTableRecord
100
AcDbDimStyleTableRecord
  2
AM_ANSI$SF
 70
     0
  4
mm
 41
0.1
 42
0.05
 43
0.5
 44
0.1
 47
0.1
 48
0.1
 75
     1
 76
     1
 78
     7
 79
     2
 90
     1
140
0.12
141
0.0
146
0.71
147
0.06
176
   256
177
   256
178
     2
274
     4
284
     7
340
4B1AC0
371
    -1
372
    -1
1001
ACAD_DSTYLE_DIMJOGGED_JOGANGLE_SYMBOL
1070
   384
1040
0.7853981633974483
  0
DIMSTYLE
105
4B3817
330
4B1ABA
100
AcDbSymbolTableRecord
100
AcDbDimStyleTableRecord
  2
AM_ANSI$SH
 70
     0
  4
mm
 41
0.1
 42
0.05
 43
0.5
 44
0.1
 47
0.1
 48
0.1
 75
     1
 76
     1
 78
     7
 79
     2
 90
     1
140
0.12
141
0.0
146
0.71
147
0.06
173
     1
176
   256
177
   256
178
     2
274
     4
284
     7
340
4B1AC0
343
4B3811
371
    -1
372
    -1
1001
ACAD_DSTYLE_DIMJOGGED_JOGANGLE_SYMBOL
1070
   384
1040
0.7853981633974483
  0
ENDTAB
  0
TABLE
  2
BLOCK_RECORD
  5
4B1AB1
330
0
100
AcDbSymbolTable
 70
    13
  0
BLOCK_RECORD
  5
4B1AC8
102
{ACAD_XDICTIONARY
360
4B3859
102
}
330
4B1AB1
100
AcDbSymbolTableRecord
100
AcDbBlockTableRecord
  2
*MODEL_SPACE
340
4B1D16
 70
     0
280
     1
281
     0
  0
BLOCK_RECORD
  5
4B1AC5
330
4B1AB1
100
AcDbSymbolTableRecord
100
AcDbBlockTableRecord
  2
*PAPER_SPACE
340
4B1D17
 70
     0
280
     1
281
     0
  0
BLOCK_RECORD
  5
4B1F40
330
4B1AB1
100
AcDbSymbolTableRecord
100
AcDbBlockTableRecord
  2
ASDTNUM
340
0
102
{BLKREFS
331
4B2293
102
}
 70
     0
280
     1
281
     0
  0
BLOCK_RECORD
  5
4B221B
330
4B1AB1
100
AcDbSymbolTableRecord
100
AcDbBlockTableRecord
  2
*D1
340
0
 70
     0
280
     1
281
     0
  0
BLOCK_RECORD
  5
4B2233
330
4B1AB1
100
AcDbSymbolTableRecord
100
AcDbBlockTableRecord
  2
*D2
340
0
 70
     0
280
     1
281
     0
  0
BLOCK_RECORD
  5
4B2251
330
4B1AB1
100
AcDbSymbolTableRecord
100
AcDbBlockTableRecord
  2
*D3
340
0
 70
     0
280
     1
281
     0
  0
BLOCK_RECORD
  5
4B2269
330
4B1AB1
100
AcDbSymbolTableRecord
100
AcDbBlockTableRecord
  2
*D4
340
0
 70
     0
280
     1
281
     0
  0
BLOCK_RECORD
  5
4B37C0
330
4B1AB1
100
AcDbSymbolTableRecord
100
AcDbBlockTableRecord
  2
*U5
340
0
 70
     0
280
     1
281
     0
  0
BLOCK_RECORD
  5
4B3811
330
4B1AB1
100
AcDbSymbolTableRecord
100
AcDbBlockTableRecord
  2
GENAXEH
340
0
 70
     0
280
     1
281
     0
  0
BLOCK_RECORD
  5
4B382B
102
{ACAD_XDICTIONARY
360
4B382F
102
}
330
4B1AB1
100
AcDbSymbolTableRecord
100
AcDbBlockTableRecord
  2
Glazing Bead
340
0
102
{BLKREFS
331
4B3838
331
4B383A
331
4B3835
331
4B3837
102
}
 70
     0
280
     1
281
     0
  0
BLOCK_RECORD
  5
4B387A
330
4B1AB1
100
AcDbSymbolTableRecord
100
AcDbBlockTableRecord
  2
Reinforced Bytyl Spacer
340
0
102
{BLKREFS
331
4B3885
331
4B3887
331
4B38C6
331
4B38C7
102
}
 70
     0
280
     1
281
     0
  0
BLOCK_RECORD
  5
4B388A
102
{ACAD_XDICTIONARY
360
4B388C
102
}
330
4B1AB1
100
AcDbSymbolTableRecord
100
AcDbBlockTableRecord
  2
Weather Seal
340
0
102
{BLKREFS
331
4B3891
331
4B3893
331
4B38A3
331
4B38A4
102
}
 70
     0
280
     1
281
     0
  0
BLOCK_RECORD
  5
4B3897
102
{ACAD_XDICTIONARY
360
4B389A
102
}
330
4B1AB1
100
AcDbSymbolTableRecord
100
AcDbBlockTableRecord
  2
Silicon Horizontal Small
340
0
102
{BLKREFS
331
4B389F
331
4B38A1
102
}
 70
     0
280
     1
281
     0
  0
BLOCK_RECORD
  5
4B38CB
102
{ACAD_XDICTIONARY
360
4B38CE
102
}
330
4B1AB1
100
AcDbSymbolTableRecord
100
AcDbBlockTableRecord
  2
Silicon Vertical Bottom
340
0
102
{BLKREFS
331
4B38D4
102
}
 70
     0
280
     1
281
     0
  0
BLOCK_RECORD
  5
4B38D8
102
{ACAD_XDICTIONARY
360
4B38DB
102
}
330
4B1AB1
100
AcDbSymbolTableRecord
100
AcDbBlockTableRecord
  2
Silicon Small Vertical Top
340
0
102
{BLKREFS
331
4B38E0
102
}
 70
     0
280
     1
281
     0
  0
ENDTAB
  0
ENDSEC
  0
SECTION
  2
BLOCKS
  0
BLOCK
  5
4B1AEB
330
4B1AC8
100
AcDbEntity
  8
0
100
AcDbBlockBegin
  2
*MODEL_SPACE
 70
     0
 10
0.0
 20
0.0
 30
0.0
  3
*MODEL_SPACE
  1

  0
ENDBLK
  5
4B1AEC
330
4B1AC8
100
AcDbEntity
  8
0
100
AcDbBlockEnd
  0
BLOCK
  5
4B1AE9
330
4B1AC5
100
AcDbEntity
 67
     1
  8
0
100
AcDbBlockBegin
  2
*PAPER_SPACE
 70
     0
 10
0.0
 20
0.0
 30
0.0
  3
*PAPER_SPACE
  1

  0
ENDBLK
  5
4B1AEA
330
4B1AC5
100
AcDbEntity
 67
     1
  8
0
100
AcDbBlockEnd
  0
BLOCK
  5
4B1F45
330
4B1F40
100
AcDbEntity
  8
0
100
AcDbBlockBegin
  2
ASDTNUM
 70
     2
 10
0.0
 20
0.0
 30
0.0
  3
ASDTNUM
  1

  0
ATTDEF
  5
4B228F
330
4B1F40
100
AcDbEntity
  8
THIN
100
AcDbText
 10
1.645491964163355
 20
0.7077964671298738
 30
0.0
 40
0.18
  1

 51
10.0
  7
ROMANS
100
AcDbAttributeDefinition
280
     0
  3
Revision date:
  2
REV:
 70
     0
280
     0
  0
TEXT
  5
4B2290
330
4B1F40
100
AcDbEntity
  8
THIN
100
AcDbText
 10
0.8991511953395569
 20
0.7098478649101438
 30
0.0
 40
0.18
  1
REV.
 51
10.0
  7
ROMANS
100
AcDbText
  0
TEXT
  5
4B2291
330
4B1F40
100
AcDbEntity
  8
THIN
100
AcDbText
 10
13.58214084242182
 20
0.6570694486990832
 30
0.0
 40
0.25
  1
AS
 51
10.0
  7
ROMANS
100
AcDbText
  0
ATTDEF
  5
4B2292
330
4B1F40
100
AcDbEntity
  8
THIN
100
AcDbText
 10
14.18958977281909
 20
0.6570000000000001
 30
0.0
 40
0.25
  1

 51
10.0
  7
ROMANS
100
AcDbAttributeDefinition
280
     0
  3
AS Drawing Num.:
  2
AS#
 70
     0
280
     0
  0
ENDBLK
  5
4B1F46
330
4B1F40
100
AcDbEntity
  8
0
100
AcDbBlockEnd
  0
BLOCK
  5
4B2226
330
4B221B
100
AcDbEntity
  8
0
100
AcDbBlockBegin
  2
*D1
 70
     1
 10
0.0
 20
0.0
 30
0.0
  3
*D1
  1

  0
LINE
  5
4B41CC
330
4B221B
100
AcDbEntity
  8
DIM
 62
     9
440
 16777216
370
    -2
100
AcDbLine
 10
4.735069127523278
 20
2.908687932220957
 30
0.0
 11
2.343474002701749
 21
2.908687932220957
 31
0.0
  0
LINE
  5
4B41CD
330
4B221B
100
AcDbEntity
  8
DIM
 62
     9
440
 16777216
370
    -2
100
AcDbLine
 10
4.451569127523331
 20
6.158687932220928
 30
0.0
 11
2.34347400270175
 21
6.158687932220928
 31
0.0
  0
LINE
  5
4B41CE
330
4B221B
100
AcDbEntity
  8
DIM
 62
   112
440
 16777216
370
    -2
100
AcDbLine
 10
2.50347400270175
 20
3.158687932220957
 30
0.0
 11
2.50347400270175
 21
4.23178317031618
 31
0.0
  0
LINE
  5
4B41CF
330
4B221B
100
AcDbEntity
  8
DIM
 62
   112
440
 16777216
370
    -2
100
AcDbLine
 10
2.50347400270175
 20
5.908687932220928
 30
0.0
 11
2.50347400270175
 21
4.835592694125704
 31
0.0
  0
SOLID
  5
4B41D0
330
4B221B
100
AcDbEntity
  8
DIM
 62
   112
440
 16777216
100
AcDbTrace
 10
2.461807336035083
 20
3.158687932220957
 30
0.0
 11
2.545140669368416
 21
3.158687932220957
 31
0.0
 12
2.503474002701749
 22
2.908687932220957
 32
0.0
 13
2.503474002701749
 23
2.908687932220957
 33
0.0
  0
SOLID
  5
4B41D1
330
4B221B
100
AcDbEntity
  8
DIM
 62
   112
440
 16777216
100
AcDbTrace
 10
2.461807336035084
 20
5.908687932220928
 30
0.0
 11
2.545140669368417
 21
5.908687932220928
 31
0.0
 12
2.50347400270175
 22
6.158687932220928
 32
0.0
 13
2.50347400270175
 23
6.158687932220928
 33
0.0
  0
MTEXT
  5
4B41D2
330
4B221B
100
AcDbEntity
  8
DIM
440
 16777216
100
AcDbMText
 10
2.503474002701749
 20
4.533687932220943
 30
0.0
 40
0.16
 41
0.0
 46
0.0
 71
     5
 72
     1
  1
\A1;3 1/4"
  7
ROMANS
 73
     1
 44
1.0
  0
POINT
  5
4B41D3
330
4B221B
100
AcDbEntity
  8
DEFPOINTS
 62
     0
440
 16777216
100
AcDbPoint
 10
4.825069127523278
 20
2.908687932220957
 30
0.0
  0
POINT
  5
4B41D4
330
4B221B
100
AcDbEntity
  8
DEFPOINTS
 62
     0
440
 16777216
100
AcDbPoint
 10
4.541569127523331
 20
6.158687932220928
 30
0.0
  0
POINT
  5
4B41D5
330
4B221B
100
AcDbEntity
  8
DEFPOINTS
 62
     0
440
 16777216
100
AcDbPoint
 10
2.50347400270175
 20
6.158687932220928
 30
0.0
  0
ENDBLK
  5
4B2227
330
4B221B
100
AcDbEntity
  8
0
100
AcDbBlockEnd
  0
BLOCK
  5
4B223E
330
4B2233
100
AcDbEntity
  8
0
100
AcDbBlockBegin
  2
*D2
 70
     1
 10
0.0
 20
0.0
 30
0.0
  3
*D2
  1

  0
LINE
  5
4B41C2
330
4B2233
100
AcDbEntity
  8
DIM
 62
     9
440
 16777216
370
    -2
100
AcDbLine
 10
6.462053166950989
 20
3.752191236981891
 30
0.0
 11
6.462053166950989
 21
2.021262260305729
 31
0.0
  0
LINE
  5
4B41C3
330
4B2233
100
AcDbEntity
  8
DIM
 62
     9
440
 16777216
370
    -2
100
AcDbLine
 10
4.726569127523276
 20
2.833687932220972
 30
0.0
 11
4.726569127523276
 21
2.021262260305729
 31
0.0
  0
LINE
  5
4B41C4
330
4B2233
100
AcDbEntity
  8
DIM
 62
   112
440
 16777216
370
    -2
100
AcDbLine
 10
6.712053166950989
 20
2.181262260305729
 30
0.0
 11
6.962053166950989
 21
2.181262260305729
 31
0.0
  0
LINE
  5
4B41C5
330
4B2233
100
AcDbEntity
  8
DIM
 62
   112
440
 16777216
370
    -2
100
AcDbLine
 10
4.476569127523276
 20
2.181262260305729
 30
0.0
 11
4.226569127523276
 21
2.181262260305729
 31
0.0
  0
SOLID
  5
4B41C6
330
4B2233
100
AcDbEntity
  8
DIM
 62
   112
440
 16777216
100
AcDbTrace
 10
6.712053166950989
 20
2.222928926972396
 30
0.0
 11
6.712053166950989
 21
2.139595593639063
 31
0.0
 12
6.462053166950989
 22
2.181262260305729
 32
0.0
 13
6.462053166950989
 23
2.181262260305729
 33
0.0
  0
SOLID
  5
4B41C7
330
4B2233
100
AcDbEntity
  8
DIM
 62
   112
440
 16777216
100
AcDbTrace
 10
4.476569127523276
 20
2.222928926972396
 30
0.0
 11
4.476569127523276
 21
2.139595593639063
 31
0.0
 12
4.726569127523276
 22
2.181262260305729
 32
0.0
 13
4.726569127523276
 23
2.181262260305729
 33
0.0
  0
MTEXT
  5
4B41C8
330
4B2233
100
AcDbEntity
  8
DIM
440
 16777216
100
AcDbMText
 10
5.594311147237132
 20
2.181262260305729
 30
0.0
 40
0.16
 41
0.0
 46
0.0
 71
     5
 72
     1
  1
\A1;1 3/4"
  7
ROMANS
 73
     1
 44
1.0
  0
POINT
  5
4B41C9
330
4B2233
100
AcDbEntity
  8
DEFPOINTS
 62
     0
440
 16777216
100
AcDbPoint
 10
6.462053166950989
 20
3.842191236981891
 30
0.0
  0
POINT
  5
4B41CA
330
4B2233
100
AcDbEntity
  8
DEFPOINTS
 62
     0
440
 16777216
100
AcDbPoint
 10
4.726569127523276
 20
2.923687932220972
 30
0.0
  0
POINT
  5
4B41CB
330
4B2233
100
AcDbEntity
  8
DEFPOINTS
 62
     0
440
 16777216
100
AcDbPoint
 10
4.726569127523276
 20
2.181262260305729
 30
0.0
  0
ENDBLK
  5
4B223F
330
4B2233
100
AcDbEntity
  8
0
100
AcDbBlockEnd
  0
BLOCK
  5
4B225C
330
4B2251
100
AcDbEntity
  8
0
100
AcDbBlockBegin
  2
*D3
 70
     1
 10
0.0
 20
0.0
 30
0.0
  3
*D3
  1

  0
LINE
  5
4B41B8
330
4B2251
100
AcDbEntity
  8
DIM
 62
     9
440
 16777216
370
    -2
100
AcDbLine
 10
12.98656912752324
 20
6.058687932220983
 30
0.0
 11
14.76777535888087
 21
6.058687932220983
 31
0.0
  0
LINE
  5
4B41B9
330
4B2251
100
AcDbEntity
  8
DIM
 62
     9
440
 16777216
370
    -2
100
AcDbLine
 10
14.0215691275232
 20
5.245687932220916
 30
0.0
 11
14.76777535888087
 21
5.245687932220916
 31
0.0
  0
LINE
  5
4B41BA
330
4B2251
100
AcDbEntity
  8
DIM
 62
   112
440
 16777216
370
    -2
100
AcDbLine
 10
14.60777535888087
 20
6.308687932220983
 30
0.0
 11
14.60777535888087
 21
6.558687932220983
 31
0.0
  0
LINE
  5
4B41BB
330
4B2251
100
AcDbEntity
  8
DIM
 62
   112
440
 16777216
370
    -2
100
AcDbLine
 10
14.60777535888087
 20
4.995687932220916
 30
0.0
 11
14.60777535888087
 21
4.745687932220916
 31
0.0
  0
SOLID
  5
4B41BC
330
4B2251
100
AcDbEntity
  8
DIM
 62
   112
440
 16777216
100
AcDbTrace
 10
14.5661086922142
 20
6.308687932220983
 30
0.0
 11
14.64944202554754
 21
6.308687932220983
 31
0.0
 12
14.60777535888087
 22
6.058687932220983
 32
0.0
 13
14.60777535888087
 23
6.058687932220983
 33
0.0
  0
SOLID
  5
4B41BD
330
4B2251
100
AcDbEntity
  8
DIM
 62
   112
440
 16777216
100
AcDbTrace
 10
14.5661086922142
 20
4.995687932220916
 30
0.0
 11
14.64944202554754
 21
4.995687932220916
 31
0.0
 12
14.60777535888087
 22
5.245687932220916
 32
0.0
 13
14.60777535888087
 23
5.245687932220916
 33
0.0
  0
MTEXT
  5
4B41BE
330
4B2251
100
AcDbEntity
  8
DIM
440
 16777216
100
AcDbMText
 10
14.60777535888087
 20
5.652187932220952
 30
0.0
 40
0.16
 41
0.0
 46
0.0
 71
     5
 72
     1
  1
\A1;13/16"
  7
ROMANS
 73
     1
 44
1.0
  0
POINT
  5
4B41BF
330
4B2251
100
AcDbEntity
  8
DEFPOINTS
 62
     0
440
 16777216
100
AcDbPoint
 10
12.89656912752324
 20
6.058687932220983
 30
0.0
  0
POINT
  5
4B41C0
330
4B2251
100
AcDbEntity
  8
DEFPOINTS
 62
     0
440
 16777216
100
AcDbPoint
 10
13.9315691275232
 20
5.245687932220917
 30
0.0
  0
POINT
  5
4B41C1
330
4B2251
100
AcDbEntity
  8
DEFPOINTS
 62
     0
440
 16777216
100
AcDbPoint
 10
14.60777535888087
 20
5.245687932220916
 30
0.0
  0
ENDBLK
  5
4B225D
330
4B2251
100
AcDbEntity
  8
0
100
AcDbBlockEnd
  0
BLOCK
  5
4B2274
330
4B2269
100
AcDbEntity
  8
0
100
AcDbBlockBegin
  2
*D4
 70
     1
 10
0.0
 20
0.0
 30
0.0
  3
*D4
  1

  0
LINE
  5
4B41AE
330
4B2269
100
AcDbEntity
  8
DIM
 62
     9
440
 16777216
370
    -2
100
AcDbLine
 10
12.80156912752329
 20
2.908687932220928
 30
0.0
 11
13.7602728220501
 21
2.908687932220928
 31
0.0
  0
LINE
  5
4B41AF
330
4B2269
100
AcDbEntity
  8
DIM
 62
     9
440
 16777216
370
    -2
100
AcDbLine
 10
13.8415691275232
 20
5.165687932220876
 30
0.0
 11
13.4402728220501
 21
5.165687932220876
 31
0.0
  0
LINE
  5
4B41B0
330
4B2269
100
AcDbEntity
  8
DIM
 62
   112
440
 16777216
370
    -2
100
AcDbLine
 10
13.6002728220501
 20
3.158687932220928
 30
0.0
 11
13.6002728220501
 21
3.73528317031614
 31
0.0
  0
LINE
  5
4B41B1
330
4B2269
100
AcDbEntity
  8
DIM
 62
   112
440
 16777216
370
    -2
100
AcDbLine
 10
13.6002728220501
 20
4.915687932220876
 30
0.0
 11
13.6002728220501
 21
4.339092694125664
 31
0.0
  0
SOLID
  5
4B41B2
330
4B2269
100
AcDbEntity
  8
DIM
 62
   112
440
 16777216
100
AcDbTrace
 10
13.55860615538343
 20
3.158687932220928
 30
0.0
 11
13.64193948871676
 21
3.158687932220928
 31
0.0
 12
13.6002728220501
 22
2.908687932220928
 32
0.0
 13
13.6002728220501
 23
2.908687932220928
 33
0.0
  0
SOLID
  5
4B41B3
330
4B2269
100
AcDbEntity
  8
DIM
 62
   112
440
 16777216
100
AcDbTrace
 10
13.55860615538343
 20
4.915687932220876
 30
0.0
 11
13.64193948871676
 21
4.915687932220876
 31
0.0
 12
13.6002728220501
 22
5.165687932220876
 32
0.0
 13
13.6002728220501
 23
5.165687932220876
 33
0.0
  0
MTEXT
  5
4B41B4
330
4B2269
100
AcDbEntity
  8
DIM
440
 16777216
100
AcDbMText
 10
13.6002728220501
 20
4.037187932220904
 30
0.0
 40
0.16
 41
0.0
 46
0.0
 71
     5
 72
     1
  1
\A1;2 1/4"
  7
ROMANS
 73
     1
 44
1.0
  0
POINT
  5
4B41B5
330
4B2269
100
AcDbEntity
  8
DEFPOINTS
 62
     0
440
 16777216
100
AcDbPoint
 10
12.71156912752329
 20
2.908687932220928
 30
0.0
  0
POINT
  5
4B41B6
330
4B2269
100
AcDbEntity
  8
DEFPOINTS
 62
     0
440
 16777216
100
AcDbPoint
 10
13.9315691275232
 20
5.165687932220876
 30
0.0
  0
POINT
  5
4B41B7
330
4B2269
100
AcDbEntity
  8
DEFPOINTS
 62
     0
440
 16777216
100
AcDbPoint
 10
13.6002728220501
 20
5.165687932220876
 30
0.0
  0
ENDBLK
  5
4B2275
330
4B2269
100
AcDbEntity
  8
0
100
AcDbBlockEnd
  0
BLOCK
  5
4B37C1
330
4B37C0
100
AcDbEntity
  8
0
100
AcDbBlockBegin
  2
*U5
 70
     1
 10
0.0
 20
0.0
 30
0.0
  3
*U5
  1

  0
ENDBLK
  5
4B37C2
330
4B37C0
100
AcDbEntity
  8
0
100
AcDbBlockEnd
  0
BLOCK
  5
4B3813
330
4B3811
100
AcDbEntity
  8
0
100
AcDbBlockBegin
  2
GENAXEH
 70
     0
 10
0.0
 20
0.0
 30
0.0
  3
GENAXEH
  1

  0
LINE
  5
4B3812
330
4B3811
100
AcDbEntity
  8
0
100
AcDbLine
 10
-1.0
 20
0.0
 30
0.0
 11
1.0
 21
0.0
 31
0.0
  0
ENDBLK
  5
4B3814
330
4B3811
100
AcDbEntity
  8
0
100
AcDbBlockEnd
  0
BLOCK
  5
4B3831
330
4B382B
100
AcDbEntity
  8
0
100
AcDbBlockBegin
  2
Glazing Bead
 70
     0
 10
0.0
 20
0.0
 30
0.0
  3
Glazing Bead
  1

  0
LWPOLYLINE
  5
4B382C
330
4B382B
100
AcDbEntity
  8
10
100
AcDbPolyline
 90
        6
 70
     0
 43
0.0
 10
-0.0980000000000412
 20
0.4497426842885677
 10
-0.0089808830642339
 20
0.6459625239750136
 42
-0.0522813753986091
 10
-0.0037468705670523
 20
0.6549815899243097
 42
0.577370775527271
 10
-0.0174245326643847
 20
0.6858638190480573
 42
0.2998307703621348
 10
-0.0320958779425364
 20
0.6783008097000085
 10
-0.0980000000000301
 20
0.5629999999999278
  0
LWPOLYLINE
  5
4B382D
330
4B382B
100
AcDbEntity
  8
10
100
AcDbPolyline
 90
       33
 70
     1
 43
0.0
 10
-0.5895601124111863
 20
-0.2641177143234383
 10
-0.5785111126056904
 20
-0.222882285676512
 42
0.4931454260312981
 10
-0.5930000000000262
 20
-0.203999999999974
 10
-0.6810000000000272
 20
-0.203999999999974
 42
-0.4142135623730951
 10
-0.6960000000000277
 20
-0.1889999999999734
 10
-0.6960000000000277
 20
0.548000000000025
 42
-0.4142135623730951
 10
-0.6660000000000266
 20
0.5780000000000225
 10
-0.0980000000000288
 20
0.5780000000000225
 10
-0.0980000000000856
 20
-0.0169999999999799
 42
-0.4142135623730795
 10
-0.1280000000000867
 20
-0.0469999999999775
 10
-0.2090000000000258
 20
-0.0469999999999775
 42
0.4142135623730951
 10
-0.2240000000000264
 20
-0.0619999999999781
 10
-0.2240000000000264
 20
-0.1889999999999734
 42
0.4142135623730951
 10
-0.2090000000000258
 20
-0.203999999999974
 10
-0.1065000000000267
 20
-0.2039999999999775
 42
-0.9999999999999998
 10
-0.1065000000000267
 20
-0.2829999999999746
 10
-0.2730000000000259
 20
-0.2829999999999746
 42
-0.4142135623730951
 10
-0.3030000000000252
 20
-0.252999999999977
 10
-0.303000000000027
 20
0.002000000000022
 42
-0.4142135623730951
 10
-0.2730000000000259
 20
0.0320000000000231
 10
-0.1920000000000512
 20
0.0320000000000196
 42
0.4142135623730951
 10
-0.1770000000000507
 20
0.0470000000000201
 10
-0.1770000000000507
 20
0.4840000000000213
 42
0.4142135623730951
 10
-0.1920000000000512
 20
0.4990000000000219
 10
-0.6020000000000266
 20
0.4990000000000219
 42
0.4142135623730951
 10
-0.6170000000000253
 20
0.4840000000000249
 10
-0.6170000000000271
 20
-0.1099999999999728
 42
0.4142135623730951
 10
-0.6020000000000266
 20
-0.1249999999999733
 10
-0.5290000000000262
 20
-0.1249999999999733
 42
-0.4142135623730951
 10
-0.499000000000025
 20
-0.1549999999999745
 10
-0.499000000000025
 20
-0.2679999999999776
 42
-0.4142135623730951
 10
-0.5140000000000256
 20
-0.2829999999999781
 10
-0.5750712250168504
 20
-0.2829999999999746
 42
-0.4931454260313336
  0
ARC
  5
4B382E
330
4B382B
100
AcDbEntity
  8
10
 48
0.25
100
AcDbCircle
 10
-0.075000000000061
 20
0.3020000000000227
 30
0.0
 40
0.0749999999999993
100
AcDbArc
 50
252.1415373015901
 51
107.8584626983988
  0
ENDBLK
  5
4B3832
330
4B382B
100
AcDbEntity
  8
0
100
AcDbBlockEnd
  0
BLOCK
  5
4B3883
330
4B387A
100
AcDbEntity
  8
0
100
AcDbBlockBegin
  2
Reinforced Bytyl Spacer
 70
     0
 10
0.0
 20
0.0
 30
0.0
  3
Reinforced Bytyl Spacer
  1

  0
HATCH
  5
4B387B
330
4B387A
100
AcDbEntity
  8
THIN
100
AcDbHatch
 10
0.0
 20
0.0
 30
0.0
210
0.0
220
0.0
230
1.0
  2
DOTS
 70
     0
 71
     1
 91
        1
 92
        7
 72
     0
 73
     1
 93
        4
 10
0.1562500000000382
 20
-0.0000000000000142
 10
0.0312500000000382
 20
-0.0000000000000142
 10
0.0312500000000382
 20
-0.6250000000000142
 10
0.1562500000000382
 20
-0.6250000000000142
 97
        1
330
4B387C
 75
     0
 76
     1
 52
90.0
 41
0.5
 77
     0
 78
     1
 53
90.0
 43
-3.611312044416422
 44
-5.060374581297608
 45
-0.03125
 46
0.015625
 79
     2
 49
0.0
 49
-0.03125
 47
0.0011899997355916
 98
        1
 10
0.1072450513476761
 20
-0.3381182195231638
  0
LWPOLYLINE
  5
4B387C
102
{ACAD_REACTORS
330
4B387B
330
4B3880
102
}
330
4B387A
100
AcDbEntity
  8
THIN
100
AcDbPolyline
 90
        4
 70
     1
 43
0.0
 10
0.0312500000000382
 20
-0.6250000000000142
 10
0.0312500000000382
 20
-0.0000000000000142
 10
0.1562500000000382
 20
-0.0000000000000142
 10
0.1562500000000382
 20
-0.6250000000000142
  0
HATCH
  5
4B387D
330
4B387A
100
AcDbEntity
  8
THIN
100
AcDbHatch
 10
0.0
 20
0.0
 30
0.0
210
0.0
220
0.0
230
1.0
  2
DOTS
 70
     0
 71
     1
 91
        1
 92
        7
 72
     0
 73
     1
 93
        4
 10
0.3925000000000391
 20
-0.6250000000000142
 10
0.4375000000000391
 20
-0.6250000000000142
 10
0.4375000000000382
 20
-0.0000000000000151
 10
0.3925000000000382
 20
-0.000000000000016
 97
        2
330
4B387E
330
4B387F
 75
     0
 76
     1
 52
90.0
 41
0.75
 77
     0
 78
     1
 53
90.0
 43
-3.611312044416422
 44
-5.060374581297608
 45
-0.046875
 46
0.0234375
 79
     2
 49
0.0
 49
-0.046875
 47
0.0016662947622985
 98
        1
 10
0.4139673496542083
 20
-0.5128218251640391
  0
LWPOLYLINE
  5
4B387E
102
{ACAD_REACTORS
330
4B387D
330
4B3880
102
}
330
4B387A
100
AcDbEntity
  8
THIN
100
AcDbPolyline
 90
        2
 70
     0
 43
0.0
 10
0.3925000000000382
 20
-0.0000000000000142
 10
0.3925000000000382
 20
-0.6250000000000142
  0
LWPOLYLINE
  5
4B387F
102
{ACAD_REACTORS
330
4B387D
330
4B3880
102
}
330
4B387A
100
AcDbEntity
  8
THIN
100
AcDbPolyline
 90
        4
 70
     0
 43
0.0
 10
0.1562500000000382
 20
-0.0000000000000142
 10
0.4375000000000382
 20
-0.0000000000000142
 10
0.4375000000000382
 20
-0.6250000000000142
 10
0.1562500000000382
 20
-0.6250000000000142
  0
HATCH
  5
4B3880
330
4B387A
100
AcDbEntity
  8
THIN
100
AcDbHatch
 10
0.0
 20
0.0
 30
0.0
210
0.0
220
0.0
230
1.0
  2
DOTS
 70
     0
 71
     1
 91
        2
 92
        7
 72
     0
 73
     1
 93
        4
 10
0.1562500000000386
 20
-0.6250000000000134
 10
0.3925000000000382
 20
-0.6250000000000142
 10
0.3925000000000391
 20
-0.0000000000000151
 10
0.1562500000000377
 20
-0.0000000000000133
 97
        3
330
4B387C
330
4B387F
330
4B387E
 92
       22
 72
     0
 73
     1
 93
        4
 10
0.2918750000000379
 20
-0.0075000000000136
 10
0.3018750000000385
 20
-0.0075000000000136
 10
0.3018750000000372
 20
-0.617500000000014
 10
0.2918750000000383
 20
-0.617500000000014
 97
        1
330
4B3881
 75
     0
 76
     1
 52
90.0
 41
0.25
 77
     0
 78
     1
 53
90.0
 43
-3.611312044416422
 44
-5.060374581297608
 45
-0.015625
 46
0.0078125
 79
     2
 49
0.0
 49
-0.015625
 47
0.0011899997355916
 98
        2
 10
0.2000650292932997
 20
-0.3154905681298565
 10
0.2000650292932997
 20
-0.3154905681298565
  0
LWPOLYLINE
  5
4B3881
102
{ACAD_REACTORS
330
4B3880
102
}
330
4B387A
100
AcDbEntity
  8
THIN
100
AcDbPolyline
 90
        4
 70
     1
 43
0.0
 10
0.3018750000000381
 20
-0.617500000000014
 10
0.3018750000000381
 20
-0.0075000000000136
 10
0.2918750000000383
 20
-0.0075000000000136
 10
0.2918750000000383
 20
-0.617500000000014
  0
LINE
  5
4B3882
330
4B387A
100
AcDbEntity
  8
THIN
100
AcDbLine
 10
0.1562500000000382
 20
-0.0000000000000142
 30
0.0
 11
0.1562500000000382
 21
-0.6250000000000142
 31
0.0
  0
ENDBLK
  5
4B3884
330
4B387A
100
AcDbEntity
  8
0
100
AcDbBlockEnd
  0
BLOCK
  5
4B388E
330
4B388A
100
AcDbEntity
  8
0
100
AcDbBlockBegin
  2
Weather Seal
 70
     0
 10
0.0
 20
0.0
 30
0.0
  3
Weather Seal
  1

  0
LWPOLYLINE
  5
4B388B
330
4B388A
100
AcDbEntity
  8
10
100
AcDbPolyline
 90
        8
 70
     0
 43
0.0
 10
-0.2140040708706117
 20
-0.0700547851418496
 42
0.2308365435434813
 10
-0.1014570656801901
 20
0.0
 10
-0.0313972213123126
 20
0.0000000000000004
 10
-0.0722456559543829
 20
-0.048469460869498
 42
-0.2169055378432189
 10
-0.1846107348229395
 20
-0.10200000000009
 10
-0.2331996891443744
 20
-0.1020000000000873
 42
-0.9441104267323005
 10
-0.2343217948658616
 20
-0.0720693186292443
 10
-0.2130040708706762
 20
-0.0700547851418425
  0
ENDBLK
  5
4B388F
330
4B388A
100
AcDbEntity
  8
0
100
AcDbBlockEnd
  0
BLOCK
  5
4B389C
330
4B3897
100
AcDbEntity
  8
0
100
AcDbBlockBegin
  2
Silicon Horizontal Small
 70
     0
 10
0.0
 20
0.0
 30
0.0
  3
Silicon Horizontal Small
  1

  0
HATCH
  5
4B3898
330
4B3897
100
AcDbEntity
  8
3
100
AcDbHatch
 10
0.0
 20
0.0
 30
0.0
210
0.0
220
0.0
230
1.0
  2
ANSI31
 70
     0
 71
     0
 91
        1
 92
        1
 93
       67
 72
     2
 10
0.0660000000000194
 20
0.06600000000003
 40
0.0660000000000167
 50
90.0
 51
270.0
 73
     0
 72
     1
 10
0.0660000000000194
 20
0.1320000000000467
 11
0.2152499999999859
 21
0.1320000000000467
 72
     1
 10
0.2152499999999859
 20
0.1320000000000467
 11
0.2184884665055966
 21
0.1319205001095876
 72
     1
 10
0.2184884665055966
 20
0.1319205001095876
 11
0.2217191312617386
 21
0.1316821919604116
 72
     1
 10
0.2217191312617386
 20
0.1316821919604116
 11
0.224934211314042
 21
0.1312856496577224
 72
     1
 10
0.224934211314042
 20
0.1312856496577224
 11
0.2281259612530535
 21
0.1307318285066596
 72
     1
 10
0.2281259612530535
 20
0.1307318285066596
 11
0.2312866918736054
 21
0.1300220627108866
 72
     1
 10
0.2312866918736054
 20
0.1300220627108866
 11
0.2344087886987856
 21
0.1291580621583721
 72
     1
 10
0.2344087886987856
 20
0.1291580621583721
 11
0.2374847303238772
 21
0.1281419083021245
 72
     1
 10
0.2374847303238772
 20
0.1281419083021245
 11
0.2405071065360884
 21
0.1269760491457896
 72
     1
 10
0.2405071065360884
 20
0.1269760491457896
 11
0.2434686361663916
 21
0.1256632933461921
 72
     1
 10
0.2434686361663916
 20
0.1256632933461921
 11
0.2463621846305104
 21
0.124206803447036
 72
     1
 10
0.2463621846305104
 20
0.124206803447036
 11
0.2491807811167463
 21
0.1226100882600622
 72
     1
 10
0.2491807811167463
 20
0.1226100882600622
 11
0.2519176353792885
 21
0.1208769944120114
 72
     1
 10
0.2519176353792885
 20
0.1208769944120114
 11
0.254566154096497
 21
0.1190116970777657
 72
     1
 10
0.254566154096497
 20
0.1190116970777657
 11
0.2571199567547984
 21
0.1170186899219834
 72
     1
 10
0.2571199567547984
 20
0.1170186899219834
 11
0.2595728910199009
 21
0.1149027742734692
 72
     1
 10
0.2595728910199009
 20
0.1149027742734692
 11
0.2619190475583091
 21
0.112669047558354
 72
     1
 10
0.2619190475583091
 20
0.112669047558354
 11
0.264152774273426
 21
0.1103228910199441
 72
     1
 10
0.264152774273426
 20
0.1103228910199441
 11
0.2662686899219393
 21
0.1078699567548407
 72
     1
 10
0.2662686899219393
 20
0.1078699567548407
 11
0.2682616970777216
 21
0.1053161540965402
 72
     1
 10
0.2682616970777216
 20
0.1053161540965402
 11
0.2701269944119664
 21
0.1026676353793325
 72
     1
 10
0.2701269944119664
 20
0.1026676353793325
 11
0.2718600882600173
 21
0.0999307811167913
 72
     1
 10
0.2718600882600173
 20
0.0999307811167913
 11
0.2734568034469929
 21
0.0971121846305536
 72
     1
 10
0.2734568034469929
 20
0.0971121846305536
 11
0.2749132933461498
 21
0.0942186361664357
 72
     1
 10
0.2749132933461498
 20
0.0942186361664357
 11
0.2762260491457473
 21
0.0912571065361316
 72
     1
 10
0.2762260491457473
 20
0.0912571065361316
 11
0.2773919083020813
 21
0.0882347303239213
 72
     1
 10
0.2773919083020813
 20
0.0882347303239213
 11
0.278408062158328
 21
0.0851587886988288
 72
     1
 10
0.278408062158328
 20
0.0851587886988288
 11
0.2792720627108425
 21
0.0820366918736495
 72
     1
 10
0.2792720627108425
 20
0.0820366918736495
 11
0.2799818285066147
 21
0.0788759612530967
 72
     1
 10
0.2799818285066147
 20
0.0788759612530967
 11
0.2805356496576783
 21
0.0756842113140861
 72
     1
 10
0.2805356496576783
 20
0.0756842113140861
 11
0.2809321919603667
 21
0.0724691312617818
 72
     1
 10
0.2809321919603667
 20
0.0724691312617818
 11
0.2811705001095435
 21
0.0692384665056398
 72
     1
 10
0.2811705001095435
 20
0.0692384665056398
 11
0.2812500000000027
 21
0.06600000000003
 72
     1
 10
0.2812500000000027
 20
0.06600000000003
 11
0.2811705001095452
 21
0.0627615334944194
 72
     1
 10
0.2811705001095452
 20
0.0627615334944194
 11
0.2809321919603667
 21
0.0595308687382765
 72
     1
 10
0.2809321919603667
 20
0.0595308687382765
 11
0.2805356496576783
 21
0.0563157886859731
 72
     1
 10
0.2805356496576783
 20
0.0563157886859731
 11
0.2799818285066147
 21
0.0531240387469616
 72
     1
 10
0.2799818285066147
 20
0.0531240387469616
 11
0.2792720627108425
 21
0.0499633081264097
 72
     1
 10
0.2792720627108425
 20
0.0499633081264097
 11
0.2784080621583262
 21
0.0468412113012304
 72
     1
 10
0.2784080621583262
 20
0.0468412113012304
 11
0.2773919083020813
 21
0.043765269676137
 72
     1
 10
0.2773919083020813
 20
0.043765269676137
 11
0.2762260491457473
 21
0.0407428934639267
 72
     1
 10
0.2762260491457473
 20
0.0407428934639267
 11
0.274913293346148
 21
0.0377813638336235
 72
     1
 10
0.274913293346148
 20
0.0377813638336235
 11
0.2734568034469911
 21
0.0348878153695065
 72
     1
 10
0.2734568034469911
 20
0.0348878153695065
 11
0.2718600882600191
 21
0.0320692188832688
 72
     1
 10
0.2718600882600191
 20
0.0320692188832688
 11
0.2701269944119682
 21
0.0293323646207266
 72
     1
 10
0.2701269944119682
 20
0.0293323646207266
 11
0.2682616970777216
 21
0.026683845903519
 72
     1
 10
0.2682616970777216
 20
0.026683845903519
 11
0.2662686899219393
 21
0.0241300432452185
 72
     1
 10
0.2662686899219393
 20
0.0241300432452185
 11
0.2641527742734242
 21
0.0216771089801151
 72
     1
 10
0.2641527742734242
 20
0.0216771089801151
 11
0.2619190475583109
 21
0.019330952441706
 72
     1
 10
0.2619190475583109
 20
0.019330952441706
 11
0.2595728910198991
 21
0.01709722572659
 72
     1
 10
0.2595728910198991
 20
0.01709722572659
 11
0.2571199567547984
 21
0.0149813100780758
 72
     1
 10
0.2571199567547984
 20
0.0149813100780758
 11
0.254566154096497
 21
0.0129883029222935
 72
     1
 10
0.254566154096497
 20
0.0129883029222935
 11
0.2519176353792902
 21
0.0111230055880478
 72
     1
 10
0.2519176353792902
 20
0.0111230055880478
 11
0.2491807811167481
 21
0.0093899117399978
 72
     1
 10
0.2491807811167481
 20
0.0093899117399978
 11
0.2463621846305086
 21
0.007793196553024
 72
     1
 10
0.2463621846305086
 20
0.007793196553024
 11
0.2434686361663916
 21
0.006336706653868
 72
     1
 10
0.2434686361663916
 20
0.006336706653868
 11
0.2405071065360884
 21
0.0050239508542695
 72
     1
 10
0.2405071065360884
 20
0.0050239508542695
 11
0.2374847303238772
 21
0.0038580916979356
 72
     1
 10
0.2374847303238772
 20
0.0038580916979356
 11
0.2344087886987838
 21
0.002841937841688
 72
     1
 10
0.2344087886987838
 20
0.002841937841688
 11
0.2312866918736054
 21
0.0019779372891735
 72
     1
 10
0.2312866918736054
 20
0.0019779372891735
 11
0.2281259612530535
 21
0.0012681714934004
 72
     1
 10
0.2281259612530535
 20
0.0012681714934004
 11
0.224934211314042
 21
0.0007143503423377
 72
     1
 10
0.224934211314042
 20
0.0007143503423377
 11
0.2217191312617386
 21
0.0003178080396475
 72
     1
 10
0.2217191312617386
 20
0.0003178080396475
 11
0.2184884665055966
 21
0.0000794998904725
 72
     1
 10
0.2184884665055966
 20
0.0000794998904725
 11
0.2152499999999859
 21
0.0000000000000133
 72
     1
 10
0.2152499999999859
 20
0.0000000000000133
 11
0.0660000000000194
 21
0.0000000000000133
 97
        0
 75
     0
 76
     1
 52
0.0
 41
0.25
 77
     0
 78
     1
 53
45.0
 43
-8.14017173921723
 44
-8.193344402733142
 45
-0.0220970869120796
 46
0.0220970869120796
 79
     0
 98
        1
 10
10.49505695906111
 20
-4.856956167588923
1001
ACAD
1010
0.0
1020
0.0
1030
0.0
  0
LWPOLYLINE
  5
4B3899
330
4B3897
100
AcDbEntity
  8
THIN
100
AcDbPolyline
 90
        4
 70
     1
 43
0.0
 10
0.2152499999999859
 20
0.0000000000000133
 10
0.0660000000000194
 20
0.0000000000000133
 42
-0.9999999999999998
 10
0.0660000000000194
 20
0.1320000000000467
 10
0.2152499999999859
 20
0.1320000000000467
 42
-0.9999999999999998
  0
ENDBLK
  5
4B389D
330
4B3897
100
AcDbEntity
  8
0
100
AcDbBlockEnd
  0
BLOCK
  5
4B38D0
330
4B38CB
100
AcDbEntity
  8
0
100
AcDbBlockBegin
  2
Silicon Vertical Bottom
 70
     0
 10
0.0
 20
0.0
 30
0.0
  3
Silicon Vertical Bottom
  1

  0
HATCH
  5
4B38CC
330
4B38CB
100
AcDbEntity
  8
3
100
AcDbHatch
 10
0.0
 20
0.0
 30
0.0
210
0.0
220
0.0
230
1.0
  2
ANSI31
 70
     0
 71
     1
 91
        1
 92
        7
 72
     1
 73
     1
 93
        4
 10
-0.0000000000000009
 20
0.3089999999999904
 42
1.0
 10
-0.1320000000000343
 20
0.3089999999999904
 42
0.0
 10
-0.1320000000000343
 20
0.1285000000000238
 42
1.0
 10
-0.0000000000000009
 20
0.1285000000000238
 42
0.0
 97
        1
330
4B38CD
 75
     0
 76
     1
 52
90.0
 41
0.25
 77
     0
 78
     1
 53
135.0
 43
8.193344402733156
 44
-8.046421739217223
 45
-0.0220970869120796
 46
-0.0220970869120796
 79
     0
 47
0.0013387605417888
 98
        1
 10
-0.0624891598898119
 20
0.2248641427243712
1001
ACAD
1010
0.0
1020
0.0
1030
0.0
  0
LWPOLYLINE
  5
4B38CD
102
{ACAD_REACTORS
330
4B38CC
102
}
330
4B38CB
100
AcDbEntity
  8
THIN
100
AcDbPolyline
 90
        4
 70
     1
 43
0.0
 10
-0.1320000000000343
 20
0.3089999999999904
 10
-0.1320000000000343
 20
0.1285000000000238
 42
0.9999999999999998
 10
-0.0000000000000009
 20
0.1285000000000238
 10
-0.0000000000000009
 20
0.3089999999999904
 42
0.9999999999999998
  0
ENDBLK
  5
4B38D1
330
4B38CB
100
AcDbEntity
  8
0
100
AcDbBlockEnd
  0
BLOCK
  5
4B38DD
330
4B38D8
100
AcDbEntity
  8
0
100
AcDbBlockBegin
  2
Silicon Small Vertical Top
 70
     0
 10
0.0
 20
0.0
 30
0.0
  3
Silicon Small Vertical Top
  1

  0
HATCH
  5
4B38D9
330
4B38D8
100
AcDbEntity
  8
3
100
AcDbHatch
 10
0.0
 20
0.0
 30
0.0
210
0.0
220
0.0
230
1.0
  2
ANSI31
 70
     0
 71
     0
 91
        1
 92
        1
 93
       67
 72
     2
 10
0.0660000000000176
 20
-0.1214999999999833
 40
0.0660000000000167
 50
180.0
 51
360.0
 73
     1
 72
     1
 10
0.1320000000000343
 20
-0.1214999999999833
 11
0.1320000000000343
 21
-0.0660000000000167
 72
     1
 10
0.1320000000000343
 20
-0.0660000000000167
 11
0.1319205001095756
 21
-0.0627615334944061
 72
     1
 10
0.1319205001095756
 20
-0.0627615334944061
 11
0.1316821919603992
 21
-0.0595308687382641
 72
     1
 10
0.1316821919603992
 20
-0.0595308687382641
 11
0.1312856496577095
 21
-0.0563157886859607
 72
     1
 10
0.1312856496577095
 20
-0.0563157886859607
 11
0.1307318285066468
 21
-0.0531240387469509
 72
     1
 10
0.1307318285066468
 20
-0.0531240387469509
 11
0.1300220627108732
 21
-0.0499633081263973
 72
     1
 10
0.1300220627108732
 20
-0.0499633081263973
 11
0.1291580621583588
 21
-0.0468412113012171
 72
     1
 10
0.1291580621583588
 20
-0.0468412113012171
 11
0.128141908302112
 21
-0.0437652696761219
 72
     1
 10
0.128141908302112
 20
-0.0437652696761219
 11
0.1269760491457772
 21
-0.0407428934639143
 72
     1
 10
0.1269760491457772
 20
-0.0407428934639143
 11
0.1256632933461792
 21
-0.0377813638336093
 72
     1
 10
0.1256632933461792
 20
-0.0377813638336093
 11
0.1242068034470227
 21
-0.034887815369494
 72
     1
 10
0.1242068034470227
 20
-0.034887815369494
 11
0.1226100882600489
 21
-0.0320692188832545
 72
     1
 10
0.1226100882600489
 20
-0.0320692188832545
 11
0.1208769944119985
 21
-0.0293323646207107
 72
     1
 10
0.1208769944119985
 20
-0.0293323646207107
 11
0.1190116970777528
 21
-0.0266838459035057
 72
     1
 10
0.1190116970777528
 20
-0.0266838459035057
 11
0.1170186899219701
 21
-0.0241300432452079
 72
     1
 10
0.1170186899219701
 20
-0.0241300432452079
 11
0.1149027742734563
 21
-0.0216771089801036
 72
     1
 10
0.1149027742734563
 20
-0.0216771089801036
 11
0.1126690475583398
 21
-0.0193309524416918
 72
     1
 10
0.1126690475583398
 20
-0.0193309524416918
 11
0.1103228910199303
 21
-0.0170972257265767
 72
     1
 10
0.1103228910199303
 20
-0.0170972257265767
 11
0.1078699567548274
 21
-0.0149813100780634
 72
     1
 10
0.1078699567548274
 20
-0.0149813100780634
 11
0.1053161540965264
 21
-0.0129883029222811
 72
     1
 10
0.1053161540965264
 20
-0.0129883029222811
 11
0.1026676353793188
 21
-0.0111230055880327
 72
     1
 10
0.1026676353793188
 20
-0.0111230055880327
 11
0.0999307811167771
 21
-0.0093899117399836
 72
     1
 10
0.0999307811167771
 20
-0.0093899117399836
 11
0.0971121846305394
 21
-0.0077931965530098
 72
     1
 10
0.0971121846305394
 20
-0.0077931965530098
 11
0.0942186361664219
 21
-0.0063367066538511
 72
     1
 10
0.0942186361664219
 20
-0.0063367066538511
 11
0.0912571065361183
 21
-0.0050239508542553
 72
     1
 10
0.0912571065361183
 20
-0.0050239508542553
 11
0.088234730323908
 21
-0.0038580916979214
 72
     1
 10
0.088234730323908
 20
-0.0038580916979214
 11
0.085158788698815
 21
-0.0028419378416764
 72
     1
 10
0.085158788698815
 20
-0.0028419378416764
 11
0.0820366918736348
 21
-0.001977937289162
 72
     1
 10
0.0820366918736348
 20
-0.001977937289162
 11
0.0788759612530834
 21
-0.0012681714933862
 72
     1
 10
0.0788759612530834
 20
-0.0012681714933862
 11
0.0756842113140719
 21
-0.0007143503423244
 72
     1
 10
0.0756842113140719
 20
-0.0007143503423244
 11
0.0724691312617685
 21
-0.000317808039636
 72
     1
 10
0.0724691312617685
 20
-0.000317808039636
 11
0.0692384665056261
 21
-0.0000794998904574
 72
     1
 10
0.0692384665056261
 20
-0.0000794998904574
 11
0.0660000000000158
 21
0.0
 72
     1
 10
0.0660000000000158
 20
0.0
 11
0.0627615334944052
 21
-0.0000794998904574
 72
     1
 10
0.0627615334944052
 20
-0.0000794998904574
 11
0.0595308687382632
 21
-0.000317808039636
 72
     1
 10
0.0595308687382632
 20
-0.000317808039636
 11
0.0563157886859593
 21
-0.0007143503423244
 72
     1
 10
0.0563157886859593
 20
-0.0007143503423244
 11
0.0531240387469483
 21
-0.0012681714933898
 72
     1
 10
0.0531240387469483
 20
-0.0012681714933898
 11
0.0499633081263959
 21
-0.001977937289162
 72
     1
 10
0.0499633081263959
 20
-0.001977937289162
 11
0.0468412113012167
 21
-0.0028419378416764
 72
     1
 10
0.0468412113012167
 20
-0.0028419378416764
 11
0.0437652696761237
 21
-0.0038580916979214
 72
     1
 10
0.0437652696761237
 20
-0.0038580916979214
 11
0.0407428934639134
 21
-0.0050239508542553
 72
     1
 10
0.0407428934639134
 20
-0.0050239508542553
 11
0.0377813638336102
 21
-0.0063367066538547
 72
     1
 10
0.0377813638336102
 20
-0.0063367066538547
 11
0.0348878153694923
 21
-0.0077931965530098
 72
     1
 10
0.0348878153694923
 20
-0.0077931965530098
 11
0.0320692188832545
 21
-0.0093899117399836
 72
     1
 10
0.0320692188832545
 20
-0.0093899117399836
 11
0.0293323646207129
 21
-0.0111230055880363
 72
     1
 10
0.0293323646207129
 20
-0.0111230055880363
 11
0.0266838459035053
 21
-0.0129883029222811
 72
     1
 10
0.0266838459035053
 20
-0.0129883029222811
 11
0.0241300432452047
 21
-0.0149813100780634
 72
     1
 10
0.0241300432452047
 20
-0.0149813100780634
 11
0.0216771089801018
 21
-0.0170972257265767
 72
     1
 10
0.0216771089801018
 20
-0.0170972257265767
 11
0.0193309524416927
 21
-0.0193309524416918
 72
     1
 10
0.0193309524416927
 20
-0.0193309524416918
 11
0.0170972257265767
 21
-0.0216771089801036
 72
     1
 10
0.0170972257265767
 20
-0.0216771089801036
 11
0.0149813100780629
 21
-0.0241300432452043
 72
     1
 10
0.0149813100780629
 20
-0.0241300432452043
 11
0.0129883029222806
 21
-0.0266838459035057
 72
     1
 10
0.0129883029222806
 20
-0.0266838459035057
 11
0.0111230055880349
 21
-0.0293323646207142
 72
     1
 10
0.0111230055880349
 20
-0.0293323646207142
 11
0.0093899117399845
 21
-0.0320692188832545
 72
     1
 10
0.0093899117399845
 20
-0.0320692188832545
 11
0.0077931965530107
 21
-0.034887815369494
 72
     1
 10
0.0077931965530107
 20
-0.034887815369494
 11
0.0063367066538547
 21
-0.0377813638336093
 72
     1
 10
0.0063367066538547
 20
-0.0377813638336093
 11
0.0050239508542567
 21
-0.0407428934639143
 72
     1
 10
0.0050239508542567
 20
-0.0407428934639143
 11
0.0038580916979218
 21
-0.0437652696761219
 72
     1
 10
0.0038580916979218
 20
-0.0437652696761219
 11
0.0028419378416751
 21
-0.0468412113012171
 72
     1
 10
0.0028419378416751
 20
-0.0468412113012171
 11
0.0019779372891611
 21
-0.0499633081263973
 72
     1
 10
0.0019779372891611
 20
-0.0499633081263973
 11
0.0012681714933875
 21
-0.0531240387469509
 72
     1
 10
0.0012681714933875
 20
-0.0531240387469509
 11
0.0007143503423253
 21
-0.0563157886859607
 72
     1
 10
0.0007143503423253
 20
-0.0563157886859607
 11
0.000317808039636
 21
-0.0595308687382641
 72
     1
 10
0.000317808039636
 20
-0.0595308687382641
 11
0.0000794998904596
 21
-0.0627615334944061
 72
     1
 10
0.0000794998904596
 20
-0.0627615334944061
 11
0.0000000000000009
 21
-0.0660000000000167
 72
     1
 10
0.0000000000000009
 20
-0.0660000000000167
 11
0.0000000000000009
 21
-0.1214999999999833
 97
        0
 75
     0
 76
     1
 52
90.0
 41
0.25
 77
     0
 78
     1
 53
315.0
 43
-8.193344402733156
 44
8.108921739217226
 45
0.0220970869120796
 46
0.0220970869120796
 79
     0
 98
        1
 10
-3.134168425386246
 20
-17.9142790158413
1001
ACAD
1010
0.0
1020
0.0
1030
0.0
  0
LWPOLYLINE
  5
4B38DA
330
4B38D8
100
AcDbEntity
  8
THIN
100
AcDbPolyline
 90
        4
 70
     1
 43
0.0
 10
0.1320000000000343
 20
-0.1214999999999833
 10
0.1320000000000343
 20
-0.0660000000000167
 42
0.9999999999999998
 10
0.0000000000000009
 20
-0.0660000000000167
 10
0.0000000000000009
 20
-0.1214999999999833
 42
0.9999999999999998
  0
ENDBLK
  5
4B38DE
330
4B38D8
100
AcDbEntity
  8
0
100
AcDbBlockEnd
  0
ENDSEC
  0
SECTION
  2
ENTITIES
  0
LINE
  5
4B1E29
330
4B1AC8
100
AcDbEntity
  8
CYAN
100
AcDbLine
 10
8.670774141916666
 20
4.735687932220915
 30
0.0
 11
5.945319127523254
 21
4.735687932220915
 31
0.0
  0
LINE
  5
4B1E2A
330
4B1AC8
100
AcDbEntity
  8
CYAN
100
AcDbLine
 10
8.686123504326957
 20
4.610687932220915
 30
0.0
 11
5.945319127523254
 21
4.610687932220915
 31
0.0
  0
LINE
  5
4B1E2B
330
4B1AC8
100
AcDbEntity
  8
CYAN
100
AcDbLine
 10
8.6800412377913
 20
3.985687932220915
 30
0.0
 11
5.945319127523254
 21
3.985687932220887
 31
0.0
  0
LINE
  5
4B1E2C
330
4B1AC8
100
AcDbEntity
  8
CYAN
100
AcDbLine
 10
8.69454256912914
 20
3.860687932220944
 30
0.0
 11
5.945319127523254
 21
3.860687932220888
 31
0.0
  0
LINE
  5
4B1E2F
330
4B1AC8
100
AcDbEntity
  8
CYAN
100
AcDbLine
 10
8.754459116943422
 20
3.985687932220944
 30
0.0
 11
11.50781912752323
 21
3.985687932220888
 31
0.0
  0
LINE
  5
4B1E30
330
4B1AC8
100
AcDbEntity
  8
CYAN
100
AcDbLine
 10
8.768960448281319
 20
3.860687932220944
 30
0.0
 11
11.50781912752323
 21
3.860687932220888
 31
0.0
  0
LINE
  5
4B21B5
330
4B1AC8
100
AcDbEntity
  8
CYAN
100
AcDbLine
 10
2.779723021109609
 20
14.34830287764392
 30
0.0
 11
2.779723021109641
 21
10.27848531292289
 31
0.0
  0
LINE
  5
4B21B6
330
4B1AC8
100
AcDbEntity
  8
CYAN
100
AcDbLine
 10
2.654723021109609
 20
14.36280420898182
 30
0.0
 11
2.654723021109641
 21
10.27848531292289
 31
0.0
  0
LINE
  5
4B21D5
330
4B1AC8
100
AcDbEntity
  8
CYAN
100
AcDbLine
 10
2.654723021109613
 20
14.48752403464331
 30
0.0
 11
2.65472302110964
 21
18.40348531292289
 31
0.0
  0
LINE
  5
4B21D6
330
4B1AC8
100
AcDbEntity
  8
CYAN
100
AcDbLine
 10
2.779723021109613
 20
14.47302270330547
 30
0.0
 11
2.779723021109641
 21
18.40348531292289
 31
0.0
  0
DIMENSION
  5
4B221A
330
4B1AC8
100
AcDbEntity
  8
DIM
100
AcDbDimension
280
     0
  2
*D1
 10
2.50347400270175
 20
6.158687932220928
 30
0.0
 11
2.503474002701749
 21
4.533687932220943
 31
0.0
 70
    32
 71
     5
 42
3.249999999999971
 73
     0
 74
     0
 75
     0
  3
Copy of HSTANDARD
100
AcDbAlignedDimension
 13
4.825069127523278
 23
2.908687932220957
 33
0.0
 14
4.541569127523331
 24
6.158687932220928
 34
0.0
 50
90.0
100
AcDbRotatedDimension
1001
ACAD
1000
DSTYLE
1002
{
1070
    40
1040
2.0
1070
   146
1040
1.0
1070
   276
1070
     2
1002
}
  0
DIMENSION
  5
4B2232
330
4B1AC8
100
AcDbEntity
  8
DIM
100
AcDbDimension
280
     0
  2
*D2
 10
4.726569127523276
 20
2.181262260305729
 30
0.0
 11
5.594311147237132
 21
2.181262260305729
 31
0.0
 70
    32
 71
     5
 42
1.735484039427712
 73
     0
 74
     0
 75
     0
  3
Copy of HSTANDARD
100
AcDbAlignedDimension
 13
6.462053166950989
 23
3.842191236981891
 33
0.0
 14
4.726569127523276
 24
2.923687932220972
 34
0.0
100
AcDbRotatedDimension
1001
ACAD
1000
DSTYLE
1002
{
1070
    40
1040
2.0
1070
   146
1040
1.0
1070
   276
1070
     2
1002
}
  0
TEXT
  5
4B224A
330
4B1AC8
100
AcDbEntity
  8
DIM
100
AcDbText
 10
6.059451827380694
 20
5.777911558561536
 30
0.0
 40
0.2
  1
3
 51
10.0
  7
SIMPLEX
 72
     1
 11
6.126118494047361
 21
5.877911558561535
 31
0.0
100
AcDbText
 73
     2
  0
CIRCLE
  5
4B224B
330
4B1AC8
100
AcDbEntity
  8
DIM
100
AcDbCircle
 10
6.126118494047361
 20
5.877911558561535
 30
0.0
 40
0.24
  0
TEXT
  5
4B224C
330
4B1AC8
100
AcDbEntity
  8
DIM
100
AcDbText
 10
3.417664684253065
 20
11.35132780507188
 30
0.0
 40
0.2
  1
2
 51
10.0
  7
SIMPLEX
 72
     1
 11
3.484331350919732
 21
11.45132780507188
 31
0.0
100
AcDbText
 73
     2
  0
CIRCLE
  5
4B224D
330
4B1AC8
100
AcDbEntity
  8
DIM
100
AcDbCircle
 10
3.484331350919732
 20
11.45132780507188
 30
0.0
 40
0.24
  0
CIRCLE
  5
4B224E
330
4B1AC8
100
AcDbEntity
  8
DIM
100
AcDbCircle
 10
3.471884929723203
 20
17.63952937486682
 30
0.0
 40
0.24
  0
TEXT
  5
4B224F
330
4B1AC8
100
AcDbEntity
  8
DIM
100
AcDbText
 10
3.448075405913679
 20
17.53952937486682
 30
0.0
 40
0.2
  1
1
 51
10.0
  7
SIMPLEX
 72
     1
 11
3.471884929723203
 21
17.63952937486682
 31
0.0
100
AcDbText
 73
     2
  0
DIMENSION
  5
4B2250
330
4B1AC8
100
AcDbEntity
  8
DIM
100
AcDbDimension
280
     0
  2
*D3
 10
14.60777535888087
 20
5.245687932220916
 30
0.0
 11
14.60777535888087
 21
5.652187932220952
 31
0.0
 70
    32
 71
     5
 42
0.8130000000000663
 73
     0
 74
     0
 75
     0
  3
Copy of HSTANDARD
100
AcDbAlignedDimension
 13
12.89656912752324
 23
6.058687932220983
 33
0.0
 14
13.9315691275232
 24
5.245687932220917
 34
0.0
 50
90.0
100
AcDbRotatedDimension
1001
ACAD
1000
DSTYLE
1002
{
1070
    40
1040
2.0
1070
   146
1040
1.0
1070
   276
1070
     2
1002
}
  0
DIMENSION
  5
4B2268
330
4B1AC8
100
AcDbEntity
  8
DIM
100
AcDbDimension
280
     0
  2
*D4
 10
13.6002728220501
 20
5.165687932220876
 30
0.0
 11
13.6002728220501
 21
4.037187932220904
 31
0.0
 70
    32
 71
     5
 42
2.256999999999947
 73
     0
 74
     0
 75
     0
  3
Copy of HSTANDARD
100
AcDbAlignedDimension
 13
12.71156912752329
 23
2.908687932220928
 33
0.0
 14
13.9315691275232
 24
5.165687932220876
 34
0.0
 50
90.0
100
AcDbRotatedDimension
1001
ACAD
1000
DSTYLE
1002
{
1070
    40
1040
2.0
1070
   146
1040
1.0
1070
   276
1070
     2
1002
}
  0
MTEXT
  5
4B228D
330
4B1AC8
100
AcDbEntity
  8
DIM
100
AcDbMText
 10
9.514521971199464
 20
18.95361820351289
 30
0.0
 40
0.3
 41
6.184
 46
0.0
 71
     5
 72
     5
  1
Harvey Building Products Designer Shape Half Round\PIntegral J-Fin\P{\H0.8333x;(1/2 Scale)}
  7
TAHOMA
 73
     1
 44
1.0
  0
INSERT
  5
4B2293
330
4B1AC8
100
AcDbEntity
  8
DIM
100
AcDbBlockReference
 66
     1
  2
ASDTNUM
 10
0.0
 20
0.0
 30
0.0
1001
MTVPROFILELINK
1002
{
1000
#BlockRef=533e4a92-0xa7cf-11d7-A5DD-005004E2D0E9|
1002
}
1005
0
  0
ATTRIB
  5
4B2295
330
4B2293
100
AcDbEntity
  8
THIN
100
AcDbText
 10
1.645491964163355
 20
0.7077964671298738
 30
0.0
 40
0.18
  1
6/06
 51
10.0
  7
ROMANS
100
AcDbAttribute
280
     0
  2
REV:
 70
     0
280
     0
  0
ATTRIB
  5
4B2296
330
4B2293
100
AcDbEntity
  8
THIN
100
AcDbText
 10
14.18958977281909
 20
0.6570000000000001
 30
0.0
 40
0.25
  1
284
 51
10.0
  7
ROMANS
100
AcDbAttribute
280
     0
  2
AS#
 70
     0
280
     0
  0
SEQEND
  5
4B2297
330
4B2293
100
AcDbEntity
  8
DIM
  0
LINE
  5
4B239E
330
4B1AC8
100
AcDbEntity
  8
10
100
AcDbLine
 10
1.904723021109628
 20
10.8575047967173
 30
0.0
 11
1.903739517532916
 21
10.85685085799629
 31
0.0
  0
LINE
  5
4B23C9
330
4B1AC8
100
AcDbEntity
  8
10
100
AcDbLine
 10
1.904723021109627
 20
17.97446582912845
 30
0.0
 11
1.903739517532916
 21
17.97511976784946
 31
0.0
  0
LINE
  5
4B30CC
330
4B1AC8
100
AcDbEntity
  8
THIN
100
AcDbLine
 10
1.408723021109548
 20
10.33948531292288
 30
0.0
 11
1.575723021109555
 21
10.33948531292288
 31
0.0
  0
LINE
  5
4B3167
330
4B1AC8
100
AcDbEntity
  8
vent
100
AcDbLine
 10
1.503723021109556
 20
10.11062455342922
 30
0.0
 11
1.503723021109546
 21
10.19448531292288
 31
0.0
  0
CIRCLE
  5
4B316C
330
4B1AC8
100
AcDbEntity
  8
DIM
100
AcDbCircle
 10
1.503723021109546
 20
10.2392971305404
 30
0.0
 40
0.025
  0
LINE
  5
4B316D
330
4B1AC8
100
AcDbEntity
  8
vent
100
AcDbLine
 10
1.503723021109549
 20
10.19448531292288
 30
0.0
 11
1.542580163966696
 21
10.19448531292288
 31
0.0
  0
LINE
  5
4B316E
330
4B1AC8
100
AcDbEntity
  8
vent
100
AcDbLine
 10
1.48672302110955
 20
10.33948531292288
 30
0.0
 11
1.48672302110955
 21
10.36248531292288
 31
0.0
  0
LINE
  5
4B316F
330
4B1AC8
100
AcDbEntity
  8
vent
100
AcDbLine
 10
1.48672302110955
 20
10.36248531292288
 30
0.0
 11
1.509723021109549
 21
10.34248531292288
 31
0.0
  0
LINE
  5
4B3170
330
4B1AC8
100
AcDbEntity
  8
vent
100
AcDbLine
 10
1.509723021109549
 20
10.34248531292289
 30
0.0
 11
1.509723021109549
 21
10.36248531292288
 31
0.0
  0
LINE
  5
4B3171
330
4B1AC8
100
AcDbEntity
  8
vent
100
AcDbLine
 10
1.532723021109549
 20
10.36248531292288
 30
0.0
 11
1.555723021109549
 21
10.34248531292288
 31
0.0
  0
LINE
  5
4B3172
330
4B1AC8
100
AcDbEntity
  8
vent
100
AcDbLine
 10
1.532723021109549
 20
10.34248531292288
 30
0.0
 11
1.532723021109549
 21
10.36248531292288
 31
0.0
  0
LINE
  5
4B3173
330
4B1AC8
100
AcDbEntity
  8
vent
100
AcDbLine
 10
1.555723021109549
 20
10.33948531292288
 30
0.0
 11
1.555723021109549
 21
10.34248531292288
 31
0.0
  0
LINE
  5
4B3174
330
4B1AC8
100
AcDbEntity
  8
vent
100
AcDbLine
 10
1.509723021109549
 20
10.36248531292288
 30
0.0
 11
1.532723021109549
 21
10.34248531292288
 31
0.0
  0
ARC
  5
4B31C6
330
4B1AC8
100
AcDbEntity
  8
XTHIN
100
AcDbCircle
 10
9.943658606721427
 20
10.76739929779123
 30
0.0
 40
4.0
100
AcDbArc
 50
0.0
 51
180.0
  0
LINE
  5
4B31C7
330
4B1AC8
100
AcDbEntity
  8
XTHIN
100
AcDbLine
 10
5.943658606721427
 20
10.76739929779123
 30
0.0
 11
13.94365860672143
 21
10.76739929779123
 31
0.0
  0
ARC
  5
4B31C8
330
4B1AC8
100
AcDbEntity
  8
XTHIN
100
AcDbCircle
 10
9.943658606721427
 20
10.76739929779123
 30
0.0
 40
3.790999999999999
100
AcDbArc
 50
3.160351420096195
 51
176.8396485799037
  0
LINE
  5
4B31C9
330
4B1AC8
100
AcDbEntity
  8
XTHIN
100
AcDbLine
 10
6.158424135780435
 20
10.97639929779123
 30
0.0
 11
13.72889307766242
 21
10.97639929779123
 31
0.0
  0
ARC
  5
4B31CA
330
4B1AC8
100
AcDbEntity
  8
XTHIN
100
AcDbCircle
 10
9.943658606721427
 20
10.76739929779123
 30
0.0
 40
3.640502785999999
100
AcDbArc
 50
5.667155941687944
 51
174.332844058312
  0
LINE
  5
4B31CB
330
4B1AC8
100
AcDbEntity
  8
XTHIN
100
AcDbLine
 10
6.320949359762735
 20
11.12689651179123
 30
0.0
 11
13.56636785368012
 21
11.12689651179123
 31
0.0
  0
ARC
  5
4B31CC
330
4B1AC8
100
AcDbEntity
  8
XTHIN
100
AcDbCircle
 10
9.943658606721427
 20
10.76739929779123
 30
0.0
 40
3.588446521999999
100
AcDbArc
 50
6.585657397926205
 51
173.4143426020738
  0
LINE
  5
4B31CD
330
4B1AC8
100
AcDbEntity
  8
XTHIN
100
AcDbLine
 10
6.378890426881397
 20
11.17895277579123
 30
0.0
 11
13.50842678656146
 21
11.17895277579123
 31
0.0
  0
ARC
  5
4B31CE
330
4B1AC8
100
AcDbEntity
  8
XTHIN
100
AcDbCircle
 10
9.943658606721427
 20
10.76739929779123
 30
0.0
 40
3.449417181999999
100
AcDbArc
 50
9.184619052866798
 51
170.8153809471332
  0
LINE
  5
4B31CF
330
4B1AC8
100
AcDbEntity
  8
XTHIN
100
AcDbLine
 10
6.538465887358839
 20
11.31798211579123
 30
0.0
 11
13.34885132608401
 21
11.31798211579123
 31
0.0
  0
ARC
  5
4B31D0
330
4B1AC8
100
AcDbEntity
  8
XTHIN
100
AcDbCircle
 10
9.943658606721427
 20
10.76739929779123
 30
0.0
 40
3.426399998
100
AcDbArc
 50
9.637033947775639
 51
170.3629660522243
  0
LINE
  5
4B31D1
330
4B1AC8
100
AcDbEntity
  8
XTHIN
100
AcDbLine
 10
6.56561183617488
 20
11.34099929979123
 30
0.0
 11
13.32170537726797
 21
11.34099929979123
 31
0.0
  0
ARC
  5
4B31D2
330
4B1AC8
100
AcDbEntity
  8
XTHIN
100
AcDbCircle
 10
9.943658606721427
 20
10.76739929779123
 30
0.0
 40
3.396916982
100
AcDbArc
 50
10.22640805734638
 51
169.7735919426536
  0
LINE
  5
4B31D3
330
4B1AC8
100
AcDbEntity
  8
XTHIN
100
AcDbLine
 10
6.60070544282577
 20
11.37048231579123
 30
0.0
 11
13.28661177061708
 21
11.37048231579123
 31
0.0
  0
LINE
  5
4B31D4
330
4B1AC8
100
AcDbEntity
  8
XTHIN
100
AcDbLine
 10
5.943690593901536
 20
10.7833960605167
 30
0.0
 11
6.601449447998845
 21
11.37459195416224
 31
0.0
  0
CIRCLE
  5
4B31D9
330
4B1AC8
100
AcDbEntity
  8
DIM
100
AcDbCircle
 10
5.437652595613499
 20
12.09126788662433
 30
0.0
 40
0.24
  0
TEXT
  5
4B31DA
330
4B1AC8
100
AcDbEntity
  8
DIM
100
AcDbText
 10
5.370985928946833
 20
11.99126788662433
 30
0.0
 40
0.2
  1
3
 51
10.0
  7
SIMPLEX
 72
     1
 11
5.437652595613499
 21
12.09126788662433
 31
0.0
100
AcDbText
 73
     2
  0
LINE
  5
4B31DB
330
4B1AC8
100
AcDbEntity
  8
DIM
100
AcDbLine
 10
5.677652595613508
 20
12.09126788662433
 30
0.0
 11
7.246570058279914
 21
12.09126788662432
 31
0.0
  0
LINE
  5
4B31DC
330
4B1AC8
100
AcDbEntity
  8
XTHIN
100
AcDbLine
 10
6.858424135780438
 20
11.20719929779125
 30
0.0
 11
7.038424135780459
 21
11.20719929779125
 31
0.0
  0
LINE
  5
4B31DD
330
4B1AC8
100
AcDbEntity
  8
XTHIN
100
AcDbLine
 10
6.858424135780438
 20
11.21119929779124
 30
0.0
 11
7.038424135780459
 21
11.21119929779124
 31
0.0
  0
LINE
  5
4B31DE
330
4B1AC8
100
AcDbEntity
  8
XTHIN
100
AcDbLine
 10
6.858424135780438
 20
11.21879929779124
 30
0.0
 11
7.038424135780459
 21
11.21879929779124
 31
0.0
  0
LINE
  5
4B31DF
330
4B1AC8
100
AcDbEntity
  8
XTHIN
100
AcDbLine
 10
6.858424135780438
 20
11.22519929779123
 30
0.0
 11
7.038424135780459
 21
11.22519929779123
 31
0.0
  0
LINE
  5
4B31E0
330
4B1AC8
100
AcDbEntity
  8
XTHIN
100
AcDbLine
 10
6.858424135780438
 20
11.18479929779123
 30
0.0
 11
7.038424135780459
 21
11.18479929779123
 31
0.0
  0
LINE
  5
4B31E1
330
4B1AC8
100
AcDbEntity
  8
XTHIN
100
AcDbLine
 10
6.848824135780432
 20
11.23919929779122
 30
0.0
 11
7.048024135780437
 21
11.23919929779122
 31
0.0
  0
LINE
  5
4B31E2
330
4B1AC8
100
AcDbEntity
  8
XTHIN
100
AcDbLine
 10
6.848824135780432
 20
11.17719929779123
 30
0.0
 11
7.048024135780437
 21
11.17719929779123
 31
0.0
  0
LINE
  5
4B31E5
330
4B1AC8
100
AcDbEntity
  8
XTHIN
100
AcDbLine
 10
6.858424135780438
 20
11.22519929779123
 30
0.0
 11
6.858424135780438
 21
11.18479929779123
 31
0.0
  0
ARC
  5
4B31E6
330
4B1AC8
100
AcDbEntity
  8
XTHIN
100
AcDbCircle
 10
6.848824135780432
 20
11.20819929779122
 30
0.0
 40
0.0310000000000002
100
AcDbArc
 50
90.0
 51
270.0
  0
LINE
  5
4B31E9
330
4B1AC8
100
AcDbEntity
  8
XTHIN
100
AcDbLine
 10
7.038424135780459
 20
11.22519929779123
 30
0.0
 11
7.038424135780459
 21
11.18479929779123
 31
0.0
  0
ARC
  5
4B31EA
330
4B1AC8
100
AcDbEntity
  8
XTHIN
100
AcDbCircle
 10
6.948424135780427
 20
11.18479929779123
 30
0.0
 40
0.01
100
AcDbArc
 50
0.000000000000007
 51
180.0
  0
ARC
  5
4B31EB
330
4B1AC8
100
AcDbEntity
  8
XTHIN
100
AcDbCircle
 10
7.048024135780437
 20
11.20819929779122
 30
0.0
 40
0.0310000000000002
100
AcDbArc
 50
270.0
 51
89.99999999999351
  0
LINE
  5
4B31EE
330
4B1AC8
100
AcDbEntity
  8
DIM
100
AcDbLine
 10
9.096663047423689
 20
11.6257241680022
 30
0.0
 11
9.096663047423689
 21
10.05680670533581
 31
0.0
  0
LINE
  5
4B31EF
330
4B1AC8
100
AcDbEntity
  8
XTHIN
100
AcDbLine
 10
13.28586776544401
 20
11.37459195416224
 30
0.0
 11
13.94362661954132
 21
10.78339606051671
 31
0.0
  0
LINE
  5
4B31F7
330
4B1AC8
100
AcDbEntity
  8
DIM
100
AcDbLine
 10
9.096663047423689
 20
15.09327934004851
 30
0.0
 11
9.096663047423689
 21
13.52436187738212
 31
0.0
  0
CIRCLE
  5
4B31F8
330
4B1AC8
100
AcDbEntity
  8
DIM
100
AcDbCircle
 10
9.096663047423689
 20
11.8657241680022
 30
0.0
 40
0.24
  0
TEXT
  5
4B31F9
330
4B1AC8
100
AcDbEntity
  8
DIM
100
AcDbText
 10
9.029996380757022
 20
11.7657241680022
 30
0.0
 40
0.2
  1
2
 51
10.0
  7
SIMPLEX
 72
     1
 11
9.096663047423689
 21
11.8657241680022
 31
0.0
100
AcDbText
 73
     2
  0
CIRCLE
  5
4B31FB
330
4B1AC8
100
AcDbEntity
  8
DIM
100
AcDbCircle
 10
9.096663047423689
 20
15.3332793400485
 30
0.0
 40
0.24
  0
TEXT
  5
4B31FD
330
4B1AC8
100
AcDbEntity
  8
DIM
100
AcDbText
 10
9.072853523614165
 20
15.2332793400485
 30
0.0
 40
0.2
  1
1
 51
10.0
  7
SIMPLEX
 72
     1
 11
9.096663047423689
 21
15.3332793400485
 31
0.0
100
AcDbText
 73
     2
  0
LINE
  5
4B3201
330
4B1AC8
100
AcDbEntity
  8
XTHIN
100
AcDbLine
 10
13.02889307766242
 20
11.20719929779125
 30
0.0
 11
12.84889307766239
 21
11.20719929779125
 31
0.0
  0
LINE
  5
4B3202
330
4B1AC8
100
AcDbEntity
  8
XTHIN
100
AcDbLine
 10
13.02889307766242
 20
11.21119929779124
 30
0.0
 11
12.84889307766239
 21
11.21119929779124
 31
0.0
  0
LINE
  5
4B3203
330
4B1AC8
100
AcDbEntity
  8
XTHIN
100
AcDbLine
 10
13.02889307766242
 20
11.21879929779124
 30
0.0
 11
12.84889307766239
 21
11.21879929779124
 31
0.0
  0
LINE
  5
4B3204
330
4B1AC8
100
AcDbEntity
  8
XTHIN
100
AcDbLine
 10
13.02889307766242
 20
11.22519929779123
 30
0.0
 11
12.84889307766239
 21
11.22519929779123
 31
0.0
  0
LINE
  5
4B3205
330
4B1AC8
100
AcDbEntity
  8
XTHIN
100
AcDbLine
 10
13.02889307766242
 20
11.18479929779123
 30
0.0
 11
12.84889307766239
 21
11.18479929779123
 31
0.0
  0
LINE
  5
4B3206
330
4B1AC8
100
AcDbEntity
  8
XTHIN
100
AcDbLine
 10
13.03849307766242
 20
11.23919929779122
 30
0.0
 11
12.83929307766242
 21
11.23919929779122
 31
0.0
  0
LINE
  5
4B3207
330
4B1AC8
100
AcDbEntity
  8
XTHIN
100
AcDbLine
 10
13.03849307766242
 20
11.17719929779123
 30
0.0
 11
12.83929307766242
 21
11.17719929779123
 31
0.0
  0
ARC
  5
4B3208
330
4B1AC8
100
AcDbEntity
  8
XTHIN
100
AcDbCircle
 10
12.83929307766242
 20
11.20819929779122
 30
0.0
 40
0.0310000000000002
100
AcDbArc
 50
90.00000000000651
 51
270.0
  0
ARC
  5
4B3209
330
4B1AC8
100
AcDbEntity
  8
XTHIN
100
AcDbCircle
 10
12.93889307766242
 20
11.18479929779123
 30
0.0
 40
0.01
100
AcDbArc
 50
0.0
 51
180.0
  0
LINE
  5
4B320A
330
4B1AC8
100
AcDbEntity
  8
XTHIN
100
AcDbLine
 10
12.84889307766239
 20
11.22519929779123
 30
0.0
 11
12.84889307766239
 21
11.18479929779123
 31
0.0
  0
LINE
  5
4B320B
330
4B1AC8
100
AcDbEntity
  8
XTHIN
100
AcDbLine
 10
13.02889307766242
 20
11.22519929779123
 30
0.0
 11
13.02889307766242
 21
11.18479929779123
 31
0.0
  0
ARC
  5
4B320C
330
4B1AC8
100
AcDbEntity
  8
XTHIN
100
AcDbCircle
 10
13.03849307766242
 20
11.20819929779122
 30
0.0
 40
0.0310000000000002
100
AcDbArc
 50
270.0
 51
90.0
  0
LWPOLYLINE
  5
4B3689
330
4B1AC8
100
AcDbEntity
  8
10
100
AcDbPolyline
 90
        2
 70
     0
 43
0.0
 10
3.358234133715229
 20
18.90136759859944
 42
0.4931454260313043
 10
3.372723021109565
 20
18.88248531292293
  0
LWPOLYLINE
  5
4B36A7
330
4B1AC8
100
AcDbEntity
  8
XTHIN
100
AcDbPolyline
 90
        4
 70
     1
 43
0.0
 10
10.64663458330464
 20
14.66385545793077
 42
0.9999999999999998
 10
10.64327771368243
 20
14.64535758166511
 10
10.65557683353992
 20
14.64312562048013
 42
0.9999999999999998
 10
10.65893370316213
 20
14.66162349674578
  0
LWPOLYLINE
  5
4B36A8
330
4B1AC8
100
AcDbEntity
  8
XTHIN
100
AcDbPolyline
 90
        4
 70
     1
 43
0.0
 10
11.3310765828292
 20
14.47571659693319
 42
0.9999999999999998
 10
11.32447073613647
 20
14.45811538136516
 10
11.33617367201945
 20
14.45372319606414
 42
0.9999999999999998
 10
11.3427795187122
 20
14.47132441163217
  0
LWPOLYLINE
  5
4B36A9
330
4B1AC8
100
AcDbEntity
  8
XTHIN
100
AcDbPolyline
 90
        4
 70
     1
 43
0.0
 10
12.54561703472976
 20
13.75175151736234
 42
0.9999999999999998
 10
12.53324778668208
 20
13.73759377380147
 10
12.54266118000713
 20
13.72936953972722
 42
1.0
 10
12.55503042805479
 20
13.74352728328809
  0
LWPOLYLINE
  5
4B36AA
330
4B1AC8
100
AcDbEntity
  8
XTHIN
100
AcDbPolyline
 90
        4
 70
     1
 43
0.0
 10
13.03667915765443
 20
13.23919413212693
 42
0.9999999999999998
 10
13.02198072578403
 20
13.22747252385199
 10
13.02977434830725
 20
13.21769963032114
 42
0.9999999999999998
 10
13.04447278017767
 20
13.22942123859608
  0
LWPOLYLINE
  5
4B36AB
330
4B1AC8
100
AcDbEntity
  8
XTHIN
100
AcDbPolyline
 90
        4
 70
     1
 43
0.0
 10
11.97092582703035
 20
14.16838936672754
 42
1.000000000000048
 10
11.96128332061512
 20
14.15225052940783
 10
11.97201393053515
 20
14.14583928844026
 42
0.9999999999999998
 10
11.98165643695037
 20
14.16197812575997
  0
LWPOLYLINE
  5
4B36AC
330
4B1AC8
100
AcDbEntity
  8
XTHIN
100
AcDbPolyline
 90
        4
 70
     1
 43
0.0
 10
13.42832905512634
 20
12.64719122711642
 42
0.9999999999999166
 10
13.41177385912742
 20
12.63828249626193
 10
13.41769721740834
 20
12.62727505211372
 42
0.9999999999999168
 10
13.43425241340723
 20
12.63618378296821
  0
LWPOLYLINE
  5
4B36AD
330
4B1AC8
100
AcDbEntity
  8
XTHIN
100
AcDbPolyline
 90
        4
 70
     1
 43
0.0
 10
13.70797877719011
 20
11.99477026279944
 42
0.9999999999999998
 10
13.69009891468377
 20
11.98896074330519
 10
13.69396162711345
 20
11.9770725368515
 42
0.9999999999999998
 10
13.7118414896198
 20
11.98288205634574
  0
LWPOLYLINE
  5
4B36AE
330
4B1AC8
100
AcDbEntity
  8
XTHIN
100
AcDbPolyline
 90
        4
 70
     1
 43
0.0
 10
9.93959835748214
 20
14.72675901192666
 42
0.9999999999999998
 10
9.93959835748214
 20
14.70795901192666
 10
9.952098357482128
 20
14.70795901192666
 42
0.9999999999999998
 10
9.952098357482128
 20
14.72675901192666
  0
LWPOLYLINE
  5
4B36AF
330
4B1AC8
100
AcDbEntity
  8
XTHIN
100
AcDbPolyline
 90
        4
 70
     1
 43
0.0
 10
9.232692631410969
 20
14.66240548693821
 42
0.9999999999999998
 10
9.236049501033178
 20
14.64390761067256
 10
9.248348620890666
 20
14.64613957185754
 42
0.9999999999999998
 10
9.244991751268457
 20
14.66463744812319
  0
LWPOLYLINE
  5
4B36B0
330
4B1AC8
100
AcDbEntity
  8
XTHIN
100
AcDbPolyline
 90
        4
 70
     1
 43
0.0
 10
8.548637936771029
 20
14.47286325820881
 42
0.9999999999999666
 10
8.555243783463765
 20
14.45526204264079
 10
8.566946719346759
 20
14.4596542279418
 42
0.9999999999999998
 10
8.560340872654023
 20
14.47725544350983
  0
LWPOLYLINE
  5
4B36B1
330
4B1AC8
100
AcDbEntity
  8
XTHIN
100
AcDbPolyline
 90
        4
 70
     1
 43
0.0
 10
7.909420354290119
 20
14.16422436892569
 42
1.0
 10
7.919062860705352
 20
14.14808553160597
 10
7.929793470625369
 20
14.15449677257354
 42
0.9999999999999998
 10
7.920150964210151
 20
14.17063560989326
  0
LWPOLYLINE
  5
4B36B2
330
4B1AC8
100
AcDbEntity
  8
XTHIN
100
AcDbPolyline
 90
        4
 70
     1
 43
0.0
 10
7.33558486301915
 20
13.74640872693933
 42
0.9999999999999998
 10
7.34795411106684
 20
13.73225098337846
 10
7.357367504391888
 20
13.74047521745271
 42
1.0
 10
7.344998256344211
 20
13.75463296101357
  0
LWPOLYLINE
  5
4B36B3
330
4B1AC8
100
AcDbEntity
  8
XTHIN
100
AcDbPolyline
 90
        4
 70
     1
 43
0.0
 10
6.845575007801045
 20
13.23284527076302
 42
1.0
 10
6.860273439671431
 20
13.22112366248808
 10
6.868067062194668
 20
13.23089655601893
 42
0.9999999999999998
 10
6.853368630324254
 20
13.24261816429387
  0
LWPOLYLINE
  5
4B36B4
330
4B1AC8
100
AcDbEntity
  8
XTHIN
100
AcDbPolyline
 90
        4
 70
     1
 43
0.0
 10
6.455140108563881
 20
12.6400403524397
 42
0.9999999999999166
 10
6.471695304562785
 20
12.63113162158521
 10
6.477618662843696
 20
12.64213906573342
 42
0.9999999999999996
 10
6.461063466844777
 20
12.65104779658791
  0
LWPOLYLINE
  5
4B36B5
330
4B1AC8
100
AcDbEntity
  8
XTHIN
100
AcDbPolyline
 90
        4
 70
     1
 43
0.0
 10
6.1768290642201
 20
11.98704720980579
 42
0.9999999999999996
 10
6.194708926726434
 20
11.98123769031154
 10
6.198571639156128
 20
11.99312589676523
 42
1.0
 10
6.180691776649766
 20
11.99893541625948
  0
LWPOLYLINE
  5
4B36B6
330
4B1AC8
100
AcDbEntity
  8
XTHIN
100
AcDbPolyline
 90
        4
 70
     1
 43
0.0
 10
13.86664015168207
 20
11.3029005857829
 42
1.000000000000093
 10
13.84801029616085
 20
11.30037700038553
 10
13.84968821198356
 20
11.28799012836343
 42
0.9999999999999996
 10
13.8683180675048
 20
11.2905137137608
  0
LWPOLYLINE
  5
4B36B7
330
4B1AC8
100
AcDbEntity
  8
XTHIN
100
AcDbPolyline
 90
        4
 70
     1
 43
0.0
 10
13.1530586067215
 20
10.82679929779124
 42
0.9999999999999998
 10
13.1530586067215
 20
10.80799929779124
 10
13.16555860672145
 20
10.80799929779124
 42
0.9999999999999998
 10
13.16555860672145
 20
10.82679929779124
  0
LWPOLYLINE
  5
4B36B8
330
4B1AC8
100
AcDbEntity
  8
XTHIN
100
AcDbPolyline
 90
        4
 70
     1
 43
0.0
 10
11.55305860672143
 20
10.82679929779123
 42
0.9999999999999998
 10
11.55305860672143
 20
10.80799929779123
 10
11.56555860672144
 20
10.80799929779123
 42
0.9999999999999998
 10
11.56555860672144
 20
10.82679929779123
  0
LWPOLYLINE
  5
4B36B9
330
4B1AC8
100
AcDbEntity
  8
XTHIN
100
AcDbPolyline
 90
        4
 70
     1
 43
0.0
 10
10.75305860672142
 20
10.82679929779123
 42
0.9999999999999998
 10
10.75305860672142
 20
10.80799929779123
 10
10.76555860672141
 20
10.80799929779123
 42
0.9999999999999998
 10
10.76555860672141
 20
10.82679929779123
  0
LWPOLYLINE
  5
4B36BA
330
4B1AC8
100
AcDbEntity
  8
XTHIN
100
AcDbPolyline
 90
        4
 70
     1
 43
0.0
 10
12.35305860672144
 20
10.82679929779123
 42
0.9999999999999998
 10
12.35305860672144
 20
10.80799929779123
 10
12.36555860672148
 20
10.80799929779123
 42
0.9999999999999998
 10
12.36555860672148
 20
10.82679929779123
  0
LWPOLYLINE
  5
4B36BB
330
4B1AC8
100
AcDbEntity
  8
XTHIN
100
AcDbPolyline
 90
        4
 70
     1
 43
0.0
 10
9.953058606721427
 20
10.82679929779123
 42
0.9999999999999998
 10
9.953058606721427
 20
10.80799929779123
 10
9.965558606721458
 20
10.80799929779123
 42
0.9999999999999998
 10
9.965558606721458
 20
10.82679929779123
  0
LWPOLYLINE
  5
4B36BC
330
4B1AC8
100
AcDbEntity
  8
XTHIN
100
AcDbPolyline
 90
        4
 70
     1
 43
0.0
 10
9.15305860672143
 20
10.82679929779123
 42
0.9999999999999998
 10
9.15305860672143
 20
10.80799929779123
 10
9.165558606721418
 20
10.80799929779123
 42
0.9999999999999998
 10
9.165558606721418
 20
10.82679929779123
  0
LWPOLYLINE
  5
4B36BD
330
4B1AC8
100
AcDbEntity
  8
XTHIN
100
AcDbPolyline
 90
        4
 70
     1
 43
0.0
 10
8.353058606721432
 20
10.82679929779123
 42
0.9999999999999998
 10
8.353058606721432
 20
10.80799929779123
 10
8.365558606721421
 20
10.80799929779123
 42
0.9999999999999998
 10
8.365558606721421
 20
10.82679929779123
  0
LWPOLYLINE
  5
4B36BE
330
4B1AC8
100
AcDbEntity
  8
XTHIN
100
AcDbPolyline
 90
        4
 70
     1
 43
0.0
 10
7.553058606721435
 20
10.82679929779123
 42
0.9999999999999998
 10
7.553058606721435
 20
10.80799929779123
 10
7.565558606721424
 20
10.80799929779123
 42
0.9999999999999998
 10
7.565558606721424
 20
10.82679929779123
  0
LWPOLYLINE
  5
4B36BF
330
4B1AC8
100
AcDbEntity
  8
XTHIN
100
AcDbPolyline
 90
        4
 70
     1
 43
0.0
 10
6.019587020729971
 20
11.29485357975008
 42
0.9999999999999996
 10
6.038216876251198
 20
11.29232999435271
 10
6.039894792073923
 20
11.30471686637481
 42
1.000000000000093
 10
6.021264936552682
 20
11.30724045177218
  0
LWPOLYLINE
  5
4B36C1
330
4B1AC8
100
AcDbEntity
  8
XTHIN
100
AcDbPolyline
 90
        4
 70
     1
 43
0.0
 10
6.753058606721424
 20
10.82679929779123
 42
0.9999999999999998
 10
6.753058606721424
 20
10.80799929779123
 10
6.765558606721413
 20
10.80799929779123
 42
0.9999999999999998
 10
6.765558606721413
 20
10.82679929779123
  0
LWPOLYLINE
  5
4B36C2
330
4B1AC8
100
AcDbEntity
  8
CYAN
100
AcDbPolyline
 90
        2
 70
     0
 43
0.0
 10
1.904723021109627
 20
14.49677473972658
 10
1.904723021109627
 20
18.40348531292289
  0
LWPOLYLINE
  5
4B36C3
330
4B1AC8
100
AcDbEntity
  8
CYAN
100
AcDbPolyline
 90
        2
 70
     0
 43
0.0
 10
2.029723021109627
 20
14.48142537731629
 10
2.029723021109627
 20
18.40348531292289
  0
LWPOLYLINE
  5
4B36C4
330
4B1AC8
100
AcDbEntity
  8
DIM
100
AcDbPolyline
 90
        4
 70
     0
 43
0.0
 10
2.960644869976216
 20
14.45203384189212
 10
2.239896833829955
 20
14.5356482905582
 10
2.35668244782246
 20
14.44127642744379
 10
1.80756206428587
 20
14.50870560963388
  0
LWPOLYLINE
  5
4B36C5
330
4B1AC8
100
AcDbEntity
  8
DIM
100
AcDbPolyline
 90
        4
 70
     0
 43
0.0
 10
2.963385041935647
 20
14.3269961270985
 10
2.414314151310203
 20
14.39069419840197
 10
2.531099765302736
 20
14.29632233528755
 10
1.810351729156475
 20
14.3848265177938
  0
LWPOLYLINE
  5
4B36C8
330
4B1AC8
100
AcDbEntity
  8
vent
100
AcDbPolyline
 90
        5
 70
     0
 43
0.0
 10
1.408723021109554
 20
10.06948531292288
 10
1.438723021109555
 20
10.06948531292288
 10
1.517723021109552
 20
10.11948531292288
 10
1.575723021109555
 20
10.29448531292288
 10
1.575723021109555
 20
10.33948531292288
  0
LWPOLYLINE
  5
4B36C9
330
4B1AC8
100
AcDbEntity
  8
DIM
100
AcDbPolyline
 90
        4
 70
     1
 43
0.0
 10
1.473723021109537
 20
10.27448531292288
 10
1.473723021109541
 20
10.23948531292288
 42
0.9999999999999701
 10
1.533723021109543
 20
10.23948531292288
 10
1.53372302110954
 20
10.27448531292288
  0
LWPOLYLINE
  5
4B36CA
330
4B1AC8
100
AcDbEntity
  8
vent
100
AcDbPolyline
 90
        4
 70
     0
 43
0.0
 10
1.408723021109554
 20
10.35848531292288
 10
1.370723021109554
 20
10.35848531292288
 10
1.370723021109554
 20
10.05048531292288
 10
1.408723021109554
 20
10.05048531292288
  0
LWPOLYLINE
  5
4B36D0
330
4B1AC8
100
AcDbEntity
  8
CYAN
100
AcDbPolyline
 90
        2
 70
     0
 43
0.0
 10
1.904723021109627
 20
14.37323820450333
 10
1.904723021109627
 20
10.27848531292289
  0
LWPOLYLINE
  5
4B36D1
330
4B1AC8
100
AcDbEntity
  8
CYAN
100
AcDbPolyline
 90
        2
 70
     0
 43
0.0
 10
2.029723021109627
 20
14.35788884209304
 10
2.029723021109627
 20
10.27848531292289
  0
LWPOLYLINE
  5
4B36DB
330
4B1AC8
100
AcDbEntity
  8
10
100
AcDbPolyline
 90
        2
 70
     0
 43
0.0
 10
3.372723021109565
 20
10.07448531292282
 42
0.4931454260313044
 10
3.358234133715229
 20
10.05560302724631
  0
LWPOLYLINE
  5
4B370C
330
4B1AC8
100
AcDbEntity
  8
10
100
AcDbPolyline
 90
        2
 70
     0
 43
0.0
 10
11.89945141319983
 20
3.282176819615287
 42
0.4931454260313135
 10
11.88056912752332
 20
3.267687932220966
  0
LWPOLYLINE
  5
4B3734
330
4B1AC8
100
AcDbEntity
  8
10
100
AcDbPolyline
 90
        7
 70
     0
 43
0.0
 10
5.553686841846712
 20
3.282176819615316
 10
5.493451413199835
 20
3.266036785153588
 42
-0.4931454260309855
 10
5.474569127523324
 20
3.280525672547938
 10
5.474569127523324
 20
3.818687932220953
 42
-0.4142135623732336
 10
5.48956912752331
 20
3.83368793222094
 10
5.557569127523294
 20
3.83368793222094
 42
-0.414213562373234
 10
5.57256912752328
 20
3.818687932220953
  0
LWPOLYLINE
  5
4B373A
330
4B1AC8
100
AcDbEntity
  8
10
100
AcDbPolyline
 90
        3
 70
     0
 43
0.0
 10
5.57256912752328
 20
3.676187932220969
 42
0.9999999999999998
 10
5.651569127523288
 20
3.676187932220969
 10
5.651569127523231
 20
4.734549985663036
  0
LWPOLYLINE
  5
4B373C
330
4B1AC8
100
AcDbEntity
  8
10
100
AcDbPolyline
 90
        2
 70
     0
 43
0.0
 10
5.572569127523223
 20
3.267687932220966
 42
0.4931454260313135
 10
5.553686841846712
 20
3.282176819615287
  0
LWPOLYLINE
  5
4B375C
330
4B1AC8
100
AcDbEntity
  8
DIM
100
AcDbPolyline
 90
        4
 70
     0
 43
0.0
 10
8.715811713074941
 20
3.679766083354341
 10
8.632197264408858
 20
4.400514119500574
 10
8.726569127523276
 20
4.283728505508097
 10
8.65913994533318
 20
4.832848889044672
  0
LWPOLYLINE
  5
4B375D
330
4B1AC8
100
AcDbEntity
  8
DIM
100
AcDbPolyline
 90
        4
 70
     0
 43
0.0
 10
8.79026719882674
 20
3.67702591139491
 10
8.726569127523276
 20
4.226096802020354
 10
8.820940990637694
 20
4.10931118802782
 10
8.732436808131438
 20
4.830059224174053
  0
LWPOLYLINE
  5
4B3760
330
4B1AC8
100
AcDbEntity
  8
CYAN
100
AcDbPolyline
 90
        4
 70
     0
 43
0.0
 10
8.744025121421913
 20
4.735687932220915
 10
11.50781912752323
 20
4.735687932220915
 10
11.50781912752323
 20
4.610687932220915
 10
8.759374483832203
 20
4.610687932220915
  0
LINE
  5
4B3824
330
4B1AC8
100
AcDbEntity
  8
THIN
100
AcDbLine
 10
5.57256912752328
 20
3.818687932220953
 30
0.0
 11
5.57256912752328
 21
3.676187932220969
 31
0.0
  0
INSERT
  5
4B3835
330
4B1AC8
100
AcDbEntity
  8
THIN
100
AcDbBlockReference
  2
Glazing Bead
 10
11.67656912752333
 20
3.860687932220992
 30
0.0
 50
90.0
1001
MTVPROFILELINK
1002
{
1000
#BlockRef=13b2f151-0x4b1c-4f74-A1E9-79DCC11120FF|
1002
}
1005
AA
  0
INSERT
  5
4B3837
330
4B1AC8
100
AcDbEntity
  8
THIN
100
AcDbBlockReference
  2
Glazing Bead
 10
5.776569127523258
 20
3.860687932220992
 30
0.0
 41
-1.0
 50
270.0
1001
MTVPROFILELINK
1002
{
1000
#BlockRef=13b2f151-0x4b1c-4f74-A1E9-79DCC11120FF| 
1002
}
1005
0
  0
INSERT
  5
4B3838
330
4B1AC8
100
AcDbEntity
  8
THIN
100
AcDbBlockReference
  2
Glazing Bead
 10
2.779723021109524
 20
10.27848531292279
 30
0.0
 41
-1.0
1001
MTVPROFILELINK
1002
{
1000
#BlockRef=13b2f151-0x4b1c-4f74-A1E9-79DCC11120FF| 
1002
}
1005
0
  0
INSERT
  5
4B383A
330
4B1AC8
100
AcDbEntity
  8
THIN
100
AcDbBlockReference
  2
Glazing Bead
 10
2.779723021109524
 20
18.67848531292293
 30
0.0
 50
180.0
1001
MTVPROFILELINK
1002
{
1000
#BlockRef=13b2f151-0x4b1c-4f74-A1E9-79DCC11120FF| 
1002
}
1005
0
  0
LINE
  5
4B3858
330
4B1AC8
100
AcDbEntity
  8
CYAN
100
AcDbLine
 10
5.945319127523254
 20
4.735687932220915
 30
0.0
 11
5.945319127523254
 21
4.610687932220915
 31
0.0
  0
LINE
  5
4B3860
330
4B1AC8
100
AcDbEntity
  8
CYAN
100
AcDbLine
 10
5.945319127523254
 20
3.860687932220888
 30
0.0
 11
5.945319127523254
 21
3.985687932220887
 31
0.0
  0
LINE
  5
4B3866
330
4B1AC8
100
AcDbEntity
  8
CYAN
100
AcDbLine
 10
11.50781912752323
 20
3.860687932220888
 30
0.0
 11
11.50781912752323
 21
3.985687932220888
 31
0.0
  0
INSERT
  5
4B3885
330
4B1AC8
100
AcDbEntity
  8
THIN
100
AcDbBlockReference
  2
Reinforced Bytyl Spacer
 10
5.945319127523254
 20
4.610687932220915
 30
0.0
1001
MTVPROFILELINK
1002
{
1000
#BlockRef=5294f65e-0x2a6f-49f8-9DBD-D9FC677B36F6|
1002
}
1005
AA
  0
INSERT
  5
4B3887
330
4B1AC8
100
AcDbEntity
  8
THIN
100
AcDbBlockReference
  2
Reinforced Bytyl Spacer
 10
11.50781912752323
 20
4.610687932220915
 30
0.0
 41
-1.0
1001
MTVPROFILELINK
1002
{
1000
#BlockRef=5294f65e-0x2a6f-49f8-9DBD-D9FC677B36F6| 
1002
}
1005
0
  0
INSERT
  5
4B3891
330
4B1AC8
100
AcDbEntity
  8
THIN
100
AcDbBlockReference
  2
Weather Seal
 10
11.20502619320344
 20
4.837687932220958
 30
0.0
1001
MTVPROFILELINK
1002
{
1000
#BlockRef=dbadb4fc-0xc76d-43c6-BEA3-0F179EB77B8A|
1002
}
1005
AA
  0
INSERT
  5
4B3893
330
4B1AC8
100
AcDbEntity
  8
THIN
100
AcDbBlockReference
  2
Weather Seal
 10
6.248112061843121
 20
4.83768793222079
 30
0.0
 41
-1.0
 50
0.0000000000956835
1001
MTVPROFILELINK
1002
{
1000
#BlockRef=dbadb4fc-0xc76d-43c6-BEA3-0F179EB77B8A| 
1002
}
1005
0
  0
INSERT
  5
4B389F
330
4B1AC8
100
AcDbEntity
  8
THIN
100
AcDbBlockReference
  2
Silicon Horizontal Small
 10
5.945319127523254
 20
4.735687932220915
 30
0.0
1001
MTVPROFILELINK
1002
{
1000
#BlockRef=2700c0d9-0xb1e-4ead-828B-0BE682CF338B|
1002
}
1005
AA
  0
INSERT
  5
4B38A1
330
4B1AC8
100
AcDbEntity
  8
THIN
100
AcDbBlockReference
  2
Silicon Horizontal Small
 10
11.50781912752323
 20
4.735687932220915
 30
0.0
 41
-1.0
1001
MTVPROFILELINK
1002
{
1000
#BlockRef=2700c0d9-0xb1e-4ead-828B-0BE682CF338B| 
1002
}
1005
0
  0
INSERT
  5
4B38A3
330
4B1AC8
100
AcDbEntity
  8
THIN
100
AcDbBlockReference
  2
Weather Seal
 10
1.802723021109539
 20
10.75002824724253
 30
0.0
 41
-1.0
 50
90.0
1001
MTVPROFILELINK
1002
{
1000
#BlockRef=dbadb4fc-0xc76d-43c6-BEA3-0F179EB77B8A| 
1002
}
1005
0
  0
INSERT
  5
4B38A4
330
4B1AC8
100
AcDbEntity
  8
THIN
100
AcDbBlockReference
  2
Weather Seal
 10
1.802723021109557
 20
18.20694237860302
 30
0.0
 50
90.0
1001
MTVPROFILELINK
1002
{
1000
#BlockRef=dbadb4fc-0xc76d-43c6-BEA3-0F179EB77B8A| 
1002
}
1005
0
  0
LINE
  5
4B38B1
330
4B1AC8
100
AcDbEntity
  8
CYAN
100
AcDbLine
 10
2.779723021109641
 20
10.27848531292289
 30
0.0
 11
2.654723021109641
 21
10.27848531292289
 31
0.0
  0
LINE
  5
4B38B7
330
4B1AC8
100
AcDbEntity
  8
CYAN
100
AcDbLine
 10
1.904723021109627
 20
10.27848531292289
 30
0.0
 11
2.029723021109627
 21
10.27848531292289
 31
0.0
  0
LINE
  5
4B38BD
330
4B1AC8
100
AcDbEntity
  8
CYAN
100
AcDbLine
 10
1.904723021109627
 20
18.40348531292289
 30
0.0
 11
2.029723021109627
 21
18.40348531292289
 31
0.0
  0
LINE
  5
4B38C3
330
4B1AC8
100
AcDbEntity
  8
CYAN
100
AcDbLine
 10
2.779723021109641
 20
18.40348531292289
 30
0.0
 11
2.654723021109641
 21
18.40348531292289
 31
0.0
  0
INSERT
  5
4B38C6
330
4B1AC8
100
AcDbEntity
  8
THIN
100
AcDbBlockReference
  2
Reinforced Bytyl Spacer
 10
2.029723021109628
 20
10.27848531292289
 30
0.0
 50
90.0
1001
MTVPROFILELINK
1002
{
1000
#BlockRef=5294f65e-0x2a6f-49f8-9DBD-D9FC677B36F6| 
1002
}
1005
0
  0
INSERT
  5
4B38C7
330
4B1AC8
100
AcDbEntity
  8
THIN
100
AcDbBlockReference
  2
Reinforced Bytyl Spacer
 10
2.029723021109613
 20
18.40348531292293
 30
0.0
 41
-1.0
 50
90.0
1001
MTVPROFILELINK
1002
{
1000
#BlockRef=5294f65e-0x2a6f-49f8-9DBD-D9FC677B36F6| 
1002
}
1005
0
  0
INSERT
  5
4B38D4
330
4B1AC8
100
AcDbEntity
  8
THIN
100
AcDbBlockReference
  2
Silicon Vertical Bottom
 10
1.904723021109627
 20
10.27848531292289
 30
0.0
1001
MTVPROFILELINK
1002
{
1000
#BlockRef=43cfe8ea-0x622d-4913-95E0-B1FCB226BC51|
1002
}
1005
AA
  0
INSERT
  5
4B38E0
330
4B1AC8
100
AcDbEntity
  8
THIN
100
AcDbBlockReference
  2
Silicon Small Vertical Top
 10
1.904723021109627
 20
18.40348531292289
 30
0.0
 41
-1.0
1001
MTVPROFILELINK
1002
{
1000
#BlockRef=dd5988cd-0xe1ef-42b2-8E76-4BD449D000C6|
1002
}
1005
AA
  0
LWPOLYLINE
  5
4B392A
330
4B1AC8
100
AcDbEntity
  8
10
100
AcDbPolyline
 90
        8
 70
     1
 43
0.0
 10
4.83956912752331
 20
3.30168793222097
 10
5.361569127523315
 20
3.301687932220973
 42
0.4142135623730857
 10
5.376569127523316
 20
3.316687932220974
 10
5.376569127523316
 20
3.836687932220967
 42
0.4142135623730953
 10
5.361569127523315
 20
3.851687932220968
 10
4.839569127523352
 20
3.851687932220968
 42
0.4142135623730839
 10
4.824569127523352
 20
3.836687932220967
 10
4.824569127523309
 20
3.31668793222097
 42
0.4142135623731205
  0
LWPOLYLINE
  5
4B392B
330
4B1AC8
100
AcDbEntity
  8
10
100
AcDbPolyline
 90
        8
 70
     1
 43
0.0
 10
4.824569127523322
 20
5.150687932220918
 42
-0.4142135623730951
 10
4.839569127523323
 20
5.165687932220919
 10
5.458569127523328
 20
5.165687932220961
 42
-0.4142135623731151
 10
5.473569127523329
 20
5.150687932220961
 10
5.473569127523329
 20
4.932687932220958
 42
-0.4142135623729563
 10
5.458569127523314
 20
4.917687932220951
 10
4.83956912752331
 20
4.917687932220972
 42
-0.4142135623732337
 10
4.824569127523323
 20
4.932687932220972
  0
LWPOLYLINE
  5
4B392F
330
4B1AC8
100
AcDbEntity
  8
10
100
AcDbPolyline
 90
       12
 70
     1
 43
0.0
 10
5.25356912752334
 20
3.006687932220971
 10
5.4595691275233
 20
3.006687932220982
 42
0.4142135623730906
 10
5.474569127523301
 20
3.021687932220983
 10
5.474569127523315
 20
3.139687932220974
 42
0.4142135623731157
 10
5.459569127523314
 20
3.154687932220975
 10
5.391569127523331
 20
3.154687932220971
 42
-0.4142135623730701
 10
5.37656912752333
 20
3.169687932220972
 10
5.376569127523316
 20
3.206687932220964
 42
0.414213562373009
 10
5.361569127523315
 20
3.221687932220961
 10
5.253569127523297
 20
3.221687932220972
 42
0.4142135623731397
 10
5.238569127523296
 20
3.206687932220972
 10
5.238569127523339
 20
3.021687932220972
 42
0.4142135623730836
  0
LWPOLYLINE
  5
4B3930
330
4B1AC8
100
AcDbEntity
  8
10
100
AcDbPolyline
 90
        8
 70
     1
 43
0.0
 10
5.568569127523316
 20
4.965687932220984
 42
-0.4142135623730984
 10
5.553569127523315
 20
4.980687932220985
 10
5.553569127523315
 20
5.118687932220976
 42
-0.4142135623730951
 10
5.568569127523316
 20
5.133687932220976
 10
6.157289196063825
 20
5.133687932220944
 42
-0.3394542588633731
 10
6.171778083458161
 20
5.122570217897483
 10
6.20875507201366
 20
4.984570217897485
 42
-0.4931454260313063
 10
6.194266184619324
 20
4.965687932220945
  0
LWPOLYLINE
  5
4B3931
330
4B1AC8
100
AcDbEntity
  8
10
100
AcDbPolyline
 90
        8
 70
     1
 43
0.0
 10
5.214959873407855
 20
6.054758484581794
 42
0.3394542588634429
 10
5.207232466797541
 20
6.060687932220977
 10
5.194569127523329
 20
6.060687932220977
 42
0.4142135623729975
 10
5.186569127523333
 20
6.052687932220974
 10
5.186569127523304
 20
5.260687932220922
 42
0.4142135623731549
 10
5.201569127523307
 20
5.245687932220922
 10
5.412201293940129
 20
5.245687932220957
 42
0.4931454260312531
 10
5.426690181334462
 20
5.264570217897494
  0
LWPOLYLINE
  5
4B3932
330
4B1AC8
100
AcDbEntity
  8
10
100
AcDbPolyline
 90
       12
 70
     1
 43
0.0
 10
5.542415648008705
 20
4.588256683777728
 42
-0.3401424000459158
 10
5.553569127523338
 20
4.573758260409801
 10
5.553569127523322
 20
3.946687932220973
 42
-0.4142135623730951
 10
5.538569127523322
 20
3.931687932220972
 10
4.839569127523324
 20
3.931687932220969
 42
-0.4142135623730951
 10
4.824569127523323
 20
3.946687932220969
 10
4.824569127523309
 20
4.822687932220985
 42
-0.4142135623730951
 10
4.83956912752331
 20
4.837687932220985
 10
5.440569127523323
 20
4.837687932220985
 42
-0.4142135623731213
 10
5.455569127523323
 20
4.822687932220985
 10
5.455569127523295
 20
4.622836934341981
 42
0.3401424000459496
 10
5.466722607037928
 20
4.608338510974052
  0
LWPOLYLINE
  5
4B3934
330
4B1AC8
100
AcDbEntity
  8
10
100
AcDbPolyline
 90
       65
 70
     1
 43
0.0
 10
5.553569127523281
 20
4.69822726918708
 10
5.553569127523298
 20
4.852687932220995
 42
-0.4142135623730864
 10
5.568569127523299
 20
4.867687932220992
 10
6.240073586070192
 20
4.867687932220953
 10
6.248112061843123
 20
4.837687932220959
 10
6.349569127523311
 20
4.837687932220959
 10
6.255913076004052
 20
5.187217074927088
 42
0.3394542588633526
 10
6.197957526426712
 20
5.231687932220935
 10
5.548467933726645
 20
5.231687932220983
 42
-0.3394542588633642
 10
5.53397904633231
 20
5.242805646544445
 10
5.30048505782191
 20
6.114217074927162
 42
0.3394542588634112
 10
5.242529508244557
 20
6.158687932221011
 10
4.541569127523322
 20
6.158687932220919
 42
0.4142135623730951
 10
4.526569127523321
 20
6.143687932220919
 10
4.526569127523323
 20
6.088687932220984
 42
0.4142135623730688
 10
4.556569127523321
 20
6.058687932220984
 10
4.616569127523328
 20
6.058687932220979
 42
0.41421356237303
 10
4.624569127523328
 20
6.06668793222098
 10
4.624569127523333
 20
6.090687932220959
 42
-0.4142135623729325
 10
4.63256912752333
 20
6.098687932220952
 10
4.655549889636859
 20
6.098687932220966
 42
-0.131652497587552
 10
4.663049889636868
 20
6.096678313277732
 10
4.721906296097434
 20
6.06269755116419
 42
0.131652497587376
 10
4.729406296097432
 20
6.060687932220954
 10
5.073569127523319
 20
6.06068793222092
 42
-0.4142135623732339
 10
5.088569127523306
 20
6.04568793222092
 10
5.088569127523319
 20
5.260687932220937
 42
-0.4142135623730951
 10
5.073569127523319
 20
5.245687932220937
 10
3.521569127523341
 20
5.245687932220923
 42
0.9999999999999998
 10
3.521569127523341
 20
5.165687932220911
 10
4.711569127523324
 20
5.165687932220924
 42
-0.4142135623730951
 10
4.726569127523324
 20
5.150687932220924
 10
4.72656912752331
 20
2.923687932220977
 42
0.4142135623729564
 10
4.741569127523325
 20
2.908687932220969
 10
4.908569127523326
 20
2.908687932220976
 42
0.4142135623732338
 10
4.923569127523313
 20
2.923687932220977
 10
4.923569127523313
 20
2.991687932220974
 42
0.4142135623732338
 10
4.908569127523326
 20
3.006687932220968
 10
4.83956912752331
 20
3.006687932220975
 42
-0.4142135623732337
 10
4.824569127523323
 20
3.021687932220975
 10
4.824569127523323
 20
3.188687932220977
 42
-0.4142135623732337
 10
4.83956912752331
 20
3.203687932220971
 10
5.125569127523311
 20
3.203687932220978
 42
-0.4142135623729561
 10
5.140569127523326
 20
3.188687932220977
 10
5.140569127523326
 20
3.021687932220975
 42
-0.4142135623729563
 10
5.125569127523311
 20
3.006687932220968
 10
5.056569127523323
 20
3.006687932220975
 42
0.4142135623729563
 10
5.041569127523308
 20
2.991687932220974
 10
5.041569127523308
 20
2.923687932220977
 42
0.4142135623729564
 10
5.056569127523323
 20
2.908687932220969
 10
5.512569127523314
 20
2.908687932220972
 42
0.4142135623730864
 10
5.572569127523314
 20
2.968687932220972
 10
5.572569127523314
 20
3.267687932220956
 42
0.4931454260309717
 10
5.553686841846774
 20
3.282176819615306
 10
5.493451413199869
 20
3.266036785153607
 42
-0.4931454260309717
 10
5.474569127523329
 20
3.280525672547957
 10
5.474569127523329
 20
3.818687932220973
 42
-0.414213562373234
 10
5.489569127523315
 20
3.833687932220973
 10
5.557569127523327
 20
3.833687932220973
 42
-0.4142135623732339
 10
5.572569127523314
 20
3.818687932220973
 10
5.572569127523314
 20
3.676187932220974
 42
0.9999999999999998
 10
5.651569127523321
 20
3.676187932220974
 10
5.651569127523321
 20
4.649148595254902
 42
0.3401424000459107
 10
5.640415648008688
 20
4.663647018622829
 10
5.564722607037913
 20
4.683728845819151
 42
-0.3401424000459436
  0
ARC
  5
4B3935
330
4B1AC8
100
AcDbEntity
  8
10
100
AcDbCircle
 10
4.82456912752333
 20
3.576687932220969
 30
0.0
 40
0.015
100
AcDbArc
 50
270.0
 51
90.0
  0
LINE
  5
4B3938
330
4B1AC8
100
AcDbEntity
  8
CENTER
  6
CENTER2
 48
0.4
100
AcDbLine
 10
3.73156912752332
 20
4.888131759164911
 30
0.0
 11
3.73156912752332
 21
5.516882243042934
 31
0.0
  0
LINE
  5
4B3939
330
4B1AC8
100
AcDbEntity
  8
HIDDEN
  6
HIDDEN
 48
0.125
100
AcDbLine
 10
3.637569127523312
 20
5.165687932220904
 30
0.0
 11
3.637569127523312
 21
5.245687932220923
 31
0.0
  0
LINE
  5
4B393A
330
4B1AC8
100
AcDbEntity
  8
HIDDEN
  6
HIDDEN
 48
0.125
100
AcDbLine
 10
3.825569127523314
 20
5.165687932220911
 30
0.0
 11
3.825569127523314
 21
5.245687932220923
 31
0.0
  0
ARC
  5
4B3941
330
4B1AC8
100
AcDbEntity
  8
10
100
AcDbCircle
 10
4.82456912752333
 20
3.576687932220969
 30
0.0
 40
0.015
100
AcDbArc
 50
270.0
 51
90.0
  0
LWPOLYLINE
  5
4B3943
330
4B1AC8
100
AcDbEntity
  8
10
100
AcDbPolyline
 90
        8
 70
     1
 43
0.0
 10
12.61356912752326
 20
3.301687932220969
 10
12.09156912752325
 20
3.301687932220972
 42
-0.4142135623730857
 10
12.07656912752325
 20
3.316687932220973
 10
12.07656912752325
 20
3.836687932220966
 42
-0.4142135623730953
 10
12.09156912752325
 20
3.851687932220967
 10
12.61356912752322
 20
3.851687932220967
 42
-0.4142135623730839
 10
12.62856912752322
 20
3.836687932220966
 10
12.62856912752326
 20
3.316687932220969
 42
-0.4142135623731205
  0
LWPOLYLINE
  5
4B3944
330
4B1AC8
100
AcDbEntity
  8
10
100
AcDbPolyline
 90
        8
 70
     1
 43
0.0
 10
12.62856912752324
 20
5.150687932220917
 42
0.4142135623730951
 10
12.61356912752324
 20
5.165687932220918
 10
11.99456912752324
 20
5.165687932220961
 42
0.4142135623731151
 10
11.97956912752323
 20
5.15068793222096
 10
11.97956912752323
 20
4.932687932220957
 42
0.4142135623729563
 10
11.99456912752325
 20
4.91768793222095
 10
12.61356912752326
 20
4.917687932220971
 42
0.4142135623732337
 10
12.62856912752324
 20
4.932687932220972
  0
LWPOLYLINE
  5
4B3945
330
4B1AC8
100
AcDbEntity
  8
10
100
AcDbPolyline
 90
       12
 70
     1
 43
0.0
 10
12.19956912752323
 20
3.00668793222097
 10
11.99356912752327
 20
3.006687932220981
 42
-0.4142135623730906
 10
11.97856912752327
 20
3.021687932220982
 10
11.97856912752325
 20
3.139687932220973
 42
-0.4142135623731157
 10
11.99356912752325
 20
3.154687932220974
 10
12.06156912752324
 20
3.15468793222097
 42
0.4142135623730701
 10
12.07656912752324
 20
3.169687932220971
 10
12.07656912752325
 20
3.206687932220964
 42
-0.414213562373009
 10
12.09156912752325
 20
3.221687932220961
 10
12.19956912752327
 20
3.221687932220971
 42
-0.4142135623731397
 10
12.21456912752327
 20
3.206687932220971
 10
12.21456912752323
 20
3.021687932220971
 42
-0.4142135623730836
  0
LWPOLYLINE
  5
4B3946
330
4B1AC8
100
AcDbEntity
  8
10
100
AcDbPolyline
 90
        8
 70
     1
 43
0.0
 10
11.88456912752325
 20
4.965687932220983
 42
0.4142135623730984
 10
11.89956912752325
 20
4.980687932220984
 10
11.89956912752325
 20
5.118687932220975
 42
0.4142135623730951
 10
11.88456912752325
 20
5.133687932220976
 10
11.29584905898274
 20
5.133687932220944
 42
0.3394542588633731
 10
11.28136017158841
 20
5.122570217897482
 10
11.2443831830329
 20
4.984570217897484
 42
0.4931454260313063
 10
11.25887207042724
 20
4.965687932220944
  0
LWPOLYLINE
  5
4B3947
330
4B1AC8
100
AcDbEntity
  8
10
100
AcDbPolyline
 90
        8
 70
     1
 43
0.0
 10
12.23817838163871
 20
6.054758484581793
 42
-0.3394542588634429
 10
12.24590578824902
 20
6.060687932220976
 10
12.25856912752324
 20
6.060687932220976
 42
-0.4142135623729975
 10
12.26656912752323
 20
6.052687932220973
 10
12.26656912752326
 20
5.260687932220921
 42
-0.4142135623731549
 10
12.25156912752326
 20
5.245687932220921
 10
12.04093696110644
 20
5.245687932220956
 42
-0.4931454260312531
 10
12.02644807371211
 20
5.264570217897493
  0
LWPOLYLINE
  5
4B3948
330
4B1AC8
100
AcDbEntity
  8
10
100
AcDbPolyline
 90
       12
 70
     1
 43
0.0
 10
11.91072260703786
 20
4.588256683777727
 42
0.3401424000459158
 10
11.89956912752323
 20
4.5737582604098
 10
11.89956912752324
 20
3.946687932220972
 42
0.4142135623730951
 10
11.91456912752324
 20
3.931687932220971
 10
12.61356912752324
 20
3.931687932220968
 42
0.4142135623730951
 10
12.62856912752324
 20
3.946687932220968
 10
12.62856912752326
 20
4.822687932220984
 42
0.4142135623730951
 10
12.61356912752326
 20
4.837687932220984
 10
12.01256912752324
 20
4.837687932220984
 42
0.4142135623731213
 10
11.99756912752324
 20
4.822687932220984
 10
11.99756912752327
 20
4.62283693434198
 42
-0.3401424000459496
 10
11.98641564800864
 20
4.608338510974051
  0
LWPOLYLINE
  5
4B394A
330
4B1AC8
100
AcDbEntity
  8
10
100
AcDbPolyline
 90
       65
 70
     1
 43
0.0
 10
11.89956912752328
 20
4.698227269187079
 10
11.89956912752327
 20
4.852687932220994
 42
0.4142135623730864
 10
11.88456912752327
 20
4.867687932220992
 10
11.21306466897637
 20
4.867687932220952
 10
11.20502619320344
 20
4.837687932220958
 10
11.10356912752325
 20
4.837687932220958
 10
11.19722517904251
 20
5.187217074927088
 42
-0.3394542588633526
 10
11.25518072861985
 20
5.231687932220935
 10
11.90467032131992
 20
5.231687932220982
 42
0.3394542588633642
 10
11.91915920871426
 20
5.242805646544444
 10
12.15265319722466
 20
6.114217074927161
 42
-0.3394542588634112
 10
12.21060874680201
 20
6.15868793222101
 10
12.91156912752325
 20
6.158687932220918
 42
-0.4142135623730951
 10
12.92656912752325
 20
6.143687932220918
 10
12.92656912752324
 20
6.088687932220983
 42
-0.4142135623730688
 10
12.89656912752324
 20
6.058687932220983
 10
12.83656912752324
 20
6.058687932220978
 42
-0.41421356237303
 10
12.82856912752324
 20
6.066687932220979
 10
12.82856912752323
 20
6.090687932220958
 42
0.4142135623729325
 10
12.82056912752324
 20
6.098687932220951
 10
12.79758836540971
 20
6.098687932220965
 42
0.131652497587552
 10
12.7900883654097
 20
6.096678313277731
 10
12.73123195894913
 20
6.062697551164189
 42
-0.131652497587376
 10
12.72373195894913
 20
6.060687932220953
 10
12.37956912752325
 20
6.060687932220919
 42
0.4142135623732339
 10
12.36456912752326
 20
6.045687932220919
 10
12.36456912752325
 20
5.260687932220936
 42
0.4142135623730951
 10
12.37956912752325
 20
5.245687932220936
 10
13.93156912752322
 20
5.245687932220922
 42
-0.9999999999999998
 10
13.93156912752322
 20
5.16568793222091
 10
12.74156912752324
 20
5.165687932220923
 42
0.4142135623730951
 10
12.72656912752324
 20
5.150687932220923
 10
12.72656912752326
 20
2.923687932220976
 42
-0.4142135623729564
 10
12.71156912752324
 20
2.908687932220968
 10
12.54456912752324
 20
2.908687932220975
 42
-0.4142135623732338
 10
12.52956912752325
 20
2.923687932220976
 10
12.52956912752325
 20
2.991687932220973
 42
-0.4142135623732338
 10
12.54456912752324
 20
3.006687932220967
 10
12.61356912752326
 20
3.006687932220974
 42
0.4142135623732337
 10
12.62856912752324
 20
3.021687932220975
 10
12.62856912752324
 20
3.188687932220976
 42
0.4142135623732337
 10
12.61356912752326
 20
3.20368793222097
 10
12.32756912752326
 20
3.203687932220977
 42
0.4142135623729561
 10
12.31256912752324
 20
3.188687932220976
 10
12.31256912752324
 20
3.021687932220975
 42
0.4142135623729563
 10
12.32756912752326
 20
3.006687932220967
 10
12.39656912752324
 20
3.006687932220974
 42
-0.4142135623729563
 10
12.41156912752326
 20
2.991687932220973
 10
12.41156912752326
 20
2.923687932220976
 42
-0.4142135623729564
 10
12.39656912752324
 20
2.908687932220968
 10
11.94056912752325
 20
2.908687932220971
 42
-0.4142135623730864
 10
11.88056912752325
 20
2.968687932220971
 10
11.88056912752325
 20
3.267687932220955
 42
-0.4931454260309717
 10
11.89945141319979
 20
3.282176819615306
 10
11.9596868418467
 20
3.266036785153606
 42
0.4931454260309717
 10
11.97856912752324
 20
3.280525672547956
 10
11.97856912752324
 20
3.818687932220972
 42
0.414213562373234
 10
11.96356912752325
 20
3.833687932220972
 10
11.89556912752324
 20
3.833687932220972
 42
0.4142135623732339
 10
11.88056912752325
 20
3.818687932220972
 10
11.88056912752325
 20
3.676187932220973
 42
-0.9999999999999998
 10
11.80156912752325
 20
3.676187932220973
 10
11.80156912752325
 20
4.649148595254901
 42
-0.3401424000459107
 10
11.81272260703788
 20
4.663647018622828
 10
11.88841564800865
 20
4.683728845819151
 42
0.3401424000459436
  0
ARC
  5
4B394B
330
4B1AC8
100
AcDbEntity
  8
10
100
AcDbCircle
 10
12.62856912752324
 20
3.576687932220968
 30
0.0
 40
0.015
100
AcDbArc
 50
90.0
 51
270.0
  0
LINE
  5
4B394C
330
4B1AC8
100
AcDbEntity
  8
CENTER
  6
CENTER2
 48
0.4
100
AcDbLine
 10
13.72156912752324
 20
4.88813175916491
 30
0.0
 11
13.72156912752324
 21
5.516882243042934
 31
0.0
  0
LINE
  5
4B394D
330
4B1AC8
100
AcDbEntity
  8
HIDDEN
  6
HIDDEN
 48
0.125
100
AcDbLine
 10
13.81556912752325
 20
5.165687932220903
 30
0.0
 11
13.81556912752325
 21
5.245687932220922
 31
0.0
  0
LINE
  5
4B394E
330
4B1AC8
100
AcDbEntity
  8
HIDDEN
  6
HIDDEN
 48
0.125
100
AcDbLine
 10
13.62756912752325
 20
5.16568793222091
 30
0.0
 11
13.62756912752325
 21
5.245687932220922
 31
0.0
  0
ARC
  5
4B3950
330
4B1AC8
100
AcDbEntity
  8
10
100
AcDbCircle
 10
12.62856912752324
 20
3.576687932220968
 30
0.0
 40
0.015
100
AcDbArc
 50
90.0
 51
270.0
  0
LWPOLYLINE
  5
4B395C
330
4B1AC8
100
AcDbEntity
  8
10
100
AcDbPolyline
 90
        8
 70
     1
 43
0.0
 10
3.338723021109548
 20
19.61548531292283
 10
3.338723021109545
 20
19.09348531292283
 42
-0.4142135623730857
 10
3.323723021109544
 20
19.07848531292283
 10
2.803723021109552
 20
19.07848531292283
 42
-0.4142135623730953
 10
2.788723021109551
 20
19.09348531292283
 10
2.788723021109551
 20
19.61548531292279
 42
-0.4142135623730839
 10
2.803723021109552
 20
19.63048531292279
 10
3.323723021109548
 20
19.63048531292283
 42
-0.4142135623731205
  0
LWPOLYLINE
  5
4B395D
330
4B1AC8
100
AcDbEntity
  8
10
100
AcDbPolyline
 90
        8
 70
     1
 43
0.0
 10
1.489723021109601
 20
19.63048531292282
 42
0.4142135623730951
 10
1.474723021109601
 20
19.61548531292282
 10
1.474723021109558
 20
18.99648531292281
 42
0.4142135623731151
 10
1.489723021109559
 20
18.98148531292281
 10
1.707723021109559
 20
18.98148531292281
 42
0.4142135623729563
 10
1.722723021109566
 20
18.99648531292283
 10
1.722723021109545
 20
19.61548531292283
 42
0.4142135623732337
 10
1.707723021109544
 20
19.63048531292282
  0
LWPOLYLINE
  5
4B395E
330
4B1AC8
100
AcDbEntity
  8
10
100
AcDbPolyline
 90
       12
 70
     1
 43
0.0
 10
3.633723021109546
 20
19.2014853129228
 10
3.633723021109536
 20
18.99548531292284
 42
-0.4142135623730906
 10
3.618723021109535
 20
18.98048531292284
 10
3.500723021109544
 20
18.98048531292283
 42
-0.4142135623731157
 10
3.485723021109543
 20
18.99548531292283
 10
3.485723021109547
 20
19.06348531292281
 42
0.4142135623730701
 10
3.470723021109546
 20
19.07848531292281
 10
3.433723021109554
 20
19.07848531292283
 42
-0.414213562373009
 10
3.418723021109557
 20
19.09348531292283
 10
3.418723021109546
 20
19.20148531292285
 42
-0.4142135623731397
 10
3.433723021109547
 20
19.21648531292285
 10
3.618723021109546
 20
19.2164853129228
 42
-0.4142135623730836
  0
LWPOLYLINE
  5
4B395F
330
4B1AC8
100
AcDbEntity
  8
10
100
AcDbPolyline
 90
        8
 70
     1
 43
0.0
 10
1.674723021109536
 20
18.88648531292283
 42
0.4142135623730984
 10
1.659723021109535
 20
18.90148531292283
 10
1.521723021109544
 20
18.90148531292283
 42
0.4142135623730951
 10
1.506723021109544
 20
18.88648531292283
 10
1.506723021109572
 20
18.29776524438232
 42
0.3394542588633731
 10
1.517840735433034
 20
18.28327635698798
 10
1.655840735433032
 20
18.24629936843248
 42
0.4931454260313063
 10
1.674723021109572
 20
18.26078825582682
  0
LWPOLYLINE
  5
4B3960
330
4B1AC8
100
AcDbEntity
  8
10
100
AcDbPolyline
 90
        8
 70
     1
 43
0.0
 10
0.5856524687487239
 20
19.24009456703829
 42
-0.3394542588634429
 10
0.5797230211095413
 20
19.2478219736486
 10
0.5797230211095413
 20
19.26048531292281
 42
-0.4142135623729975
 10
0.5877230211095439
 20
19.26848531292281
 10
1.379723021109598
 20
19.26848531292284
 42
-0.4142135623731549
 10
1.394723021109599
 20
19.25348531292284
 10
1.394723021109563
 20
19.04285314650601
 42
-0.4931454260312531
 10
1.375840735433023
 20
19.02836425911168
  0
LWPOLYLINE
  5
4B3961
330
4B1AC8
100
AcDbEntity
  8
10
100
AcDbPolyline
 90
       12
 70
     1
 43
0.0
 10
2.052154269552791
 20
18.91263879243744
 42
0.3401424000459158
 10
2.06665269292072
 20
18.9014853129228
 10
2.693723021109545
 20
18.90148531292282
 42
0.4142135623730951
 10
2.708723021109546
 20
18.91648531292282
 10
2.708723021109549
 20
19.61548531292282
 42
0.4142135623730951
 10
2.693723021109549
 20
19.63048531292282
 10
1.817723021109533
 20
19.63048531292283
 42
0.4142135623730951
 10
1.802723021109533
 20
19.61548531292283
 10
1.802723021109533
 20
19.01448531292282
 42
0.4142135623731213
 10
1.817723021109533
 20
18.99948531292282
 10
2.017574018988537
 20
18.99948531292285
 42
-0.3401424000459496
 10
2.032072442356466
 20
18.98833183340822
  0
LWPOLYLINE
  5
4B3962
330
4B1AC8
100
AcDbEntity
  8
10
100
AcDbPolyline
 90
       65
 70
     1
 43
0.0
 10
1.942183684143437
 20
18.90148531292286
 10
1.787723021109525
 20
18.90148531292284
 42
0.4142135623730864
 10
1.772723021109528
 20
18.88648531292284
 10
1.772723021109563
 20
18.21498085437595
 10
1.802723021109557
 20
18.20694237860302
 10
1.802723021109557
 20
18.10548531292283
 10
1.453193878403429
 20
18.19914136444209
 42
-0.3394542588633526
 10
1.408723021109584
 20
18.25709691401943
 10
1.408723021109538
 20
18.9065865067195
 42
0.3394542588633642
 10
1.397605306786073
 20
18.92107539411383
 10
0.5261938784033556
 20
19.15456938262423
 42
-0.3394542588634112
 10
0.4817230211095103
 20
19.21252493220158
 10
0.4817230211095991
 20
19.91348531292282
 42
-0.4142135623730951
 10
0.4967230211095997
 20
19.92848531292282
 10
0.5517230211095355
 20
19.92848531292282
 42
-0.4142135623730688
 10
0.581723021109533
 20
19.89848531292282
 10
0.5817230211095401
 20
19.83848531292281
 42
-0.41421356237303
 10
0.5737230211095375
 20
19.83048531292282
 10
0.5497230211095614
 20
19.83048531292281
 42
0.4142135623729325
 10
0.5417230211095659
 20
19.82248531292281
 10
0.5417230211095552
 20
19.79950455080928
 42
0.131652497587552
 10
0.5437326400527889
 20
19.79200455080927
 10
0.5777134021663289
 20
19.73314814434871
 42
-0.131652497587376
 10
0.5797230211095661
 20
19.72564814434871
 10
0.5797230211095981
 20
19.38148531292282
 42
0.4142135623732339
 10
0.5947230211095987
 20
19.36648531292284
 10
1.379723021109581
 20
19.36648531292282
 42
0.4142135623730951
 10
1.394723021109581
 20
19.38148531292283
 10
1.394723021109595
 20
20.9334853129228
 42
-0.9999999999999998
 10
1.474723021109608
 20
20.9334853129228
 10
1.474723021109594
 20
19.74348531292282
 42
0.4142135623730951
 10
1.489723021109594
 20
19.72848531292282
 10
3.716723021109541
 20
19.72848531292283
 42
-0.4142135623729564
 10
3.731723021109549
 20
19.71348531292282
 10
3.731723021109542
 20
19.54648531292282
 42
-0.4142135623732338
 10
3.716723021109541
 20
19.53148531292283
 10
3.648723021109543
 20
19.53148531292283
 42
-0.4142135623732338
 10
3.63372302110955
 20
19.54648531292282
 10
3.633723021109543
 20
19.61548531292283
 42
0.4142135623732337
 10
3.618723021109542
 20
19.63048531292282
 10
3.451723021109541
 20
19.63048531292282
 42
0.4142135623732337
 10
3.436723021109547
 20
19.61548531292283
 10
3.43672302110954
 20
19.32948531292283
 42
0.4142135623729561
 10
3.451723021109541
 20
19.31448531292282
 10
3.618723021109542
 20
19.31448531292282
 42
0.4142135623729563
 10
3.63372302110955
 20
19.32948531292283
 10
3.633723021109543
 20
19.39848531292282
 42
-0.4142135623729563
 10
3.648723021109543
 20
19.41348531292284
 10
3.716723021109541
 20
19.41348531292284
 42
-0.4142135623729564
 10
3.731723021109549
 20
19.39848531292282
 10
3.731723021109545
 20
18.94248531292283
 42
-0.4142135623730864
 10
3.671723021109547
 20
18.88248531292283
 10
3.372723021109561
 20
18.88248531292283
 42
-0.4931454260309717
 10
3.358234133715211
 20
18.90136759859937
 10
3.374374168176911
 20
18.96160302724627
 42
0.4931454260309717
 10
3.35988528078256
 20
18.98048531292281
 10
2.821723021109545
 20
18.98048531292281
 42
0.414213562373234
 10
2.806723021109545
 20
18.96548531292283
 10
2.806723021109545
 20
18.89748531292282
 42
0.4142135623732339
 10
2.821723021109545
 20
18.88248531292283
 10
2.964223021109543
 20
18.88248531292283
 42
-0.9999999999999998
 10
2.964223021109543
 20
18.80348531292282
 10
1.991262358075617
 20
18.80348531292282
 42
-0.3401424000459107
 10
1.976763934707691
 20
18.81463879243746
 10
1.956682107511366
 20
18.89033183340823
 42
0.3401424000459436
  0
ARC
  5
4B3963
330
4B1AC8
100
AcDbEntity
  8
10
100
AcDbCircle
 10
3.06372302110955
 20
19.63048531292281
 30
0.0
 40
0.015
100
AcDbArc
 50
180.0
 51
0.0
  0
LINE
  5
4B3964
330
4B1AC8
100
AcDbEntity
  8
CENTER
  6
CENTER2
 48
0.4
100
AcDbLine
 10
1.752279194165606
 20
20.72348531292282
 30
0.0
 11
1.123528710287584
 21
20.72348531292282
 31
0.0
  0
LINE
  5
4B3965
330
4B1AC8
100
AcDbEntity
  8
HIDDEN
  6
HIDDEN
 48
0.125
100
AcDbLine
 10
1.474723021109615
 20
20.81748531292283
 30
0.0
 11
1.394723021109595
 21
20.81748531292283
 31
0.0
  0
LINE
  5
4B3966
330
4B1AC8
100
AcDbEntity
  8
HIDDEN
  6
HIDDEN
 48
0.125
100
AcDbLine
 10
1.474723021109608
 20
20.62948531292283
 30
0.0
 11
1.394723021109595
 21
20.62948531292283
 31
0.0
  0
ARC
  5
4B3967
330
4B1AC8
100
AcDbEntity
  8
10
100
AcDbCircle
 10
3.06372302110955
 20
19.63048531292281
 30
0.0
 40
0.015
100
AcDbArc
 50
180.0
 51
0.0
  0
LWPOLYLINE
  5
4B3968
330
4B1AC8
100
AcDbEntity
  8
10
100
AcDbPolyline
 90
        8
 70
     1
 43
0.0
 10
3.33872302110953
 20
9.341485312922719
 10
3.338723021109526
 20
9.863485312922724
 42
0.4142135623730857
 10
3.323723021109525
 20
9.878485312922725
 10
2.803723021109533
 20
9.878485312922725
 42
0.4142135623730953
 10
2.788723021109532
 20
9.863485312922724
 10
2.788723021109532
 20
9.341485312922761
 42
0.4142135623730839
 10
2.803723021109533
 20
9.326485312922761
 10
3.323723021109529
 20
9.326485312922718
 42
0.4142135623731205
  0
LWPOLYLINE
  5
4B3969
330
4B1AC8
100
AcDbEntity
  8
10
100
AcDbPolyline
 90
        8
 70
     1
 43
0.0
 10
1.489723021109583
 20
9.326485312922732
 42
-0.4142135623730951
 10
1.474723021109582
 20
9.341485312922733
 10
1.474723021109539
 20
9.96048531292274
 42
-0.4142135623731151
 10
1.48972302110954
 20
9.97548531292274
 10
1.70772302110954
 20
9.97548531292274
 42
-0.4142135623729563
 10
1.722723021109548
 20
9.960485312922726
 10
1.722723021109526
 20
9.341485312922719
 42
-0.4142135623732337
 10
1.707723021109526
 20
9.326485312922732
  0
LWPOLYLINE
  5
4B396A
330
4B1AC8
100
AcDbEntity
  8
10
100
AcDbPolyline
 90
       12
 70
     1
 43
0.0
 10
3.633723021109528
 20
9.755485312922749
 10
3.633723021109517
 20
9.961485312922709
 42
0.4142135623730906
 10
3.618723021109516
 20
9.97648531292271
 10
3.500723021109525
 20
9.976485312922724
 42
0.4142135623731157
 10
3.485723021109524
 20
9.961485312922723
 10
3.485723021109528
 20
9.89348531292274
 42
-0.4142135623730701
 10
3.470723021109527
 20
9.878485312922739
 10
3.433723021109535
 20
9.878485312922725
 42
0.414213562373009
 10
3.418723021109538
 20
9.863485312922724
 10
3.418723021109528
 20
9.755485312922706
 42
0.4142135623731397
 10
3.433723021109528
 20
9.740485312922706
 10
3.618723021109527
 20
9.740485312922748
 42
0.4142135623730836
  0
LWPOLYLINE
  5
4B396B
330
4B1AC8
100
AcDbEntity
  8
10
100
AcDbPolyline
 90
        8
 70
     1
 43
0.0
 10
1.674723021109517
 20
10.07048531292272
 42
-0.4142135623730984
 10
1.659723021109517
 20
10.05548531292272
 10
1.521723021109526
 20
10.05548531292272
 42
-0.4142135623730951
 10
1.506723021109525
 20
10.07048531292272
 10
1.506723021109554
 20
10.65920538146323
 42
-0.3394542588633731
 10
1.517840735433015
 20
10.67369426885757
 10
1.655840735433013
 20
10.71067125741307
 42
-0.4931454260313063
 10
1.674723021109553
 20
10.69618237001874
  0
LWPOLYLINE
  5
4B396C
330
4B1AC8
100
AcDbEntity
  8
10
100
AcDbPolyline
 90
        8
 70
     1
 43
0.0
 10
0.5856524687487053
 20
9.716876058807267
 42
0.3394542588634429
 10
0.5797230211095226
 20
9.709148652196953
 10
0.5797230211095226
 20
9.696485312922741
 42
0.4142135623729975
 10
0.5877230211095253
 20
9.688485312922745
 10
1.37972302110958
 20
9.688485312922713
 42
0.4142135623731549
 10
1.39472302110958
 20
9.703485312922717
 10
1.394723021109545
 20
9.914117479339539
 42
0.4931454260312531
 10
1.375840735433005
 20
9.928606366733871
  0
LWPOLYLINE
  5
4B396D
330
4B1AC8
100
AcDbEntity
  8
10
100
AcDbPolyline
 90
       12
 70
     1
 43
0.0
 10
2.052154269552772
 20
10.04433183340811
 42
-0.3401424000459158
 10
2.066652692920701
 20
10.05548531292275
 10
2.693723021109526
 20
10.05548531292273
 42
-0.4142135623730951
 10
2.708723021109527
 20
10.04048531292273
 10
2.708723021109531
 20
9.341485312922733
 42
-0.4142135623730951
 10
2.69372302110953
 20
9.326485312922732
 10
1.817723021109515
 20
9.326485312922718
 42
-0.4142135623730951
 10
1.802723021109514
 20
9.341485312922719
 10
1.802723021109514
 20
9.942485312922732
 42
-0.4142135623731213
 10
1.817723021109515
 20
9.957485312922733
 10
2.017574018988518
 20
9.957485312922704
 42
0.3401424000459496
 10
2.032072442356447
 20
9.968638792437337
  0
LWPOLYLINE
  5
4B396E
330
4B1AC8
100
AcDbEntity
  8
10
100
AcDbPolyline
 90
       65
 70
     1
 43
0.0
 10
1.942183684143419
 20
10.05548531292269
 10
1.787723021109506
 20
10.05548531292271
 42
-0.4142135623730864
 10
1.772723021109509
 20
10.07048531292271
 10
1.772723021109545
 20
10.7419897714696
 10
1.802723021109539
 20
10.75002824724253
 10
1.802723021109539
 20
10.85148531292272
 10
1.453193878403411
 20
10.75782926140346
 42
0.3394542588633526
 10
1.408723021109565
 20
10.69987371182612
 10
1.408723021109519
 20
10.05038411912605
 42
-0.3394542588633642
 10
1.397605306786054
 20
10.03589523173172
 10
0.5261938784033369
 20
9.80240124322132
 42
0.3394542588634112
 10
0.4817230211094917
 20
9.744445693643969
 10
0.4817230211095805
 20
9.043485312922731
 42
0.4142135623730951
 10
0.496723021109581
 20
9.028485312922731
 10
0.5517230211095168
 20
9.028485312922734
 42
0.4142135623730688
 10
0.5817230211095144
 20
9.058485312922732
 10
0.5817230211095215
 20
9.118485312922741
 42
0.41421356237303
 10
0.5737230211095188
 20
9.126485312922737
 10
0.5497230211095428
 20
9.126485312922744
 42
-0.4142135623729325
 10
0.5417230211095472
 20
9.134485312922739
 10
0.5417230211095366
 20
9.157466075036269
 42
-0.131652497587552
 10
0.5437326400527703
 20
9.16496607503628
 10
0.5777134021663102
 20
9.223822481496844
 42
0.131652497587376
 10
0.5797230211095475
 20
9.231322481496844
 10
0.5797230211095794
 20
9.575485312922731
 42
-0.4142135623732339
 10
0.59472302110958
 20
9.590485312922718
 10
1.379723021109562
 20
9.590485312922728
 42
-0.4142135623730951
 10
1.394723021109562
 20
9.575485312922728
 10
1.394723021109577
 20
8.023485312922753
 42
0.9999999999999998
 10
1.474723021109589
 20
8.023485312922753
 10
1.474723021109575
 20
9.213485312922733
 42
-0.4142135623730951
 10
1.489723021109575
 20
9.228485312922733
 10
3.716723021109523
 20
9.228485312922719
 42
0.4142135623729564
 10
3.73172302110953
 20
9.243485312922734
 10
3.731723021109523
 20
9.410485312922736
 42
0.4142135623732338
 10
3.716723021109523
 20
9.425485312922722
 10
3.648723021109525
 20
9.425485312922722
 42
0.4142135623732338
 10
3.633723021109531
 20
9.410485312922736
 10
3.633723021109524
 20
9.341485312922719
 42
-0.4142135623732337
 10
3.618723021109524
 20
9.326485312922732
 10
3.451723021109522
 20
9.326485312922732
 42
-0.4142135623732337
 10
3.436723021109528
 20
9.341485312922719
 10
3.436723021109521
 20
9.62748531292272
 42
-0.4142135623729561
 10
3.451723021109522
 20
9.642485312922735
 10
3.618723021109524
 20
9.642485312922735
 42
-0.4142135623729563
 10
3.633723021109531
 20
9.62748531292272
 10
3.633723021109524
 20
9.558485312922732
 42
0.4142135623729563
 10
3.648723021109525
 20
9.543485312922717
 10
3.716723021109523
 20
9.543485312922717
 42
0.4142135623729564
 10
3.73172302110953
 20
9.558485312922732
 10
3.731723021109527
 20
10.01448531292272
 42
0.4142135623730864
 10
3.671723021109528
 20
10.07448531292272
 10
3.372723021109543
 20
10.07448531292272
 42
0.4931454260309717
 10
3.358234133715193
 20
10.05560302724618
 10
3.374374168176892
 20
9.995367598599278
 42
-0.4931454260309717
 10
3.359885280782542
 20
9.976485312922738
 10
2.821723021109526
 20
9.976485312922738
 42
-0.414213562373234
 10
2.806723021109526
 20
9.991485312922725
 10
2.806723021109526
 20
10.05948531292274
 42
-0.4142135623732339
 10
2.821723021109526
 20
10.07448531292272
 10
2.964223021109525
 20
10.07448531292272
 42
0.9999999999999998
 10
2.964223021109525
 20
10.15348531292273
 10
1.991262358075598
 20
10.15348531292273
 42
0.3401424000459107
 10
1.976763934707673
 20
10.1423318334081
 10
1.956682107511348
 20
10.06663879243732
 42
-0.3401424000459436
  0
ARC
  5
4B396F
330
4B1AC8
100
AcDbEntity
  8
10
100
AcDbCircle
 10
3.063723021109531
 20
9.32648531292274
 30
0.0
 40
0.015
100
AcDbArc
 50
0.0
 51
180.0
  0
LINE
  5
4B3970
330
4B1AC8
100
AcDbEntity
  8
CENTER
  6
CENTER2
 48
0.4
100
AcDbLine
 10
1.752279194165588
 20
8.233485312922733
 30
0.0
 11
1.123528710287565
 21
8.233485312922733
 31
0.0
  0
LINE
  5
4B3971
330
4B1AC8
100
AcDbEntity
  8
HIDDEN
  6
HIDDEN
 48
0.125
100
AcDbLine
 10
1.474723021109596
 20
8.139485312922724
 30
0.0
 11
1.394723021109577
 21
8.139485312922724
 31
0.0
  0
LINE
  5
4B3972
330
4B1AC8
100
AcDbEntity
  8
HIDDEN
  6
HIDDEN
 48
0.125
100
AcDbLine
 10
1.474723021109589
 20
8.327485312922727
 30
0.0
 11
1.394723021109577
 21
8.327485312922727
 31
0.0
  0
ARC
  5
4B3973
330
4B1AC8
100
AcDbEntity
  8
10
100
AcDbCircle
 10
3.063723021109531
 20
9.32648531292274
 30
0.0
 40
0.015
100
AcDbArc
 50
0.0
 51
180.0
  0
LWPOLYLINE
  5
4B39B6
330
4B1AC8
100
AcDbEntity
  8
THIN
100
AcDbPolyline
 90
        4
 70
     1
 43
0.0
 10
5.651569127523321
 20
3.815187932220973
 10
5.776569127523231
 20
3.815187932220973
 10
5.776569127523231
 20
4.815187932220973
 10
5.651569127523321
 20
4.815187932220973
1001
GENIUS_GENREC_14
1002
{
1000
PYDIR
1011
5.651569127523321
1021
4.815187932220973
1031
0.0
1002
}
1002
{
1000
PXDIR
1011
5.776569127523231
1021
3.815187932220973
1031
0.0
1002
}
1002
{
1000
PORI
1011
5.651569127523321
1021
3.815187932220973
1031
0.0
1002
}
1002
{
1000
PINS
1011
5.651569127523321
1021
3.815187932220973
1031
0.0
1002
}
1002
{
1000
PINS2
1011
5.776569127523231
1021
4.815187932220973
1031
0.0
1002
}
1002
{
1000
C
1070
     1
1002
}
1001
GENIUS_GENOBJ-N-REC_13
1002
{
1000
OWNER
1000
GEN
1002
}
1001
GENIUS_GENODEF_13
1002
{
1000
HIER
1070
     0
1002
}
1002
{
1000
MANEDIT
1070
     0
1002
}
1002
{
1000
NOSEL
1070
     0
1002
}
1002
{
1000
BEHIND
1070
     0
1002
}
1002
{
1000
OTHER
1070
     0
1002
}
1002
{
1000
REACTOR
1002
}
  0
LWPOLYLINE
  5
4B39BA
330
4B1AC8
100
AcDbEntity
  8
THIN
100
AcDbPolyline
 90
        4
 70
     1
 43
0.0
 10
11.67656912752326
 20
3.815187932220973
 10
11.80156912752317
 20
3.815187932220973
 10
11.80156912752317
 20
4.815187932220973
 10
11.67656912752326
 20
4.815187932220973
1001
GENIUS_GENREC_14
1002
{
1000
PYDIR
1011
11.67656912752326
1021
4.815187932220973
1031
0.0
1002
}
1002
{
1000
PXDIR
1011
11.80156912752317
1021
3.815187932220973
1031
0.0
1002
}
1002
{
1000
PORI
1011
11.67656912752326
1021
3.815187932220973
1031
0.0
1002
}
1002
{
1000
PINS
1011
11.67656912752326
1021
3.815187932220973
1031
0.0
1002
}
1002
{
1000
PINS2
1011
11.80156912752317
1021
4.815187932220973
1031
0.0
1002
}
1002
{
1000
C
1070
     1
1002
}
1001
GENIUS_GENOBJ-N-REC_13
1002
{
1000
OWNER
1000
GEN
1002
}
1001
GENIUS_GENODEF_13
1002
{
1000
HIER
1070
     0
1002
}
1002
{
1000
MANEDIT
1070
     0
1002
}
1002
{
1000
NOSEL
1070
     0
1002
}
1002
{
1000
BEHIND
1070
     0
1002
}
1002
{
1000
OTHER
1070
     0
1002
}
1002
{
1000
REACTOR
1002
}
  0
LWPOLYLINE
  5
4B39DB
330
4B1AC8
100
AcDbEntity
  8
THIN
100
AcDbPolyline
 90
        4
 70
     1
 43
0.0
 10
2.825223021109593
 20
10.15348531292298
 10
2.825223021109593
 20
10.27848531292289
 10
1.825223021109593
 20
10.27848531292289
 10
1.825223021109593
 20
10.15348531292298
1001
GENIUS_GENREC_14
1002
{
1000
PYDIR
1011
1.825223021109593
1021
10.15348531292298
1031
0.0
1002
}
1002
{
1000
PXDIR
1011
2.825223021109593
1021
10.27848531292289
1031
0.0
1002
}
1002
{
1000
PORI
1011
2.825223021109593
1021
10.15348531292298
1031
0.0
1002
}
1002
{
1000
PINS
1011
2.825223021109593
1021
10.15348531292298
1031
0.0
1002
}
1002
{
1000
PINS2
1011
1.825223021109593
1021
10.27848531292289
1031
0.0
1002
}
1002
{
1000
C
1070
     1
1002
}
1001
GENIUS_GENOBJ-N-REC_13
1002
{
1000
OWNER
1000
GEN
1002
}
1001
GENIUS_GENODEF_13
1002
{
1000
HIER
1070
     0
1002
}
1002
{
1000
MANEDIT
1070
     0
1002
}
1002
{
1000
NOSEL
1070
     0
1002
}
1002
{
1000
BEHIND
1070
     0
1002
}
1002
{
1000
OTHER
1070
     0
1002
}
1002
{
1000
REACTOR
1002
}
  0
LWPOLYLINE
  5
4B39FA
330
4B1AC8
100
AcDbEntity
  8
THIN
100
AcDbPolyline
 90
        4
 70
     1
 43
0.0
 10
2.825223021109546
 20
18.67848531292292
 10
2.825223021109546
 20
18.80348531292283
 10
1.825223021109546
 20
18.80348531292283
 10
1.825223021109546
 20
18.67848531292292
1001
GENIUS_GENREC_14
1002
{
1000
PYDIR
1011
1.825223021109546
1021
18.67848531292292
1031
0.0
1002
}
1002
{
1000
PXDIR
1011
2.825223021109546
1021
18.80348531292283
1031
0.0
1002
}
1002
{
1000
PORI
1011
2.825223021109546
1021
18.67848531292292
1031
0.0
1002
}
1002
{
1000
PINS
1011
2.825223021109546
1021
18.67848531292292
1031
0.0
1002
}
1002
{
1000
PINS2
1011
1.825223021109546
1021
18.80348531292283
1031
0.0
1002
}
1002
{
1000
C
1070
     1
1002
}
1001
GENIUS_GENOBJ-N-REC_13
1002
{
1000
OWNER
1000
GEN
1002
}
1001
GENIUS_GENODEF_13
1002
{
1000
HIER
1070
     0
1002
}
1002
{
1000
MANEDIT
1070
     0
1002
}
1002
{
1000
NOSEL
1070
     0
1002
}
1002
{
1000
BEHIND
1070
     0
1002
}
1002
{
1000
OTHER
1070
     0
1002
}
1002
{
1000
REACTOR
1002
}
  0
ENDSEC
  0
SECTION
  2
OBJECTS
  0
DICTIONARY
  5
4B1ABC
330
0
100
AcDbDictionary
281
     1
  3
ACAD_CIP_PREVIOUS_PRODUCT_INFO
350
4B4229
  3
ACAD_COLOR
350
4B3767
  3
ACAD_DETAILVIEWSTYLE
350
4B421F
  3
ACAD_GROUP
350
4B1ABD
  3
ACAD_IMAGE_DICT
350
4B1D3D
  3
ACAD_LAYOUT
350
4B1D14
  3
ACAD_MATERIAL
350
4B3766
  3
ACAD_MLEADERSTYLE
350
4B421B
  3
ACAD_MLINESTYLE
350
4B1ABE
  3
ACAD_PLOTSETTINGS
350
4B1D15
  3
ACAD_PLOTSTYLENAME
350
4B1D12
  3
ACAD_SCALELIST
350
4B4209
  3
ACAD_SECTIONVIEWSTYLE
350
4B421D
  3
ACAD_TABLESTYLE
350
4B3768
  3
ACAD_VISUALSTYLE
350
4B41F0
  3
AcAmCatalogState
350
4B37CC
  3
ACDB_RECOMPOSE_DATA
350
4B425C
  3
AcDbVariableDictionary
350
4B3181
  3
ACDMSYSVARMGR
350
4B3787
  3
ACGREF_MASTER
350
4B3781
  3
ACGREFACAD_MASTER
350
4B37AA
  3
AcmDictionary
350
4B37CA
  3
ACME_BOM_MANAGER_NAME
350
4B377B
  3
ACME_COMMAND_HISTORY
350
4B3778
  3
ACME_SCOPE_NAME
350
4B3777
  3
ACMESTATEMGR
350
4B3780
  3
AcmeSysVarManager
350
4B3779
  3
AcmSystemVariableManager
350
4B37AF
  3
AD_APPL
350
4B37B7
  3
ADSYSVARMGR
350
4B37B6
  3
AmdtNamedDwgMgr
350
4B37A5
  3
AMG
350
4B3770
  3
AMGSNAPSETTINGS
350
4B381D
  3
AMI_MASTER
350
4B37AD
  3
AUTOCAD_ASSEMBLIES_PROJECT
350
4B37BF
  3
Designer_Assemblies_SysVars
350
4B37BA
  3
GREFAM_MODULE
350
4B37AE
  3
MTV_XATTACH
350
4B228A
  0
DICTIONARY
  5
4B1D43
330
4B1AB2
100
AcDbDictionary
280
     1
281
     1
  3
ACAD_LAYERSTATES
360
4B1D44
  0
DICTIONARY
  5
4B422D
330
4B1ABF
100
AcDbDictionary
280
     1
281
     1
  3
ADSK_XREC_LAYER_RECONCILED
360
4B422E
  0
DICTIONARY
  5
4B422F
330
4B1AE0
100
AcDbDictionary
280
     1
281
     1
  3
ADSK_XREC_LAYER_RECONCILED
360
4B4230
  0
DICTIONARY
  5
4B4231
330
4B1AE2
100
AcDbDictionary
280
     1
281
     1
  3
ADSK_XREC_LAYER_RECONCILED
360
4B4232
  0
DICTIONARY
  5
4B4233
330
4B1AE3
100
AcDbDictionary
280
     1
281
     1
  3
ADSK_XREC_LAYER_RECONCILED
360
4B4234
  0
DICTIONARY
  5
4B4235
330
4B1AE5
100
AcDbDictionary
280
     1
281
     1
  3
ADSK_XREC_LAYER_RECONCILED
360
4B4236
  0
DICTIONARY
  5
4B4237
330
4B1D42
100
AcDbDictionary
280
     1
281
     1
  3
ADSK_XREC_LAYER_RECONCILED
360
4B4238
  0
DICTIONARY
  5
4B4239
330
4B30ED
100
AcDbDictionary
280
     1
281
     1
  3
ADSK_XREC_LAYER_RECONCILED
360
4B423A
  0
DICTIONARY
  5
4B423B
330
4B3896
100
AcDbDictionary
280
     1
281
     1
  3
ADSK_XREC_LAYER_RECONCILED
360
4B423C
  0
DICTIONARY
  5
4B423D
330
4B3907
100
AcDbDictionary
280
     1
281
     1
  3
ADSK_XREC_LAYER_RECONCILED
360
4B423E
  0
DICTIONARY
  5
4B423F
330
4B3908
100
AcDbDictionary
280
     1
281
     1
  3
ADSK_XREC_LAYER_RECONCILED
360
4B4240
  0
DICTIONARY
  5
4B3859
330
4B1AC8
100
AcDbDictionary
280
     1
281
     1
  3
ACAD_SORTENTS
360
4B385A
  0
DICTIONARY
  5
4B382F
330
4B382B
100
AcDbDictionary
280
     1
281
     1
  3
ACAD_SORTENTS
360
4B3830
  0
DICTIONARY
  5
4B388C
330
4B388A
100
AcDbDictionary
280
     1
281
     1
  3
ACAD_SORTENTS
360
4B388D
  0
DICTIONARY
  5
4B389A
330
4B3897
100
AcDbDictionary
280
     1
281
     1
  3
ACAD_SORTENTS
360
4B389B
  0
DICTIONARY
  5
4B38CE
330
4B38CB
100
AcDbDictionary
280
     1
281
     1
  3
ACAD_SORTENTS
360
4B38CF
  0
DICTIONARY
  5
4B38DB
330
4B38D8
100
AcDbDictionary
280
     1
281
     1
  3
ACAD_SORTENTS
360
4B38DC
  0
XRECORD
  5
4B4229
102
{ACAD_REACTORS
330
4B1ABC
102
}
330
4B1ABC
100
AcDbXrecord
280
     1
300
ACDLT
300
2019
300

  0
DICTIONARY
  5
4B3767
102
{ACAD_REACTORS
330
4B1ABC
102
}
330
4B1ABC
100
AcDbDictionary
281
     1
  0
DICTIONARY
  5
4B421F
102
{ACAD_REACTORS
330
4B1ABC
102
}
330
4B1ABC
100
AcDbDictionary
281
     1
  3
Imperial24
350
4B4220
  0
DICTIONARY
  5
4B1ABD
102
{ACAD_REACTORS
330
4B1ABC
102
}
330
4B1ABC
100
AcDbDictionary
281
     1
  0
DICTIONARY
  5
4B1D3D
102
{ACAD_REACTORS
330
4B1ABC
102
}
330
4B1ABC
100
AcDbDictionary
281
     1
  0
DICTIONARY
  5
4B1D14
102
{ACAD_REACTORS
330
4B1ABC
102
}
330
4B1ABC
100
AcDbDictionary
281
     1
  3
Layout1
350
4B1D17
  3
Model
350
4B1D16
  0
DICTIONARY
  5
4B3766
102
{ACAD_REACTORS
330
4B1ABC
102
}
330
4B1ABC
100
AcDbDictionary
281
     1
  3
ByBlock
350
4B41E0
  3
ByLayer
350
4B41D8
  3
Global
350
4B41E8
  0
DICTIONARY
  5
4B421B
102
{ACAD_REACTORS
330
4B1ABC
102
}
330
4B1ABC
100
AcDbDictionary
281
     1
  3
Standard
350
4B421C
  0
DICTIONARY
  5
4B1ABE
102
{ACAD_REACTORS
330
4B1ABC
102
}
330
4B1ABC
100
AcDbDictionary
281
     1
  3
STANDARD
350
4B1ACB
  0
DICTIONARY
  5
4B1D15
102
{ACAD_REACTORS
330
4B1ABC
102
}
330
4B1ABC
100
AcDbDictionary
281
     1
  3
A_size_1_to_1
350
4B1D2C
  3
B_size_1_to_1
350
4B1D2E
  0
ACDBDICTIONARYWDFLT
  5
4B1D12
102
{ACAD_REACTORS
330
4B1ABC
102
}
330
4B1ABC
100
AcDbDictionary
281
     1
  3
Normal
350
4B1D13
100
AcDbDictionaryWithDefault
340
4B1D13
  0
DICTIONARY
  5
4B4209
102
{ACAD_REACTORS
330
4B1ABC
102
}
330
4B1ABC
100
AcDbDictionary
281
     1
  3
A0
350
4B420A
  3
A1
350
4B420B
  3
A2
350
4B420C
  3
A3
350
4B420D
  3
A4
350
4B420E
  3
A5
350
4B420F
  3
A6
350
4B4210
  3
A7
350
4B4211
  3
A8
350
4B4212
  3
A9
350
4B4213
  3
B0
350
4B4214
  3
B1
350
4B4215
  3
B2
350
4B4216
  3
B3
350
4B4217
  3
B4
350
4B4218
  3
B5
350
4B4219
  3
B6
350
4B421A
  0
DICTIONARY
  5
4B421D
102
{ACAD_REACTORS
330
4B1ABC
102
}
330
4B1ABC
100
AcDbDictionary
281
     1
  3
Imperial24
350
4B421E
  0
DICTIONARY
  5
4B3768
102
{ACAD_REACTORS
330
4B1ABC
102
}
330
4B1ABC
100
AcDbDictionary
281
     1
  3
Standard
350
4B3769
  0
DICTIONARY
  5
4B41F0
102
{ACAD_REACTORS
330
4B1ABC
102
}
330
4B1ABC
100
AcDbDictionary
281
     1
  3
2dWireframe
350
4B41F6
  3
Basic
350
4B41F5
  3
Brighten
350
4B41FC
  3
ColorChange
350
4B4200
  3
Conceptual
350
4B41F9
  3
Dim
350
4B41FB
  3
EdgeColorOff
350
4B4208
  3
Facepattern
350
4B41FF
  3
Flat
350
4B41F1
  3
FlatWithEdges
350
4B41F2
  3
Gouraud
350
4B41F3
  3
GouraudWithEdges
350
4B41F4
  3
Hidden
350
4B41F8
  3
JitterOff
350
4B4206
  3
Linepattern
350
4B41FE
  3
OverhangOff
350
4B4207
  3
Realistic
350
4B41FA
  3
Shaded
350
4B4205
  3
Shaded with edges
350
4B4204
  3
Shades of Gray
350
4B4201
  3
Sketchy
350
4B4202
  3
Thicken
350
4B41FD
  3
Wireframe
350
4B41F7
  3
X-Ray
350
4B4203
  0
ACAD_PROXY_OBJECT
  5
4B37CC
102
{ACAD_REACTORS
330
4B1ABC
102
}
330
4B1ABC
100
AcDbProxyObject
 90
      499
 91
      550
 71
    25
 97
       77
 70
     0
161
               640
310
3FFFFFFFE00A02814029BA19D2E283937B3B930B6902334B632B9AE32A1B430B733B2AE2BB7B935B9B830B1B2AE20A9991C1A102F96AF9819989C9B98181818AF98C008415332380D08111145349474E00
 94
        0
  0
XRECORD
  5
4B425C
102
{ACAD_REACTORS
330
4B1ABC
102
}
330
4B1ABC
100
AcDbXrecord
280
     1
 90
        1
330
4B3769
  0
DICTIONARY
  5
4B3181
102
{ACAD_REACTORS
330
4B1ABC
102
}
330
4B1ABC
100
AcDbDictionary
281
     1
  3
CANNOSCALE
350
4B424D
  3
CMLEADERSTYLE
350
4B4249
  3
CTABLESTYLE
350
4B3826
  3
CVIEWDETAILSTYLE
350
4B424A
  3
CVIEWSECTIONSTYLE
350
4B424B
  3
LAYEREVAL
350
4B424F
  3
LAYERNOTIFY
350
4B4250
  3
LIGHTINGUNITS
350
4B424E
  3
MSLTSCALE
350
4B424C
  3
SORTENTS
350
4B3182
  0
ACAD_PROXY_OBJECT
  5
4B3787
102
{ACAD_REACTORS
330
4B1ABC
102
}
330
4B1ABC
100
AcDbProxyObject
 90
      499
 91
      511
 71
    25
 97
       77
 70
     0
161
               240
310
4C51A47A000000000000000000000000000000000000000000000000000000
330
4B3788
330
4B3789
330
4B378A
330
4B378B
330
4B378C
330
4B378D
330
4B378E
330
4B378F
330
4B3790
330
4B3791
330
4B3792
330
4B3793
330
4B3794
330
4B3795
330
4B3796
330
4B3797
330
4B3798
330
4B3799
330
4B379A
330
4B379B
330
4B379C
330
4B379D
330
4B379E
330
4B379F
330
4B37A0
330
4B37A1
 94
        0
  0
ACAD_PROXY_OBJECT
  5
4B3781
102
{ACAD_REACTORS
330
4B1ABC
102
}
330
4B1ABC
100
AcDbProxyObject
 90
      499
 91
      519
 71
    25
 97
       77
 70
     0
161
                34
310
040000428C
 94
        0
  0
ACAD_PROXY_OBJECT
  5
4B37AA
102
{ACAD_REACTORS
330
4B1ABC
102
}
330
4B1ABC
100
AcDbProxyObject
 90
      499
 91
      528
 71
    25
 97
       77
 70
     0
161
               114
310
04000041C08000000000000000000C
 94
        0
  0
DICTIONARY
  5
4B37CA
102
{ACAD_REACTORS
330
4B1ABC
102
}
330
4B1ABC
100
AcDbDictionary
281
     1
  3
AcmBOMDATA
350
4B37CB
  3
AcmStdDictionary
350
4B37D5
  3
AMDTSECTSYM_ARROWCOLOR
350
4B37F3
  0
ACAD_PROXY_OBJECT
  5
4B377B
102
{ACAD_REACTORS
330
4B1ABC
102
}
330
4B1ABC
100
AcDbProxyObject
 90
      499
 91
      513
 71
    25
 97
       77
 70
     0
161
                50
310
0001004040000C
330
0
330
0
330
4B377C
 94
        0
  0
ACAD_PROXY_OBJECT
  5
4B3778
102
{ACAD_REACTORS
330
4B1ABC
102
}
330
4B1ABC
100
AcDbProxyObject
 90
      499
 91
      510
 71
    25
 97
       77
 70
     0
161
              5374
310
4780505455241534580504434F505940405184D5347202D20436F6D6D616E642043414E43454C4C45442E014151549054D16014115539113E014156131253916014115539113E014193D19194D15510101461354D1C80B4810DBDB5B585B990810D05390D1531311510B805044D4F5645805044D4F56458050545524153458
310
050444495354805055153415645404052E4D5347202D205050413A2020206465736B746F702E6172782046696C6556657273696F6E3A2031302E322E302E3501411693D3D3601415454D05591501014B9354D1C80B481414104E88080819195CDADD1BDC0B985C9E08119A5B1955995C9CDA5BDB8E880C4C0B8C8B8C0B8D40
310
50E414D4454524553455444424D4F4440805084E202D20554E444F014213880B4815539113C0504554E444F80504554E444F8050B434F4D4D414E444C494E45805044449535480504444953548050444495354805045A4F4F4D805055153415645404052E4D5347202D205050413A2020206465736B746F702E61727820466
310
96C6556657273696F6E3A2031302E322E302E35014390535115149154D15511109353D1102014213880B4815539113C05084E202D20554E444F0142135153955313D051102014213880B481693D3D3405184D5347202D20436F6D6D616E642043414E43454C4C45442E014311D4925417D4D514915510D22014211125354D5
310
16531160140D11253506014313880B4811125354D51653114050C4E202D2044494D5354594C45014313880B4811125354D5165311405084E202D205A4F4F4D014213880B481693D3D3405184D5347202D20436F6D6D616E642043414E43454C4C45442E014154155491D1601415454D05591501014B9354D1C80B481414104
310
E88080819195CDADD1BDC0B985C9E08119A5B1955995C9CDA5BDB8E880C4C0B8C8B8C0B8D4
 94
        0
  0
ACAD_PROXY_OBJECT
  5
4B3777
102
{ACAD_REACTORS
330
4B1ABC
102
}
330
4B1ABC
100
AcDbProxyObject
 90
      499
 91
      509
 71
    25
 97
       77
 70
     0
161
               546
310
0A0000480080000000000000000012F4CE0000000000000000000000000000000000000000000000000000000000000000000000000000000000000000000000AAA406AA8C
360
4B377A
360
4B377C
360
4B3782
360
4B3783
360
4B3784
360
4B3785
360
4B3788
360
4B3789
360
4B378A
360
4B378B
360
4B378C
360
4B378D
360
4B378E
360
4B378F
360
4B3790
360
4B3791
360
4B3792
360
4B3793
360
4B3794
360
4B3795
360
4B3796
360
4B3797
360
4B3798
360
4B3799
360
4B379A
360
4B379B
360
4B379C
360
4B379D
360
4B379E
360
4B379F
360
4B37A0
360
4B37A1
360
4B37B0
360
4B37B2
360
4B37B3
360
4B37B4
360
4B37B5
360
4B37BB
360
4B37BC
360
4B37BD
360
4B37BE
360
4B37C3
360
4B37C4
360
4B37C5
360
4B37C6
360
4B37C7
360
4B37C8
 94
        0
  0
ACAD_PROXY_OBJECT
  5
4B3780
102
{ACAD_REACTORS
330
4B1ABC
102
}
330
4B1ABC
100
AcDbProxyObject
 90
      499
 91
      518
 71
    25
 97
       77
 70
     0
161
                50
310
0A000042A4128C
 94
        0
  0
ACAD_PROXY_OBJECT
  5
4B3779
102
{ACAD_REACTORS
330
4B1ABC
102
}
330
4B1ABC
100
AcDbProxyObject
 90
      499
 91
      511
 71
    25
 97
       77
 70
     0
161
                32
310
90140A0000
330
4B377A
 94
        0
  0
ACAD_PROXY_OBJECT
  5
4B37AF
102
{ACAD_REACTORS
330
4B1ABC
102
}
330
4B1ABC
100
AcDbProxyObject
 90
      499
 91
      511
 71
    25
 97
       77
 70
     0
161
                32
310
90140A0000
330
4B37B0
 94
        0
  0
ACAD_PROXY_OBJECT
  5
4B37B7
102
{ACAD_REACTORS
330
4B1ABC
102
}
330
4B1ABC
100
AcDbProxyObject
 90
      499
 91
      539
 71
    25
 97
       77
 70
     0
161
                42
310
00090000404C
330
4B37B2
 94
        0
  0
ACAD_PROXY_OBJECT
  5
4B37B6
102
{ACAD_REACTORS
330
4B1ABC
102
}
330
4B1ABC
100
AcDbProxyObject
 90
      499
 91
      511
 71
    25
 97
       77
 70
     0
161
                 8
310
AA00
 94
        0
  0
ACAD_PROXY_OBJECT
  5
4B37A5
102
{ACAD_REACTORS
330
4B1ABC
102
}
330
4B1ABC
100
AcDbProxyObject
 90
      499
 91
      525
 71
    25
 97
       77
 70
     0
161
                42
310
000100005E8C
330
4B3782
 94
        0
  0
DICTIONARY
  5
4B3770
102
{ACAD_REACTORS
330
4B1ABC
102
}
330
4B1ABC
100
AcDbDictionary
281
     1
  3
AcMgSettings
350
4B3771
  3
AMGLAYCFG
350
4B37D7
  0
DICTIONARY
  5
4B381D
102
{ACAD_REACTORS
330
4B1ABC
102
}
330
4B1ABC
100
AcDbDictionary
281
     1
  3
DIMENSION
350
4B3822
  3
FEA
350
4B3821
  3
HATCH (1)
350
4B381E
  3
HATCH (2)
350
4B381F
  3
SIMPLE WELD
350
4B3823
  3
SYMBOLS
350
4B3820
  0
ACAD_PROXY_OBJECT
  5
4B37AD
102
{ACAD_REACTORS
330
4B1ABC
102
}
330
4B1ABC
100
AcDbProxyObject
 90
      499
 91
      531
 71
    25
 97
       77
 70
     0
161
                34
310
050000428C
 94
        0
  0
ACAD_PROXY_OBJECT
  5
4B37BF
102
{ACAD_REACTORS
330
4B1ABC
102
}
330
4B1ABC
100
AcDbProxyObject
 90
      499
 91
      542
 71
    25
 97
       77
 70
     0
161
                98
310
0A00004FC0000000000000000C
330
4B37C6
330
0
330
4B37C7
330
0
330
0
330
0
330
0
330
0
 94
        0
  0
ACAD_PROXY_OBJECT
  5
4B37BA
102
{ACAD_REACTORS
330
4B1ABC
102
}
330
4B1ABC
100
AcDbProxyObject
 90
      499
 91
      511
 71
    25
 97
       77
 70
     0
161
                56
310
9044160000000064
330
4B37BB
330
4B37BC
330
4B37BD
330
4B37BE
 94
        0
  0
ACAD_PROXY_OBJECT
  5
4B37AE
102
{ACAD_REACTORS
330
4B1ABC
102
}
330
4B1ABC
100
AcDbProxyObject
 90
      499
 91
      532
 71
    25
 97
       77
 70
     0
161
                 8
310
0500
 94
        0
  0
DICTIONARY
  5
4B228A
102
{ACAD_REACTORS
330
4B1ABC
102
}
330
4B1ABC
100
AcDbDictionary
280
     1
281
     1
  3
13b2f151-0x4b1c-4f74-A1E9-79DCC11120FF
360
4B3836
  3
2700c0d9-0xb1e-4ead-828B-0BE682CF338B
360
4B38A0
  3
43cfe8ea-0x622d-4913-95E0-B1FCB226BC51
360
4B38D5
  3
5294f65e-0x2a6f-49f8-9DBD-D9FC677B36F6
360
4B3886
  3
533e4a92-0xa7cf-11d7-A5DD-005004E2D0E9
360
4B2294
  3
bb38635b-0xb2f7-11d7-A5E6-005004E2D0E9
360
4B3122
  3
dbadb4fc-0xc76d-43c6-BEA3-0F179EB77B8A
360
4B3892
  3
dd5988cd-0xe1ef-42b2-8E76-4BD449D000C6
360
4B38E1
  0
DICTIONARY
  5
4B1D44
102
{ACAD_REACTORS
330
4B1D43
102
}
330
4B1D43
100
AcDbDictionary
281
     1
  0
XRECORD
  5
4B422E
102
{ACAD_REACTORS
330
4B422D
102
}
330
4B422D
100
AcDbXrecord
280
     1
290
     1
  0
XRECORD
  5
4B4230
102
{ACAD_REACTORS
330
4B422F
102
}
330
4B422F
100
AcDbXrecord
280
     1
290
     1
  0
XRECORD
  5
4B4232
102
{ACAD_REACTORS
330
4B4231
102
}
330
4B4231
100
AcDbXrecord
280
     1
290
     1
  0
XRECORD
  5
4B4234
102
{ACAD_REACTORS
330
4B4233
102
}
330
4B4233
100
AcDbXrecord
280
     1
290
     1
  0
XRECORD
  5
4B4236
102
{ACAD_REACTORS
330
4B4235
102
}
330
4B4235
100
AcDbXrecord
280
     1
290
     1
  0
XRECORD
  5
4B4238
102
{ACAD_REACTORS
330
4B4237
102
}
330
4B4237
100
AcDbXrecord
280
     1
290
     1
  0
XRECORD
  5
4B423A
102
{ACAD_REACTORS
330
4B4239
102
}
330
4B4239
100
AcDbXrecord
280
     1
290
     1
  0
XRECORD
  5
4B423C
102
{ACAD_REACTORS
330
4B423B
102
}
330
4B423B
100
AcDbXrecord
280
     1
290
     1
  0
XRECORD
  5
4B423E
102
{ACAD_REACTORS
330
4B423D
102
}
330
4B423D
100
AcDbXrecord
280
     1
290
     1
  0
XRECORD
  5
4B4240
102
{ACAD_REACTORS
330
4B423F
102
}
330
4B423F
100
AcDbXrecord
280
     1
290
     1
  0
SORTENTSTABLE
  5
4B385A
102
{ACAD_REACTORS
330
4B3859
102
}
330
4B3859
100
AcDbSortentsTable
330
4B1AC8
331
4B21B5
  5
4B21F0
331
4B21B6
  5
4B21F1
331
4B21D5
  5
4B221A
331
4B21D6
  5
4B2232
331
4B221A
  5
4B224D
331
4B2232
  5
4B224E
331
4B224A
  5
4B224F
331
4B224B
  5
4B2250
331
4B224C
  5
4B2268
331
4B224D
  5
4B228D
331
4B224E
  5
4B2293
331
4B224F
  5
4B239E
331
4B2250
  5
4B23C9
331
4B2268
  5
4B23D5
331
4B228D
  5
4B30CC
331
4B2293
  5
4B3167
331
4B239E
  5
4B316C
331
4B23C9
  5
4B316E
331
4B30CC
  5
4B316F
331
4B3167
  5
4B3170
331
4B316C
  5
4B3171
331
4B316D
  5
4B3172
331
4B316E
  5
4B3173
331
4B316F
  5
4B3174
331
4B3170
  5
4B31B4
331
4B3171
  5
4B31C6
331
4B3172
  5
4B31C7
331
4B3173
  5
4B31C8
331
4B3174
  5
4B31C9
331
4B31C6
  5
4B31CC
331
4B31C7
  5
4B31CD
331
4B31C8
  5
4B31CE
331
4B31C9
  5
4B31CF
331
4B31CA
  5
4B31D0
331
4B31CB
  5
4B31D1
331
4B31CC
  5
4B31D2
331
4B31CD
  5
4B31D3
331
4B31CE
  5
4B31D4
331
4B31CF
  5
4B31D9
331
4B31D0
  5
4B31DA
331
4B31D1
  5
4B31DB
331
4B31D2
  5
4B31DC
331
4B31D3
  5
4B31DD
331
4B31D4
  5
4B31DE
331
4B31D9
  5
4B31DF
331
4B31DA
  5
4B31E0
331
4B31DB
  5
4B31E1
331
4B31DC
  5
4B31E2
331
4B31DD
  5
4B31E5
331
4B31DE
  5
4B31E6
331
4B31DF
  5
4B31E9
331
4B31E0
  5
4B31EA
331
4B31E1
  5
4B31EB
331
4B31E2
  5
4B31EE
331
4B31E5
  5
4B31EF
331
4B31E6
  5
4B31F7
331
4B31E9
  5
4B31F8
331
4B31EA
  5
4B31F9
331
4B31EB
  5
4B31FB
331
4B31EE
  5
4B31FD
331
4B31EF
  5
4B3201
331
4B31F7
  5
4B3202
331
4B31F8
  5
4B3203
331
4B31F9
  5
4B3204
331
4B31FB
  5
4B3205
331
4B31FD
  5
4B3206
331
4B3201
  5
4B3207
331
4B3202
  5
4B3208
331
4B3203
  5
4B3209
331
4B3204
  5
4B320A
331
4B3205
  5
4B320B
331
4B3206
  5
4B320C
331
4B3207
  5
4B3677
331
4B3208
  5
4B3678
331
4B3209
  5
4B3679
331
4B320A
  5
4B367A
331
4B320B
  5
4B367B
331
4B320C
  5
4B367E
331
4B3689
  5
4B36AC
331
4B36A7
  5
4B36AD
331
4B36A8
  5
4B36AE
331
4B36A9
  5
4B36AF
331
4B36AA
  5
4B36B0
331
4B36AB
  5
4B36B1
331
4B36AC
  5
4B36B2
331
4B36AD
  5
4B36B3
331
4B36AE
  5
4B36B4
331
4B36AF
  5
4B36B5
331
4B36B0
  5
4B36B6
331
4B36B1
  5
4B36B7
331
4B36B2
  5
4B36B8
331
4B36B3
  5
4B36B9
331
4B36B4
  5
4B36BA
331
4B36B5
  5
4B36BB
331
4B36B6
  5
4B36BC
331
4B36B7
  5
4B36BD
331
4B36B8
  5
4B36BE
331
4B36B9
  5
4B36BF
331
4B36BA
  5
4B36C0
331
4B36BB
  5
4B36C1
331
4B36BC
  5
4B36C2
331
4B36BD
  5
4B36C3
331
4B36BE
  5
4B36C4
331
4B36BF
  5
4B36C5
331
4B36C1
  5
4B36C9
331
4B36C2
  5
4B36CA
331
4B36C3
  5
4B36CB
331
4B36C4
  5
4B36CC
331
4B36C5
  5
4B36CD
331
4B36C8
  5
4B36CE
331
4B36C9
  5
4B36CF
331
4B36CA
  5
4B36D0
331
4B36D0
  5
4B36F9
331
4B36D1
  5
4B36FA
331
4B36DB
  5
4B3700
331
4B370C
  5
4B3731
331
4B3734
  5
4B375F
331
4B373A
  5
4B3760
331
4B373C
  5
4B3824
331
4B375C
  5
4B3838
331
4B375D
  5
4B383A
331
4B3760
  5
4B3858
331
4B3824
  5
4B3860
331
4B3835
  5
4B3866
331
4B3837
  5
4B386C
331
4B3838
  5
4B3885
331
4B383A
  5
4B3887
331
4B3858
  5
4B21D5
331
4B3860
  5
4B21B5
331
4B3866
  5
4B1E34
331
4B3885
  5
4B3891
331
4B3887
  5
4B3893
331
4B3891
  5
4B389F
331
4B3893
  5
4B38A1
331
4B389F
  5
4B38A3
331
4B38A1
  5
4B38A4
331
4B38A3
  5
4B38A6
331
4B38A4
  5
4B38A7
331
4B38B1
  5
4B38C3
331
4B38BD
  5
4B224C
331
4B38C3
  5
4B31CB
  0
SORTENTSTABLE
  5
4B3830
102
{ACAD_REACTORS
330
4B382F
102
}
330
4B382F
100
AcDbSortentsTable
330
4B382B
  0
SORTENTSTABLE
  5
4B388D
102
{ACAD_REACTORS
330
4B388C
102
}
330
4B388C
100
AcDbSortentsTable
330
4B388A
  0
SORTENTSTABLE
  5
4B389B
102
{ACAD_REACTORS
330
4B389A
102
}
330
4B389A
100
AcDbSortentsTable
330
4B3897
  0
SORTENTSTABLE
  5
4B38CF
102
{ACAD_REACTORS
330
4B38CE
102
}
330
4B38CE
100
AcDbSortentsTable
330
4B38CB
  0
SORTENTSTABLE
  5
4B38DC
102
{ACAD_REACTORS
330
4B38DB
102
}
330
4B38DB
100
AcDbSortentsTable
330
4B38D8
  0
ACDBDETAILVIEWSTYLE
  5
4B4220
102
{ACAD_REACTORS
330
4B421F
102
}
330
4B421F
100
AcDbModelDocViewStyle
 70
     0
  3
Imperial24
290
     1
300
Imperial24
 90
        0
100
AcDbDetailViewStyle
 70
     0
 71
     0
 90
        3
 71
     1
340
4B1AC0
 62
   256
 40
0.24
340
0
 62
   256
 40
0.24
300

 40
0.36
280
     3
 71
     2
340
4B1AC4
 90
       25
 62
   256
 71
     3
340
4B1AC0
 62
   256
 40
0.24
 90
        1
 40
0.75
 90
        1
300
%<\AcVar ViewType \f "%tc1">% %<\AcVar ViewDetailId>%\PSCALE %<\AcVar ViewScale \f "%sn">%
 71
     4
340
4B1AC4
 90
       25
 62
   256
340
4B1AC4
 90
       25
 62
   256
280
     0
  0
LAYOUT
  5
4B1D17
102
{ACAD_REACTORS
330
4B1D14
102
}
330
4B1D14
100
AcDbPlotSettings
  1

  2
\\CADSERVER\Jet25 Eng
  4

  6

 40
0.0
 41
0.0
 42
0.0
 43
0.0
 44
0.0
 45
0.0
 46
0.0
 47
0.0
 48
0.0
 49
0.0
140
0.0
141
0.0
142
1.0
143
1.0
 70
   688
 72
     0
 73
     0
 74
     5
  7
Harvey Std Plot Style.ctb
 75
    16
147
1.0
 76
     0
 77
     2
 78
   300
148
0.0
149
0.0
100
AcDbLayout
  1
Layout1
 70
     1
 71
     1
 10
0.0
 20
0.0
 11
12.0
 21
9.0
 12
0.0
 22
0.0
 32
0.0
 14
1.000000000000000E+20
 24
1.000000000000000E+20
 34
1.000000000000000E+20
 15
-1.000000000000000E+20
 25
-1.000000000000000E+20
 35
-1.000000000000000E+20
146
0.0
 13
0.0
 23
0.0
 33
0.0
 16
1.0
 26
0.0
 36
0.0
 17
0.0
 27
1.0
 37
0.0
 76
     0
330
4B1AC5
  0
LAYOUT
  5
4B1D16
102
{ACAD_REACTORS
330
4B1D14
102
}
330
4B1D14
100
AcDbPlotSettings
  1

  2
LaserJet 4V.pc3
  4
ANSI_A_(8.50_x_11.00_Inches)
  6
OLE1
 40
5.027082920074462
 41
5.027082920074462
 42
9.345077514648437
 43
5.11175537109375
 44
215.8999938964844
 45
279.3999938964844
 46
0.0
 47
0.0
 48
0.0
 49
0.0
140
0.0
141
0.0
142
1.0
143
2.0
 70
 11952
 72
     0
 73
     0
 74
     1
  7
Harvey Std Plot Style.ctb
 75
    17
147
0.5
 76
     0
 77
     2
 78
   300
148
-11.83096059512709
149
-16.42668728283952
100
AcDbLayout
  1
Model
 70
     1
 71
     0
 10
0.0
 20
0.0
 11
12.0
 21
9.0
 12
0.0
 22
0.0
 32
0.0
 14
0.0
 24
0.0
 34
0.0
 15
0.0
 25
0.0
 35
0.0
146
0.0
 13
0.0
 23
0.0
 33
0.0
 16
1.0
 26
0.0
 36
0.0
 17
0.0
 27
1.0
 37
0.0
 76
     0
330
4B1AC8
331
4B41D6
  0
MATERIAL
  5
4B41E0
102
{ACAD_XDICTIONARY
360
4B41E1
102
}
102
{ACAD_REACTORS
330
4B3766
102
}
330
4B3766
100
AcDbMaterial
  1
ByBlock
 72
     0
 43
0.0208333333333333
 43
0.0
 43
0.0
 43
0.0
 43
0.0
 43
0.0208333333333333
 43
0.0
 43
0.0
 43
0.0
 43
0.0
 43
1.0
 43
0.0
 43
0.0
 43
0.0
 43
0.0
 43
1.0
 77
     0
 47
0.0208333333333333
 47
0.0
 47
0.0
 47
0.0
 47
0.0
 47
0.0208333333333333
 47
0.0
 47
0.0
 47
0.0
 47
0.0
 47
1.0
 47
0.0
 47
0.0
 47
0.0
 47
0.0
 47
1.0
171
     0
 49
0.0208333333333333
 49
0.0
 49
0.0
 49
0.0
 49
0.0
 49
0.0208333333333333
 49
0.0
 49
0.0
 49
0.0
 49
0.0
 49
1.0
 49
0.0
 49
0.0
 49
0.0
 49
0.0
 49
1.0
175
     0
142
0.0208333333333333
142
0.0
142
0.0
142
0.0
142
0.0
142
0.0208333333333333
142
0.0
142
0.0
142
0.0
142
0.0
142
1.0
142
0.0
142
0.0
142
0.0
142
0.0
142
1.0
179
     0
144
0.0208333333333333
144
0.0
144
0.0
144
0.0
144
0.0
144
0.0208333333333333
144
0.0
144
0.0
144
0.0
144
0.0
144
1.0
144
0.0
144
0.0
144
0.0
144
0.0
144
1.0
147
0.0208333333333333
147
0.0
147
0.0
147
0.0
147
0.0
147
0.0208333333333333
147
0.0
147
0.0
147
0.0
147
0.0
147
1.0
147
0.0
147
0.0
147
0.0
147
0.0
147
1.0
  0
MATERIAL
  5
4B41D8
102
{ACAD_XDICTIONARY
360
4B41D9
102
}
102
{ACAD_REACTORS
330
4B3766
102
}
330
4B3766
100
AcDbMaterial
  1
ByLayer
 72
     0
 43
0.0208333333333333
 43
0.0
 43
0.0
 43
0.0
 43
0.0
 43
0.0208333333333333
 43
0.0
 43
0.0
 43
0.0
 43
0.0
 43
1.0
 43
0.0
 43
0.0
 43
0.0
 43
0.0
 43
1.0
 77
     0
 47
0.0208333333333333
 47
0.0
 47
0.0
 47
0.0
 47
0.0
 47
0.0208333333333333
 47
0.0
 47
0.0
 47
0.0
 47
0.0
 47
1.0
 47
0.0
 47
0.0
 47
0.0
 47
0.0
 47
1.0
171
     0
 49
0.0208333333333333
 49
0.0
 49
0.0
 49
0.0
 49
0.0
 49
0.0208333333333333
 49
0.0
 49
0.0
 49
0.0
 49
0.0
 49
1.0
 49
0.0
 49
0.0
 49
0.0
 49
0.0
 49
1.0
175
     0
142
0.0208333333333333
142
0.0
142
0.0
142
0.0
142
0.0
142
0.0208333333333333
142
0.0
142
0.0
142
0.0
142
0.0
142
1.0
142
0.0
142
0.0
142
0.0
142
0.0
142
1.0
179
     0
144
0.0208333333333333
144
0.0
144
0.0
144
0.0
144
0.0
144
0.0208333333333333
144
0.0
144
0.0
144
0.0
144
0.0
144
1.0
144
0.0
144
0.0
144
0.0
144
0.0
144
1.0
147
0.0208333333333333
147
0.0
147
0.0
147
0.0
147
0.0
147
0.0208333333333333
147
0.0
147
0.0
147
0.0
147
0.0
147
1.0
147
0.0
147
0.0
147
0.0
147
0.0
147
1.0
  0
MATERIAL
  5
4B41E8
102
{ACAD_XDICTIONARY
360
4B41E9
102
}
102
{ACAD_REACTORS
330
4B3766
102
}
330
4B3766
100
AcDbMaterial
  1
Global
 72
     0
 43
0.0208333333333333
 43
0.0
 43
0.0
 43
0.0
 43
0.0
 43
0.0208333333333333
 43
0.0
 43
0.0
 43
0.0
 43
0.0
 43
1.0
 43
0.0
 43
0.0
 43
0.0
 43
0.0
 43
1.0
 77
     0
 47
0.0208333333333333
 47
0.0
 47
0.0
 47
0.0
 47
0.0
 47
0.0208333333333333
 47
0.0
 47
0.0
 47
0.0
 47
0.0
 47
1.0
 47
0.0
 47
0.0
 47
0.0
 47
0.0
 47
1.0
171
     0
 49
0.0208333333333333
 49
0.0
 49
0.0
 49
0.0
 49
0.0
 49
0.0208333333333333
 49
0.0
 49
0.0
 49
0.0
 49
0.0
 49
1.0
 49
0.0
 49
0.0
 49
0.0
 49
0.0
 49
1.0
175
     0
142
0.0208333333333333
142
0.0
142
0.0
142
0.0
142
0.0
142
0.0208333333333333
142
0.0
142
0.0
142
0.0
142
0.0
142
1.0
142
0.0
142
0.0
142
0.0
142
0.0
142
1.0
179
     0
144
0.0208333333333333
144
0.0
144
0.0
144
0.0
144
0.0
144
0.0208333333333333
144
0.0
144
0.0
144
0.0
144
0.0
144
1.0
144
0.0
144
0.0
144
0.0
144
0.0
144
1.0
147
0.0208333333333333
147
0.0
147
0.0
147
0.0
147
0.0
147
0.0208333333333333
147
0.0
147
0.0
147
0.0
147
0.0
147
1.0
147
0.0
147
0.0
147
0.0
147
0.0
147
1.0
  0
MLEADERSTYLE
  5
4B421C
102
{ACAD_REACTORS
330
4B421B
102
}
330
4B421B
100
AcDbMLeaderStyle
179
     2
170
     2
171
     1
172
     0
 90
        2
 40
0.0
 41
0.0
173
     1
 91
-1056964608
340
4B1AC2
 92
       -2
290
     1
 42
0.09
291
     1
 43
0.36
  3
Standard
 44
0.18
300

342
4B1AC0
174
     1
178
     6
175
     1
176
     0
 93
-1056964608
 45
0.18
292
     0
297
     0
 46
0.18
 94
-1056964608
 47
1.0
 49
1.0
140
1.0
293
     1
141
0.0
294
     1
177
     0
142
1.0
295
     1
296
     0
143
0.125
271
     0
272
     9
273
     9
298
     1
  0
MLINESTYLE
  5
4B1ACB
102
{ACAD_REACTORS
330
4B1ABE
102
}
330
4B1ABE
100
AcDbMlineStyle
  2
STANDARD
 70
     0
  3

 62
     0
 51
90.0
 52
90.0
 71
     2
 49
0.5
 62
   256
  6
BYLAYER
 49
-0.5
 62
   256
  6
BYLAYER
  0
PLOTSETTINGS
  5
4B1D2C
102
{ACAD_REACTORS
330
4B1D15
102
}
330
4B1D15
100
AcDbPlotSettings
  1
A_size_1_to_1
  2
\\CADSERVER\Jet25 Eng
  4
Letter
  6
OLE1
 40
7.143749713897705
 41
6.720414161682128
 42
7.14373779296875
 43
5.027069091796875
 44
215.8999938964844
 45
279.3999938964844
 46
0.0
 47
0.0
 48
0.0
 49
0.0
140
0.0
141
0.0
142
1.0
143
1.0
 70
  1712
 72
     0
 73
     1
 74
     2
  7
Harvey Std Plot Style.ctb
 75
    16
147
1.0
 76
     0
 77
     2
 78
   300
148
0.0
149
0.0
  0
PLOTSETTINGS
  5
4B1D2E
102
{ACAD_REACTORS
330
4B1D15
102
}
330
4B1D15
100
AcDbPlotSettings
  1
B_size_1_to_1
  2
\\CADSERVER\Jet25 Eng
  4
Tabloid
  6
OLE1
 40
7.143749713897705
 41
5.873736858367919
 42
7.143768310546875
 43
7.14373779296875
 44
279.3999938964844
 45
431.7999877929687
 46
0.0
 47
0.0
 48
0.0
 49
0.0
140
0.0
141
0.0
142
1.0
143
1.0
 70
  1712
 72
     0
 73
     1
 74
     2
  7
Harvey Std Plot Style.ctb
 75
    16
147
1.0
 76
     0
 77
     2
 78
   300
148
0.0
149
0.0
  0
ACDBPLACEHOLDER
  5
4B1D13
102
{ACAD_REACTORS
330
4B1D12
102
}
330
4B1D12
  0
SCALE
  5
4B420A
102
{ACAD_REACTORS
330
4B4209
102
}
330
4B4209
100
AcDbScale
 70
     0
300
1:1
140
1.0
141
1.0
290
     1
  0
SCALE
  5
4B420B
102
{ACAD_REACTORS
330
4B4209
102
}
330
4B4209
100
AcDbScale
 70
     0
300
1/128" = 1'-0"
140
0.0078125
141
12.0
290
     0
  0
SCALE
  5
4B420C
102
{ACAD_REACTORS
330
4B4209
102
}
330
4B4209
100
AcDbScale
 70
     0
300
1/64" = 1'-0"
140
0.015625
141
12.0
290
     0
  0
SCALE
  5
4B420D
102
{ACAD_REACTORS
330
4B4209
102
}
330
4B4209
100
AcDbScale
 70
     0
300
1/32" = 1'-0"
140
0.03125
141
12.0
290
     0
  0
SCALE
  5
4B420E
102
{ACAD_REACTORS
330
4B4209
102
}
330
4B4209
100
AcDbScale
 70
     0
300
1/16" = 1'-0"
140
0.0625
141
12.0
290
     0
  0
SCALE
  5
4B420F
102
{ACAD_REACTORS
330
4B4209
102
}
330
4B4209
100
AcDbScale
 70
     0
300
3/32" = 1'-0"
140
0.09375
141
12.0
290
     0
  0
SCALE
  5
4B4210
102
{ACAD_REACTORS
330
4B4209
102
}
330
4B4209
100
AcDbScale
 70
     0
300
1/8" = 1'-0"
140
0.125
141
12.0
290
     0
  0
SCALE
  5
4B4211
102
{ACAD_REACTORS
330
4B4209
102
}
330
4B4209
100
AcDbScale
 70
     0
300
3/16" = 1'-0"
140
0.1875
141
12.0
290
     0
  0
SCALE
  5
4B4212
102
{ACAD_REACTORS
330
4B4209
102
}
330
4B4209
100
AcDbScale
 70
     0
300
1/4" = 1'-0"
140
0.25
141
12.0
290
     0
  0
SCALE
  5
4B4213
102
{ACAD_REACTORS
330
4B4209
102
}
330
4B4209
100
AcDbScale
 70
     0
300
3/8" = 1'-0"
140
0.375
141
12.0
290
     0
  0
SCALE
  5
4B4214
102
{ACAD_REACTORS
330
4B4209
102
}
330
4B4209
100
AcDbScale
 70
     0
300
1/2" = 1'-0"
140
0.5
141
12.0
290
     0
  0
SCALE
  5
4B4215
102
{ACAD_REACTORS
330
4B4209
102
}
330
4B4209
100
AcDbScale
 70
     0
300
3/4" = 1'-0"
140
0.75
141
12.0
290
     0
  0
SCALE
  5
4B4216
102
{ACAD_REACTORS
330
4B4209
102
}
330
4B4209
100
AcDbScale
 70
     0
300
1" = 1'-0"
140
1.0
141
12.0
290
     0
  0
SCALE
  5
4B4217
102
{ACAD_REACTORS
330
4B4209
102
}
330
4B4209
100
AcDbScale
 70
     0
300
1-1/2" = 1'-0"
140
1.5
141
12.0
290
     0
  0
SCALE
  5
4B4218
102
{ACAD_REACTORS
330
4B4209
102
}
330
4B4209
100
AcDbScale
 70
     0
300
3" = 1'-0"
140
3.0
141
12.0
290
     0
  0
SCALE
  5
4B4219
102
{ACAD_REACTORS
330
4B4209
102
}
330
4B4209
100
AcDbScale
 70
     0
300
6" = 1'-0"
140
6.0
141
12.0
290
     0
  0
SCALE
  5
4B421A
102
{ACAD_REACTORS
330
4B4209
102
}
330
4B4209
100
AcDbScale
 70
     0
300
1'-0" = 1'-0"
140
12.0
141
12.0
290
     0
  0
ACDBSECTIONVIEWSTYLE
  5
4B421E
102
{ACAD_REACTORS
330
4B421D
102
}
330
4B421D
100
AcDbModelDocViewStyle
 70
     0
  3
Imperial24
290
     1
300
Imperial24
 90
        0
100
AcDbSectionViewStyle
 70
     0
 71
     0
 90
       78
 71
     1
340
4B1AC0
 62
   256
 40
0.24
340
0
340
0
 62
   256
 40
0.24
300
I, O, Q, S, X, Z
 40
0.48
 90
        3
 40
0.18
 90
        1
 71
     2
340
4B1AC4
 90
       25
 62
   256
340
4B1AC4
 90
       50
 62
   256
 40
0.24
 40
0.0
 40
0.24
 71
     3
340
4B1AC0
 62
   256
 40
0.24
 90
        1
 40
0.75
 90
        1
300
%<\AcVar ViewType \f "%tc1">% %<\AcVar ViewSectionStartId>%-%<\AcVar ViewSectionEndId>%\PSCALE %<\AcVar ViewScale \f "%sn">%
 71
     4
 62
   256
 62
   257
300
ANSI31
 40
1.0
 90
        0
290
     0
290
     0
 90
        6
 40
0.0
 40
1.570796326794896
 40
0.2617993877991494
 40
1.308996938995747
 40
-0.2617993877991494
 40
1.832595714594046
  0
TABLESTYLE
  5
4B3769
102
{ACAD_XDICTIONARY
360
4B425A
102
}
102
{ACAD_REACTORS
330
4B3768
102
}
330
4B3768
100
AcDbTableStyle
280
     0
  3
Standard
 70
     0
 71
     0
 40
0.06
 41
0.06
280
     0
281
     0
  7
STANDARD
140
0.18
170
     2
 62
     0
 63
     7
283
     0
 90
        4
 91
        0
  1

274
    -2
284
     1
 64
     0
275
    -2
285
     1
 65
     0
276
    -2
286
     1
 66
     0
277
    -2
287
     1
 67
     0
278
    -2
288
     1
 68
     0
279
    -2
289
     1
 69
     0
  7
STANDARD
140
0.25
170
     5
 62
     0
 63
     7
283
     0
 90
        4
 91
        0
  1

274
    -2
284
     1
 64
     0
275
    -2
285
     1
 65
     0
276
    -2
286
     1
 66
     0
277
    -2
287
     1
 67
     0
278
    -2
288
     1
 68
     0
279
    -2
289
     1
 69
     0
  7
STANDARD
140
0.18
170
     5
 62
     0
 63
     7
283
     0
 90
        4
 91
        0
  1

274
    -2
284
     1
 64
     0
275
    -2
285
     1
 65
     0
276
    -2
286
     1
 66
     0
277
    -2
287
     1
 67
     0
278
    -2
288
     1
 68
     0
279
    -2
289
     1
 69
     0
  0
VISUALSTYLE
  5
4B41F6
102
{ACAD_REACTORS
330
4B41F0
102
}
330
4B41F0
100
AcDbVisualStyle
  2
2dWireframe
 70
     4
177
     3
291
     0
 70
    58
 90
        0
176
     1
 90
        2
176
     1
 90
        0
176
     1
 90
        0
176
     1
 40
0.6
176
     1
 40
30.0
176
     1
 62
     7
420
 16777215
176
     1
 90
        1
176
     1
 90
        4
176
     1
 62
     7
176
     1
 62
   257
176
     1
 90
        1
176
     1
 90
        1
176
     1
 40
1.0
176
     1
 90
        0
176
     1
 62
   257
176
     1
 40
1.0
176
     1
 90
        1
176
     1
 90
        6
176
     1
 90
        2
176
     1
 62
     7
176
     1
 90
        5
176
     1
 90
        0
176
     1
 90
        0
176
     1
290
     0
176
     1
 90
        1
176
     1
 40
0.0
176
     1
 90
        0
176
     1
290
     1
176
     1
290
     1
176
     1
290
     0
176
     1
290
     0
176
     1
290
     0
176
     1
290
     0
176
     1
290
     0
176
     1
290
     0
176
     1
290
     0
176
     1
 90
       50
176
     1
 40
0.0
176
     1
 40
1.0
176
     1
 90
        0
176
     1
 62
    18
420
        0
176
     1
 90
       50
176
     1
 90
        3
176
     1
 62
     5
420
      255
176
     1
290
     0
176
     1
 90
       50
176
     1
 90
       50
176
     1
 90
       50
176
     1
290
     0
176
     1
 90
       50
176
     1
 62
   256
176
     0
 40
1.0
176
     0
 90
        2
176
     1
  1
strokes_ogs.tif
176
     1
290
     0
176
     1
 40
1.0
176
     1
 40
1.0
176
     1
  0
VISUALSTYLE
  5
4B41F5
102
{ACAD_REACTORS
330
4B41F0
102
}
330
4B41F0
100
AcDbVisualStyle
  2
Basic
 70
     7
177
     3
291
     1
 70
    58
 90
        1
176
     1
 90
        0
176
     1
 90
        1
176
     1
 90
        0
176
     1
 40
0.6
176
     1
 40
30.0
176
     1
 62
     7
420
 16777215
176
     1
 90
        0
176
     1
 90
        4
176
     1
 62
     7
176
     1
 62
   257
176
     1
 90
        1
176
     1
 90
        1
176
     1
 40
1.0
176
     1
 90
        8
176
     1
 62
     7
176
     1
 40
1.0
176
     1
 90
        1
176
     1
 90
        6
176
     1
 90
        2
176
     1
 62
     7
176
     1
 90
        5
176
     1
 90
        0
176
     1
 90
        0
176
     1
290
     0
176
     1
 90
        1
176
     1
 40
0.0
176
     1
 90
        0
176
     1
290
     0
176
     1
290
     1
176
     1
290
     1
176
     1
290
     0
176
     1
290
     0
176
     1
290
     0
176
     1
290
     0
176
     1
290
     0
176
     1
290
     0
176
     1
 90
       50
176
     1
 40
0.0
176
     1
 40
1.0
176
     1
 90
        0
176
     1
 62
    18
420
        0
176
     1
 90
       50
176
     1
 90
        3
176
     1
 62
     5
420
      255
176
     1
290
     0
176
     1
 90
       50
176
     1
 90
       50
176
     1
 90
       50
176
     1
290
     0
176
     1
 90
       50
176
     1
 62
   256
176
     0
 40
1.0
176
     0
 90
        2
176
     1
  1
strokes_ogs.tif
176
     1
290
     0
176
     1
 40
1.0
176
     1
 40
1.0
176
     1
  0
VISUALSTYLE
  5
4B41FC
102
{ACAD_REACTORS
330
4B41F0
102
}
330
4B41F0
100
AcDbVisualStyle
  2
Brighten
 70
    12
177
     3
291
     1
 70
    58
 90
        2
176
     1
 90
        2
176
     1
 90
        0
176
     1
 90
        0
176
     1
 40
0.6
176
     1
 40
30.0
176
     1
 62
     7
420
 16777215
176
     1
 90
        1
176
     1
 90
        4
176
     1
 62
     7
176
     1
 62
   257
176
     1
 90
        1
176
     1
 90
        1
176
     1
 40
1.0
176
     1
 90
        8
176
     1
 62
     7
176
     1
 40
1.0
176
     1
 90
        1
176
     1
 90
        6
176
     1
 90
        2
176
     1
 62
     7
176
     1
 90
        5
176
     1
 90
        0
176
     1
 90
        0
176
     1
290
     0
176
     1
 90
        1
176
     1
 40
50.0
176
     1
 90
        0
176
     1
290
     0
176
     1
290
     1
176
     1
290
     1
176
     1
290
     0
176
     1
290
     0
176
     1
290
     0
176
     1
290
     0
176
     1
290
     0
176
     1
290
     0
176
     1
 90
       50
176
     1
 40
0.0
176
     1
 40
1.0
176
     1
 90
        0
176
     1
 62
    18
420
        0
176
     1
 90
       50
176
     1
 90
        3
176
     1
 62
     5
420
      255
176
     1
290
     0
176
     1
 90
       50
176
     1
 90
       50
176
     1
 90
       50
176
     1
290
     0
176
     1
 90
       50
176
     1
 62
   256
176
     0
 40
1.0
176
     0
 90
        2
176
     1
  1
strokes_ogs.tif
176
     1
290
     0
176
     1
 40
1.0
176
     1
 40
1.0
176
     1
  0
VISUALSTYLE
  5
4B4200
102
{ACAD_REACTORS
330
4B41F0
102
}
330
4B41F0
100
AcDbVisualStyle
  2
ColorChange
 70
    16
177
     3
291
     1
 70
    58
 90
        2
176
     1
 90
        2
176
     1
 90
        3
176
     1
 90
        0
176
     1
 40
0.6
176
     1
 40
30.0
176
     1
 62
     8
420
  8421504
176
     1
 90
        1
176
     1
 90
        4
176
     1
 62
     7
176
     1
 62
   257
176
     1
 90
        1
176
     1
 90
        1
176
     1
 40
1.0
176
     1
 90
        8
176
     1
 62
     8
420
  8421504
176
     1
 40
1.0
176
     1
 90
        1
176
     1
 90
        6
176
     1
 90
        2
176
     1
 62
     7
176
     1
 90
        5
176
     1
 90
        0
176
     1
 90
        0
176
     1
290
     0
176
     1
 90
        1
176
     1
 40
0.0
176
     1
 90
        0
176
     1
290
     0
176
     1
290
     1
176
     1
290
     1
176
     1
290
     0
176
     1
290
     0
176
     1
290
     0
176
     1
290
     0
176
     1
290
     0
176
     1
290
     0
176
     1
 90
       50
176
     1
 40
0.0
176
     1
 40
1.0
176
     1
 90
        0
176
     1
 62
    18
420
        0
176
     1
 90
       50
176
     1
 90
        3
176
     1
 62
     5
420
      255
176
     1
290
     0
176
     1
 90
       50
176
     1
 90
       50
176
     1
 90
       50
176
     1
290
     0
176
     1
 90
       50
176
     1
 62
   256
176
     0
 40
1.0
176
     0
 90
        2
176
     1
  1
strokes_ogs.tif
176
     1
290
     0
176
     1
 40
1.0
176
     1
 40
1.0
176
     1
  0
VISUALSTYLE
  5
4B41F9
102
{ACAD_REACTORS
330
4B41F0
102
}
330
4B41F0
100
AcDbVisualStyle
  2
Conceptual
 70
     9
177
     3
291
     0
 70
    58
 90
        3
176
     1
 90
        2
176
     1
 90
        0
176
     1
 90
        0
176
     1
 40
0.6
176
     1
 40
30.0
176
     1
 62
     7
420
 16777215
176
     1
 90
        2
176
     1
 90
        2
176
     1
 62
     7
176
     1
 62
   257
176
     1
 90
        1
176
     1
 90
        1
176
     1
 40
179.0
176
     1
 90
        8
176
     1
 62
     7
176
     1
 40
1.0
176
     1
 90
        1
176
     1
 90
        6
176
     1
 90
        2
176
     1
 62
     7
176
     1
 90
        3
176
     1
 90
        0
176
     1
 90
        0
176
     1
290
     0
176
     1
 90
        1
176
     1
 40
0.0
176
     1
 90
        0
176
     1
290
     0
176
     1
290
     1
176
     1
290
     1
176
     1
290
     0
176
     1
290
     0
176
     1
290
     0
176
     1
290
     0
176
     1
290
     0
176
     1
290
     0
176
     1
 90
       50
176
     1
 40
0.0
176
     1
 40
1.0
176
     1
 90
        0
176
     1
 62
    18
420
        0
176
     1
 90
       50
176
     1
 90
        3
176
     1
 62
     5
420
      255
176
     1
290
     0
176
     1
 90
       50
176
     1
 90
       50
176
     1
 90
       50
176
     1
290
     0
176
     1
 90
       50
176
     1
 62
   256
176
     0
 40
1.0
176
     0
 90
        2
176
     1
  1
strokes_ogs.tif
176
     1
290
     0
176
     1
 40
1.0
176
     1
 40
1.0
176
     1
  0
VISUALSTYLE
  5
4B41FB
102
{ACAD_REACTORS
330
4B41F0
102
}
330
4B41F0
100
AcDbVisualStyle
  2
Dim
 70
    11
177
     3
291
     1
 70
    58
 90
        2
176
     1
 90
        2
176
     1
 90
        0
176
     1
 90
        0
176
     1
 40
0.6
176
     1
 40
30.0
176
     1
 62
     7
420
 16777215
176
     1
 90
        1
176
     1
 90
        4
176
     1
 62
     7
176
     1
 62
   257
176
     1
 90
        1
176
     1
 90
        1
176
     1
 40
1.0
176
     1
 90
        8
176
     1
 62
     7
176
     1
 40
1.0
176
     1
 90
        1
176
     1
 90
        6
176
     1
 90
        2
176
     1
 62
     7
176
     1
 90
        5
176
     1
 90
        0
176
     1
 90
        0
176
     1
290
     0
176
     1
 90
        1
176
     1
 40
-50.0
176
     1
 90
        0
176
     1
290
     0
176
     1
290
     1
176
     1
290
     1
176
     1
290
     0
176
     1
290
     0
176
     1
290
     0
176
     1
290
     0
176
     1
290
     0
176
     1
290
     0
176
     1
 90
       50
176
     1
 40
0.0
176
     1
 40
1.0
176
     1
 90
        0
176
     1
 62
    18
420
        0
176
     1
 90
       50
176
     1
 90
        3
176
     1
 62
     5
420
      255
176
     1
290
     0
176
     1
 90
       50
176
     1
 90
       50
176
     1
 90
       50
176
     1
290
     0
176
     1
 90
       50
176
     1
 62
   256
176
     0
 40
1.0
176
     0
 90
        2
176
     1
  1
strokes_ogs.tif
176
     1
290
     0
176
     1
 40
1.0
176
     1
 40
1.0
176
     1
  0
VISUALSTYLE
  5
4B4208
102
{ACAD_REACTORS
330
4B41F0
102
}
330
4B41F0
100
AcDbVisualStyle
  2
EdgeColorOff
 70
    22
177
     3
291
     1
 70
    58
 90
        2
176
     0
 90
        2
176
     0
 90
        0
176
     0
 90
        0
176
     0
 40
0.6
176
     0
 40
30.0
176
     0
 62
     7
420
 16777215
176
     0
 90
        1
176
     0
 90
        4
176
     0
 62
     7
176
     0
 62
   257
176
     0
 90
        1
176
     0
 90
        1
176
     0
 40
1.0
176
     0
 90
        8
176
     2
 62
     7
176
     0
 40
1.0
176
     0
 90
        1
176
     0
 90
        6
176
     0
 90
        2
176
     0
 62
     7
176
     0
 90
        5
176
     0
 90
        0
176
     0
 90
        0
176
     0
290
     0
176
     0
 90
        1
176
     0
 40
0.0
176
     0
 90
        0
176
     0
290
     0
176
     0
290
     1
176
     0
290
     1
176
     0
290
     0
176
     0
290
     0
176
     0
290
     0
176
     0
290
     0
176
     0
290
     0
176
     0
290
     0
176
     0
 90
       50
176
     0
 40
0.0
176
     0
 40
1.0
176
     0
 90
        0
176
     0
 62
    18
420
        0
176
     0
 90
       50
176
     0
 90
        3
176
     0
 62
     5
420
      255
176
     0
290
     0
176
     0
 90
       50
176
     0
 90
       50
176
     0
 90
       50
176
     0
290
     0
176
     0
 90
       50
176
     0
 62
   256
176
     0
 40
1.0
176
     0
 90
        2
176
     0
  1
strokes_ogs.tif
176
     0
290
     0
176
     0
 40
1.0
176
     0
 40
1.0
176
     0
  0
VISUALSTYLE
  5
4B41FF
102
{ACAD_REACTORS
330
4B41F0
102
}
330
4B41F0
100
AcDbVisualStyle
  2
Facepattern
 70
    15
177
     3
291
     1
 70
    58
 90
        2
176
     1
 90
        2
176
     1
 90
        0
176
     1
 90
        0
176
     1
 40
0.6
176
     1
 40
30.0
176
     1
 62
     7
420
 16777215
176
     1
 90
        1
176
     1
 90
        4
176
     1
 62
     7
176
     1
 62
   257
176
     1
 90
        1
176
     1
 90
        1
176
     1
 40
1.0
176
     1
 90
        8
176
     1
 62
     7
176
     1
 40
1.0
176
     1
 90
        1
176
     1
 90
        6
176
     1
 90
        2
176
     1
 62
     7
176
     1
 90
        5
176
     1
 90
        0
176
     1
 90
        0
176
     1
290
     0
176
     1
 90
        1
176
     1
 40
0.0
176
     1
 90
        0
176
     1
290
     0
176
     1
290
     1
176
     1
290
     1
176
     1
290
     0
176
     1
290
     0
176
     1
290
     0
176
     1
290
     0
176
     1
290
     0
176
     1
290
     0
176
     1
 90
       50
176
     1
 40
0.0
176
     1
 40
1.0
176
     1
 90
        0
176
     1
 62
    18
420
        0
176
     1
 90
       50
176
     1
 90
        3
176
     1
 62
     5
420
      255
176
     1
290
     0
176
     1
 90
       50
176
     1
 90
       50
176
     1
 90
       50
176
     1
290
     0
176
     1
 90
       50
176
     1
 62
   256
176
     0
 40
1.0
176
     0
 90
        2
176
     1
  1
strokes_ogs.tif
176
     1
290
     0
176
     1
 40
1.0
176
     1
 40
1.0
176
     1
  0
VISUALSTYLE
  5
4B41F1
102
{ACAD_REACTORS
330
4B41F0
102
}
330
4B41F0
100
AcDbVisualStyle
  2
Flat
 70
     0
177
     3
291
     1
 70
    58
 90
        2
176
     1
 90
        1
176
     1
 90
        1
176
     1
 90
        2
176
     1
 40
0.6
176
     1
 40
30.0
176
     1
 62
     7
420
 16777215
176
     1
 90
        0
176
     1
 90
        0
176
     1
 62
     7
176
     1
 62
   257
176
     1
 90
        1
176
     1
 90
        1
176
     1
 40
1.0
176
     1
 90
        8
176
     1
 62
     7
176
     1
 40
1.0
176
     1
 90
        1
176
     1
 90
        6
176
     1
 90
        2
176
     1
 62
     7
176
     1
 90
        5
176
     1
 90
        0
176
     1
 90
        0
176
     1
290
     0
176
     1
 90
       13
176
     1
 40
0.0
176
     1
 90
        0
176
     1
290
     0
176
     1
290
     1
176
     1
290
     1
176
     1
290
     0
176
     1
290
     0
176
     1
290
     0
176
     1
290
     0
176
     1
290
     0
176
     1
290
     0
176
     1
 90
       50
176
     1
 40
0.0
176
     1
 40
1.0
176
     1
 90
        0
176
     1
 62
    18
420
        0
176
     1
 90
       50
176
     1
 90
        3
176
     1
 62
     5
420
      255
176
     1
290
     0
176
     1
 90
       50
176
     1
 90
       50
176
     1
 90
       50
176
     1
290
     0
176
     1
 90
       50
176
     1
 62
   256
176
     0
 40
1.0
176
     0
 90
        2
176
     1
  1
strokes_ogs.tif
176
     1
290
     0
176
     1
 40
1.0
176
     1
 40
1.0
176
     1
  0
VISUALSTYLE
  5
4B41F2
102
{ACAD_REACTORS
330
4B41F0
102
}
330
4B41F0
100
AcDbVisualStyle
  2
FlatWithEdges
 70
     1
177
     3
291
     1
 70
    58
 90
        2
176
     1
 90
        1
176
     1
 90
        1
176
     1
 90
        2
176
     1
 40
0.6
176
     1
 40
30.0
176
     1
 62
     7
420
 16777215
176
     1
 90
        1
176
     1
 90
        0
176
     1
 62
     7
176
     1
 62
   257
176
     1
 90
        1
176
     1
 90
        1
176
     1
 40
1.0
176
     1
 90
        0
176
     1
 62
   257
176
     1
 40
1.0
176
     1
 90
        1
176
     1
 90
        6
176
     1
 90
        2
176
     1
 62
     7
176
     1
 90
        5
176
     1
 90
        0
176
     1
 90
        0
176
     1
290
     0
176
     1
 90
       13
176
     1
 40
0.0
176
     1
 90
        0
176
     1
290
     0
176
     1
290
     1
176
     1
290
     1
176
     1
290
     0
176
     1
290
     0
176
     1
290
     0
176
     1
290
     0
176
     1
290
     0
176
     1
290
     0
176
     1
 90
       50
176
     1
 40
0.0
176
     1
 40
1.0
176
     1
 90
        0
176
     1
 62
    18
420
        0
176
     1
 90
       50
176
     1
 90
        3
176
     1
 62
     5
420
      255
176
     1
290
     0
176
     1
 90
       50
176
     1
 90
       50
176
     1
 90
       50
176
     1
290
     0
176
     1
 90
       50
176
     1
 62
   256
176
     0
 40
1.0
176
     0
 90
        2
176
     1
  1
strokes_ogs.tif
176
     1
290
     0
176
     1
 40
1.0
176
     1
 40
1.0
176
     1
  0
VISUALSTYLE
  5
4B41F3
102
{ACAD_REACTORS
330
4B41F0
102
}
330
4B41F0
100
AcDbVisualStyle
  2
Gouraud
 70
     2
177
     3
291
     1
 70
    58
 90
        2
176
     1
 90
        2
176
     1
 90
        1
176
     1
 90
        2
176
     1
 40
0.6
176
     1
 40
30.0
176
     1
 62
     7
420
 16777215
176
     1
 90
        0
176
     1
 90
        0
176
     1
 62
     7
176
     1
 62
   257
176
     1
 90
        1
176
     1
 90
        1
176
     1
 40
1.0
176
     1
 90
        0
176
     1
 62
     7
176
     1
 40
1.0
176
     1
 90
        1
176
     1
 90
        6
176
     1
 90
        2
176
     1
 62
     7
176
     1
 90
        5
176
     1
 90
        0
176
     1
 90
        0
176
     1
290
     0
176
     1
 90
       13
176
     1
 40
0.0
176
     1
 90
        0
176
     1
290
     0
176
     1
290
     1
176
     1
290
     1
176
     1
290
     0
176
     1
290
     0
176
     1
290
     0
176
     1
290
     0
176
     1
290
     0
176
     1
290
     0
176
     1
 90
       50
176
     1
 40
0.0
176
     1
 40
1.0
176
     1
 90
        0
176
     1
 62
    18
420
        0
176
     1
 90
       50
176
     1
 90
        3
176
     1
 62
     5
420
      255
176
     1
290
     0
176
     1
 90
       50
176
     1
 90
       50
176
     1
 90
       50
176
     1
290
     0
176
     1
 90
       50
176
     1
 62
   256
176
     0
 40
1.0
176
     0
 90
        2
176
     1
  1
strokes_ogs.tif
176
     1
290
     0
176
     1
 40
1.0
176
     1
 40
1.0
176
     1
  0
VISUALSTYLE
  5
4B41F4
102
{ACAD_REACTORS
330
4B41F0
102
}
330
4B41F0
100
AcDbVisualStyle
  2
GouraudWithEdges
 70
     3
177
     3
291
     1
 70
    58
 90
        2
176
     1
 90
        2
176
     1
 90
        1
176
     1
 90
        2
176
     1
 40
0.6
176
     1
 40
30.0
176
     1
 62
     7
420
 16777215
176
     1
 90
        1
176
     1
 90
        0
176
     1
 62
     7
176
     1
 62
   257
176
     1
 90
        1
176
     1
 90
        1
176
     1
 40
1.0
176
     1
 90
        0
176
     1
 62
   257
176
     1
 40
1.0
176
     1
 90
        1
176
     1
 90
        6
176
     1
 90
        2
176
     1
 62
     7
176
     1
 90
        5
176
     1
 90
        0
176
     1
 90
        0
176
     1
290
     0
176
     1
 90
       13
176
     1
 40
0.0
176
     1
 90
        0
176
     1
290
     0
176
     1
290
     1
176
     1
290
     1
176
     1
290
     0
176
     1
290
     0
176
     1
290
     0
176
     1
290
     0
176
     1
290
     0
176
     1
290
     0
176
     1
 90
       50
176
     1
 40
0.0
176
     1
 40
1.0
176
     1
 90
        0
176
     1
 62
    18
420
        0
176
     1
 90
       50
176
     1
 90
        3
176
     1
 62
     5
420
      255
176
     1
290
     0
176
     1
 90
       50
176
     1
 90
       50
176
     1
 90
       50
176
     1
290
     0
176
     1
 90
       50
176
     1
 62
   256
176
     0
 40
1.0
176
     0
 90
        2
176
     1
  1
strokes_ogs.tif
176
     1
290
     0
176
     1
 40
1.0
176
     1
 40
1.0
176
     1
  0
VISUALSTYLE
  5
4B41F8
102
{ACAD_REACTORS
330
4B41F0
102
}
330
4B41F0
100
AcDbVisualStyle
  2
Hidden
 70
     6
177
     3
291
     0
 70
    58
 90
        1
176
     1
 90
        2
176
     1
 90
        2
176
     1
 90
        0
176
     1
 40
0.6
176
     1
 40
30.0
176
     1
 62
     7
420
 16777215
176
     1
 90
        2
176
     1
 90
        2
176
     1
 62
     7
176
     1
 62
   257
176
     1
 90
        2
176
     1
 90
        1
176
     1
 40
40.0
176
     1
 90
        0
176
     1
 62
   257
176
     1
 40
1.0
176
     1
 90
        1
176
     1
 90
        6
176
     1
 90
        2
176
     1
 62
     7
176
     1
 90
        3
176
     1
 90
        0
176
     1
 90
        0
176
     1
290
     0
176
     1
 90
        1
176
     1
 40
0.0
176
     1
 90
        0
176
     1
290
     0
176
     1
290
     1
176
     1
290
     1
176
     1
290
     0
176
     1
290
     0
176
     1
290
     0
176
     1
290
     0
176
     1
290
     0
176
     1
290
     0
176
     1
 90
       50
176
     1
 40
0.0
176
     1
 40
1.0
176
     1
 90
        0
176
     1
 62
    18
420
        0
176
     1
 90
       50
176
     1
 90
        3
176
     1
 62
     5
420
      255
176
     1
290
     0
176
     1
 90
       50
176
     1
 90
       50
176
     1
 90
       50
176
     1
290
     0
176
     1
 90
       50
176
     1
 62
   256
176
     0
 40
1.0
176
     0
 90
        2
176
     1
  1
strokes_ogs.tif
176
     1
290
     0
176
     1
 40
1.0
176
     1
 40
1.0
176
     1
  0
VISUALSTYLE
  5
4B4206
102
{ACAD_REACTORS
330
4B41F0
102
}
330
4B41F0
100
AcDbVisualStyle
  2
JitterOff
 70
    20
177
     3
291
     1
 70
    58
 90
        2
176
     0
 90
        2
176
     0
 90
        0
176
     0
 90
        0
176
     0
 40
0.6
176
     0
 40
30.0
176
     0
 62
     7
420
 16777215
176
     0
 90
        1
176
     0
 90
        4
176
     0
 62
     7
176
     0
 62
   257
176
     0
 90
        1
176
     0
 90
        1
176
     0
 40
1.0
176
     0
 90
       10
176
     2
 62
     7
176
     0
 40
1.0
176
     0
 90
        1
176
     0
 90
        6
176
     0
 90
        2
176
     0
 62
     7
176
     0
 90
        5
176
     0
 90
        0
176
     0
 90
        0
176
     0
290
     0
176
     0
 90
        1
176
     0
 40
0.0
176
     0
 90
        0
176
     0
290
     0
176
     0
290
     1
176
     0
290
     1
176
     0
290
     0
176
     0
290
     0
176
     0
290
     0
176
     0
290
     0
176
     0
290
     0
176
     0
290
     0
176
     0
 90
       50
176
     0
 40
0.0
176
     0
 40
1.0
176
     0
 90
        0
176
     0
 62
    18
420
        0
176
     0
 90
       50
176
     0
 90
        3
176
     0
 62
     5
420
      255
176
     0
290
     0
176
     0
 90
       50
176
     0
 90
       50
176
     0
 90
       50
176
     0
290
     0
176
     0
 90
       50
176
     0
 62
   256
176
     0
 40
1.0
176
     0
 90
        2
176
     0
  1
strokes_ogs.tif
176
     0
290
     0
176
     0
 40
1.0
176
     0
 40
1.0
176
     0
  0
VISUALSTYLE
  5
4B41FE
102
{ACAD_REACTORS
330
4B41F0
102
}
330
4B41F0
100
AcDbVisualStyle
  2
Linepattern
 70
    14
177
     3
291
     1
 70
    58
 90
        2
176
     1
 90
        2
176
     1
 90
        0
176
     1
 90
        0
176
     1
 40
0.6
176
     1
 40
30.0
176
     1
 62
     7
420
 16777215
176
     1
 90
        1
176
     1
 90
        4
176
     1
 62
     7
176
     1
 62
   257
176
     1
 90
        7
176
     1
 90
        7
176
     1
 40
1.0
176
     1
 90
        8
176
     1
 62
     7
176
     1
 40
1.0
176
     1
 90
        1
176
     1
 90
        6
176
     1
 90
        2
176
     1
 62
     7
176
     1
 90
        5
176
     1
 90
        0
176
     1
 90
        0
176
     1
290
     0
176
     1
 90
        1
176
     1
 40
0.0
176
     1
 90
        0
176
     1
290
     0
176
     1
290
     1
176
     1
290
     1
176
     1
290
     0
176
     1
290
     0
176
     1
290
     0
176
     1
290
     0
176
     1
290
     0
176
     1
290
     0
176
     1
 90
       50
176
     1
 40
0.0
176
     1
 40
1.0
176
     1
 90
        0
176
     1
 62
    18
420
        0
176
     1
 90
       50
176
     1
 90
        3
176
     1
 62
     5
420
      255
176
     1
290
     0
176
     1
 90
       50
176
     1
 90
       50
176
     1
 90
       50
176
     1
290
     0
176
     1
 90
       50
176
     1
 62
   256
176
     0
 40
1.0
176
     0
 90
        2
176
     1
  1
strokes_ogs.tif
176
     1
290
     0
176
     1
 40
1.0
176
     1
 40
1.0
176
     1
  0
VISUALSTYLE
  5
4B4207
102
{ACAD_REACTORS
330
4B41F0
102
}
330
4B41F0
100
AcDbVisualStyle
  2
OverhangOff
 70
    21
177
     3
291
     1
 70
    58
 90
        2
176
     0
 90
        2
176
     0
 90
        0
176
     0
 90
        0
176
     0
 40
0.6
176
     0
 40
30.0
176
     0
 62
     7
420
 16777215
176
     0
 90
        1
176
     0
 90
        4
176
     0
 62
     7
176
     0
 62
   257
176
     0
 90
        1
176
     0
 90
        1
176
     0
 40
1.0
176
     0
 90
        9
176
     2
 62
     7
176
     0
 40
1.0
176
     0
 90
        1
176
     0
 90
        6
176
     0
 90
        2
176
     0
 62
     7
176
     0
 90
        5
176
     0
 90
        0
176
     0
 90
        0
176
     0
290
     0
176
     0
 90
        1
176
     0
 40
0.0
176
     0
 90
        0
176
     0
290
     0
176
     0
290
     1
176
     0
290
     1
176
     0
290
     0
176
     0
290
     0
176
     0
290
     0
176
     0
290
     0
176
     0
290
     0
176
     0
290
     0
176
     0
 90
       50
176
     0
 40
0.0
176
     0
 40
1.0
176
     0
 90
        0
176
     0
 62
    18
420
        0
176
     0
 90
       50
176
     0
 90
        3
176
     0
 62
     5
420
      255
176
     0
290
     0
176
     0
 90
       50
176
     0
 90
       50
176
     0
 90
       50
176
     0
290
     0
176
     0
 90
       50
176
     0
 62
   256
176
     0
 40
1.0
176
     0
 90
        2
176
     0
  1
strokes_ogs.tif
176
     0
290
     0
176
     0
 40
1.0
176
     0
 40
1.0
176
     0
  0
VISUALSTYLE
  5
4B41FA
102
{ACAD_REACTORS
330
4B41F0
102
}
330
4B41F0
100
AcDbVisualStyle
  2
Realistic
 70
     8
177
     3
291
     0
 70
    58
 90
        2
176
     1
 90
        3
176
     1
 90
        0
176
     1
 90
        2
176
     1
 40
0.6
176
     1
 40
30.0
176
     1
 62
     7
420
 16777215
176
     1
 90
        0
176
     1
 90
        0
176
     1
 62
     7
176
     1
 62
   257
176
     1
 90
        1
176
     1
 90
        1
176
     1
 40
1.0
176
     1
 90
        8
176
     1
 62
   257
176
     1
 40
1.0
176
     1
 90
        1
176
     1
 90
        6
176
     1
 90
        2
176
     1
 62
     7
176
     1
 90
        3
176
     1
 90
        0
176
     1
 90
        0
176
     1
290
     0
176
     1
 90
       13
176
     1
 40
0.0
176
     1
 90
        0
176
     1
290
     0
176
     1
290
     1
176
     1
290
     1
176
     1
290
     0
176
     1
290
     0
176
     1
290
     0
176
     1
290
     0
176
     1
290
     0
176
     1
290
     0
176
     1
 90
       50
176
     1
 40
0.0
176
     1
 40
1.0
176
     1
 90
        0
176
     1
 62
    18
420
        0
176
     1
 90
       50
176
     1
 90
        3
176
     1
 62
     5
420
      255
176
     1
290
     0
176
     1
 90
       50
176
     1
 90
       50
176
     1
 90
       50
176
     1
290
     0
176
     1
 90
       50
176
     1
 62
   256
176
     0
 40
1.0
176
     0
 90
        2
176
     1
  1
strokes_ogs.tif
176
     1
290
     0
176
     1
 40
1.0
176
     1
 40
1.0
176
     1
  0
VISUALSTYLE
  5
4B4205
102
{ACAD_REACTORS
330
4B41F0
102
}
330
4B41F0
100
AcDbVisualStyle
  2
Shaded
 70
    27
177
     3
291
     0
 70
    58
 90
        2
176
     1
 90
        2
176
     1
 90
        1
176
     1
 90
        2
176
     1
 40
0.6
176
     1
 40
30.0
176
     1
 62
     7
420
 16777215
176
     1
 90
        0
176
     1
 90
        4
176
     1
 62
     7
176
     1
 62
   257
176
     1
 90
        1
176
     1
 90
        1
176
     1
 40
1.0
176
     1
 90
        8
176
     1
 62
   257
176
     1
 40
1.0
176
     1
 90
        1
176
     1
 90
        6
176
     1
 90
        2
176
     1
 62
     8
420
  7895160
176
     1
 90
        3
176
     1
 90
        0
176
     1
 90
        0
176
     1
290
     0
176
     1
 90
        5
176
     1
 40
0.0
176
     1
 90
        0
176
     1
290
     0
176
     1
290
     1
176
     1
290
     1
176
     1
290
     0
176
     1
290
     0
176
     1
290
     0
176
     1
290
     0
176
     1
290
     0
176
     1
290
     0
176
     1
 90
       50
176
     1
 40
0.0
176
     1
 40
1.0
176
     1
 90
        0
176
     1
 62
    18
420
        0
176
     1
 90
       50
176
     1
 90
        3
176
     1
 62
     5
420
      255
176
     1
290
     0
176
     1
 90
       50
176
     1
 90
       50
176
     1
 90
       50
176
     1
290
     0
176
     1
 90
       50
176
     1
 62
   256
176
     0
 40
1.0
176
     0
 90
        2
176
     1
  1
strokes_ogs.tif
176
     1
290
     0
176
     1
 40
1.0
176
     1
 40
1.0
176
     1
  0
VISUALSTYLE
  5
4B4204
102
{ACAD_REACTORS
330
4B41F0
102
}
330
4B41F0
100
AcDbVisualStyle
  2
Shaded with edges
 70
    26
177
     3
291
     0
 70
    58
 90
        2
176
     1
 90
        2
176
     1
 90
        1
176
     1
 90
        2
176
     1
 40
0.6
176
     1
 40
30.0
176
     1
 62
     7
420
 16777215
176
     1
 90
        1
176
     1
 90
        2
176
     1
 62
     7
176
     1
 62
   257
176
     1
 90
        2
176
     1
 90
        1
176
     1
 40
1.0
176
     1
 90
        8
176
     1
 62
   257
176
     1
 40
1.0
176
     1
 90
        1
176
     1
 90
        6
176
     1
 90
        2
176
     1
 62
     7
176
     1
 90
        3
176
     1
 90
        0
176
     1
 90
        0
176
     1
290
     0
176
     1
 90
        5
176
     1
 40
0.0
176
     1
 90
        0
176
     1
290
     0
176
     1
290
     1
176
     1
290
     1
176
     1
290
     0
176
     1
290
     0
176
     1
290
     0
176
     1
290
     0
176
     1
290
     0
176
     1
290
     0
176
     1
 90
       50
176
     1
 40
0.0
176
     1
 40
1.0
176
     1
 90
        0
176
     1
 62
    18
420
        0
176
     1
 90
       50
176
     1
 90
        3
176
     1
 62
     5
420
      255
176
     1
290
     0
176
     1
 90
       50
176
     1
 90
       50
176
     1
 90
       50
176
     1
290
     0
176
     1
 90
       50
176
     1
 62
   256
176
     0
 40
1.0
176
     0
 90
        2
176
     1
  1
strokes_ogs.tif
176
     1
290
     0
176
     1
 40
1.0
176
     1
 40
1.0
176
     1
  0
VISUALSTYLE
  5
4B4201
102
{ACAD_REACTORS
330
4B41F0
102
}
330
4B41F0
100
AcDbVisualStyle
  2
Shades of Gray
 70
    23
177
     3
291
     0
 70
    58
 90
        2
176
     1
 90
        2
176
     1
 90
        3
176
     1
 90
        0
176
     1
 40
0.6
176
     1
 40
30.0
176
     1
 62
     7
420
 16777215
176
     1
 90
        2
176
     1
 90
        2
176
     1
 62
     7
176
     1
 62
     7
176
     1
 90
        1
176
     1
 90
        1
176
     1
 40
40.0
176
     1
 90
        8
176
     1
 62
     7
176
     1
 40
1.0
176
     1
 90
        1
176
     1
 90
        6
176
     1
 90
        2
176
     1
 62
     7
176
     1
 90
        3
176
     1
 90
        0
176
     1
 90
        0
176
     1
290
     0
176
     1
 90
        1
176
     1
 40
0.0
176
     1
 90
        0
176
     1
290
     0
176
     1
290
     1
176
     1
290
     1
176
     1
290
     0
176
     1
290
     0
176
     1
290
     0
176
     1
290
     0
176
     1
290
     0
176
     1
290
     0
176
     1
 90
       50
176
     1
 40
0.0
176
     1
 40
1.0
176
     1
 90
        0
176
     1
 62
    18
420
        0
176
     1
 90
       50
176
     1
 90
        3
176
     1
 62
     5
420
      255
176
     1
290
     0
176
     1
 90
       50
176
     1
 90
       50
176
     1
 90
       50
176
     1
290
     0
176
     1
 90
       50
176
     1
 62
   256
176
     0
 40
1.0
176
     0
 90
        2
176
     1
  1
strokes_ogs.tif
176
     1
290
     0
176
     1
 40
1.0
176
     1
 40
1.0
176
     1
  0
VISUALSTYLE
  5
4B4202
102
{ACAD_REACTORS
330
4B41F0
102
}
330
4B41F0
100
AcDbVisualStyle
  2
Sketchy
 70
    24
177
     3
291
     0
 70
    58
 90
        1
176
     1
 90
        2
176
     1
 90
        2
176
     1
 90
        0
176
     1
 40
0.6
176
     1
 40
30.0
176
     1
 62
     7
420
 16777215
176
     1
 90
        2
176
     1
 90
        2
176
     1
 62
     7
176
     1
 62
     7
176
     1
 90
        1
176
     1
 90
        1
176
     1
 40
40.0
176
     1
 90
       11
176
     1
 62
     7
176
     1
 40
1.0
176
     1
 90
        1
176
     1
 90
        6
176
     1
 90
        2
176
     1
 62
     7
176
     1
 90
        6
176
     1
 90
        0
176
     1
 90
        0
176
     1
290
     0
176
     1
 90
        1
176
     1
 40
0.0
176
     1
 90
        0
176
     1
290
     0
176
     1
290
     1
176
     1
290
     1
176
     1
290
     0
176
     1
290
     0
176
     1
290
     0
176
     1
290
     0
176
     1
290
     0
176
     1
290
     0
176
     1
 90
       50
176
     1
 40
0.0
176
     1
 40
1.0
176
     1
 90
        0
176
     1
 62
    18
420
        0
176
     1
 90
       50
176
     1
 90
        3
176
     1
 62
     5
420
      255
176
     1
290
     0
176
     1
 90
       50
176
     1
 90
       50
176
     1
 90
       50
176
     1
290
     0
176
     1
 90
       50
176
     1
 62
   256
176
     0
 40
1.0
176
     0
 90
        2
176
     1
  1
strokes_ogs.tif
176
     1
290
     0
176
     1
 40
1.0
176
     1
 40
1.0
176
     1
  0
VISUALSTYLE
  5
4B41FD
102
{ACAD_REACTORS
330
4B41F0
102
}
330
4B41F0
100
AcDbVisualStyle
  2
Thicken
 70
    13
177
     3
291
     1
 70
    58
 90
        2
176
     1
 90
        2
176
     1
 90
        0
176
     1
 90
        0
176
     1
 40
0.6
176
     1
 40
30.0
176
     1
 62
     7
420
 16777215
176
     1
 90
        1
176
     1
 90
        4
176
     1
 62
     7
176
     1
 62
   257
176
     1
 90
        1
176
     1
 90
        1
176
     1
 40
1.0
176
     1
 90
       12
176
     1
 62
     7
176
     1
 40
1.0
176
     1
 90
        1
176
     1
 90
        6
176
     1
 90
        2
176
     1
 62
     7
176
     1
 90
        5
176
     1
 90
        0
176
     1
 90
        0
176
     1
290
     0
176
     1
 90
        1
176
     1
 40
0.0
176
     1
 90
        0
176
     1
290
     0
176
     1
290
     1
176
     1
290
     1
176
     1
290
     0
176
     1
290
     0
176
     1
290
     0
176
     1
290
     0
176
     1
290
     0
176
     1
290
     0
176
     1
 90
       50
176
     1
 40
0.0
176
     1
 40
1.0
176
     1
 90
        0
176
     1
 62
    18
420
        0
176
     1
 90
       50
176
     1
 90
        3
176
     1
 62
     5
420
      255
176
     1
290
     0
176
     1
 90
       50
176
     1
 90
       50
176
     1
 90
       50
176
     1
290
     0
176
     1
 90
       50
176
     1
 62
   256
176
     0
 40
1.0
176
     0
 90
        2
176
     1
  1
strokes_ogs.tif
176
     1
290
     0
176
     1
 40
1.0
176
     1
 40
1.0
176
     1
  0
VISUALSTYLE
  5
4B41F7
102
{ACAD_REACTORS
330
4B41F0
102
}
330
4B41F0
100
AcDbVisualStyle
  2
Wireframe
 70
     5
177
     3
291
     0
 70
    58
 90
        0
176
     1
 90
        2
176
     1
 90
        0
176
     1
 90
        0
176
     1
 40
0.6
176
     1
 40
30.0
176
     1
 62
     7
420
 16777215
176
     1
 90
        1
176
     1
 90
        4
176
     1
 62
     7
176
     1
 62
   257
176
     1
 90
        1
176
     1
 90
        1
176
     1
 40
1.0
176
     1
 90
        0
176
     1
 62
   257
176
     1
 40
1.0
176
     1
 90
        1
176
     1
 90
        6
176
     1
 90
        2
176
     1
 62
     7
176
     1
 90
        3
176
     1
 90
        0
176
     1
 90
        0
176
     1
290
     0
176
     1
 90
        1
176
     1
 40
0.0
176
     1
 90
        0
176
     1
290
     0
176
     1
290
     1
176
     1
290
     1
176
     1
290
     0
176
     1
290
     0
176
     1
290
     0
176
     1
290
     0
176
     1
290
     0
176
     1
290
     0
176
     1
 90
       50
176
     1
 40
0.0
176
     1
 40
1.0
176
     1
 90
        0
176
     1
 62
    18
420
        0
176
     1
 90
       50
176
     1
 90
        3
176
     1
 62
     5
420
      255
176
     1
290
     0
176
     1
 90
       50
176
     1
 90
       50
176
     1
 90
       50
176
     1
290
     0
176
     1
 90
       50
176
     1
 62
   256
176
     0
 40
1.0
176
     0
 90
        2
176
     1
  1
strokes_ogs.tif
176
     1
290
     0
176
     1
 40
1.0
176
     1
 40
1.0
176
     1
  0
VISUALSTYLE
  5
4B4203
102
{ACAD_REACTORS
330
4B41F0
102
}
330
4B41F0
100
AcDbVisualStyle
  2
X-Ray
 70
    25
177
     3
291
     0
 70
    58
 90
        2
176
     1
 90
        2
176
     1
 90
        1
176
     1
 90
        1
176
     1
 40
0.5
176
     1
 40
30.0
176
     1
 62
     7
420
 16777215
176
     1
 90
        1
176
     1
 90
        0
176
     1
 62
     7
176
     1
 62
   257
176
     1
 90
        1
176
     1
 90
        1
176
     1
 40
1.0
176
     1
 90
        8
176
     1
 62
     7
176
     1
 40
1.0
176
     1
 90
        1
176
     1
 90
        6
176
     1
 90
        2
176
     1
 62
     7
176
     1
 90
        3
176
     1
 90
        0
176
     1
 90
        0
176
     1
290
     0
176
     1
 90
       13
176
     1
 40
0.0
176
     1
 90
        0
176
     1
290
     0
176
     1
290
     1
176
     1
290
     1
176
     1
290
     0
176
     1
290
     0
176
     1
290
     0
176
     1
290
     0
176
     1
290
     0
176
     1
290
     0
176
     1
 90
       50
176
     1
 40
0.0
176
     1
 40
1.0
176
     1
 90
        0
176
     1
 62
    18
420
        0
176
     1
 90
       50
176
     1
 90
        3
176
     1
 62
     5
420
      255
176
     1
290
     0
176
     1
 90
       50
176
     1
 90
       50
176
     1
 90
       50
176
     1
290
     0
176
     1
 90
       50
176
     1
 62
   256
176
     0
 40
1.0
176
     0
 90
        2
176
     1
  1
strokes_ogs.tif
176
     1
290
     0
176
     1
 40
1.0
176
     1
 40
1.0
176
     1
  0
DICTIONARYVAR
  5
4B424D
102
{ACAD_REACTORS
330
4B3181
102
}
330
4B3181
100
DictionaryVariables
280
     0
  1
1:1
  0
DICTIONARYVAR
  5
4B4249
102
{ACAD_REACTORS
330
4B3181
102
}
330
4B3181
100
DictionaryVariables
280
     0
  1
STANDARD
  0
DICTIONARYVAR
  5
4B3826
102
{ACAD_REACTORS
330
4B3181
102
}
330
4B3181
100
DictionaryVariables
280
     0
  1
STANDARD
  0
DICTIONARYVAR
  5
4B424A
102
{ACAD_REACTORS
330
4B3181
102
}
330
4B3181
100
DictionaryVariables
280
     0
  1
Imperial24
  0
DICTIONARYVAR
  5
4B424B
102
{ACAD_REACTORS
330
4B3181
102
}
330
4B3181
100
DictionaryVariables
280
     0
  1
Imperial24
  0
DICTIONARYVAR
  5
4B424F
102
{ACAD_REACTORS
330
4B3181
102
}
330
4B3181
100
DictionaryVariables
280
     0
  1
1
  0
DICTIONARYVAR
  5
4B4250
102
{ACAD_REACTORS
330
4B3181
102
}
330
4B3181
100
DictionaryVariables
280
     0
  1
15
  0
DICTIONARYVAR
  5
4B424E
102
{ACAD_REACTORS
330
4B3181
102
}
330
4B3181
100
DictionaryVariables
280
     0
  1
0
  0
DICTIONARYVAR
  5
4B424C
102
{ACAD_REACTORS
330
4B3181
102
}
330
4B3181
100
DictionaryVariables
280
     0
  1
0
  0
DICTIONARYVAR
  5
4B3182
102
{ACAD_REACTORS
330
4B3181
102
}
330
4B3181
100
DictionaryVariables
280
     0
  1
96
  0
ACAD_PROXY_OBJECT
  5
4B37CB
102
{ACAD_REACTORS
330
4B37CA
102
}
330
4B37CA
100
AcDbProxyObject
 90
      499
 91
      549
 71
    25
 97
       77
 70
     0
161
                78
310
90100057356C1D8241E8
 94
        0
  0
DICTIONARY
  5
4B37D5
102
{ACAD_REACTORS
330
4B37CA
102
}
330
4B37CA
100
AcDbDictionary
281
     1
  3
ANSI
350
4B37D6
  0
XRECORD
  5
4B37F3
102
{ACAD_REACTORS
330
4B37CA
102
}
330
4B37CA
100
AcDbXrecord
280
     1
 90
-1023410169
  0
ACAD_PROXY_OBJECT
  5
4B377A
330
0
100
AcDbProxyObject
 90
      499
 91
      512
 71
    25
 97
       77
 70
     0
161
               156
310
000101439050D35154D6535093D314D25691508C
330
4B3777
 94
        0
  0
ACAD_PROXY_OBJECT
  5
4B377C
330
0
100
AcDbProxyObject
 90
      499
 91
      514
 71
    25
 97
       77
 70
     0
161
                88
310
000101411093D34C402B0000
330
4B3777
330
0
330
0
 94
        0
  0
ACAD_PROXY_OBJECT
  5
4B3782
330
0
100
AcDbProxyObject
 90
      499
 91
      520
 71
    25
 97
       77
 70
     0
161
               382
310
0001014119185D194050831302E322E302E35014119185D194050831302E322E302E3540501000041905394D24CCC658
330
4B3777
330
4B3783
330
4B3787
 94
        0
  0
ACAD_PROXY_OBJECT
  5
4B3783
330
0
100
AcDbProxyObject
 90
      499
 91
      521
 71
    25
 97
       77
 70
     0
161
                48
310
000190140A0054
330
4B3777
330
4B3784
 94
        0
  0
ACAD_PROXY_OBJECT
  5
4B3784
330
0
100
AcDbProxyObject
 90
      499
 91
      522
 71
    25
 97
       77
 70
     0
161
                48
310
0001AA00000057
330
4B3777
330
4B1D17
330
4B3785
330
0
 94
        0
  0
ACAD_PROXY_OBJECT
  5
4B3785
330
0
100
AcDbProxyObject
 90
      499
 91
      523
 71
    25
 97
       77
 70
     0
161
                28
310
0001AAAC
330
4B3777
 94
        0
  0
ACAD_PROXY_OBJECT
  5
4B3788
330
0
100
AcDbProxyObject
 90
      499
 91
      512
 71
    25
 97
       77
 70
     0
161
               108
310
000101421053521310D05310D01C
330
4B3777
 94
        0
  0
ACAD_PROXY_OBJECT
  5
4B3789
330
0
100
AcDbProxyObject
 90
      499
 91
      512
 71
    25
 97
       77
 70
     0
161
               124
310
00010142905354915554D1511253501C
330
4B3777
 94
        0
  0
ACAD_PROXY_OBJECT
  5
4B378A
330
0
100
AcDbProxyObject
 90
      499
 91
      512
 71
    25
 97
       77
 70
     0
161
               132
310
00010143105354D150D51253D39112536C
330
4B3777
 94
        0
  0
ACAD_PROXY_OBJECT
  5
4B378B
330
0
100
AcDbProxyObject
 90
      499
 91
      512
 71
    25
 97
       77
 70
     0
161
               124
310
00010142905355941093D4911154901C
330
4B3777
 94
        0
  0
ACAD_PROXY_OBJECT
  5
4B378C
330
0
100
AcDbProxyObject
 90
      499
 91
      512
 71
    25
 97
       77
 70
     0
161
               116
310
0001014290535115D1D0D3D313D4AC
330
4B3777
 94
        0
  0
ACAD_PROXY_OBJECT
  5
4B378D
330
0
100
AcDbProxyObject
 90
      499
 91
      512
 71
    25
 97
       77
 70
     0
161
               148
310
00010143505355925155D49151949154D2101C
330
4B3777
 94
        0
  0
ACAD_PROXY_OBJECT
  5
4B378E
330
0
100
AcDbProxyObject
 90
      499
 91
      512
 71
    25
 97
       77
 70
     0
161
               172
310
00010144105350539393D51154149154D1549591501C
330
4B3777
 94
        0
  0
ACAD_PROXY_OBJECT
  5
4B378F
330
0
100
AcDbProxyObject
 90
      499
 91
      512
 71
    25
 97
       77
 70
     0
161
               172
310
00010144105350555513D11253505494905391D1501C
330
4B3777
 94
        0
  0
ACAD_PROXY_OBJECT
  5
4B3790
330
0
100
AcDbProxyObject
 90
      499
 91
      512
 71
    25
 97
       77
 70
     0
161
               124
310
00010142D0535156151491519112536C
330
4B3777
 94
        0
  0
ACAD_PROXY_OBJECT
  5
4B3791
330
0
100
AcDbProxyObject
 90
      499
 91
      512
 71
    25
 97
       77
 70
     0
161
               132
310
00010142D05355105410539393D511501C
330
4B3777
 94
        0
  0
ACAD_PROXY_OBJECT
  5
4B3792
330
0
100
AcDbProxyObject
 90
      499
 91
      512
 71
    25
 97
       77
 70
     0
161
               108
310
00010142105350555513D0D3101C
330
4B3777
 94
        0
  0
ACAD_PROXY_OBJECT
  5
4B3793
330
0
100
AcDbProxyObject
 90
      499
 91
      512
 71
    25
 97
       77
 70
     0
161
               108
310
00010142105350D311915055105C
330
4B3777
 94
        0
  0
ACAD_PROXY_OBJECT
  5
4B3794
330
0
100
AcDbProxyObject
 90
      499
 91
      512
 71
    25
 97
       77
 70
     0
161
               108
310
00010142105350D315925155D3FC
330
4B3777
 94
        0
  0
ACAD_PROXY_OBJECT
  5
4B3795
330
0
100
AcDbProxyObject
 90
      499
 91
      512
 71
    25
 97
       77
 70
     0
161
               148
310
0001014350535212511156915493D11253501C
330
4B3777
 94
        0
  0
ACAD_PROXY_OBJECT
  5
4B3796
330
0
100
AcDbProxyObject
 90
      499
 91
      512
 71
    25
 97
       77
 70
     0
161
               124
310
00010142905352105510D21254D3D01C
330
4B3777
 94
        0
  0
ACAD_PROXY_OBJECT
  5
4B3797
330
0
100
AcDbProxyObject
 90
      499
 91
      512
 71
    25
 97
       77
 70
     0
161
               148
310
00010143905354D25391D3115210551310566C
330
4B3777
 94
        0
  0
ACAD_PROXY_OBJECT
  5
4B3798
330
0
100
AcDbProxyObject
 90
      499
 91
      512
 71
    25
 97
       77
 70
     0
161
               124
310
00010142D0535115D1D193111254D42C
330
4B3777
 94
        0
  0
ACAD_PROXY_OBJECT
  5
4B3799
330
0
100
AcDbProxyObject
 90
      499
 91
      512
 71
    25
 97
       77
 70
     0
161
               100
310
00010142105350555513D213AC
330
4B3777
 94
        0
  0
ACAD_PROXY_OBJECT
  5
4B379A
330
0
100
AcDbProxyObject
 90
      499
 91
      512
 71
    25
 97
       77
 70
     0
161
               116
310
000101425053521390D3D55395101C
330
4B3777
 94
        0
  0
ACAD_PROXY_OBJECT
  5
4B379B
330
0
100
AcDbProxyObject
 90
      499
 91
      512
 71
    25
 97
       77
 70
     0
161
               108
310
0001014210535213941493D2901C
330
4B3777
 94
        0
  0
ACAD_PROXY_OBJECT
  5
4B379C
330
0
100
AcDbProxyObject
 90
      499
 91
      512
 71
    25
 97
       77
 70
     0
161
               108
310
000101421053521395165411507C
330
4B3777
 94
        0
  0
ACAD_PROXY_OBJECT
  5
4B379D
330
0
100
AcDbProxyObject
 90
      499
 91
      512
 71
    25
 97
       77
 70
     0
161
               108
310
000101421053521395925155D0FC
330
4B3777
 94
        0
  0
ACAD_PROXY_OBJECT
  5
4B379E
330
0
100
AcDbProxyObject
 90
      499
 91
      512
 71
    25
 97
       77
 70
     0
161
               140
310
00010143505354D150D51253D390D3D4166C
330
4B3777
 94
        0
  0
ACAD_PROXY_OBJECT
  5
4B379F
330
0
100
AcDbProxyObject
 90
      499
 91
      512
 71
    25
 97
       77
 70
     0
161
               108
310
00010142105350D3141493D2903C
330
4B3777
 94
        0
  0
ACAD_PROXY_OBJECT
  5
4B37A0
330
0
100
AcDbProxyObject
 90
      499
 91
      524
 71
    25
 97
       77
 70
     0
161
               212
310
00010143905350555513D2105510D21493D500000000000002E40C
330
4B3777
 94
        0
  0
ACAD_PROXY_OBJECT
  5
4B37A1
330
0
100
AcDbProxyObject
 90
      499
 91
      512
 71
    25
 97
       77
 70
     0
161
               156
310
00010143905350555513D2105510D2111155101C
330
4B3777
 94
        0
  0
ACAD_PROXY_OBJECT
  5
4B37B0
330
0
100
AcDbProxyObject
 90
      499
 91
      533
 71
    25
 97
       77
 70
     0
161
               148
310
00010142105350D55494D51100504414E5349C
330
4B3777
 94
        0
  0
ACAD_PROXY_OBJECT
  5
4B37B2
330
0
100
AcDbProxyObject
 90
      499
 91
      535
 71
    25
 97
       77
 70
     0
161
               714
310
0001000000009AA6A9AA4051E546875204A756E2031352031383A33383A3234203230303620285554432901420C4C0B8C8B8C0B8D40518576564204D61722032352030393A30373A3036203230303901420C4C0B8C8B8C0B8D4C
330
4B3777
330
4B37B3
330
4B37B4
330
4B37B6
330
0
 94
        0
  0
ACAD_PROXY_OBJECT
  5
4B37B3
330
0
100
AcDbProxyObject
 90
      499
 91
      536
 71
    25
 97
       77
 70
     0
161
                70
310
0001AAA80820000000
330
4B3777
330
4B37B3
330
4B37B3
 94
        0
  0
ACAD_PROXY_OBJECT
  5
4B37B4
330
0
100
AcDbProxyObject
 90
      499
 91
      537
 71
    25
 97
       77
 70
     0
161
                48
310
0001000000005F
330
4B3777
330
0
330
4B37B5
330
0
330
0
 94
        0
  0
ACAD_PROXY_OBJECT
  5
4B37B5
330
0
100
AcDbProxyObject
 90
      499
 91
      538
 71
    25
 97
       77
 70
     0
161
                40
310
000100AAAA00
330
4B3777
330
0
 94
        0
  0
ACAD_PROXY_OBJECT
  5
4B37BB
330
0
100
AcDbProxyObject
 90
      499
 91
      533
 71
    25
 97
       77
 70
     0
161
               180
310
00010143105050D3D35411119390535140504434F4D50C
330
4B3777
 94
        0
  0
ACAD_PROXY_OBJECT
  5
4B37BC
330
0
100
AcDbProxyObject
 90
      499
 91
      533
 71
    25
 97
       77
 70
     0
161
               212
310
0001014390505193D311115491119390535140506466F6C646572C
330
4B3777
 94
        0
  0
ACAD_PROXY_OBJECT
  5
4B37BD
330
0
100
AcDbProxyObject
 90
      499
 91
      533
 71
    25
 97
       77
 70
     0
161
               180
310
00010143105050539393D111939053514050428415629C
330
4B3777
 94
        0
  0
ACAD_PROXY_OBJECT
  5
4B37BE
330
0
100
AcDbProxyObject
 90
      499
 91
      533
 71
    25
 97
       77
 70
     0
161
               420
310
00010143905050D3D35415925155D31254D500520546F700A46726F6E740A52696768740A4C6566740A426F74746F6D0A41757831C
330
4B3777
 94
        0
  0
ACAD_PROXY_OBJECT
  5
4B37C3
330
0
100
AcDbProxyObject
 90
      499
 91
      543
 71
    25
 97
       77
 70
     0
161
                32
310
0001000000
330
4B3777
340
4B37C0
330
4B37C5
330
4B37C0
 94
        0
  0
ACAD_PROXY_OBJECT
  5
4B37C4
330
0
100
AcDbProxyObject
 90
      499
 91
      544
 71
    25
 97
       77
 70
     0
161
                18
310
00018C
330
4B3777
 94
        0
  0
ACAD_PROXY_OBJECT
  5
4B37C5
330
0
100
AcDbProxyObject
 90
      499
 91
      545
 71
    25
 97
       77
 70
     0
161
               458
310
0001014B9054CC8E0D08111154D251D391548814D21054114812105311881493D55391081253951151D4905308128B519253905005540155000C
330
4B3777
330
4B37C3
330
4B37C4
 94
        0
  0
ACAD_PROXY_OBJECT
  5
4B37C6
330
0
100
AcDbProxyObject
 90
      499
 91
      546
 71
    25
 97
       77
 70
     0
161
               178
310
000100AAAAAAB62AF8F49525A712A1E00037A99934044C
330
4B3777
330
4B37C5
 94
        0
  0
ACAD_PROXY_OBJECT
  5
4B37C7
330
0
100
AcDbProxyObject
 90
      499
 91
      547
 71
    25
 97
       77
 70
     0
161
               108
310
000190140A000000000000AAAAAC
330
4B3777
330
4B37C8
330
4B37C8
330
4B37C8
330
4B37C8
330
4B37C8
330
0
 94
        0
  0
ACAD_PROXY_OBJECT
  5
4B37C8
330
0
100
AcDbProxyObject
 90
      499
 91
      548
 71
    25
 97
       77
 70
     0
161
                51
310
00010000AAAA8C
330
4B3777
330
4B37C7
330
4B37C5
 94
        0
  0
DICTIONARY
  5
4B3771
102
{ACAD_REACTORS
330
4B3770
102
}
330
4B3770
100
AcDbDictionary
281
     1
  3
DWGSETTINGS
350
4B3772
  3
TRANSSETTINGS
350
4B3773
  0
ACAD_PROXY_OBJECT
  5
4B37D7
102
{ACAD_REACTORS
330
4B3770
102
}
330
4B3770
100
AcDbProxyObject
 90
      499
 91
      556
 71
    25
 97
       77
 70
     0
161
             17992
310
41903491013041105357CC201C00030C011E442404C504414D5F3180E0000C300479109013241105357CCA01400030C011E442404CD04414D5F338060000C30043E9013441105357CD200C00030C010FA404D504414D5F358030000C30043E9013641105357CDA00800030C011EA404DD04414D5F378040000C30043E90138
310
41105357CE200400030C010FA404E504414D5F398FD0000C300904902324141505357CC4C201C00030C011EA408D10505414D5F31318030000C30043E902495041505357CC4CA01C00030C011E40A408C13905414D5F304E8070000C30047A902314E41505357CC53A03800030C011EA408C93905414D5F324E8050000C300
310
47A902334E41505357CCD3A01800030C010FA408D13905414D5F344E8030000C30043E902354E41505357CD53A00C00030C010FA408D93905414D5F364E8020000C30047A902374E41505357CDD3A01000030C010FA408E13905414D5F384E8010000C30043E902394E41505357CE53A3F400030C0241240CC9053906414D5
310
F31304E8070000C30047A90334414E41905357CC4C53A00C00030C010FA40D25413906414D5F31324E8070000C300479029044B4C494E41505357D0D3200400030C010F4264112539193D08414D5F50415245468040000C30043D0B9055241484D3541905357D093D4A01C00030C011E4264115925155D08414D5F56494557
310
538010000C30043D0B906424548494E4441905357D25395A3F400030C02436415514905253105414D5F54528030000C30043D0990348494441905357D21251201C00030C010F42640D59254D06414D5F5649538070000C3004790990650415244494D42505357D41054911253600C00030C010F42641949151911253509414
310
D5F52454644494D8040000C30043D099534110921395901398000000C0003FFFFFFFE415092139594D06424548494E448000000C0003FFFFFFFE411093D48C9055241484D358010000C30043E411093D48CD055241484D358020000C30047A411093D48D5055241484D358000000C0003FFFFFFFE4110D0530C90134800000
310
0C0003FFFFFFFE4110D0530CD01348020000C30047A4110D0530D501348070000C30047A4110D0530DD013481E0000C3004F24110D15393901378000000C0003FFFFFFFE4110D15395D01378000000C0003FFFFFFFE4110D312539044B4C494E8000000C0003FFFFFFFE4110D3D38C501308000000C0003FFFFFFFD034110D
310
3D38C901318000000C0003FFFFFFFD034110D3D38CD01328000000C0003FFFFFFFD034110D3D38D101328000000C0003FFFFFFFD034111115510501348000000C0003FFFFFFFE4111125051D01358000000C0003FFFFFFFE4111125312501358000000C0003FFFFFFFE411112535410650415244494D8000000C0003FFFFFF
310
FE411112535490652454644494D8000000C0003FFFFFFFE4111915353901388000000C0003FFFFFFFE415191535413901388030000C3003FFFFFFFE4151915354D410234418000000C0003FFFFFFFE4151915354D510234418030000C30043E415191535593901328000000C0003FFFFFFFE415191535595101328030000C3
310
0043E4112105510D01388000000C0003FFFFFFFD014112125113901338000000C0003FFFFFFFD034112125115D01338000000C0003FFFFFFFD034112131253901348000000C0003FFFFFFFD01411213D0D3901378000000C0003FFFFFFFE411213D0D5D01378000000C0003FFFFFFFE4112539193D04494E464F8000000C00
310
03FFFFFFFE4113115051101358000000C0003FFFFFFFE419397D0921395902394E8000000C0003FFFFFFFE419397D0D3D38C502304E8000000C0003FFFFFFFD03419397D0D3D38C902314E8000000C0003FFFFFFFD03419397D0D3D38CD02324E8000000C0003FFFFFFFD03419397D0D3D38D102324E8000000C0003FFFFFF
310
FD03419397D0D15393902374E8000000C0003FFFFFFFE419397D0D15395D02374E8000000C0003FFFFFFFE419397D1125312502354E8000000C0003FFFFFFFE419397D2105510D02384E8000000C0003FFFFFFFD01419397D2125113902334E8000000C0003FFFFFFFD03419397D2125115D02334E8000000C0003FFFFFFFD
310
03419397D3115051102354E8000000C0003FFFFFFFE419397D391D25410349504E8000000C0003FFFFFFFE419397D412105390334414E8000000C0003FFFFFFFE419397D510D3D3902304E8000000C0003FFFFFFFD03419397D5121312502344E8000000C0003FFFFFFFD01419397D5131153902304E8000000C0003FFFFFF
310
FD03419397D594131250332414E8000000C0003FFFFFFFE411391D25410249508000000C0003FFFFFFFE411410530C9055241484D358010000C30043E411410530CD055241484D358020000C30047A411410530D5055241484D358000000C0003FFFFFFFE411412105390234418000000C0003FFFFFFFE411413D4D3901358
310
000000C0003FFFFFFFE411490D1D3901378000000C0003FFFFFFFE411490D1D5D01378000000C0003FFFFFFFE4114D09492D01348070000C300479014114D150D5101348000000C0003FFFFFFFD014114D6508CD01358020000C30047A411354D653501358020000C30047A411510D3D3901308000000C0003FFFFFFFD0341
310
15121312501348000000C0003FFFFFFFD01411512550C9055241484D358010000C30043E411512550CD055241484D358020000C30047A411512550D5055241484D358000000C0003FFFFFFFE4115131153901308000000C0003FFFFFFFD03415514905253105545241494C8000000C0003FFFFFFFE41151493125013480000
310
00C0003FFFFFFFD01411516150C501368030000C30043E411516150C901368030000C30043E411516150CD01368000000C0003FFFFFFFE411516150D501368070000C30047A411516150DD013681E0000C3004F24115925155D04564945578000000C0003FFFFFFFE41159151121034849448000000C0003FFFFFFFD024115
310
9151159035649538000000C0003FFFFFFFD02411594131250232418000000C0003FFFFFFFE4116925690501348000000C0003FFFFFFFD01AAA3F400030C01013F90A4391E41D1E4190F4151E4110F40D0F4091E4050F4793C7F6CC
340
4B1AC4
340
4B1AC4
340
4B1AC4
340
4B37A2
340
4B1AC4
340
4B1AC4
340
4B1AC4
340
4B37A4
340
4B1AC4
340
4B1AC4
340
4B37A4
340
4B37A3
340
4B1AC4
340
4B1AC4
340
4B1AC4
340
4B1AC4
340
4B37A2
340
4B1AC4
340
4B1AC4
340
4B1AC4
340
4B37A4
340
4B1AC4
340
4B1AC4
340
4B37A4
340
4B37A3
340
4B1AC4
340
4B37DB
340
4B1AC4
340
4B1AC4
340
4B1AC4
340
4B1AC4
340
4B1AC4
340
4B37A2
340
4B1AC4
340
4B1AC4
340
4B1AC4
340
4B1AC3
340
4B1AC3
340
4B1AC3
340
4B1AC3
340
4B1AC3
340
4B1AC3
340
4B1AC3
340
4B1AC3
340
4B1AC3
340
4B37E1
340
4B1AC3
340
4B1AC3
340
4B1AC3
340
4B1AC3
340
4B1AC3
340
4B1AC3
340
4B1AC3
340
4B1AC3
340
4B1AC3
340
4B1AC3
340
4B1AC3
340
4B1AC3
340
4B1AC3
340
4B1AC4
340
4B1AC3
340
4B1AC3
340
4B1AC3
340
4B1AC3
340
4B37E2
340
4B1AC3
340
4B1AC3
340
4B37E1
340
4B1AC3
340
4B1AC3
340
4B1AC3
340
4B1AC3
340
4B1AC3
340
4B1AC3
340
4B1AC3
340
4B1AC3
340
4B37E1
340
4B1AC3
340
4B1AC3
340
4B1AC3
340
4B37E2
340
4B1AC3
340
4B1AC3
340
4B1AC3
340
4B1AC3
340
4B1AC3
340
4B37E2
340
4B1AC3
340
4B37A3
340
4B1AC3
340
4B1AC3
340
4B1AC3
340
4B1AC3
340
4B1AC3
340
4B1AC3
340
4B37E1
340
4B1AC3
340
4B1AC3
340
4B1AC3
340
4B1AC3
340
4B1AC3
340
4B1AC3
340
4B37E2
340
4B1AC3
340
4B1AC3
340
4B1AC3
340
4B1AC3
340
4B1AC3
340
4B1AC3
340
4B1AC3
340
4B1AC3
340
4B1AC3
340
4B1AC3
340
4B1AC3
340
4B1AC3
340
4B1AC3
340
4B1AC3
340
4B37A3
340
4B37E3
 94
        0
  0
ACAD_PROXY_OBJECT
  5
4B3822
102
{ACAD_REACTORS
330
4B381D
102
}
330
4B381D
100
AcDbProxyObject
 90
      499
 91
      573
 71
    25
 97
       77
 70
     0
161
               253
310
43D1444494D454E53494F4E2C414D44545F2A5F44494D404A9012A404A9012AC
 94
        0
  0
ACAD_PROXY_OBJECT
  5
4B3821
102
{ACAD_REACTORS
330
4B381D
102
}
330
4B381D
100
AcDbProxyObject
 90
      499
 91
      573
 71
    25
 97
       77
 70
     0
161
               181
310
43D012A42D05357D191504B505357CA9012A404A9012AC
 94
        0
  0
ACAD_PROXY_OBJECT
  5
4B381E
102
{ACAD_REACTORS
330
4B381D
102
}
330
4B381D
100
AcDbProxyObject
 90
      499
 91
      573
 71
    25
 97
       77
 70
     0
161
               133
310
43D054841544348404A9012A404A9012AC
 94
        0
  0
ACAD_PROXY_OBJECT
  5
4B381F
102
{ACAD_REACTORS
330
4B381D
102
}
330
4B381D
100
AcDbProxyObject
 90
      499
 91
      573
 71
    25
 97
       77
 70
     0
161
               549
310
43D044C494E4549CE0B0E138B0A8B4E0B0A8B4E138B105357CE0B105357CE138B0A8B505357CE0B0A8B505357CE139012A404A910494E534552542C535444504152543244C
 94
        0
  0
ACAD_PROXY_OBJECT
  5
4B3823
102
{ACAD_REACTORS
330
4B381D
102
}
330
4B381D
100
AcDbProxyObject
 90
      499
 91
      573
 71
    25
 97
       77
 70
     0
161
               181
310
43D0341524341105357CD5012A404C906494E534552544
 94
        0
  0
ACAD_PROXY_OBJECT
  5
4B3820
102
{ACAD_REACTORS
330
4B381D
102
}
330
4B381D
100
AcDbProxyObject
 90
      499
 91
      573
 71
    25
 97
       77
 70
     0
161
              1053
310
43D7841434D46434652414D452C41434D444154554D5441524745542C41434D444154554D49442C41434D57454C4453594D2C41434D5355524653594D2C41434D4645415449442C41434D504152545245462C41434D42414C4C4F4F4E2C414D44544544474553594D2C414D47534352455743414C435441424C45404A9012A
310
404A9012AC
 94
        0
  0
ACAD_PROXY_OBJECT
  5
4B3836
102
{ACAD_REACTORS
330
4B228A
102
}
330
4B228A
100
AcDbProxyObject
 90
      499
 91
      504
 71
    25
 97
       77
 70
     0
161
               484
310
404810C476C617A696E672042656164498C4CD88C998C4D4C4B4C1E0D188C58CB4D198DCD0B504C514E4B4DCE5110D0CC4C4C4C8C1191A02800010104C
 94
        0
  0
ACAD_PROXY_OBJECT
  5
4B38A0
102
{ACAD_REACTORS
330
4B228A
102
}
330
4B228A
100
AcDbProxyObject
 90
      499
 91
      504
 71
    25
 97
       77
 70
     0
161
               572
310
404811853696C69636F6E20486F72697A6F6E74616C20536D616C6C494C8DCC0C18CC190E4B4C1E188C594B4D1958590B4E0C8E108B4C10914D8E0C90D18CCCCE10A02800010102C
 94
        0
  0
ACAD_PROXY_OBJECT
  5
4B38D5
102
{ACAD_REACTORS
330
4B228A
102
}
330
4B228A
100
AcDbProxyObject
 90
      499
 91
      504
 71
    25
 97
       77
 70
     0
161
               572
310
404811753696C69636F6E20566572746963616C20426F74746F6D498D0CD8D9994E19584B4C1E0D8C8C990B4D0E4C4CCB4E4D514C0B508C5190D08C8C8D9090CD4C602800010101C
 94
        0
  0
ACAD_PROXY_OBJECT
  5
4B3886
102
{ACAD_REACTORS
330
4B228A
102
}
330
4B228A
100
AcDbProxyObject
 90
      499
 91
      504
 71
    25
 97
       77
 70
     0
161
               572
310
40481175265696E666F7263656420427974796C20537061636572498D4C8E4D198D8D594B4C1E0C984D998B4D0E598E0B4E5110910B510E5190CD8DCDD08CCD918DA02800010104C
 94
        0
  0
ACAD_PROXY_OBJECT
  5
4B2294
102
{ACAD_REACTORS
330
4B228A
102
}
330
4B228A
100
AcDbProxyObject
 90
      499
 91
      504
 71
    25
 97
       77
 70
     0
161
               444
310
4048107415344544E554D498D4CCCD94D184E4C8B4C1E184DD8D98B4C4C590DCB504D51110B4C0C0D4C0C0D114C910C114E602800010101C
 94
        0
  0
ACAD_PROXY_OBJECT
  5
4B3122
102
{ACAD_REACTORS
330
4B228A
102
}
330
4B228A
100
AcDbProxyObject
 90
      499
 91
      504
 71
    25
 97
       77
 70
     0
161
               452
310
404810857656570636170324998988CCE0D8CCD588B4C1E188C998DCB4C4C590DCB504D514D8B4C0C0D4C0C0D114C910C114E602800010101C
 94
        0
  0
ACAD_PROXY_OBJECT
  5
4B3892
102
{ACAD_REACTORS
330
4B228A
102
}
330
4B228A
100
AcDbProxyObject
 90
      499
 91
      504
 71
    25
 97
       77
 70
     0
161
               484
310
404810C57656174686572205365616C4999189859188D1998CB4C1E18CDCD990B4D0CD8CD8B5091504CCB4C118C4DCE51508DCDD08E10602800010104C
 94
        0
  0
ACAD_PROXY_OBJECT
  5
4B38E1
102
{ACAD_REACTORS
330
4B228A
102
}
330
4B228A
100
AcDbProxyObject
 90
      499
 91
      504
 71
    25
 97
       77
 70
     0
161
               596
310
404811A53696C69636F6E20536D616C6C20566572746963616C20546F704999190D4E4E0E18D90B4C1E194C59598B4D0C988C8B4E114DCD8B4D10910D0D0E510C0C0C10CDA02800010101C
 94
        0
  0
DICTIONARY
  5
4B41E1
330
4B41E0
100
AcDbDictionary
280
     1
281
     1
  3
BUMPTILE
360
4B41E3
  3
DIFFUSETILE
360
4B41E2
  3
OPACITYTILE
360
4B41E6
  3
REFLECTIONTILE
360
4B41E5
  3
REFRACTIONTILE
360
4B41E7
  3
SPECULARTILE
360
4B41E4
  0
DICTIONARY
  5
4B41D9
330
4B41D8
100
AcDbDictionary
280
     1
281
     1
  3
BUMPTILE
360
4B41DB
  3
DIFFUSETILE
360
4B41DA
  3
OPACITYTILE
360
4B41DE
  3
REFLECTIONTILE
360
4B41DD
  3
REFRACTIONTILE
360
4B41DF
  3
SPECULARTILE
360
4B41DC
  0
DICTIONARY
  5
4B41E9
330
4B41E8
100
AcDbDictionary
280
     1
281
     1
  3
BUMPTILE
360
4B41EB
  3
DIFFUSETILE
360
4B41EA
  3
OPACITYTILE
360
4B41EE
  3
REFLECTIONTILE
360
4B41ED
  3
REFRACTIONTILE
360
4B41EF
  3
SPECULARTILE
360
4B41EC
  0
DICTIONARY
  5
4B425A
330
4B3769
100
AcDbDictionary
280
     1
281
     1
  3
ACAD_ROUNDTRIP_2008_TABLESTYLE_CELLSTYLEMAP
360
4B425B
  0
ACAD_PROXY_OBJECT
  5
4B37D6
102
{ACAD_REACTORS
330
4B37D5
102
}
330
4B37D5
100
AcDbProxyObject
 90
      499
 91
      555
 71
    25
 97
       77
 70
     0
161
              2431
310
608B81E85EB51B8BE3F8030000C30041105394D2501640600800030C0200800030C00B81E85EB51B8BE3F48821E8720B1B6A9BAB9332A32BC3A29BA3220480A1282C6DA8C868CA6E8C88120286A0B1B6ABB2B63234B733A9BA3220480A1082C6DA92C8A6E8C88120285A0B1B6A230BA3AB6A9BA3220480A1282C6DA849E9AA
310
6E8C8812028820B6B23A2232BA30B4B629BCB6A9BA3220480A2282DAC8E8A6CAC6E8D2DEDCA6F2DAA6E8C88120288A0B6B23A21B2B73A32B92634B732A9BA3220480A2282DAC8E8A8D0E4CAC2C898D2DCCAA6E8C88120285A0B6B23A2737BA32A9BA3220480A1682C682DACE98C2F2A6E8C88120285A0B1A0B6B3A234B6A9B
310
A3220480A2282C682DACE90DED8CA86D0C2E4E8A6E8C88120286A0B1A0B6B3AA34BA3632A9BA3220480A02812027FFF9FFFE
340
4B37E4
360
4B37E5
360
4B37E6
360
4B37E7
360
4B37E8
360
4B37E9
360
4B37EA
360
4B37EB
360
4B37EC
360
4B37ED
360
4B37EE
360
4B37EF
360
4B37FA
360
4B37FB
360
4B381A
360
4B381B
340
0
340
0
340
0
340
0
 94
        0
  0
ACAD_PROXY_OBJECT
  5
4B3772
102
{ACAD_REACTORS
330
4B3771
102
}
330
4B3771
100
AcDbProxyObject
 90
      499
 91
      508
 71
    25
 97
       77
 70
     0
161
              2436
310
4050B44574753455454494E4753A1286829C8E82A4A482B282A106660F8686AF86C608321A2A720A723A0A849A1ABE1C983E18999AA0C868A9C889282940000000000001C07E83A1A2A72224A0A9A0A8598171ABE1897183E18971AA0E868A9C8892A6A8940000000000001807E8321A2A72622A7250000000000000701FA0
310
C868A9C9E8C8C940000000000001C07E84A1A624A720A92920ACA0A851817181A991A981818182108698929C8AA8B2A082A0AB098929C8A84A22BA3AAA9A1A0A622A50A0E9882A6A89E849482A02608426A0A5A2AB24A2ABA7E8120CA0A68682988A0C00800010652455649534941501304154D0D0531150540CC4E8C50954
310
494D455354414D504A0FF6A7251DD28734141D5915494D253D3905414C4D4B8C0C1107B44574753455454494E4753454E447DC
 94
        0
  0
ACAD_PROXY_OBJECT
  5
4B3773
102
{ACAD_REACTORS
330
4B3771
102
}
330
4B3771
100
AcDbProxyObject
 90
      499
 91
      508
 71
    25
 97
       77
 70
     0
161
               852
310
4050D5452414E5353455454494E4753A2488A482AE929C8EA8A4829CA69882A8929E9C0C00800050D4F524947494E414C4C595F4F4E0600400008529A7AAA921A2A620A723A0A81A2A72AA12AAA0A48AA68AA4AC8A0C0080001107B44574753455454494E4753454E447DC
 94
        0
  0
XRECORD
  5
4B41E3
102
{ACAD_REACTORS
330
4B41E1
102
}
330
4B41E1
100
AcDbXrecord
280
     1
270
     1
271
     1
  0
XRECORD
  5
4B41E2
102
{ACAD_REACTORS
330
4B41E1
102
}
330
4B41E1
100
AcDbXrecord
280
     1
270
     1
271
     1
  0
XRECORD
  5
4B41E6
102
{ACAD_REACTORS
330
4B41E1
102
}
330
4B41E1
100
AcDbXrecord
280
     1
270
     1
271
     1
  0
XRECORD
  5
4B41E5
102
{ACAD_REACTORS
330
4B41E1
102
}
330
4B41E1
100
AcDbXrecord
280
     1
270
     1
271
     1
  0
XRECORD
  5
4B41E7
102
{ACAD_REACTORS
330
4B41E1
102
}
330
4B41E1
100
AcDbXrecord
280
     1
270
     1
271
     1
  0
XRECORD
  5
4B41E4
102
{ACAD_REACTORS
330
4B41E1
102
}
330
4B41E1
100
AcDbXrecord
280
     1
270
     1
271
     1
  0
XRECORD
  5
4B41DB
102
{ACAD_REACTORS
330
4B41D9
102
}
330
4B41D9
100
AcDbXrecord
280
     1
270
     1
271
     1
  0
XRECORD
  5
4B41DA
102
{ACAD_REACTORS
330
4B41D9
102
}
330
4B41D9
100
AcDbXrecord
280
     1
270
     1
271
     1
  0
XRECORD
  5
4B41DE
102
{ACAD_REACTORS
330
4B41D9
102
}
330
4B41D9
100
AcDbXrecord
280
     1
270
     1
271
     1
  0
XRECORD
  5
4B41DD
102
{ACAD_REACTORS
330
4B41D9
102
}
330
4B41D9
100
AcDbXrecord
280
     1
270
     1
271
     1
  0
XRECORD
  5
4B41DF
102
{ACAD_REACTORS
330
4B41D9
102
}
330
4B41D9
100
AcDbXrecord
280
     1
270
     1
271
     1
  0
XRECORD
  5
4B41DC
102
{ACAD_REACTORS
330
4B41D9
102
}
330
4B41D9
100
AcDbXrecord
280
     1
270
     1
271
     1
  0
XRECORD
  5
4B41EB
102
{ACAD_REACTORS
330
4B41E9
102
}
330
4B41E9
100
AcDbXrecord
280
     1
270
     1
271
     1
  0
XRECORD
  5
4B41EA
102
{ACAD_REACTORS
330
4B41E9
102
}
330
4B41E9
100
AcDbXrecord
280
     1
270
     1
271
     1
  0
XRECORD
  5
4B41EE
102
{ACAD_REACTORS
330
4B41E9
102
}
330
4B41E9
100
AcDbXrecord
280
     1
270
     1
271
     1
  0
XRECORD
  5
4B41ED
102
{ACAD_REACTORS
330
4B41E9
102
}
330
4B41E9
100
AcDbXrecord
280
     1
270
     1
271
     1
  0
XRECORD
  5
4B41EF
102
{ACAD_REACTORS
330
4B41E9
102
}
330
4B41E9
100
AcDbXrecord
280
     1
270
     1
271
     1
  0
XRECORD
  5
4B41EC
102
{ACAD_REACTORS
330
4B41E9
102
}
330
4B41E9
100
AcDbXrecord
280
     1
270
     1
271
     1
  0
CELLSTYLEMAP
  5
4B425B
102
{ACAD_REACTORS
330
4B425A
102
}
330
4B425A
100
AcDbCellStyleMap
 90
        3
300
CELLSTYLE
  1
TABLEFORMAT_BEGIN
 90
        5
170
     1
 91
        0
 92
    32768
 62
   257
 93
        1
300
CONTENTFORMAT
  1
CONTENTFORMAT_BEGIN
 90
        0
 91
        0
 92
        4
 93
        0
300

 40
0.0
140
1.0
 94
        5
 62
     0
340
4B1AC0
144
0.25
309
CONTENTFORMAT_END
171
     0
 94
        6
 95
        1
302
GRIDFORMAT
  1
GRIDFORMAT_BEGIN
 90
        0
 91
        1
 62
     0
 92
       -2
340
0
 93
        0
 40
0.045
309
GRIDFORMAT_END
 95
        2
302
GRIDFORMAT
  1
GRIDFORMAT_BEGIN
 90
        0
 91
        1
 62
     0
 92
       -2
340
0
 93
        0
 40
0.045
309
GRIDFORMAT_END
 95
        4
302
GRIDFORMAT
  1
GRIDFORMAT_BEGIN
 90
        0
 91
        1
 62
     0
 92
       -2
340
0
 93
        0
 40
0.045
309
GRIDFORMAT_END
 95
        8
302
GRIDFORMAT
  1
GRIDFORMAT_BEGIN
 90
        0
 91
        1
 62
     0
 92
       -2
340
0
 93
        0
 40
0.045
309
GRIDFORMAT_END
 95
       16
302
GRIDFORMAT
  1
GRIDFORMAT_BEGIN
 90
        0
 91
        1
 62
     0
 92
       -2
340
0
 93
        0
 40
0.045
309
GRIDFORMAT_END
 95
       32
302
GRIDFORMAT
  1
GRIDFORMAT_BEGIN
 90
        0
 91
        1
 62
     0
 92
       -2
340
0
 93
        0
 40
0.045
309
GRIDFORMAT_END
309
TABLEFORMAT_END
  1
CELLSTYLE_BEGIN
 90
        1
 91
        1
300
_TITLE
309
CELLSTYLE_END
300
CELLSTYLE
  1
TABLEFORMAT_BEGIN
 90
        5
170
     1
 91
        0
 92
        0
 62
   257
 93
        1
300
CONTENTFORMAT
  1
CONTENTFORMAT_BEGIN
 90
        0
 91
        0
 92
        4
 93
        0
300

 40
0.0
140
1.0
 94
        5
 62
     0
340
4B1AC0
144
0.18
309
CONTENTFORMAT_END
171
     0
 94
        6
 95
        1
302
GRIDFORMAT
  1
GRIDFORMAT_BEGIN
 90
        0
 91
        1
 62
     0
 92
       -2
340
0
 93
        0
 40
0.045
309
GRIDFORMAT_END
 95
        2
302
GRIDFORMAT
  1
GRIDFORMAT_BEGIN
 90
        0
 91
        1
 62
     0
 92
       -2
340
0
 93
        0
 40
0.045
309
GRIDFORMAT_END
 95
        4
302
GRIDFORMAT
  1
GRIDFORMAT_BEGIN
 90
        0
 91
        1
 62
     0
 92
       -2
340
0
 93
        0
 40
0.045
309
GRIDFORMAT_END
 95
        8
302
GRIDFORMAT
  1
GRIDFORMAT_BEGIN
 90
        0
 91
        1
 62
     0
 92
       -2
340
0
 93
        0
 40
0.045
309
GRIDFORMAT_END
 95
       16
302
GRIDFORMAT
  1
GRIDFORMAT_BEGIN
 90
        0
 91
        1
 62
     0
 92
       -2
340
0
 93
        0
 40
0.045
309
GRIDFORMAT_END
 95
       32
302
GRIDFORMAT
  1
GRIDFORMAT_BEGIN
 90
        0
 91
        1
 62
     0
 92
       -2
340
0
 93
        0
 40
0.045
309
GRIDFORMAT_END
309
TABLEFORMAT_END
  1
CELLSTYLE_BEGIN
 90
        2
 91
        1
300
_HEADER
309
CELLSTYLE_END
300
CELLSTYLE
  1
TABLEFORMAT_BEGIN
 90
        5
170
     1
 91
        0
 92
        0
 62
   257
 93
        1
300
CONTENTFORMAT
  1
CONTENTFORMAT_BEGIN
 90
        0
 91
        0
 92
        4
 93
        0
300

 40
0.0
140
1.0
 94
        2
 62
     0
340
4B1AC0
144
0.18
309
CONTENTFORMAT_END
171
     0
 94
        6
 95
        1
302
GRIDFORMAT
  1
GRIDFORMAT_BEGIN
 90
        0
 91
        1
 62
     0
 92
       -2
340
0
 93
        0
 40
0.045
309
GRIDFORMAT_END
 95
        2
302
GRIDFORMAT
  1
GRIDFORMAT_BEGIN
 90
        0
 91
        1
 62
     0
 92
       -2
340
0
 93
        0
 40
0.045
309
GRIDFORMAT_END
 95
        4
302
GRIDFORMAT
  1
GRIDFORMAT_BEGIN
 90
        0
 91
        1
 62
     0
 92
       -2
340
0
 93
        0
 40
0.045
309
GRIDFORMAT_END
 95
        8
302
GRIDFORMAT
  1
GRIDFORMAT_BEGIN
 90
        0
 91
        1
 62
     0
 92
       -2
340
0
 93
        0
 40
0.045
309
GRIDFORMAT_END
 95
       16
302
GRIDFORMAT
  1
GRIDFORMAT_BEGIN
 90
        0
 91
        1
 62
     0
 92
       -2
340
0
 93
        0
 40
0.045
309
GRIDFORMAT_END
 95
       32
302
GRIDFORMAT
  1
GRIDFORMAT_BEGIN
 90
        0
 91
        1
 62
     0
 92
       -2
340
0
 93
        0
 40
0.045
309
GRIDFORMAT_END
309
TABLEFORMAT_END
  1
CELLSTYLE_BEGIN
 90
        3
 91
        2
300
_DATA
309
CELLSTYLE_END
  0
ACAD_PROXY_OBJECT
  5
4B37E5
330
4B37D6
100
AcDbProxyObject
 90
      499
 91
      557
 71
    25
 97
       77
 70
     0
161
                96
310
60820E80A0280A0280A0280800
 94
        0
  0
ACAD_PROXY_OBJECT
  5
4B37E6
330
4B37D6
100
AcDbProxyObject
 90
      499
 91
      558
 71
    25
 97
       77
 70
     0
161
               332
310
6090E405014050140501405014050140501405014250140501405014050140501200000000000000040C
340
4B37F0
 94
        0
  0
ACAD_PROXY_OBJECT
  5
4B37E7
330
4B37D6
100
AcDbProxyObject
 90
      499
 91
      559
 71
    25
 97
       77
 70
     0
161
               403
310
608C199999999999E99F91F405014050140501405014050140501405014050140501405014050140501405014050140501404C
340
0
 94
        0
  0
ACAD_PROXY_OBJECT
  5
4B37E8
330
4B37D6
100
AcDbProxyObject
 90
      499
 91
      560
 71
    25
 97
       77
 70
     0
161
                10
310
608C
 94
        0
  0
ACAD_PROXY_OBJECT
  5
4B37E9
330
4B37D6
100
AcDbProxyObject
 90
      499
 91
      561
 71
    25
 97
       77
 70
     0
161
               257
310
60A290EA22A7D90F49F9353333333333727F44D4CCCCCCCCCDC9FC01000061804C
340
4B37F1
340
4B37F2
 94
        0
  0
ACAD_PROXY_OBJECT
  5
4B37EA
330
4B37D6
100
AcDbProxyObject
 90
      499
 91
      562
 71
    25
 97
       77
 70
     0
161
             13595
310
6090E41125511535014112551153501405014069011309A4F2590CB64FD3347454E545241434F2C454E552C302C4954454D2C47454E54524154582C25732C2847454E4D53472067656E647767203232322940690120281A8AA2CA0281A8AA2CA028120280A03202261349E4B2196C9FA648E8A9CA8A482869E588A9CAA5860
310
58A2A8B2588E8A9CA8A482A8B0584AE658508E8A9C9AA68E40CECADCC8EECE406464665280D202405044E414D45405044E414D454051C40640A8B95C2E97CBE502404CD1D15395149050D3CB1153954B0C0B139053514B11D15395149055160B095CCB0A11D1539354D1C819D95B991DD9C80C8C8D8A50192C3D4946284953
310
424C414E4B28504152543A4E414D45292C424C4F434B3A4E414D452C504152543A4E414D452940480A0A888AA686A480A16888AA686A492A0A8929E9C80A3A80C81D10782C06030180C809D23A2A72A2920A1A79622A72A9618162222A9A1A924A82A24A7A71623A2A72A2920AA2C1612B9961423A2A726A9A39033B2B7323
310
BB39019189B94A024809014214D51053911054911014214D510539110549110147501904A383BFDFEFF5FBFCFD3747454E545241434F2C454E552C302C5354414E444152442C47454E54524154582C25732C2847454E4D53472067656E64776720323138294049012028426A0AA22A924A0A62028426A0AA22A924A0A62028
310
EA0320B41396D838E9017D9FA6E8E8A9CA8A482869E588A9CAA5860589A82A88AA4928298588E8A9CA8A482A8B0584AE658508E8A9C9AA68E40CECADCC8EECE406464625280D202405044E4F5445405044E4F54454051D40641A8B95C2E97CBE5F23F4CD1D15395149050D3CB1153954B0C0B1393D5114B11D153951490551
310
60B095CCB0A11D1539354D1C819D95B991DD9C80C8C8D4A501A40480A0CAC8A9C889EA480A0CAC8A9C889EA480A3A80C83D172B85D2F97CBE47E9AA3A2A72A2920A1A79622A72A9618162B22A72227A91623A2A72A2920AA2C1612B9961423A2A726A9A39033B2B7323BB39019191A14A0348090141911154D0D48C9014351
310
1154D0D49254151253D3880C90147501908A20F0580C0603019013B47454E545241434F2C454E552C302C4445534352495054494F4E20322C47454E54524154582C25732C2847454E4D53472067656E6477672033362940490120284A9AA20A72220A922192028529AA20A72220A92210192028EA0321347077FBFDFEBF7F9
310
FA728E8A9CA8A482869E588A9CAA586058A6A8829C8882A4884064588E8A9CA8A482A8B0584AE658508E8A9C9AA68E40CECADCC8EECE4064646052809202405094D4154455249414C324050A4D4154455249414C20324051D40642A8272DB071D202FB3F4E11D15395149050D3CB1153954B0C0B1350551154925053080C8B
310
11D15395149055160B095CCB0A11D1539354D1C819D95B991DD9C80D0C0A501240480A089A82A6A680A089A82A6A680A3A80A0485A0681172B85D2F97CBE47E9923A2A72A2920A1A79622A72A96181626A0A9A99623A2A72A2920AA2C1612B9961423A2A726A9A39033B2B7323BB3901A1914A024809014154149250D15014
310
154149250D1501475014090C409022E570BA5F2F97C8FD3347454E545241434F2C454E552C302C50524943452C47454E54524154582C25732C2847454E4D53472067656E6477672034332940490120281A224A6A0285A6A2A0A9AAA922A6A2A72A2028EA028121A81A047DC2910F05877A1FA728E8A9CA8A482869E588A9CA
310
A5860589A8A82A6AAA48A9A8A9CA8588E8A9CA8A482A8B0584AE658508E8A9C9AA68E40CECADCC8EECE406868528092024050E441022E07A17AD46E338FE07800030C0001018ACD56AB55AADF63F2B355AAD56AB7D8FD073D3C4954454D3E405018ACD56AB55AADF63F2B355AAD56AB7D8FD073D3C4954454D3E40501890C7
310
E3F1783CEE3F2431F8FC5E0F3B8FD073D3C4954454D3E40501890C7E3F1783CEE3F2431F8FC5E0F3B8FD073D3C4954454D3E405029012B355AAD56AB7D8FCACD56AB55AADF63F41CF4F125511534F901418F4F1455164F9014062B355AAD56AB7D8FCACD56AB55AADF63F41CF4F125511534F9014061309A4F2590CBA4FC4C
310
2693C96432E93F41CF4F125511534F901901002B355AAD56AB7D8FCACD56AB55AADF63FA2000000000000008204018000618048220681A048120280C882148448820348520348452028521485214814000000000000F0BF0000000000003C2FD018020000C3008070000C3000EF7D3E365DBA88FC3BDF4F8D976EA23F2E07A
310
17AD46E2F8FF20341A405024150741A4069703D0BD6A3717C7F0040001860100400018601002000186002026280A03202C
340
0
340
0
 94
        0
  0
ACAD_PROXY_OBJECT
  5
4B37EB
330
4B37D6
100
AcDbProxyObject
 90
      499
 91
      563
 71
    25
 97
       77
 70
     0
161
               994
310
6080B81E85EB51B8CE3F4BCF511155105253080F11115510525317D3105091530F971414D0D05311480F11115510525317D05094D4D0D053114F92341C9A9999999999B93F26A666666666724FC000000000000E03F4000000000000004000000000000005100000000000000244081E0000C3002E07A17AD46E338FCC
340
4B37A3
340
4B37E4
 94
        0
  0
ACAD_PROXY_OBJECT
  5
4B37EC
330
4B37D6
100
AcDbProxyObject
 90
      499
 91
      564
 71
    25
 97
       77
 70
     0
161
               823
310
608031703D0BD6A3719C7E999EA9A2A1AA24A7A7101E29A2A1AA24A7A72FA620A122A62FA324A929AA1F169E29A2A1AA24A7A72FA620A122A62FA620A9AA1F1353333333333B27E3FFFE01C00030C008840F000061801353333333333B27F1703D0BD6A3719C7E
340
4B37A3
340
4B37E4
 94
        0
  0
ACAD_PROXY_OBJECT
  5
4B37ED
330
4B37D6
100
AcDbProxyObject
 90
      499
 91
      565
 71
    25
 97
       77
 70
     0
161
               280
310
6082B8716D9CEF7C33F0A5723F0BD4A2F0FC295C8FC2F528BC3FA199999999999F99FC00
 94
        0
  0
ACAD_PROXY_OBJECT
  5
4B37EE
330
4B37D6
100
AcDbProxyObject
 90
      499
 91
      566
 71
    25
 97
       77
 70
     0
161
                14
310
60A4
340
0
 94
        0
  0
ACAD_PROXY_OBJECT
  5
4B37EF
330
4B37D6
100
AcDbProxyObject
 90
      499
 91
      567
 71
    25
 97
       77
 70
     0
161
              7408
310
609084050BA4050AA405024050A54656D706C617465203140405013D3C696628657175616C28486F6C653A7461707065642C223022292C22252563222C486F6C653A6E6F6D696E616C2022202220696628657175616C28486F6C653A756E6974732C223122292C2278222C222D222920222022293E3C696628657175616C28
310
486F6C653A7461707065642C223022292C486F6C653A6469612C486F6C653A706974636864657363293E207B5C46414D4744543B787D203C696628657175616C28486F6C653A7465726D696E6174696F6E2C223022292C486F6C653A64657074682C225448525522293E5C507B5C46414D4744543B767D2525633C486F6C65
310
3A63746469613E207B5C46414D4744543B787D203C486F6C653A637464657074683E406901405034050A54656D706C6174652031405FE3D3C696628657175616C28486F6C653A7461707065642C223022292C22252563222C486F6C653A6E6F6D696E616C2022202220696628657175616C28486F6C653A756E6974732C223
310
122292C2278222C222D222920222022293E3C696628657175616C28486F6C653A7461707065642C223022292C486F6C653A6469612C486F6C653A706974636864657363293E207B5C46414D4744543B787D203C696628657175616C28486F6C653A7465726D696E6174696F6E2C223022292C486F6C653A64657074682C225
310
448525522293E5C507B5C46414D4744543B777D2525633C486F6C653A63746469613E2058203C486F6C653A6374616E676C653E252564406901405014050A54656D706C6174652031405CF3D3C696628657175616C28486F6C653A7461707065642C223022292C22252563222C486F6C653A6E6F6D696E616C202220222069
310
6628657175616C28486F6C653A756E6974732C223122292C2278222C222D222920222022293E3C696628657175616C28486F6C653A7461707065642C223022292C486F6C653A6469612C486F6C653A706974636864657363293E5C507B5C46414D4744543B787D203C696628657175616C28486F6C653A7465726D696E6174
310
696F6E2C223022292C486F6C653A64657074682C225448525522293E4069014051E40D0A54656D706C6174652032405173D3C535444503A444553433E203C535444503A5354443E40690A54656D706C61746520314050C3D3C535444503A444553433E40690A54656D706C61746520334050B3D3C535444503A5354443E406
310
90340515AAAC145C0F42F5A8DC5F1F9703D0BD6A3717C7F8020000C3008030000C3004410300
360
4B37F8
330
4B37F8
360
4B37F9
330
4B37F9
360
4B37F7
330
4B37F7
360
4B37F5
360
4B37F4
360
4B37F6
330
4B37F5
330
4B37F4
330
4B37F6
 94
        0
  0
ACAD_PROXY_OBJECT
  5
4B37FA
330
4B37D6
100
AcDbProxyObject
 90
      499
 91
      569
 71
    25
 97
       77
 70
     0
161
                26
310
60902A8C
340
4B37D7
 94
        0
  0
ACAD_PROXY_OBJECT
  5
4B37FB
330
4B37D6
100
AcDbProxyObject
 90
      499
 91
      570
 71
    25
 97
       77
 70
     0
161
               258
310
60902000000000000380FC000000000000E03F408F0F9023C3E40DB18CCCFFFF8C
340
4B37FC
340
0
340
0
340
4B3805
340
4B3808
340
0
340
4B380D
340
4B3810
340
4B3817
340
0
 94
        0
  0
ACAD_PROXY_OBJECT
  5
4B381A
330
4B37D6
100
AcDbProxyObject
 90
      499
 91
      571
 71
    25
 97
       77
 70
     0
161
             17510
310
6091F023FFFFFFFD010300002E07A17AD46E2F8FE00800030C01010300002E07A17AD46E2F8FE00800030C0005134C495354204F4620434F4F5244494E41544553015091D15395149050D3CB1153954B0C0B131254D50813D18810D3D3D491125390551154CB11D15395149055160B095CCB0A11D1539354D1C819D95B991A
310
5B5E880CCC0A78000C000000000000000000000000000000007B14AE47E17AA43F2E07A17AD46E2F8FE00800030C007B14AE47E17AA43F2E07A17AD46E2F8FE00800030C020143CF4F111959985D5B1D151A5D1B194F8050A484F4C45205441424C45014E51D15395149050D3CB1153954B0C0B1213D3114815105093114B1
310
1D15395149055160B095CCB0A11D1539354D1C819D95B991A5B5E880CCC4A78000C000000000000000000000000000000007B14AE47E17AA43F2E07A17AD46E2F8FE00800030C007B14AE47E17AA43F2E07A17AD46E2F8FE00800030C020143CF4F111959985D5B1D151A5D1B194F90E4410F4450240D04415074310143912
310
44D154151241D144310D4400005064F524947494E014D11D15395149050D3CB1153954B0C0B13D49251D2538B11D15395149055160B095CCB0A11D1539354D1C819D95B991A5B5E880C4A400040410008850000A0C9EA4928E929C029A23A2A72A2920A1A79622A72A96181627A924A3A4A71623A2A72A2920AA2C1612B996
310
1423A2A726A9A39033B2B73234B6BD101894800080820010FA0001411213D3114053247454E545241434F2C454E552C302C484F4C452C47454E54524154582C25732C2847454E4D53472067656E64696D7A20322901538F4F12518A1254D093105392CA121BDB19525D195B4A4B13DC9A59DA5B8B08121BDB19525D195B4A4
310
F8F12518A1254D093105392CA121BDB19525D195B4A4B08888B08121BDB19525B99195E0A4F80404100088D0000A02B00297A3A2A72A2920A1A79622A72A9618162C1623A2A72A2920AA2C1612B9961423A2A726A9A39033B2B73234B6BD1019948000808000102A000140564052F47454E545241434F2C454E552C302C592
310
C47454E54524154582C25732C2847454E4D53472067656E64696D7A20342900010100002074000280A900A5E8E8A9CA8A482869E588A9CAA586058A4588E8A9CA8A482A8B0584AE658508E8A9C9AA68E40CECADCC8D2DAF4406C52000202000041280005187B5C4653594D424F4C7C42307C49307C43327C50303B4A7D0151
310
91D15395149050D3CB1153954B0C0B1ED71194D6535093D31F108C1F124C1F10CC9F140C0ED29F4B11D15395149055160B095CCB0A11D1539354D1C819D95B991A5B5E880DCA40004040C0082D0000A064A4A860298A3A2A72A2920A1A79622A72A9618161292A19623A2A72A2920AA2C1612B9961423A2A726A9A39033B2B
310
73234B6BD101C148000808080107A000142D11154D0D49254151253D38053A47454E545241434F2C454E552C302C4445534352495054494F4E2C47454E54524154582C25732C2847454E4D53472067656E64696D7A203230290001000400219400028224AA22A680A668E8A9CA8A482869E588A9CAA58605892A88A9A588E8
310
A9CA8A482A8B0584AE658508E8A9C9AA68E40CECADCC8D2DAF4406268520002020A014068000505494E444558014D11D15395149050D3CB1153954B0C0B12539111560B11D15395149055160B095CCB0A11D1539354D1C819D95B991A5B5E880C4D4A400040414028750000A08909E988A0299A3A2A72A2920A1A79622A72A
310
9618162427A6229623A2A72A2920AA2C1612B9961423A2A726A9A39033B2B73234B6BD10189B148000808200112A0001429213D3114812539111560053947454E545241434F2C454E552C302C484F4C4520494E4445582C47454E54524154582C25732C2847454E4D53472067656E64696D7A2031372900010105002274000
310
284AAA9A2A91024AA22A680A708E8A9CA8A482869E588A9CAA586058AAA68AA44092A88A9A588E8A9CA8A482A8B0584AE658508E8A9C9AA68E40CECADCC8D2DAF4406464520002020A004568000503515459014C91D15395149050D3CB1153954B0C0B1455164B11D15395149055160B095CCB0A11D1539354D1C819D95B99
310
1A5B5E880C4E4A400040418008A50000A10A6A8829C8882A488029BA3A2A72A2920A1A79622A72A96181629AA20A72220A9221623A2A72A2920AA2C1612B9961423A2A726A9A39033B2B73234B6BD10191894800080020010DA440019FFFFFFFE004D4CCCCCCCCCF49FCFFFFFFFF0326A6666666667A4FE7FFFFFFF8093533
310
33333333D27F3FFFFFFFC049A9999999999E93F9FFFFFFFE044D4CCCCCCCCCF49FCFFFFFFFF0226A6666666667A4FE7FFFFFFF81B3FFFFFFFC0C00000000000000409FFFFFFFE004D4CCCCCCCCCEC9FCFFFFFFFF0026A6666666667A4FE7FFFFFFF801353333333333D27F3FFFFFFFC009A9999999999E93F9FFFFFFFE004D
310
4CCCCCCCCCF49FCFFFFFFFF032E07A17AD46E378FE7FFFFFFF818CECCCCCCCCCC0C813FFFFFFFD100067FFFFFFF801353333333333D27F3FFFFFFFC0C9A9999999999E93F9FFFFFFFE064D4CCCCCCCCCF49FCFFFFFFFF0326A6666666667A4FE7FFFFFFF819353333333333D27F3FFFFFFFC0C9A9999999999E93F9FFFFFFF
310
E06CFFFFFFFF03000000000000001027FFFFFFF801353333333333B27F3FFFFFFFC009A9999999999E93F9FFFFFFFE064D4CCCCCCCCCF49FCFFFFFFFF0026A6666666667A4FE7FFFFFFF801353333333333D27F3FFFFFFFC0CB81E85EB51B8DE3F9FFFFFFFE0633B33333333303204FFFFFFFF4111000000043C0000011200
310
000044C0000010441C0004011200000040C000401020001003FFFFFFFD0240400054E3D3C4946284953424C414E4B28486F6C654974656D292C4F726967696E2C20486F6C654974656D293E3C4946284953424C414E4B28486F6C654974656D292C22222C20486F6C65496E646578293E4111000000043C000001120000004
310
4C0000010300004111000000043C00000112000000454000000FFFFFFFF8
340
0
340
0
340
0
340
0
340
4B37E4
340
4B37E4
 94
        0
  0
ACAD_PROXY_OBJECT
  5
4B381B
330
4B37D6
100
AcDbProxyObject
 90
      499
 91
      572
 71
    25
 97
       77
 70
     0
161
              5542
310
6099741105394D2506414E53495F4342905394D257D512551554D15414E53495F54525F5265766973696F6E6C697374614191143202831372E307832322E30696E63682941905394D257D0D1146202832382E307834302E30696E63682941905394D257D191142202831312E307831372E30696E63682941905394D257D091
310
144202832322E307833342E30696E63682941905394D257D111145202833342E307834342E30696E63682941905394D257D1510412028382E357831312E30696E63682941905394D257D0505439554C8151A5D1B1948109B1BD8DAD0A414E53495F544954555344D05B9CDA48151A5D1B1948109B1BD8DAC81110D0C414E53
310
495F5449544C45444344D05B9CDA48151A5D1B1948109B1BD8DAC81050D0C414E53495F5449544C45414344905B9CDA48151A5D1B1948109B1BD8DAC81050B414E53495F5449544C454144905B9CDA48151A5D1B1948109B1BD8DAC81110B414E53495F5449544C4544421125265766973696F6E6C69737420415F42525F45
310
505394D257D09497D4995D9A5CDA5BDB9B1A5CDD185125265766973696F6E6C69737420415F54525F45505394D257D51497D4995D9A5CDA5BDB9B1A5CDD185125265766973696F6E6C69737420445F42525F45505394D257D09497D4995D9A5CDA5BDB9B1A5CDD191125265766973696F6E6C69737420445F54525F4550539
310
4D257D51497D4995D9A5CDA5BDB9B1A5CDD191125265766973696F6E6C69737420415F424C5F45505394D257D09317D4995D9A5CDA5BDB9B1A5CDD185125265766973696F6E6C69737420415F544C5F45505394D257D51317D4995D9A5CDA5BDB9B1A5CDD185125265766973696F6E6C69737420445F424C5F45505394D257
310
D09317D4995D9A5CDA5BDB9B1A5CDD191125265766973696F6E6C69737420445F544C5F45505394D257D51317D4995D9A5CDA5BDB9B1A5CDD190
 94
        0
  0
ACAD_PROXY_OBJECT
  5
4B37F8
330
0
100
AcDbProxyObject
 90
      499
 91
      568
 71
    25
 97
       77
 70
     0
161
              2224
310
60A014295195B5C1B185D19480C40405013D3C696628657175616C28486F6C653A7461707065642C223022292C22252563222C486F6C653A6E6F6D696E616C2022202220696628657175616C28486F6C653A756E6974732C223122292C2278222C222D222920222022293E3C696628657175616C28486F6C653A7461707065
310
642C223022292C486F6C653A6469612C486F6C653A706974636864657363293E207B5C46414D4744543B787D203C696628657175616C28486F6C653A7465726D696E6174696F6E2C223022292C486F6C653A64657074682C225448525522293E5C507B5C46414D4744543B767D2525633C486F6C653A63746469613E207B5C
310
46414D4744543B787D203C486F6C653A637464657074683EEA
 94
        0
  0
ACAD_PROXY_OBJECT
  5
4B37F9
330
0
100
AcDbProxyObject
 90
      499
 91
      568
 71
    25
 97
       77
 70
     0
161
              2160
310
60A014295195B5C1B185D19480C405FE3D3C696628657175616C28486F6C653A7461707065642C223022292C22252563222C486F6C653A6E6F6D696E616C2022202220696628657175616C28486F6C653A756E6974732C223122292C2278222C222D222920222022293E3C696628657175616C28486F6C653A746170706564
310
2C223022292C486F6C653A6469612C486F6C653A706974636864657363293E207B5C46414D4744543B787D203C696628657175616C28486F6C653A7465726D696E6174696F6E2C223022292C486F6C653A64657074682C225448525522293E5C507B5C46414D4744543B777D2525633C486F6C653A63746469613E2058203C
310
486F6C653A6374616E676C653E25256400
 94
        0
  0
ACAD_PROXY_OBJECT
  5
4B37F7
330
0
100
AcDbProxyObject
 90
      499
 91
      568
 71
    25
 97
       77
 70
     0
161
              1784
310
60A014295195B5C1B185D19480C405CF3D3C696628657175616C28486F6C653A7461707065642C223022292C22252563222C486F6C653A6E6F6D696E616C2022202220696628657175616C28486F6C653A756E6974732C223122292C2278222C222D222920222022293E3C696628657175616C28486F6C653A746170706564
310
2C223022292C486F6C653A6469612C486F6C653A706974636864657363293E5C507B5C46414D4744543B787D203C696628657175616C28486F6C653A7465726D696E6174696F6E2C223022292C486F6C653A64657074682C225448525522293E00
 94
        0
  0
ACAD_PROXY_OBJECT
  5
4B37F5
330
0
100
AcDbProxyObject
 90
      499
 91
      568
 71
    25
 97
       77
 70
     0
161
               312
310
60A014295195B5C1B185D19480C805173D3C535444503A444553433E203C535444503A5354443E00
 94
        0
  0
ACAD_PROXY_OBJECT
  5
4B37F4
330
0
100
AcDbProxyObject
 90
      499
 91
      568
 71
    25
 97
       77
 70
     0
161
               224
310
60A014295195B5C1B185D19480C4050C3D3C535444503A444553433E00
 94
        0
  0
ACAD_PROXY_OBJECT
  5
4B37F6
330
0
100
AcDbProxyObject
 90
      499
 91
      568
 71
    25
 97
       77
 70
     0
161
               216
310
60A014295195B5C1B185D19480CC050B3D3C535444503A5354443E3E
 94
        0
  0
ENDSEC
  0
SECTION
  2
ACDSDATA
 70
     2
 71
     8
  0
ACDSSCHEMA
 90
        0
  1
AcDb_Thumbnail_Schema
  2
AcDbDs::ID
280
    10
 91
        8
  2
Thumbnail_Data
280
    15
 91
        0
101
ACDSRECORD
 95
        0
 90
        1
  2
AcDbDs::TreatedAsObjectData
280
     1
291
     1
101
ACDSRECORD
 95
        0
 90
        2
  2
AcDbDs::Legacy
280
     1
291
     1
101
ACDSRECORD
  1
AcDbDs::ID
 90
        3
  2
AcDs:Indexable
280
     1
291
     1
101
ACDSRECORD
  1
AcDbDs::ID
 90
        4
  2
AcDbDs::HandleAttribute
280
     7
282
     1
  0
ACDSSCHEMA
 90
        1
  1
AcDbDs::TreatedAsObjectDataSchema
  2
AcDbDs::TreatedAsObjectData
280
     1
 91
        0
  0
ACDSSCHEMA
 90
        2
  1
AcDbDs::LegacySchema
  2
AcDbDs::Legacy
280
     1
 91
        0
  0
ACDSSCHEMA
 90
        3
  1
AcDbDs::IndexedPropertySchema
  2
AcDs:Indexable
280
     1
 91
        0
  0
ACDSSCHEMA
 90
        4
  1
AcDbDs::HandleAttributeSchema
  2
AcDbDs::HandleAttribute
280
     7
 91
        1
284
     1
  0
ACDSRECORD
 90
        0
  2
AcDbDs::ID
280
    10
320
4B1D16
  2
Thumbnail_Data
280
    15
 94
     1502
310
89504E470D0A1A0A0000000D49484452000001000000006F08030000003479EE6F00000300504C5445212830FFFFFF2128300000000000000000000000000000000000000000000000000000330000660000990000CC0000FF0033000033330033660033990033CC0033FF0066000066330066660066990066CC0066FF0099
310
000099330099660099990099CC0099FF00CC0000CC3300CC6600CC9900CCCC00CCFF00FF0000FF3300FF6600FF9900FFCC00FFFF3300003300333300663300993300CC3300FF3333003333333333663333993333CC3333FF3366003366333366663366993366CC3366FF3399003399333399663399993399CC3399FF33CC00
310
33CC3333CC6633CC9933CCCC33CCFF33FF0033FF3333FF6633FF9933FFCC33FFFF6600006600336600666600996600CC6600FF6633006633336633666633996633CC6633FF6666006666336666666666996666CC6666FF6699006699336699666699996699CC6699FF66CC0066CC3366CC6666CC9966CCCC66CCFF66FF0066
310
FF3366FF6666FF9966FFCC66FFFF9900009900339900669900999900CC9900FF9933009933339933669933999933CC9933FF9966009966339966669966999966CC9966FF9999009999339999669999999999CC9999FF99CC0099CC3399CC6699CC9999CCCC99CCFF99FF0099FF3399FF6699FF9999FFCC99FFFFCC0000CC00
310
33CC0066CC0099CC00CCCC00FFCC3300CC3333CC3366CC3399CC33CCCC33FFCC6600CC6633CC6666CC6699CC66CCCC66FFCC9900CC9933CC9966CC9999CC99CCCC99FFCCCC00CCCC33CCCC66CCCC99CCCCCCCCCCFFCCFF00CCFF33CCFF66CCFF99CCFFCCCCFFFFFF0000FF0033FF0066FF0099FF00CCFF00FFFF3300FF3333
310
FF3366FF3399FF33CCFF33FFFF6600FF6633FF6666FF6699FF66CCFF66FFFF9900FF9933FF9966FF9999FF99CCFF99FFFFCC00FFCC33FFCC66FFCC99FFCCCCFFCCFFFFFF00FFFF33FFFF66FFFF99FFFFCCFFFFFF0000000D0D0D1A1A1A2828283535354343435050505D5D5D6B6B6B787878868686939393A1A1A1AEAEAEBB
310
BBBBC9C9C9D6D6D6E4E4E4F1F1F1FFFFFF0000000000000000000000000000000000000000000000000000000000002E4550F1000002994944415478DAED9C4B6EC3300C447512ADBDF1FD773E1337DCD7B6127F647D983640A1E14C51A04D15A0F34C51A2CD2804EA575A7CDB9FA665721E01120880005C7B2780AB9E63B4
310
2602400070B12DFBAF76FF0804C43B8097E9E4BB3207B00104430E2870405B0A0CFE3D009825F804609A01570480BB21E700C21AFD2FF380E64C9AE7F40D79793F01E03E02DC8A00088000088000088000088000DAC2AD146C00D43B00E05289008C00E2213000967B5DAB6B0D877D3006F3DC05B0F9BE4400581474A74072
310
9C010042600590BF107D00D88CEE66B5F8AA0B00C9A816C038001043CD67FD2F400062EB3AC7009208DA001A5719250DF422A0BD3C2003E8AF7518AB611D4037CD6124C20200B54638680414FB411436044A11A08FF95D29971042A09603326F0E001436BB8FBC50DC2A8000C8823C867BF5FB28878FB2787002B20378F608
310
E53EAB00060F01590914FB84DD0010D923206F938B1F008863FB37748A3692E0E8D2B34BD23B804EAB282800C9E40BC0D5763F02B0FDD73E32E383805F008F2C40001E0104E72200EF007884068FD0A0288AA2288AFA93B0FA87E5F351A33F1D51FBCDD1E33DB7818303B8FEFBC769026A22F05214A429BC01500380E3C7F1
310
0F97C80148FF3980DC008CFE99AA0460BA799376FE9363004241BD039065B1A5C2FBA8FD5D0A9103A6F3F21A00BC83244EE3AF027700A510D072009C004676AFF71C9622605ABFE68AB208080000AE39BC380554EB53006D2B4F001F0100395F2B9673DC39ED55F3149020A09C2F96458058224080A740EA99EA6D846001BC
310
DD49AB0CBAEC0310FC9773407F2B8C02602DE70BFD6262BB1B10D19EAE1DDEA53B0C53826F91005AE930AE95D1BEBF0980A765981644093B822D35068AA2280A79C9FF4A93702A1DC52D80E13BADE53B14FFDBC60FAC10D07D2226AD290000000049454E44AE426082
  0
ENDSEC
  0
EOF
