  0
SECTION
  2
HEADER
  9
$ACADVER
  1
AC1032
  9
$ACADMAINTVER
 90
       55
  9
$DWGCODEPAGE
  3
ANSI_1252
  9
$LASTSAVEDBY
  1
Administrator
  9
$REQUIREDVERSIONS
160
                 0
  9
$INSBASE
 10
0.0
 20
0.0
 30
0.0
  9
$EXTMIN
 10
0.0000004598113037
 20
0.0000003029880986
 30
0.0
  9
$EXTMAX
 10
17.0000004598113
 20
22.0000003029881
 30
0.0
  9
$LIMMIN
 10
0.0
 20
0.0
  9
$LIMMAX
 10
16.5
 20
10.5
  9
$ORTHOMODE
 70
     1
  9
$REGENMODE
 70
     1
  9
$FILLMODE
 70
     1
  9
$QTEXTMODE
 70
     0
  9
$MIRRTEXT
 70
     0
  9
$LTSCALE
 40
1.0
  9
$ATTMODE
 70
     1
  9
$TEXTSIZE
 40
0.08
  9
$TRACEWID
 40
0.05
  9
$TEXTSTYLE
  7
ROMANS
  9
$CLAYER
  8
XTHIN
  9
$CELTYPE
  6
BYLAYER
  9
$CECOLOR
 62
   256
  9
$CELTSCALE
 40
1.0
  9
$DISPSILH
 70
     0
  9
$DIMSCALE
 40
2.0
  9
$DIMASZ
 40
0.125
  9
$DIMEXO
 40
0.045
  9
$DIMDLI
 40
0.38
  9
$DIMRND
 40
0.0
  9
$DIMDLE
 40
0.0
  9
$DIMEXE
 40
0.08
  9
$DIMTP
 40
0.0
  9
$DIMTM
 40
0.0
  9
$DIMTXT
 40
0.08
  9
$DIMCEN
 40
0.0
  9
$DIMTSZ
 40
0.0
  9
$DIMTOL
 70
     0
  9
$DIMLIM
 70
     0
  9
$DIMTIH
 70
     1
  9
$DIMTOH
 70
     1
  9
$DIMSE1
 70
     0
  9
$DIMSE2
 70
     0
  9
$DIMTAD
 70
     0
  9
$DIMZIN
 70
     0
  9
$DIMBLK
  1

  9
$DIMASO
 70
     1
  9
$DIMSHO
 70
     1
  9
$DIMPOST
  1

  9
$DIMAPOST
  1

  9
$DIMALT
 70
     0
  9
$DIMALTD
 70
     2
  9
$DIMALTF
 40
25.4
  9
$DIMLFAC
 40
1.0
  9
$DIMTOFL
 70
     0
  9
$DIMTVP
 40
0.0
  9
$DIMTIX
 70
     0
  9
$DIMSOXD
 70
     0
  9
$DIMSAH
 70
     0
  9
$DIMBLK1
  1

  9
$DIMBLK2
  1

  9
$DIMSTYLE
  2
Copy of HSTANDARD
  9
$DIMCLRD
 70
   112
  9
$DIMCLRE
 70
     9
  9
$DIMCLRT
 70
   256
  9
$DIMTFAC
 40
1.0
  9
$DIMGAP
 40
0.09
  9
$DIMJUST
 70
     0
  9
$DIMSD1
 70
     0
  9
$DIMSD2
 70
     0
  9
$DIMTOLJ
 70
     1
  9
$DIMTZIN
 70
     0
  9
$DIMALTZ
 70
     0
  9
$DIMALTTZ
 70
     0
  9
$DIMUPT
 70
     0
  9
$DIMDEC
 70
     4
  9
$DIMTDEC
 70
     4
  9
$DIMALTU
 70
     2
  9
$DIMALTTD
 70
     2
  9
$DIMTXSTY
  7
ROMANS
  9
$DIMAUNIT
 70
     0
  9
$DIMADEC
 70
     1
  9
$DIMALTRND
 40
0.0
  9
$DIMAZIN
 70
     0
  9
$DIMDSEP
 70
    46
  9
$DIMATFIT
 70
     3
  9
$DIMFRAC
 70
     2
  9
$DIMLDRBLK
  1

  9
$DIMLUNIT
 70
     4
  9
$DIMLWD
 70
    -2
  9
$DIMLWE
 70
    -2
  9
$DIMTMOVE
 70
     0
  9
$DIMFXL
 40
0.08
  9
$DIMFXLON
 70
     0
  9
$DIMJOGANG
 40
0.7853981633974483
  9
$DIMTFILL
 70
     0
  9
$DIMTFILLCLR
 70
     0
  9
$DIMARCSYM
 70
     1
  9
$DIMLTYPE
  6

  9
$DIMLTEX1
  6

  9
$DIMLTEX2
  6

  9
$DIMTXTDIRECTION
 70
     0
  9
$LUNITS
 70
     2
  9
$LUPREC
 70
     8
  9
$SKETCHINC
 40
0.1
  9
$FILLETRAD
 40
0.075
  9
$AUNITS
 70
     0
  9
$AUPREC
 70
     2
  9
$MENU
  1
TB
  9
$ELEVATION
 40
0.0
  9
$PELEVATION
 40
0.0
  9
$THICKNESS
 40
0.0
  9
$LIMCHECK
 70
     0
  9
$CHAMFERA
 40
0.0
  9
$CHAMFERB
 40
0.0
  9
$CHAMFERC
 40
0.0
  9
$CHAMFERD
 40
0.0
  9
$SKPOLY
 70
     0
  9
$TDCREATE
 40
2452817.346701389
  9
$TDUCREATE
 40
2452817.513371887
  9
$TDUPDATE
 40
2459264.425601852
  9
$TDUUPDATE
 40
2459264.633935185
  9
$TDINDWG
 40
0.8845594097
  9
$TDUSRTIMER
 40
0.8845592940
  9
$USRTIMER
 70
     1
  9
$ANGBASE
 50
0.0
  9
$ANGDIR
 70
     0
  9
$PDMODE
 70
     0
  9
$PDSIZE
 40
0.0
  9
$PLINEWID
 40
0.0
  9
$SPLFRAME
 70
     0
  9
$SPLINETYPE
 70
     6
  9
$SPLINESEGS
 70
     8
  9
$HANDSEED
  5
4B4769
  9
$SURFTAB1
 70
     6
  9
$SURFTAB2
 70
     6
  9
$SURFTYPE
 70
     6
  9
$SURFU
 70
     6
  9
$SURFV
 70
     6
  9
$UCSBASE
  2

  9
$UCSNAME
  2

  9
$UCSORG
 10
0.0
 20
0.0
 30
0.0
  9
$UCSXDIR
 10
1.0
 20
0.0
 30
0.0
  9
$UCSYDIR
 10
0.0
 20
1.0
 30
0.0
  9
$UCSORTHOREF
  2

  9
$UCSORTHOVIEW
 70
     0
  9
$UCSORGTOP
 10
0.0
 20
0.0
 30
0.0
  9
$UCSORGBOTTOM
 10
0.0
 20
0.0
 30
0.0
  9
$UCSORGLEFT
 10
0.0
 20
0.0
 30
0.0
  9
$UCSORGRIGHT
 10
0.0
 20
0.0
 30
0.0
  9
$UCSORGFRONT
 10
0.0
 20
0.0
 30
0.0
  9
$UCSORGBACK
 10
0.0
 20
0.0
 30
0.0
  9
$PUCSBASE
  2

  9
$PUCSNAME
  2

  9
$PUCSORG
 10
0.0
 20
0.0
 30
0.0
  9
$PUCSXDIR
 10
1.0
 20
0.0
 30
0.0
  9
$PUCSYDIR
 10
0.0
 20
1.0
 30
0.0
  9
$PUCSORTHOREF
  2

  9
$PUCSORTHOVIEW
 70
     0
  9
$PUCSORGTOP
 10
0.0
 20
0.0
 30
0.0
  9
$PUCSORGBOTTOM
 10
0.0
 20
0.0
 30
0.0
  9
$PUCSORGLEFT
 10
0.0
 20
0.0
 30
0.0
  9
$PUCSORGRIGHT
 10
0.0
 20
0.0
 30
0.0
  9
$PUCSORGFRONT
 10
0.0
 20
0.0
 30
0.0
  9
$PUCSORGBACK
 10
0.0
 20
0.0
 30
0.0
  9
$USERI1
 70
     0
  9
$USERI2
 70
     0
  9
$USERI3
 70
     0
  9
$USERI4
 70
     0
  9
$USERI5
 70
     0
  9
$USERR1
 40
0.0
  9
$USERR2
 40
0.0
  9
$USERR3
 40
0.0
  9
$USERR4
 40
0.0
  9
$USERR5
 40
0.0
  9
$WORLDVIEW
 70
     1
  9
$SHADEDGE
 70
     3
  9
$SHADEDIF
 70
    70
  9
$TILEMODE
 70
     1
  9
$MAXACTVP
 70
    16
  9
$PINSBASE
 10
0.0
 20
0.0
 30
0.0
  9
$PLIMCHECK
 70
     0
  9
$PEXTMIN
 10
1.000000000000000E+20
 20
1.000000000000000E+20
 30
1.000000000000000E+20
  9
$PEXTMAX
 10
-1.000000000000000E+20
 20
-1.000000000000000E+20
 30
-1.000000000000000E+20
  9
$PLIMMIN
 10
0.0
 20
0.0
  9
$PLIMMAX
 10
12.0
 20
9.0
  9
$UNITMODE
 70
     0
  9
$VISRETAIN
 70
     0
  9
$PLINEGEN
 70
     0
  9
$PSLTSCALE
 70
     1
  9
$TREEDEPTH
 70
  3020
  9
$CMLSTYLE
  2
STANDARD
  9
$CMLJUST
 70
     0
  9
$CMLSCALE
 40
1.0
  9
$PROXYGRAPHICS
 70
     1
  9
$MEASUREMENT
 70
     0
  9
$CELWEIGHT
370
    -1
  9
$ENDCAPS
280
     0
  9
$JOINSTYLE
280
     0
  9
$LWDISPLAY
290
     0
  9
$INSUNITS
 70
     0
  9
$HYPERLINKBASE
  1

  9
$STYLESHEET
  1
Harvey Std Plot Style.ctb
  9
$XEDIT
290
     1
  9
$CEPSNTYPE
380
     0
  9
$PSTYLEMODE
290
     1
  9
$FINGERPRINTGUID
  2
{E04C8470-A686-11D3-A221-005004E2D0E9}
  9
$VERSIONGUID
  2
{A7A8227D-1CED-4017-8386-6A2728A4FB90}
  9
$EXTNAMES
290
     1
  9
$PSVPSCALE
 40
0.0
  9
$OLESTARTUP
290
     0
  9
$SORTENTS
280
    96
  9
$INDEXCTL
280
     0
  9
$HIDETEXT
280
     0
  9
$XCLIPFRAME
280
     0
  9
$HALOGAP
280
     0
  9
$OBSCOLOR
 70
   257
  9
$OBSLTYPE
280
     0
  9
$INTERSECTIONDISPLAY
280
     0
  9
$INTERSECTIONCOLOR
 70
   257
  9
$DIMASSOC
280
     1
  9
$PROJECTNAME
  1

  9
$CAMERADISPLAY
290
     0
  9
$LENSLENGTH
 40
50.0
  9
$CAMERAHEIGHT
 40
0.0
  9
$STEPSPERSEC
 40
2.0
  9
$STEPSIZE
 40
6.0
  9
$3DDWFPREC
 40
2.0
  9
$PSOLWIDTH
 40
0.25
  9
$PSOLHEIGHT
 40
4.0
  9
$LOFTANG1
 40
1.570796326794896
  9
$LOFTANG2
 40
1.570796326794896
  9
$LOFTMAG1
 40
0.0
  9
$LOFTMAG2
 40
0.0
  9
$LOFTPARAM
 70
     7
  9
$LOFTNORMALS
280
     1
  9
$LATITUDE
 40
37.795
  9
$LONGITUDE
 40
-122.394
  9
$NORTHDIRECTION
 40
0.0
  9
$TIMEZONE
 70
 -8000
  9
$LIGHTGLYPHDISPLAY
280
     1
  9
$TILEMODELIGHTSYNCH
280
     1
  9
$CMATERIAL
347
4B41D8
  9
$SOLIDHIST
280
     0
  9
$SHOWHIST
280
     1
  9
$DWFFRAME
280
     2
  9
$DGNFRAME
280
     0
  9
$REALWORLDSCALE
290
     1
  9
$INTERFERECOLOR
 62
     1
  9
$INTERFEREOBJVS
345
4B41FA
  9
$INTERFEREVPVS
346
4B41F7
  9
$CSHADOW
280
     0
  9
$SHADOWPLANELOCATION
 40
0.0
  0
ENDSEC
  0
SECTION
  2
CLASSES
  0
CLASS
  1
ACDBDICTIONARYWDFLT
  2
AcDbDictionaryWithDefault
  3
ObjectDBX Classes
 90
        0
 91
        1
280
     0
281
     0
  0
CLASS
  1
ACDBPLACEHOLDER
  2
AcDbPlaceHolder
  3
ObjectDBX Classes
 90
        0
 91
        1
280
     0
281
     0
  0
CLASS
  1
LAYOUT
  2
AcDbLayout
  3
ObjectDBX Classes
 90
        0
 91
        2
280
     0
281
     0
  0
CLASS
  1
PLOTSETTINGS
  2
AcDbPlotSettings
  3
ObjectDBX Classes
 90
        0
 91
        2
280
     0
281
     0
  0
CLASS
  1
MTV_DERIVED_OBJECT
  2
CMtvAcDerivedObject
  3
MTV_ADME_ARX
 90
     1023
 91
        9
280
     0
281
     0
  0
CLASS
  1
DICTIONARYVAR
  2
AcDbDictionaryVar
  3
ObjectDBX Classes
 90
        0
 91
       10
280
     0
281
     0
  0
CLASS
  1
TABLESTYLE
  2
AcDbTableStyle
  3
ObjectDBX Classes
 90
     4095
 91
        1
280
     0
281
     0
  0
CLASS
  1
ACME_DOCUMENT
  2
AcMeDbDoc
  3
AcMeServices
 90
        0
 91
        0
280
     0
281
     0
  0
CLASS
  1
AMGSETTINGSOBJ
  2
AmgSettingsObj
  3
"AcadM|Product Description: AutoCAD Mechanical 2000|Company: Autodesk"
 90
        0
 91
        3
280
     0
281
     0
  0
CLASS
  1
ACMESCOPE
  2
AcMeScope
  3
AcMeServices
 90
        0
 91
        2
280
     0
281
     0
  0
CLASS
  1
ACMECOMMANDHISTORY
  2
AcMeCommandHistory
  3
AcMeServices
 90
        0
 91
        2
280
     0
281
     0
  0
CLASS
  1
ACIMSYSVARMAN
  2
AcImSysVarManager
  3
AcMeServices
 90
        0
 91
        6
280
     0
281
     0
  0
CLASS
  1
ACIMINTSYSVAR
  2
AcImIntSysVar
  3
AcMeServices
 90
        0
 91
       27
280
     0
281
     0
  0
CLASS
  1
ACMEDRAWINGMAN
  2
AcMeDrawingMan
  3
AcMeServices
 90
        0
 91
        2
280
     0
281
     0
  0
CLASS
  1
ACMEVIEW
  2
AcMeView
  3
AcMeServices
 90
        0
 91
        2
280
     0
281
     0
  0
CLASS
  1
ACDBENTITYCACHE
  2
AcMeEntityCache
  3
AcMeServices
 90
        0
 91
        0
280
     0
281
     0
  0
CLASS
  1
GSMANAGER
  2
AcMeGSManager
  3
AcMeServices
 90
        0
 91
        0
280
     0
281
     0
  0
CLASS
  1
AMDTINTERNALREACTOR
  2
AmdtInternalReactor
  3
AcMeServices
 90
        0
 91
        0
280
     0
281
     0
  0
CLASS
  1
ACMESTATEMGR
  2
AcMeStateMgr
  3
AcMeServices
 90
        0
 91
        2
280
     0
281
     0
  0
CLASS
  1
ACGREFMASTER
  2
AcGrefMaster
  3
AcAttribServices
 90
        0
 91
        2
280
     0
281
     0
  0
CLASS
  1
AM_DRAWING_MGR
  2
AcDmDwgMgr
  3
AcMechDwgViewMgmt
 90
        0
 91
        2
280
     0
281
     0
  0
CLASS
  1
AM_DWG_DOCUMENT
  2
AcDmDwgDocument
  3
AcMechDwgViewMgmt
 90
        0
 91
        2
280
     0
281
     0
  0
CLASS
  1
AM_DWG_SHEET
  2
AcDmSheet
  3
AcMechDwgViewMgmt
 90
        0
 91
        2
280
     0
281
     0
  0
CLASS
  1
AM_VIEWDIMPARMAP
  2
AcDmViewDimParMap
  3
AcMechDwgViewMgmt
 90
        0
 91
        2
280
     0
281
     0
  0
CLASS
  1
ACIMREALSYSVAR
  2
AcImRealSysVar
  3
AcMeServices
 90
        0
 91
        2
280
     0
281
     0
  0
CLASS
  1
AM_DWGMGR_NAME
  2
AcDmDwgMgrName
  3
AcMechDwgViewMgmt
 90
        0
 91
        2
280
     0
281
     0
  0
CLASS
  1
ACME_DATABASE
  2
AcMeDbDatabase
  3
AcMeServices
 90
        0
 91
        0
280
     0
281
     0
  0
CLASS
  1
ACRFINSADJUSTERMGR
  2
AcRfInsAdjusterMgr
  3
AcMeServices
 90
        0
 91
        0
280
     0
281
     0
  0
CLASS
  1
ACGREFACADMASTER
  2
AcGrefacadMaster
  3
AcGrefServices
 90
        0
 91
        2
280
     0
281
     0
  0
CLASS
  1
AMDTMENUSTATEMGR
  2
AmdtMenuStateMgr
  3
McadcomServices
 90
        0
 91
        0
280
     0
281
     0
  0
CLASS
  1
AMDTMCOMMENUSTATE
  2
AmdtMcomMenuState
  3
McadcomServices
 90
        0
 91
        0
280
     0
281
     0
  0
CLASS
  1
AMIMASTER
  2
AmiMaster
  3
AmiServices
 90
        0
 91
        2
280
     0
281
     0
  0
CLASS
  1
MAPIAMMOUDLE
  2
MApiAmModule
  3
MApiAmServices
 90
        0
 91
        2
280
     0
281
     0
  0
CLASS
  1
ACIMSTRSYSVAR
  2
AcImStrSysVar
  3
AcMeServices
 90
        0
 91
        6
280
     0
281
     0
  0
CLASS
  1
AMDTADMENUSTATE
  2
AmdtAdMenuState
  3
DesignerServices
 90
        0
 91
        0
280
     0
281
     0
  0
CLASS
  1
ADAPPL
  2
AcAdAppl
  3
DesignerServices
 90
        0
 91
        2
280
     0
281
     0
  0
CLASS
  1
DEPMGR
  2
AcAdDepMgr
  3
DesignerServices
 90
        0
 91
        2
280
     0
281
     0
  0
CLASS
  1
PARAMMGR
  2
AcAdParamMgr
  3
DesignerServices
 90
        0
 91
        2
280
     0
281
     0
  0
CLASS
  1
PARAMSCOPE
  2
AcAdParamScope
  3
DesignerServices
 90
        0
 91
        2
280
     0
281
     0
  0
CLASS
  1
NAMEDAPPL
  2
AcAdNamedAppl
  3
DesignerServices
 90
        0
 91
        2
280
     0
281
     0
  0
CLASS
  1
AMDTDMMENUSTATE
  2
AmdtDmMenuState
  3
AcMechDwgViewMgmt
 90
        0
 91
        0
280
     0
281
     0
  0
CLASS
  1
AMDTAMMENUSTATE
  2
AmdtAmMenuState
  3
DesignerAssemblies
 90
        0
 91
        0
280
     0
281
     0
  0
CLASS
  1
ACAMPROJECT
  2
AcAmProject
  3
DesignerAssemblies
 90
        0
 91
        2
280
     0
281
     0
  0
CLASS
  1
ACAMGRCOMPDEF
  2
AcAmGrCompDef
  3
DesignerAssemblies
 90
        0
 91
        2
280
     0
281
     0
  0
CLASS
  1
ACCMCONTEXT
  2
AcCmContext
  3
DesignerAssemblies
 90
        0
 91
        2
280
     0
281
     0
  0
CLASS
  1
ACAMCOMPDEF
  2
AcAmCompDef
  3
DesignerAssemblies
 90
        0
 91
        2
280
     0
281
     0
  0
CLASS
  1
ACAMCOMPDEFMGR
  2
AcAmCompDefMgr
  3
DesignerAssemblies
 90
        0
 91
        2
280
     0
281
     0
  0
CLASS
  1
AMCONTEXTMGR
  2
AcAmContextMgr
  3
DesignerAssemblies
 90
        0
 91
        2
280
     0
281
     0
  0
CLASS
  1
ACAMCONTEXTMODELER
  2
AcAmContextModeler
  3
DesignerAssemblies
 90
        0
 91
        2
280
     0
281
     0
  0
CLASS
  1
ACMDATADICTIONARY
  2
AcmDataDictionary
  3
"AcmSymBB|Product Description: AutoCAD Mechanical 2004 DX|Company: Autodesk"
 90
        0
 91
        2
280
     0
281
     0
  0
CLASS
  1
CATALOGSTATE
  2
AcAmCatalogState
  3
DesignerAssemblies
 90
        0
 91
        2
280
     0
281
     0
  0
CLASS
  1
ACAMGRCOMPDEFSET
  2
AcAmGrCompDefSet
  3
DesignerAssemblies
 90
        0
 91
        0
280
     0
281
     0
  0
CLASS
  1
AMDTBROWSERDBTAB
  2
AmdtBrowserDbTab
  3
McadcomServices
 90
        0
 91
        0
280
     0
281
     0
  0
CLASS
  1
CBROWSERAPPOBJECT
  2
CBrowserAppObject
  3
McadcomServices
 90
        0
 91
        0
280
     0
281
     0
  0
CLASS
  1
DM_PLACEHOLDER
  2
AcDmSelsetPlaceholder
  3
AcMechDwgViewMgmt
 90
        0
 91
        0
280
     0
281
     0
  0
CLASS
  1
ACMSTANDARDANSI
  2
AcmStandardANSI
  3
"Amdt_StdImp|Product Description: AutoCAD Mechanical 2004 DX|Company: Autodesk"
 90
        0
 91
        2
280
     0
281
     0
  0
CLASS
  1
AMGOBJPROPCFG
  2
AmgObjPropCfg
  3
"AmgLay|Product Description: AutoCAD Mechanical 2000|Company: Autodesk"
 90
        1
 91
        2
280
     0
281
     0
  0
CLASS
  1
ACMSURFSTANDARDANSI
  2
AcmSurfTextStdANSI
  3
"Amdt_StdImp|Product Description: AutoCAD Mechanical 2004 DX|Company: Autodesk"
 90
        0
 91
        2
280
     0
281
     0
  0
CLASS
  1
ACMFCFSTANDARDANSI
  2
AcmFCFStdANSI
  3
"Amdt_StdImp|Product Description: AutoCAD Mechanical 2004 DX|Company: Autodesk"
 90
        0
 91
        2
280
     0
281
     0
  0
CLASS
  1
ACMWELDSTANDARDANSI
  2
AcmWeldingStdANSI
  3
"Amdt_StdImp|Product Description: AutoCAD Mechanical 2004 DX|Company: Autodesk"
 90
        0
 91
        2
280
     0
281
     0
  0
CLASS
  1
ACMIDSTANDARDANSI
  2
AcmIdStdANSI
  3
"Amdt_StdImp|Product Description: AutoCAD Mechanical 2004 DX|Company: Autodesk"
 90
        0
 91
        2
280
     0
281
     0
  0
CLASS
  1
ACMDATUMSTANDARDANSI
  2
AcmDatumStdANSI
  3
"Amdt_StdImp|Product Description: AutoCAD Mechanical 2004 DX|Company: Autodesk"
 90
        0
 91
        2
280
     0
281
     0
  0
CLASS
  1
ACMBOMSTANDARDANSI
  2
AcmBOMStdANSI
  3
"Amdt_StdImp|Product Description: AutoCAD Mechanical 2004 DX|Company: Autodesk"
 90
        0
 91
        2
280
     0
281
     0
  0
CLASS
  1
ACMDETAILSTANDARDANSI
  2
AmdtDetailSymStdANSI
  3
"Amdt_StdImp|Product Description: AutoCAD Mechanical 2004 DX|Company: Autodesk"
 90
        0
 91
        2
280
     0
281
     0
  0
CLASS
  1
ACMSECTIONSTANDARDANSI
  2
AmdtSectionSymStdANSI
  3
"Amdt_StdImp|Product Description: AutoCAD Mechanical 2004 DX|Company: Autodesk"
 90
        0
 91
        2
280
     0
281
     0
  0
CLASS
  1
ACMCENTERLINESTANDARDANSI
  2
AmdtCenterLineStdANSI
  3
"Amdt_StdImp|Product Description: AutoCAD Mechanical 2004 DX|Company: Autodesk"
 90
        0
 91
        2
280
     0
281
     0
  0
CLASS
  1
ACMTHREADLINESTANDARDANSI
  2
AmdtThreadLineStdANSI
  3
"Amdt_StdImp|Product Description: AutoCAD Mechanical 2004 DX|Company: Autodesk"
 90
        0
 91
        2
280
     0
281
     0
  0
CLASS
  1
ACMNOTESTANDARDANSI
  2
AmdtNoteStdANSI
  3
"Amdt_StdImp|Product Description: AutoCAD Mechanical 2004 DX|Company: Autodesk"
 90
        0
 91
        2
280
     0
281
     0
  0
CLASS
  1
AMDTNOTETEMPLATEDB
  2
AmdtNoteTemplateDB
  3
AMDT_STDIMP_MODULE_NAME
 90
        0
 91
        7
280
     0
281
     0
  0
CLASS
  1
ACAMGLAYSTD
  2
AcAmgLayStd
  3
"AcAmgLayStd|Product Description: AutoCAD Mechanical 2000|Company: Autodesk"
 90
        0
 91
        2
280
     0
281
     0
  0
CLASS
  1
ACAMGDIMSTD
  2
AcAmgDimStd
  3
"AcAmgDimStd|Product Description: AutoCAD Mechanical 2000|Company: Autodesk"
 90
        0
 91
        2
280
     0
281
     0
  0
CLASS
  1
ACAMGHOLECHARTSTDANSI
  2
AcAmgHoleChartStdANSI
  3
ACMSYMBB_MODULE_NAME
 90
        0
 91
        2
280
     0
281
     0
  0
CLASS
  1
ACAMGTITLESTD
  2
AcAmgTitleStd
  3
"TITLEAPP"
 90
        0
 91
        2
280
     0
281
     0
  0
CLASS
  1
ACAMGFILTERDAT
  2
AcAmgFilterDat
  3
"AcadM|Product Description: AutoCAD Mechanical 2000|Company: Autodesk"
 90
        0
 91
        7
280
     0
281
     0
  0
CLASS
  1
SORTENTSTABLE
  2
AcDbSortentsTable
  3
ObjectDBX Classes
 90
        0
 91
        7
280
     0
281
     0
  0
CLASS
  1
ACMDATAENTRYBLOCK
  2
AcmDataEntryBlock
  3
"AcmSymBB|Product Description: AutoCAD Mechanical 2004 DX|Company: Autodesk"
 90
        0
 91
        0
280
     0
281
     0
  0
CLASS
  1
MATERIAL
  2
AcDbMaterial
  3
ObjectDBX Classes
 90
     1153
 91
        3
280
     0
281
     0
  0
CLASS
  1
VISUALSTYLE
  2
AcDbVisualStyle
  3
ObjectDBX Classes
 90
     4095
 91
       24
280
     0
281
     0
  0
CLASS
  1
SCALE
  2
AcDbScale
  3
ObjectDBX Classes
 90
     1153
 91
       17
280
     0
281
     0
  0
CLASS
  1
MLEADERSTYLE
  2
AcDbMLeaderStyle
  3
ACDB_MLEADERSTYLE_CLASS
 90
     4095
 91
        1
280
     0
281
     0
  0
CLASS
  1
ACDBSECTIONVIEWSTYLE
  2
AcDbSectionViewStyle
  3
ObjectDBX Classes
 90
     1025
 91
        1
280
     0
281
     0
  0
CLASS
  1
ACDBDETAILVIEWSTYLE
  2
AcDbDetailViewStyle
  3
ObjectDBX Classes
 90
     1025
 91
        1
280
     0
281
     0
  0
CLASS
  1
CELLSTYLEMAP
  2
AcDbCellStyleMap
  3
ObjectDBX Classes
 90
     1152
 91
        1
280
     0
281
     0
  0
ENDSEC
  0
SECTION
  2
TABLES
  0
TABLE
  2
VPORT
  5
4B1AB8
330
0
100
AcDbSymbolTable
 70
     1
  0
VPORT
  5
4B41D6
330
4B1AB8
100
AcDbSymbolTableRecord
100
AcDbViewportTableRecord
  2
*Active
 70
     0
 10
0.0
 20
0.0
 11
1.0
 21
1.0
 12
12.61320991436999
 22
11.00008738385051
 13
0.0
 23
0.0
 14
0.125
 24
0.125
 15
0.25
 25
0.25
 16
0.0
 26
0.0
 36
1.0
 17
0.0
 27
0.0
 37
0.0
 40
22.1369596217837
 41
2.292712066905615
 42
50.0
 43
0.0
 44
0.0
 50
0.0
 51
0.0
 71
     0
 72
 20000
 73
     1
 74
     3
 75
     0
 76
     1
 77
     0
 78
     0
281
     0
 65
     1
110
0.0
120
0.0
130
0.0
111
1.0
121
0.0
131
0.0
112
0.0
122
1.0
132
0.0
 79
     0
146
0.0
348
4B41F6
 60
     3
 61
     5
292
     1
282
     1
141
0.0
142
0.0
 63
   250
421
  3355443
1001
ACAD_NAV_VCDISPLAY
1070
     3
  0
ENDTAB
  0
TABLE
  2
LTYPE
  5
4B1AB5
330
0
100
AcDbSymbolTable
 70
    10
  0
LTYPE
  5
4B1AC2
330
4B1AB5
100
AcDbSymbolTableRecord
100
AcDbLinetypeTableRecord
  2
BYBLOCK
 70
     0
  3

 72
    65
 73
     0
 40
0.0
  0
LTYPE
  5
4B1AC3
330
4B1AB5
100
AcDbSymbolTableRecord
100
AcDbLinetypeTableRecord
  2
BYLAYER
 70
     0
  3

 72
    65
 73
     0
 40
0.0
  0
LTYPE
  5
4B1AC4
330
4B1AB5
100
AcDbSymbolTableRecord
100
AcDbLinetypeTableRecord
  2
CONTINUOUS
 70
     0
  3
Solid line
 72
    65
 73
     0
 40
0.0
  0
LTYPE
  5
4B37A2
330
4B1AB5
100
AcDbSymbolTableRecord
100
AcDbLinetypeTableRecord
  2
HIDDEN
 70
     0
  3
Hidden __ __ __ __ __ __ __ __ __ __ __ __ __ _
 72
    65
 73
     2
 40
0.375
 49
0.25
 74
     0
 49
-0.125
 74
     0
  0
LTYPE
  5
4B37A3
330
4B1AB5
100
AcDbSymbolTableRecord
100
AcDbLinetypeTableRecord
  2
PHANTOM2
 70
     0
  3
Phantom (.5x) ___ _ _ ___ _ _ ___ _ _ ___ _ _
 72
    65
 73
     6
 40
1.25
 49
0.625
 74
     0
 49
-0.125
 74
     0
 49
0.125
 74
     0
 49
-0.125
 74
     0
 49
0.125
 74
     0
 49
-0.125
 74
     0
  0
LTYPE
  5
4B37A4
330
4B1AB5
100
AcDbSymbolTableRecord
100
AcDbLinetypeTableRecord
  2
CENTER
 70
     0
  3
Center ____ _ ____ _ ____ _ ____ _ ____ _ ____
 72
    65
 73
     4
 40
2.0
 49
1.25
 74
     0
 49
-0.25
 74
     0
 49
0.25
 74
     0
 49
-0.25
 74
     0
  0
LTYPE
  5
4B37DB
330
4B1AB5
100
AcDbSymbolTableRecord
100
AcDbLinetypeTableRecord
  2
Amconstr
 70
     0
  3
_______________________
 72
    65
 73
     2
 40
9999.0
 49
9999.0
 74
     0
 49
0.0
 74
     0
  0
LTYPE
  5
4B37E1
330
4B1AB5
100
AcDbSymbolTableRecord
100
AcDbLinetypeTableRecord
  2
CENTER2
 70
     0
  3
Center (.5x) ___ _ ___ _ ___ _ ___ _ ___ _ ___
 72
    65
 73
     4
 40
1.125
 49
0.75
 74
     0
 49
-0.125
 74
     0
 49
0.125
 74
     0
 49
-0.125
 74
     0
  0
LTYPE
  5
4B37E2
330
4B1AB5
100
AcDbSymbolTableRecord
100
AcDbLinetypeTableRecord
  2
HIDDEN2
 70
     0
  3
Hidden (.5x) _ _ _ _ _ _ _ _ _ _ _ _ _ _ _ _ _
 72
    65
 73
     2
 40
0.1875
 49
0.125
 74
     0
 49
-0.0625
 74
     0
  0
LTYPE
  5
4B37E3
330
4B1AB5
100
AcDbSymbolTableRecord
100
AcDbLinetypeTableRecord
  2
Amzigzag2
 70
     0
  3
/\/-/\/-/\/-/\/-/\/-/\/
 72
    65
 73
     2
 40
0.4401
 49
0.0001
 74
     4
 75
   136
340
4B37DF
 46
0.0016
 50
0.0
 44
0.0
 45
0.0
 49
-0.4400000000000001
 74
     0
  0
LTYPE
  5
4B37F1
330
4B1AB5
100
AcDbSymbolTableRecord
100
AcDbLinetypeTableRecord
  2
ACANSTGB
 70
     0
  3
__ . . __ . .
 72
    65
 73
     6
 40
0.35433070866
 49
0.15748031496
 74
     0
 49
-0.03937007874
 74
     0
 49
0.03937007874
 74
     0
 49
-0.03937007874
 74
     0
 49
0.03937007874
 74
     0
 49
-0.03937007874
 74
     0
  0
LTYPE
  5
4B37F2
330
4B1AB5
100
AcDbSymbolTableRecord
100
AcDbLinetypeTableRecord
  2
ACANSTGL
 70
     0
  3
_ _ _ _ _
 72
    65
 73
     2
 40
0.11811023622
 49
0.07874015748
 74
     0
 49
-0.03937007874
 74
     0
  0
ENDTAB
  0
TABLE
  2
LAYER
  5
4B1AB2
102
{ACAD_XDICTIONARY
360
4B1D43
102
}
330
0
100
AcDbSymbolTable
 70
     9
  0
LAYER
  5
4B1ABF
102
{ACAD_XDICTIONARY
360
4B422A
102
}
330
4B1AB2
100
AcDbSymbolTableRecord
100
AcDbLayerTableRecord
  2
0
 70
     0
 62
    31
  6
CONTINUOUS
370
    -3
390
4B1D13
347
4B41E8
348
0
  0
LAYER
  5
4B1AE0
102
{ACAD_XDICTIONARY
360
4B422C
102
}
330
4B1AB2
100
AcDbSymbolTableRecord
100
AcDbLayerTableRecord
  2
THIN
 70
     0
 62
     9
  6
CONTINUOUS
370
    -3
390
4B1D13
347
4B41E8
348
0
  0
LAYER
  5
4B1AE2
102
{ACAD_XDICTIONARY
360
4B422E
102
}
330
4B1AB2
100
AcDbSymbolTableRecord
100
AcDbLayerTableRecord
  2
DIM
 70
     0
 62
     7
  6
CONTINUOUS
370
    -3
390
4B1D13
347
4B41E8
348
0
  0
LAYER
  5
4B1AE5
102
{ACAD_XDICTIONARY
360
4B4232
102
}
330
4B1AB2
100
AcDbSymbolTableRecord
100
AcDbLayerTableRecord
  2
XTHIN
 70
     0
 62
   112
  6
CONTINUOUS
370
    -3
390
4B1D13
347
4B41E8
348
0
  0
LAYER
  5
4B1AE8
330
4B1AB2
100
AcDbSymbolTableRecord
100
AcDbLayerTableRecord
  2
DEFPOINTS
 70
     0
 62
     7
  6
CONTINUOUS
290
     0
370
    -3
390
4B1D13
347
4B41E8
348
0
  0
LAYER
  5
4B1D42
102
{ACAD_XDICTIONARY
360
4B4234
102
}
330
4B1AB2
100
AcDbSymbolTableRecord
100
AcDbLayerTableRecord
  2
10
 70
     0
 62
     9
  6
CONTINUOUS
370
    -3
390
4B1D13
347
4B41E8
348
0
  0
LAYER
  5
4B3896
102
{ACAD_XDICTIONARY
360
4B4238
102
}
330
4B1AB2
100
AcDbSymbolTableRecord
100
AcDbLayerTableRecord
  2
3
 70
     0
 62
     3
  6
CONTINUOUS
370
    -3
390
4B1D13
347
4B41E8
348
0
  0
LAYER
  5
4B42CC
102
{ACAD_XDICTIONARY
360
4B42CD
102
}
330
4B1AB2
100
AcDbSymbolTableRecord
100
AcDbLayerTableRecord
  2
PAPER
 70
     0
 62
     6
  6
CONTINUOUS
370
    -3
390
4B1D13
347
4B41E8
348
0
  0
LAYER
  5
4B448F
102
{ACAD_XDICTIONARY
360
4B4490
102
}
330
4B1AB2
100
AcDbSymbolTableRecord
100
AcDbLayerTableRecord
  2
IG
 70
     0
 62
     4
  6
CONTINUOUS
370
    -3
390
4B1D13
347
4B41E8
348
0
1001
AcAecLayerStandard
1000

1000

  0
ENDTAB
  0
TABLE
  2
STYLE
  5
4B1AB3
330
0
100
AcDbSymbolTable
 70
     7
  0
STYLE
  5
4B1AC0
330
4B1AB3
100
AcDbSymbolTableRecord
100
AcDbTextStyleTableRecord
  2
STANDARD
 70
     0
 40
0.0
 41
1.0
 50
0.0
 71
     0
 42
0.2
  3
txt
  4

  0
STYLE
  5
4B1ACE
330
4B1AB3
100
AcDbSymbolTableRecord
100
AcDbTextStyleTableRecord
  2
ROMANS
 70
     0
 40
0.0
 41
1.0
 50
10.0
 71
     0
 42
0.08
  3
romans
  4

  0
STYLE
  5
4B1BF0
330
4B1AB3
100
AcDbSymbolTableRecord
100
AcDbTextStyleTableRecord
  2
SIMPLEX
 70
     0
 40
0.0
 41
1.0
 50
10.0
 71
     0
 42
0.04
  3
SIMPLEX
  4

  0
STYLE
  5
4B2280
330
4B1AB3
100
AcDbSymbolTableRecord
100
AcDbTextStyleTableRecord
  2
TAHOMA
 70
     0
 40
0.0
 41
1.0
 50
0.0
 71
     0
 42
0.045
  3
TAHOMA.TTF
  4

1001
ACAD
1000
Tahoma
1071
       34
  0
STYLE
  5
4B37DF
330
4B1AB3
100
AcDbSymbolTableRecord
100
AcDbTextStyleTableRecord
  2

 70
     1
 40
0.0
 41
1.0
 50
0.0
 71
     0
 42
0.08
  3
genltshp.shx
  4

  0
STYLE
  5
4B37E4
330
4B1AB3
100
AcDbSymbolTableRecord
100
AcDbTextStyleTableRecord
  2
ACANSTS
 70
     0
 40
1.0
 41
1.0
 50
0.0
 71
     0
 42
0.08
  3
romans.shx
  4

  0
STYLE
  5
4B37F0
330
4B1AB3
100
AcDbSymbolTableRecord
100
AcDbTextStyleTableRecord
  2
ACANSGDT
 70
     0
 40
0.0
 41
1.0
 50
0.0
 71
     0
 42
0.08
  3
amgdt.shx
  4

  0
ENDTAB
  0
TABLE
  2
VIEW
  5
4B1AB6
330
0
100
AcDbSymbolTable
 70
     1
  0
VIEW
  5
4B1AD8
330
4B1AB6
100
AcDbSymbolTableRecord
100
AcDbViewTableRecord
  2
OLE1
 70
     0
 40
5.004887585532746
 10
4.0
 20
2.502443792766373
 41
8.0
 11
0.0
 21
0.0
 31
1.0
 12
0.0
 22
0.0
 32
0.0
 42
50.0
 43
0.0
 44
0.0
 50
0.0
 71
     0
281
     0
 72
     0
 73
     0
348
4B41F6
  0
ENDTAB
  0
TABLE
  2
UCS
  5
4B1AB7
330
0
100
AcDbSymbolTable
 70
     0
  0
ENDTAB
  0
TABLE
  2
APPID
  5
4B1AB9
330
0
100
AcDbSymbolTable
 70
    29
  0
APPID
  5
4B1AC1
330
4B1AB9
100
AcDbSymbolTableRecord
100
AcDbRegAppTableRecord
  2
ACAD
 70
     0
  0
APPID
  5
4B1ADB
330
4B1AB9
100
AcDbSymbolTableRecord
100
AcDbRegAppTableRecord
  2
TB_S_MPD
 70
     0
  0
APPID
  5
4B1F14
330
4B1AB9
100
AcDbSymbolTableRecord
100
AcDbRegAppTableRecord
  2
RAK
 70
     0
  0
APPID
  5
4B2288
330
4B1AB9
100
AcDbSymbolTableRecord
100
AcDbRegAppTableRecord
  2
MTVPROFILELINK
 70
     0
  0
APPID
  5
4B2289
330
4B1AB9
100
AcDbSymbolTableRecord
100
AcDbRegAppTableRecord
  2
ADMEPROFILELINK
 70
     0
  0
APPID
  5
4B3775
330
4B1AB9
100
AcDbSymbolTableRecord
100
AcDbRegAppTableRecord
  2
MCAD_NO_VIS
 70
     0
  0
APPID
  5
4B3776
330
4B1AB9
100
AcDbSymbolTableRecord
100
AcDbRegAppTableRecord
  2
ACAD_TEMP_GRAPHIC
 70
     0
  0
APPID
  5
4B37A6
330
4B1AB9
100
AcDbSymbolTableRecord
100
AcDbRegAppTableRecord
  2
AD_DRAW
 70
     0
  0
APPID
  5
4B37A9
330
4B1AB9
100
AcDbSymbolTableRecord
100
AcDbRegAppTableRecord
  2
ACATTRIBSERVICES
 70
     0
  0
APPID
  5
4B37C9
330
4B1AB9
100
AcDbSymbolTableRecord
100
AcDbRegAppTableRecord
  2
DESIGNERASSEMBLIES
 70
     0
  0
APPID
  5
4B37CF
330
4B1AB9
100
AcDbSymbolTableRecord
100
AcDbRegAppTableRecord
  2
ACADM_DIM_EDIT
 70
     0
  0
APPID
  5
4B37D0
330
4B1AB9
100
AcDbSymbolTableRecord
100
AcDbRegAppTableRecord
  2
AMDT_DM_ADJ
 70
     0
  0
APPID
  5
4B37FD
330
4B1AB9
100
AcDbSymbolTableRecord
100
AcDbRegAppTableRecord
  2
ACAD_DSTYLE_DIMARC_LENGTH_SYMBOL
 70
     0
  0
APPID
  5
4B37FE
330
4B1AB9
100
AcDbSymbolTableRecord
100
AcDbRegAppTableRecord
  2
ACAD_DSTYLE_DIMJOGGED_JOGANGLE_SYMBOL
 70
     0
  0
APPID
  5
4B3843
330
4B1AB9
100
AcDbSymbolTableRecord
100
AcDbRegAppTableRecord
  2
AcAecLayerStandard
 70
     0
  0
APPID
  5
4B39B7
330
4B1AB9
100
AcDbSymbolTableRecord
100
AcDbRegAppTableRecord
  2
GENIUS_GENREC_14
 70
     0
  0
APPID
  5
4B39B8
330
4B1AB9
100
AcDbSymbolTableRecord
100
AcDbRegAppTableRecord
  2
GENIUS_GENOBJ-N-REC_13
 70
     0
  0
APPID
  5
4B39B9
330
4B1AB9
100
AcDbSymbolTableRecord
100
AcDbRegAppTableRecord
  2
GENIUS_GENODEF_13
 70
     0
  0
APPID
  5
4B3A56
330
4B1AB9
100
AcDbSymbolTableRecord
100
AcDbRegAppTableRecord
  2
ACAD_DSTYLE_DIMTEXT_FILL
 70
     0
  0
APPID
  5
4B3A57
330
4B1AB9
100
AcDbSymbolTableRecord
100
AcDbRegAppTableRecord
  2
ACAD_DSTYLE_DIMEXT_LENGTH
 70
     0
  0
APPID
  5
4B3A58
330
4B1AB9
100
AcDbSymbolTableRecord
100
AcDbRegAppTableRecord
  2
ACAD_DSTYLE_DIMEXT_ENABLED
 70
     0
  0
APPID
  5
4B3A59
330
4B1AB9
100
AcDbSymbolTableRecord
100
AcDbRegAppTableRecord
  2
ACAD_DSTYLE_DIM_LINETYPE
 70
     0
  0
APPID
  5
4B3A5A
330
4B1AB9
100
AcDbSymbolTableRecord
100
AcDbRegAppTableRecord
  2
ACAD_DSTYLE_DIM_EXT1_LINETYPE
 70
     0
  0
APPID
  5
4B3A5B
330
4B1AB9
100
AcDbSymbolTableRecord
100
AcDbRegAppTableRecord
  2
ACAD_DSTYLE_DIM_EXT2_LINETYPE
 70
     0
  0
APPID
  5
4B423E
330
4B1AB9
100
AcDbSymbolTableRecord
100
AcDbRegAppTableRecord
  2
ACAD_NAV_VCDISPLAY
 70
     0
  0
APPID
  5
4B427A
330
4B1AB9
100
AcDbSymbolTableRecord
100
AcDbRegAppTableRecord
  2
ACAD_EXEMPT_FROM_CAD_STANDARDS
 70
     0
  0
APPID
  5
4B4493
330
4B1AB9
100
AcDbSymbolTableRecord
100
AcDbRegAppTableRecord
  2
ACAD_DSTYLE_DIMJAG
 70
     0
  0
APPID
  5
4B4494
330
4B1AB9
100
AcDbSymbolTableRecord
100
AcDbRegAppTableRecord
  2
ACAD_DSTYLE_DIMBREAK
 70
     0
  0
APPID
  5
4B4495
330
4B1AB9
100
AcDbSymbolTableRecord
100
AcDbRegAppTableRecord
  2
ACAD_DSTYLE_DIMTALN
 70
     0
  0
ENDTAB
  0
TABLE
  2
DIMSTYLE
  5
4B1ABA
330
0
100
AcDbSymbolTable
 70
     8
100
AcDbDimStyleTable
 71
     1
340
4B21AF
  0
DIMSTYLE
105
4B21AF
102
{ACAD_REACTORS
330
4B2268
330
4B2250
330
4B2232
330
4B221A
330
4B458A
102
}
330
4B1ABA
100
AcDbSymbolTableRecord
100
AcDbDimStyleTableRecord
  2
Copy of HSTANDARD
 70
     0
 41
0.125
 42
0.045
 44
0.08
 49
0.08
140
0.08
141
0.0
146
0.4444444444444445
176
   112
177
     9
178
   256
179
     1
276
     1
277
     4
340
4B1ACE
1001
ACAD_DSTYLE_DIMJOGGED_JOGANGLE_SYMBOL
1070
   384
1040
0.7853981633974483
  0
DIMSTYLE
105
4B37FC
330
4B1ABA
100
AcDbSymbolTableRecord
100
AcDbDimStyleTableRecord
  2
AM_ANSI
 70
     0
  4
mm
 41
0.1
 42
0.05
 43
0.5
 44
0.1
 47
0.1
 48
0.1
 78
     7
 79
     2
 90
     1
140
0.12
141
0.0
146
0.71
147
0.06
176
   256
177
   256
178
     2
274
     4
284
     7
340
4B1AC0
371
    -1
372
    -1
1001
ACAD_DSTYLE_DIMJOGGED_JOGANGLE_SYMBOL
1070
   384
1040
0.7853981633974483
  0
DIMSTYLE
105
4B3805
330
4B1ABA
100
AcDbSymbolTableRecord
100
AcDbDimStyleTableRecord
  2
AM_ANSI$3
 70
     0
  4
mm
 41
0.1
 42
0.05
 43
0.5
 44
0.1
 47
0.1
 48
0.1
 78
     7
 79
     2
 90
     1
140
0.12
141
0.0
146
0.71
147
0.06
176
   256
177
   256
178
     2
274
     4
284
     7
288
     1
289
     0
340
4B1AC0
371
    -1
372
    -1
1001
ACAD_DSTYLE_DIMJOGGED_JOGANGLE_SYMBOL
1070
   384
1040
0.7853981633974483
  0
DIMSTYLE
105
4B3808
330
4B1ABA
100
AcDbSymbolTableRecord
100
AcDbDimStyleTableRecord
  2
AM_ANSI$4
 70
     0
  4
mm
 41
0.1
 42
0.05
 43
0.5
 44
0.1
 47
0.1
 48
0.1
 78
     7
 79
     2
 90
     1
140
0.12
141
0.0
146
0.71
147
0.06
176
   256
177
   256
178
     2
274
     4
284
     7
288
     1
289
     0
340
4B1AC0
371
    -1
372
    -1
1001
ACAD_DSTYLE_DIMJOGGED_JOGANGLE_SYMBOL
1070
   384
1040
0.7853981633974483
  0
DIMSTYLE
105
4B380D
330
4B1ABA
100
AcDbSymbolTableRecord
100
AcDbDimStyleTableRecord
  2
AM_ANSI$7
 70
     0
  4
mm
 41
0.1
 42
0.05
 43
0.5
 44
0.1
 47
0.1
 48
0.1
 78
     7
 79
     2
 90
     1
140
0.24
141
0.0
146
0.71
147
0.06
176
   256
177
   256
178
     2
274
     4
284
     7
340
4B1AC0
371
    -1
372
    -1
1001
ACAD_DSTYLE_DIMJOGGED_JOGANGLE_SYMBOL
1070
   384
1040
0.7853981633974483
  0
DIMSTYLE
105
4B3810
330
4B1ABA
100
AcDbSymbolTableRecord
100
AcDbDimStyleTableRecord
  2
AM_ANSI$SF
 70
     0
  4
mm
 41
0.1
 42
0.05
 43
0.5
 44
0.1
 47
0.1
 48
0.1
 75
     1
 76
     1
 78
     7
 79
     2
 90
     1
140
0.12
141
0.0
146
0.71
147
0.06
176
   256
177
   256
178
     2
274
     4
284
     7
340
4B1AC0
371
    -1
372
    -1
1001
ACAD_DSTYLE_DIMJOGGED_JOGANGLE_SYMBOL
1070
   384
1040
0.7853981633974483
  0
DIMSTYLE
105
4B3817
330
4B1ABA
100
AcDbSymbolTableRecord
100
AcDbDimStyleTableRecord
  2
AM_ANSI$SH
 70
     0
  4
mm
 41
0.1
 42
0.05
 43
0.5
 44
0.1
 47
0.1
 48
0.1
 75
     1
 76
     1
 78
     7
 79
     2
 90
     1
140
0.12
141
0.0
146
0.71
147
0.06
173
     1
176
   256
177
   256
178
     2
274
     4
284
     7
340
4B1AC0
343
4B3811
371
    -1
372
    -1
1001
ACAD_DSTYLE_DIMJOGGED_JOGANGLE_SYMBOL
1070
   384
1040
0.7853981633974483
  0
DIMSTYLE
105
4B462B
330
4B1ABA
100
AcDbSymbolTableRecord
100
AcDbDimStyleTableRecord
  2
ASWhite
 70
     0
 40
2.0
 41
0.125
 42
0.045
 44
0.08
140
0.08
141
-0.09
146
0.4444440000000001
176
   112
177
     9
178
   256
276
     2
277
     5
289
     1
340
4B1ACE
1001
ACAD_DSTYLE_DIMJAG
1070
   388
1040
1.5
1001
ACAD_DSTYLE_DIMTALN
1070
   392
1070
     0
  0
ENDTAB
  0
TABLE
  2
BLOCK_RECORD
  5
4B1AB1
330
0
100
AcDbSymbolTable
 70
    16
  0
BLOCK_RECORD
  5
4B1AC8
102
{ACAD_XDICTIONARY
360
4B3859
102
}
330
4B1AB1
100
AcDbSymbolTableRecord
100
AcDbBlockTableRecord
  2
*MODEL_SPACE
340
4B1D16
 70
     0
280
     1
281
     0
  0
BLOCK_RECORD
  5
4B1AC5
330
4B1AB1
100
AcDbSymbolTableRecord
100
AcDbBlockTableRecord
  2
*PAPER_SPACE
340
4B1D17
 70
     0
280
     1
281
     0
  0
BLOCK_RECORD
  5
4B1F40
330
4B1AB1
100
AcDbSymbolTableRecord
100
AcDbBlockTableRecord
  2
ASDTNUM
340
0
102
{BLKREFS
331
4B2293
102
}
 70
     0
280
     1
281
     0
  0
BLOCK_RECORD
  5
4B221B
330
4B1AB1
100
AcDbSymbolTableRecord
100
AcDbBlockTableRecord
  2
*D1
340
0
 70
     0
280
     1
281
     0
  0
BLOCK_RECORD
  5
4B2233
330
4B1AB1
100
AcDbSymbolTableRecord
100
AcDbBlockTableRecord
  2
*D2
340
0
 70
     0
280
     1
281
     0
  0
BLOCK_RECORD
  5
4B2251
330
4B1AB1
100
AcDbSymbolTableRecord
100
AcDbBlockTableRecord
  2
*D3
340
0
 70
     0
280
     1
281
     0
  0
BLOCK_RECORD
  5
4B2269
330
4B1AB1
100
AcDbSymbolTableRecord
100
AcDbBlockTableRecord
  2
*D4
340
0
 70
     0
280
     1
281
     0
  0
BLOCK_RECORD
  5
4B37C0
330
4B1AB1
100
AcDbSymbolTableRecord
100
AcDbBlockTableRecord
  2
*U5
340
0
 70
     0
280
     1
281
     0
  0
BLOCK_RECORD
  5
4B3811
330
4B1AB1
100
AcDbSymbolTableRecord
100
AcDbBlockTableRecord
  2
GENAXEH
340
0
 70
     0
280
     1
281
     0
  0
BLOCK_RECORD
  5
4B382B
102
{ACAD_XDICTIONARY
360
4B382F
102
}
330
4B1AB1
100
AcDbSymbolTableRecord
100
AcDbBlockTableRecord
  2
Glazing Bead
340
0
102
{BLKREFS
331
4B3838
331
4B383A
331
4B3835
331
4B3837
102
}
 70
     0
280
     1
281
     0
  0
BLOCK_RECORD
  5
4B387A
330
4B1AB1
100
AcDbSymbolTableRecord
100
AcDbBlockTableRecord
  2
Reinforced Bytyl Spacer
340
0
102
{BLKREFS
331
4B3885
331
4B3887
331
4B38C6
331
4B38C7
102
}
 70
     0
280
     1
281
     0
  0
BLOCK_RECORD
  5
4B388A
102
{ACAD_XDICTIONARY
360
4B388C
102
}
330
4B1AB1
100
AcDbSymbolTableRecord
100
AcDbBlockTableRecord
  2
Weather Seal
340
0
102
{BLKREFS
331
4B3891
331
4B3893
331
4B38A3
331
4B38A4
102
}
 70
     0
280
     1
281
     0
  0
BLOCK_RECORD
  5
4B3897
102
{ACAD_XDICTIONARY
360
4B389A
102
}
330
4B1AB1
100
AcDbSymbolTableRecord
100
AcDbBlockTableRecord
  2
Silicon Horizontal Small
340
0
102
{BLKREFS
331
4B389F
331
4B38A1
102
}
 70
     0
280
     1
281
     0
  0
BLOCK_RECORD
  5
4B38CB
102
{ACAD_XDICTIONARY
360
4B38CE
102
}
330
4B1AB1
100
AcDbSymbolTableRecord
100
AcDbBlockTableRecord
  2
Silicon Vertical Bottom
340
0
102
{BLKREFS
331
4B38D4
102
}
 70
     0
280
     1
281
     0
  0
BLOCK_RECORD
  5
4B38D8
102
{ACAD_XDICTIONARY
360
4B38DB
102
}
330
4B1AB1
100
AcDbSymbolTableRecord
100
AcDbBlockTableRecord
  2
Silicon Small Vertical Top
340
0
102
{BLKREFS
331
4B38E0
102
}
 70
     0
280
     1
281
     0
  0
BLOCK_RECORD
  5
4B42C7
102
{ACAD_XDICTIONARY
360
4B42C8
102
}
330
4B1AB1
100
AcDbSymbolTableRecord
100
AcDbBlockTableRecord
  2
AS extents block
340
0
310
2800000020000000200000000100080000000000000400000000000000000000000000000000000000000000000080000080000000808000800000008000800080800000C0C0C000C0DCC000F0CAA6000020400000206000002080000020A0000020C0000020E00000400000004020000040400000406000004080000040A0
310
000040C0000040E00000600000006020000060400000606000006080000060A0000060C0000060E00000800000008020000080400000806000008080000080A0000080C0000080E00000A0000000A0200000A0400000A0600000A0800000A0A00000A0C00000A0E00000C0000000C0200000C0400000C0600000C0800000C0
310
A00000C0C00000C0E00000E0000000E0200000E0400000E0600000E0800000E0A00000E0C00000E0E00040000000400020004000400040006000400080004000A0004000C0004000E00040200000402020004020400040206000402080004020A0004020C0004020E000404000004040200040404000404060004040800040
310
40A0004040C0004040E00040600000406020004060400040606000406080004060A0004060C0004060E00040800000408020004080400040806000408080004080A0004080C0004080E00040A0000040A0200040A0400040A0600040A0800040A0A00040A0C00040A0E00040C0000040C0200040C0400040C0600040C08000
310
40C0A00040C0C00040C0E00040E0000040E0200040E0400040E0600040E0800040E0A00040E0C00040E0E00080000000800020008000400080006000800080008000A0008000C0008000E00080200000802020008020400080206000802080008020A0008020C0008020E00080400000804020008040400080406000804080
310
008040A0008040C0008040E00080600000806020008060400080606000806080008060A0008060C0008060E00080800000808020008080400080806000808080008080A0008080C0008080E00080A0000080A0200080A0400080A0600080A0800080A0A00080A0C00080A0E00080C0000080C0200080C0400080C0600080C0
310
800080C0A00080C0C00080C0E00080E0000080E0200080E0400080E0600080E0800080E0A00080E0C00080E0E000C0000000C0002000C0004000C0006000C0008000C000A000C000C000C000E000C0200000C0202000C0204000C0206000C0208000C020A000C020C000C020E000C0400000C0402000C0404000C0406000C0
310
408000C040A000C040C000C040E000C0600000C0602000C0604000C0606000C0608000C060A000C060C000C060E000C0800000C0802000C0804000C0806000C0808000C080A000C080C000C080E000C0A00000C0A02000C0A04000C0A06000C0A08000C0A0A000C0A0C000C0A0E000C0C00000C0C02000C0C04000C0C06000
310
C0C08000C0C0A000F0FBFF00A4A0A000808080000000FF0000FF000000FFFF00FF000000FF00FF00FFFF0000FFFFFF0000000000000000000000000000000000000000000000000000000000000000000000000000FDFDFDFDFDFDFDFDFDFDFDFDFDFDFDFDFDFDFDFDFDFD00000000000000000000FD000000000000000000
310
0000000000000000000000FD00000000000000000000FD0000000000000000000000000000000000000000FD00000000000000000000FD0000000000000000000000000000000000000000FD00000000000000000000FD0000000000000000000000000000000000000000FD00000000000000000000FD0000000000000000
310
000000000000000000000000FD00000000000000000000FD0000000000000000000000000000000000000000FD00000000000000000000FD0000000000000000000000000000000000000000FD00000000000000000000FD0000000000000000000000000000000000000000FD00000000000000000000FD00000000000000
310
00000000000000000000000000FD00000000000000000000FD0000000000000000000000000000000000000000FD00000000000000000000FD0000000000000000000000000000000000000000FD00000000000000000000FD0000000000000000000000000000000000000000FD00000000000000000000FD000000000000
310
0000000000000000000000000000FD00000000000000000000FD0000000000000000000000000000000000000000FD00000000000000000000FD0000000000000000000000000000000000000000FD00000000000000000000FD0000000000000000000000000000000000000000FD00000000000000000000FD0000000000
310
000000000000000000000000000000FD00000000000000000000FD0000000000000000000000000000000000000000FD00000000000000000000FD0000000000000000000000000000000000000000FD00000000000000000000FD0000000000000000000000000000000000000000FD00000000000000000000FD00000000
310
00000000000000000000000000000000FD00000000000000000000FD0000000000000000000000000000000000000000FD00000000000000000000FD0000000000000000000000000000000000000000FD00000000000000000000FD0000000000000000000000000000000000000000FD00000000000000000000FD000000
310
0000000000000000000000000000000000FD00000000000000000000FD0000000000000000000000000000000000000000FD00000000000000000000FD0000000000000000000000000000000000000000FD00000000000000000000FD0000000000000000000000000000000000000000FD00000000000000000000FDFDFD
310
FDFDFDFDFDFDFDFDFDFDFDFDFDFDFDFDFDFDFD00000000000000000000000000000000000000000000000000000000000000000000000000
102
{BLKREFS
331
4B42D6
102
}
 70
     0
280
     1
281
     0
  0
BLOCK_RECORD
  5
4B451C
102
{ACAD_XDICTIONARY
360
4B451D
102
}
330
4B1AB1
100
AcDbSymbolTableRecord
100
AcDbBlockTableRecord
  2
B4088 DS L-fin adapter
340
0
102
{BLKREFS
331
4B4531
331
4B4533
331
4B4534
331
4B4536
102
}
 70
     1
280
     1
281
     0
  0
BLOCK_RECORD
  5
4B458B
330
4B1AB1
100
AcDbSymbolTableRecord
100
AcDbBlockTableRecord
  2
*D15
340
0
 70
     0
280
     1
281
     0
  0
ENDTAB
  0
ENDSEC
  0
SECTION
  2
BLOCKS
  0
BLOCK
  5
4B1AEB
330
4B1AC8
100
AcDbEntity
  8
0
100
AcDbBlockBegin
  2
*MODEL_SPACE
 70
     0
 10
0.0
 20
0.0
 30
0.0
  3
*MODEL_SPACE
  1

  0
ENDBLK
  5
4B1AEC
330
4B1AC8
100
AcDbEntity
  8
0
100
AcDbBlockEnd
  0
BLOCK
  5
4B1AE9
330
4B1AC5
100
AcDbEntity
 67
     1
  8
0
100
AcDbBlockBegin
  2
*PAPER_SPACE
 70
     0
 10
0.0
 20
0.0
 30
0.0
  3
*PAPER_SPACE
  1

  0
ENDBLK
  5
4B1AEA
330
4B1AC5
100
AcDbEntity
 67
     1
  8
0
100
AcDbBlockEnd
  0
BLOCK
  5
4B1F45
330
4B1F40
100
AcDbEntity
  8
0
100
AcDbBlockBegin
  2
ASDTNUM
 70
     2
 10
0.0
 20
0.0
 30
0.0
  3
ASDTNUM
  1

  0
ATTDEF
  5
4B228F
330
4B1F40
100
AcDbEntity
  8
THIN
100
AcDbText
 10
1.645491964163355
 20
0.7077964671298738
 30
0.0
 40
0.18
  1

 51
10.0
  7
ROMANS
100
AcDbAttributeDefinition
280
     0
  3
Revision date:
  2
REV:
 70
     0
280
     0
  0
TEXT
  5
4B2290
330
4B1F40
100
AcDbEntity
  8
THIN
100
AcDbText
 10
0.8991511953395569
 20
0.7098478649101438
 30
0.0
 40
0.18
  1
REV.
 51
10.0
  7
ROMANS
100
AcDbText
  0
TEXT
  5
4B2291
330
4B1F40
100
AcDbEntity
  8
THIN
100
AcDbText
 10
13.58214084242182
 20
0.6570694486990832
 30
0.0
 40
0.25
  1
AS
 51
10.0
  7
ROMANS
100
AcDbText
  0
ATTDEF
  5
4B2292
330
4B1F40
100
AcDbEntity
  8
THIN
100
AcDbText
 10
14.18958977281909
 20
0.6570000000000001
 30
0.0
 40
0.25
  1

 51
10.0
  7
ROMANS
100
AcDbAttributeDefinition
280
     0
  3
AS Drawing Num.:
  2
AS#
 70
     0
280
     0
  0
ENDBLK
  5
4B1F46
330
4B1F40
100
AcDbEntity
  8
0
100
AcDbBlockEnd
  0
BLOCK
  5
4B2226
330
4B221B
100
AcDbEntity
  8
0
100
AcDbBlockBegin
  2
*D1
 70
     1
 10
0.0
 20
0.0
 30
0.0
  3
*D1
  1

  0
LINE
  5
4B44A4
330
4B221B
100
AcDbEntity
  8
DIM
 62
     9
440
 16777216
370
    -2
100
AcDbLine
 10
4.425000459811345
 20
5.890234936439133
 30
0.0
 11
2.116905334989771
 21
5.890234936439133
 31
0.0
  0
LINE
  5
4B44A5
330
4B221B
100
AcDbEntity
  8
DIM
 62
     9
440
 16777216
370
    -2
100
AcDbLine
 10
4.225000459811351
 20
2.640234936439174
 30
0.0
 11
2.11690533498977
 21
2.640234936439175
 31
0.0
  0
LINE
  5
4B44A6
330
4B221B
100
AcDbEntity
  8
DIM
 62
   112
440
 16777216
370
    -2
100
AcDbLine
 10
2.276905334989771
 20
5.640234936439133
 30
0.0
 11
2.27690533498977
 21
4.567139698343916
 31
0.0
  0
LINE
  5
4B44A7
330
4B221B
100
AcDbEntity
  8
DIM
 62
   112
440
 16777216
370
    -2
100
AcDbLine
 10
2.27690533498977
 20
2.890234936439174
 30
0.0
 11
2.27690533498977
 21
3.963330174534392
 31
0.0
  0
SOLID
  5
4B44A8
330
4B221B
100
AcDbEntity
  8
DIM
 62
   112
440
 16777216
100
AcDbTrace
 10
2.235238668323104
 20
5.640234936439133
 30
0.0
 11
2.318572001656437
 21
5.640234936439133
 31
0.0
 12
2.276905334989771
 22
5.890234936439133
 32
0.0
 13
2.276905334989771
 23
5.890234936439133
 33
0.0
  0
SOLID
  5
4B44A9
330
4B221B
100
AcDbEntity
  8
DIM
 62
   112
440
 16777216
100
AcDbTrace
 10
2.235238668323103
 20
2.890234936439174
 30
0.0
 11
2.318572001656436
 21
2.890234936439174
 31
0.0
 12
2.27690533498977
 22
2.640234936439175
 32
0.0
 13
2.27690533498977
 23
2.640234936439175
 33
0.0
  0
MTEXT
  5
4B44AA
330
4B221B
100
AcDbEntity
  8
DIM
440
 16777216
100
AcDbMText
 10
2.27690533498977
 20
4.265234936439155
 30
0.0
 40
0.16
 41
0.0
 46
0.0
 71
     5
 72
     1
  1
\A1;3 1/4"
  7
ROMANS
 73
     1
 44
1.0
  0
POINT
  5
4B44AB
330
4B221B
100
AcDbEntity
  8
DEFPOINTS
 62
     0
440
 16777216
100
AcDbPoint
 10
4.515000459811345
 20
5.890234936439133
 30
0.0
  0
POINT
  5
4B44AC
330
4B221B
100
AcDbEntity
  8
DEFPOINTS
 62
     0
440
 16777216
100
AcDbPoint
 10
4.315000459811351
 20
2.640234936439174
 30
0.0
  0
POINT
  5
4B44AD
330
4B221B
100
AcDbEntity
  8
DEFPOINTS
 62
     0
440
 16777216
100
AcDbPoint
 10
2.27690533498977
 20
2.640234936439175
 30
0.0
  0
ENDBLK
  5
4B2227
330
4B221B
100
AcDbEntity
  8
0
100
AcDbBlockEnd
  0
BLOCK
  5
4B223E
330
4B2233
100
AcDbEntity
  8
0
100
AcDbBlockBegin
  2
*D2
 70
     1
 10
0.0
 20
0.0
 30
0.0
  3
*D2
  1

  0
LINE
  5
4B444E
330
4B2233
100
AcDbEntity
  8
DIM
 62
     9
440
 16777216
370
    -2
100
AcDbLine
 10
6.235484499239008
 20
5.046731631678211
 30
0.0
 11
6.235484499239008
 21
6.777660608354374
 31
0.0
  0
LINE
  5
4B444F
330
4B2233
100
AcDbEntity
  8
DIM
 62
     9
440
 16777216
370
    -2
100
AcDbLine
 10
4.500000459811296
 20
5.965234936439131
 30
0.0
 11
4.500000459811296
 21
6.777660608354374
 31
0.0
  0
LINE
  5
4B4450
330
4B2233
100
AcDbEntity
  8
DIM
 62
   112
440
 16777216
370
    -2
100
AcDbLine
 10
6.485484499239008
 20
6.617660608354373
 30
0.0
 11
6.735484499239008
 21
6.617660608354373
 31
0.0
  0
LINE
  5
4B4451
330
4B2233
100
AcDbEntity
  8
DIM
 62
   112
440
 16777216
370
    -2
100
AcDbLine
 10
4.250000459811296
 20
6.617660608354373
 30
0.0
 11
4.000000459811296
 21
6.617660608354373
 31
0.0
  0
SOLID
  5
4B4452
330
4B2233
100
AcDbEntity
  8
DIM
 62
   112
440
 16777216
100
AcDbTrace
 10
6.485484499239008
 20
6.65932727502104
 30
0.0
 11
6.485484499239008
 21
6.575993941687706
 31
0.0
 12
6.235484499239008
 22
6.617660608354373
 32
0.0
 13
6.235484499239008
 23
6.617660608354373
 33
0.0
  0
SOLID
  5
4B4453
330
4B2233
100
AcDbEntity
  8
DIM
 62
   112
440
 16777216
100
AcDbTrace
 10
4.250000459811296
 20
6.65932727502104
 30
0.0
 11
4.250000459811296
 21
6.575993941687706
 31
0.0
 12
4.500000459811296
 22
6.617660608354373
 32
0.0
 13
4.500000459811296
 23
6.617660608354373
 33
0.0
  0
MTEXT
  5
4B4454
330
4B2233
100
AcDbEntity
  8
DIM
440
 16777216
100
AcDbMText
 10
5.367742479525152
 20
6.617660608354373
 30
0.0
 40
0.16
 41
0.0
 46
0.0
 71
     5
 72
     1
  1
\A1;1 3/4"
  7
ROMANS
 73
     1
 44
1.0
  0
POINT
  5
4B4455
330
4B2233
100
AcDbEntity
  8
DEFPOINTS
 62
     0
440
 16777216
100
AcDbPoint
 10
6.235484499239008
 20
4.956731631678211
 30
0.0
  0
POINT
  5
4B4456
330
4B2233
100
AcDbEntity
  8
DEFPOINTS
 62
     0
440
 16777216
100
AcDbPoint
 10
4.500000459811296
 20
5.875234936439131
 30
0.0
  0
POINT
  5
4B4457
330
4B2233
100
AcDbEntity
  8
DEFPOINTS
 62
     0
440
 16777216
100
AcDbPoint
 10
4.500000459811296
 20
6.617660608354373
 30
0.0
  0
ENDBLK
  5
4B223F
330
4B2233
100
AcDbEntity
  8
0
100
AcDbBlockEnd
  0
BLOCK
  5
4B225C
330
4B2251
100
AcDbEntity
  8
0
100
AcDbBlockBegin
  2
*D3
 70
     1
 10
0.0
 20
0.0
 30
0.0
  3
*D3
  1

  0
LINE
  5
4B45D6
330
4B2251
100
AcDbEntity
  8
DIM
 62
     9
440
 16777216
370
    -2
100
AcDbLine
 10
12.77500045981126
 20
2.640234936439184
 30
0.0
 11
14.78085653356523
 21
2.640234936439183
 31
0.0
  0
LINE
  5
4B45D7
330
4B2251
100
AcDbEntity
  8
DIM
 62
     9
440
 16777216
370
    -2
100
AcDbLine
 10
13.79500045981122
 20
3.553234936439185
 30
0.0
 11
14.78085653356523
 21
3.553234936439185
 31
0.0
  0
LINE
  5
4B45D8
330
4B2251
100
AcDbEntity
  8
DIM
 62
   112
440
 16777216
370
    -2
100
AcDbLine
 10
14.62085653356523
 20
2.390234936439183
 30
0.0
 11
14.62085653356523
 21
2.140234936439183
 31
0.0
  0
LINE
  5
4B45D9
330
4B2251
100
AcDbEntity
  8
DIM
 62
   112
440
 16777216
370
    -2
100
AcDbLine
 10
14.62085653356523
 20
3.803234936439185
 30
0.0
 11
14.62085653356523
 21
4.053234936439185
 31
0.0
  0
SOLID
  5
4B45DA
330
4B2251
100
AcDbEntity
  8
DIM
 62
   112
440
 16777216
100
AcDbTrace
 10
14.57918986689856
 20
2.390234936439183
 30
0.0
 11
14.6625232002319
 21
2.390234936439183
 31
0.0
 12
14.62085653356523
 22
2.640234936439183
 32
0.0
 13
14.62085653356523
 23
2.640234936439183
 33
0.0
  0
SOLID
  5
4B45DB
330
4B2251
100
AcDbEntity
  8
DIM
 62
   112
440
 16777216
100
AcDbTrace
 10
14.57918986689856
 20
3.803234936439185
 30
0.0
 11
14.6625232002319
 21
3.803234936439185
 31
0.0
 12
14.62085653356523
 22
3.553234936439185
 32
0.0
 13
14.62085653356523
 23
3.553234936439185
 33
0.0
  0
MTEXT
  5
4B45DC
330
4B2251
100
AcDbEntity
  8
DIM
440
 16777216
100
AcDbMText
 10
14.62085653356523
 20
3.096734936439184
 30
0.0
 40
0.16
 41
0.0
 46
0.0
 71
     5
 72
     1
  1
\A1;15/16"
  7
ROMANS
 73
     1
 44
1.0
  0
POINT
  5
4B45DD
330
4B2251
100
AcDbEntity
  8
DEFPOINTS
 62
     0
440
 16777216
100
AcDbPoint
 10
12.68500045981127
 20
2.640234936439184
 30
0.0
  0
POINT
  5
4B45DE
330
4B2251
100
AcDbEntity
  8
DEFPOINTS
 62
     0
440
 16777216
100
AcDbPoint
 10
13.70500045981122
 20
3.553234936439185
 30
0.0
  0
POINT
  5
4B45DF
330
4B2251
100
AcDbEntity
  8
DEFPOINTS
 62
     0
440
 16777216
100
AcDbPoint
 10
14.62085653356523
 20
3.553234936439185
 30
0.0
  0
ENDBLK
  5
4B225D
330
4B2251
100
AcDbEntity
  8
0
100
AcDbBlockEnd
  0
BLOCK
  5
4B2274
330
4B2269
100
AcDbEntity
  8
0
100
AcDbBlockBegin
  2
*D4
 70
     1
 10
0.0
 20
0.0
 30
0.0
  3
*D4
  1

  0
LINE
  5
4B4462
330
4B2269
100
AcDbEntity
  8
DIM
 62
     9
440
 16777216
370
    -2
100
AcDbLine
 10
12.57500045981131
 20
5.890234936439174
 30
0.0
 11
13.53370415433812
 21
5.890234936439174
 31
0.0
  0
LINE
  5
4B4463
330
4B2269
100
AcDbEntity
  8
DIM
 62
     9
440
 16777216
370
    -2
100
AcDbLine
 10
13.61500045981122
 20
3.633234936439226
 30
0.0
 11
13.21370415433812
 21
3.633234936439226
 31
0.0
  0
LINE
  5
4B4464
330
4B2269
100
AcDbEntity
  8
DIM
 62
   112
440
 16777216
370
    -2
100
AcDbLine
 10
13.37370415433812
 20
5.640234936439174
 30
0.0
 11
13.37370415433812
 21
5.063639698343962
 31
0.0
  0
LINE
  5
4B4465
330
4B2269
100
AcDbEntity
  8
DIM
 62
   112
440
 16777216
370
    -2
100
AcDbLine
 10
13.37370415433812
 20
3.883234936439226
 30
0.0
 11
13.37370415433812
 21
4.459830174534438
 31
0.0
  0
SOLID
  5
4B4466
330
4B2269
100
AcDbEntity
  8
DIM
 62
   112
440
 16777216
100
AcDbTrace
 10
13.33203748767145
 20
5.640234936439174
 30
0.0
 11
13.41537082100479
 21
5.640234936439174
 31
0.0
 12
13.37370415433812
 22
5.890234936439174
 32
0.0
 13
13.37370415433812
 23
5.890234936439174
 33
0.0
  0
SOLID
  5
4B4467
330
4B2269
100
AcDbEntity
  8
DIM
 62
   112
440
 16777216
100
AcDbTrace
 10
13.33203748767145
 20
3.883234936439226
 30
0.0
 11
13.41537082100479
 21
3.883234936439226
 31
0.0
 12
13.37370415433812
 22
3.633234936439226
 32
0.0
 13
13.37370415433812
 23
3.633234936439226
 33
0.0
  0
MTEXT
  5
4B4468
330
4B2269
100
AcDbEntity
  8
DIM
440
 16777216
100
AcDbMText
 10
13.37370415433812
 20
4.761734936439202
 30
0.0
 40
0.16
 41
0.0
 46
0.0
 71
     5
 72
     1
  1
\A1;2 1/4"
  7
ROMANS
 73
     1
 44
1.0
  0
POINT
  5
4B4469
330
4B2269
100
AcDbEntity
  8
DEFPOINTS
 62
     0
440
 16777216
100
AcDbPoint
 10
12.48500045981131
 20
5.890234936439174
 30
0.0
  0
POINT
  5
4B446A
330
4B2269
100
AcDbEntity
  8
DEFPOINTS
 62
     0
440
 16777216
100
AcDbPoint
 10
13.70500045981122
 20
3.633234936439226
 30
0.0
  0
POINT
  5
4B446B
330
4B2269
100
AcDbEntity
  8
DEFPOINTS
 62
     0
440
 16777216
100
AcDbPoint
 10
13.37370415433812
 20
3.633234936439226
 30
0.0
  0
ENDBLK
  5
4B2275
330
4B2269
100
AcDbEntity
  8
0
100
AcDbBlockEnd
  0
BLOCK
  5
4B37C1
330
4B37C0
100
AcDbEntity
  8
0
100
AcDbBlockBegin
  2
*U5
 70
     1
 10
0.0
 20
0.0
 30
0.0
  3
*U5
  1

  0
ENDBLK
  5
4B37C2
330
4B37C0
100
AcDbEntity
  8
0
100
AcDbBlockEnd
  0
BLOCK
  5
4B3813
330
4B3811
100
AcDbEntity
  8
0
100
AcDbBlockBegin
  2
GENAXEH
 70
     0
 10
0.0
 20
0.0
 30
0.0
  3
GENAXEH
  1

  0
LINE
  5
4B3812
330
4B3811
100
AcDbEntity
  8
0
100
AcDbLine
 10
-1.0
 20
0.0
 30
0.0
 11
1.0
 21
0.0
 31
0.0
  0
ENDBLK
  5
4B3814
330
4B3811
100
AcDbEntity
  8
0
100
AcDbBlockEnd
  0
BLOCK
  5
4B3831
330
4B382B
100
AcDbEntity
  8
0
100
AcDbBlockBegin
  2
Glazing Bead
 70
     0
 10
0.0
 20
0.0
 30
0.0
  3
Glazing Bead
  1

  0
LWPOLYLINE
  5
4B382C
330
4B382B
100
AcDbEntity
  8
10
100
AcDbPolyline
 90
        6
 70
     0
 43
0.0
 10
-0.0980000000000412
 20
0.4497426842885677
 10
-0.0089808830642339
 20
0.6459625239750136
 42
-0.0522813753986091
 10
-0.0037468705670523
 20
0.6549815899243097
 42
0.577370775527271
 10
-0.0174245326643847
 20
0.6858638190480573
 42
0.2998307703621348
 10
-0.0320958779425364
 20
0.6783008097000085
 10
-0.0980000000000301
 20
0.5629999999999278
  0
LWPOLYLINE
  5
4B382D
330
4B382B
100
AcDbEntity
  8
10
100
AcDbPolyline
 90
       33
 70
     1
 43
0.0
 10
-0.5895601124111863
 20
-0.2641177143234383
 10
-0.5785111126056904
 20
-0.222882285676512
 42
0.4931454260312981
 10
-0.5930000000000262
 20
-0.203999999999974
 10
-0.6810000000000272
 20
-0.203999999999974
 42
-0.4142135623730951
 10
-0.6960000000000277
 20
-0.1889999999999734
 10
-0.6960000000000277
 20
0.548000000000025
 42
-0.4142135623730951
 10
-0.6660000000000266
 20
0.5780000000000225
 10
-0.0980000000000288
 20
0.5780000000000225
 10
-0.0980000000000856
 20
-0.0169999999999799
 42
-0.4142135623730795
 10
-0.1280000000000867
 20
-0.0469999999999775
 10
-0.2090000000000258
 20
-0.0469999999999775
 42
0.4142135623730951
 10
-0.2240000000000264
 20
-0.0619999999999781
 10
-0.2240000000000264
 20
-0.1889999999999734
 42
0.4142135623730951
 10
-0.2090000000000258
 20
-0.203999999999974
 10
-0.1065000000000267
 20
-0.2039999999999775
 42
-0.9999999999999998
 10
-0.1065000000000267
 20
-0.2829999999999746
 10
-0.2730000000000259
 20
-0.2829999999999746
 42
-0.4142135623730951
 10
-0.3030000000000252
 20
-0.252999999999977
 10
-0.303000000000027
 20
0.002000000000022
 42
-0.4142135623730951
 10
-0.2730000000000259
 20
0.0320000000000231
 10
-0.1920000000000512
 20
0.0320000000000196
 42
0.4142135623730951
 10
-0.1770000000000507
 20
0.0470000000000201
 10
-0.1770000000000507
 20
0.4840000000000213
 42
0.4142135623730951
 10
-0.1920000000000512
 20
0.4990000000000219
 10
-0.6020000000000266
 20
0.4990000000000219
 42
0.4142135623730951
 10
-0.6170000000000253
 20
0.4840000000000249
 10
-0.6170000000000271
 20
-0.1099999999999728
 42
0.4142135623730951
 10
-0.6020000000000266
 20
-0.1249999999999733
 10
-0.5290000000000262
 20
-0.1249999999999733
 42
-0.4142135623730951
 10
-0.499000000000025
 20
-0.1549999999999745
 10
-0.499000000000025
 20
-0.2679999999999776
 42
-0.4142135623730951
 10
-0.5140000000000256
 20
-0.2829999999999781
 10
-0.5750712250168504
 20
-0.2829999999999746
 42
-0.4931454260313336
  0
ARC
  5
4B382E
330
4B382B
100
AcDbEntity
  8
10
 48
0.25
100
AcDbCircle
 10
-0.075000000000061
 20
0.3020000000000227
 30
0.0
 40
0.0749999999999993
100
AcDbArc
 50
252.1415373015901
 51
107.8584626983988
  0
ENDBLK
  5
4B3832
330
4B382B
100
AcDbEntity
  8
0
100
AcDbBlockEnd
  0
BLOCK
  5
4B3883
330
4B387A
100
AcDbEntity
  8
0
100
AcDbBlockBegin
  2
Reinforced Bytyl Spacer
 70
     0
 10
0.0
 20
0.0
 30
0.0
  3
Reinforced Bytyl Spacer
  1

  0
HATCH
  5
4B387B
330
4B387A
100
AcDbEntity
  8
THIN
100
AcDbHatch
 10
0.0
 20
0.0
 30
0.0
210
0.0
220
0.0
230
1.0
  2
DOTS
 70
     0
 71
     1
 91
        1
 92
        7
 72
     0
 73
     1
 93
        4
 10
0.1562500000000382
 20
-0.0000000000000142
 10
0.0312500000000382
 20
-0.0000000000000142
 10
0.0312500000000382
 20
-0.6250000000000142
 10
0.1562500000000382
 20
-0.6250000000000142
 97
        1
330
4B387C
 75
     0
 76
     1
 52
90.0
 41
0.5
 77
     0
 78
     1
 53
90.0
 43
-3.611312044416422
 44
-5.060374581297608
 45
-0.03125
 46
0.015625
 79
     2
 49
0.0
 49
-0.03125
 47
0.0011899997355916
 98
        1
 10
0.1072450513476761
 20
-0.3381182195231638
  0
LWPOLYLINE
  5
4B387C
102
{ACAD_REACTORS
330
4B387B
330
4B3880
102
}
330
4B387A
100
AcDbEntity
  8
THIN
100
AcDbPolyline
 90
        4
 70
     1
 43
0.0
 10
0.0312500000000382
 20
-0.6250000000000142
 10
0.0312500000000382
 20
-0.0000000000000142
 10
0.1562500000000382
 20
-0.0000000000000142
 10
0.1562500000000382
 20
-0.6250000000000142
  0
HATCH
  5
4B387D
330
4B387A
100
AcDbEntity
  8
THIN
100
AcDbHatch
 10
0.0
 20
0.0
 30
0.0
210
0.0
220
0.0
230
1.0
  2
DOTS
 70
     0
 71
     1
 91
        1
 92
        7
 72
     0
 73
     1
 93
        4
 10
0.3925000000000391
 20
-0.6250000000000142
 10
0.4375000000000391
 20
-0.6250000000000142
 10
0.4375000000000382
 20
-0.0000000000000151
 10
0.3925000000000382
 20
-0.000000000000016
 97
        2
330
4B387E
330
4B387F
 75
     0
 76
     1
 52
90.0
 41
0.75
 77
     0
 78
     1
 53
90.0
 43
-3.611312044416422
 44
-5.060374581297608
 45
-0.046875
 46
0.0234375
 79
     2
 49
0.0
 49
-0.046875
 47
0.0016662947622985
 98
        1
 10
0.4139673496542083
 20
-0.5128218251640391
  0
LWPOLYLINE
  5
4B387E
102
{ACAD_REACTORS
330
4B387D
330
4B3880
102
}
330
4B387A
100
AcDbEntity
  8
THIN
100
AcDbPolyline
 90
        2
 70
     0
 43
0.0
 10
0.3925000000000382
 20
-0.0000000000000142
 10
0.3925000000000382
 20
-0.6250000000000142
  0
LWPOLYLINE
  5
4B387F
102
{ACAD_REACTORS
330
4B387D
330
4B3880
102
}
330
4B387A
100
AcDbEntity
  8
THIN
100
AcDbPolyline
 90
        4
 70
     0
 43
0.0
 10
0.1562500000000382
 20
-0.0000000000000142
 10
0.4375000000000382
 20
-0.0000000000000142
 10
0.4375000000000382
 20
-0.6250000000000142
 10
0.1562500000000382
 20
-0.6250000000000142
  0
HATCH
  5
4B3880
330
4B387A
100
AcDbEntity
  8
THIN
100
AcDbHatch
 10
0.0
 20
0.0
 30
0.0
210
0.0
220
0.0
230
1.0
  2
DOTS
 70
     0
 71
     1
 91
        2
 92
        7
 72
     0
 73
     1
 93
        4
 10
0.1562500000000386
 20
-0.6250000000000134
 10
0.3925000000000382
 20
-0.6250000000000142
 10
0.3925000000000391
 20
-0.0000000000000151
 10
0.1562500000000377
 20
-0.0000000000000133
 97
        3
330
4B387C
330
4B387F
330
4B387E
 92
       22
 72
     0
 73
     1
 93
        4
 10
0.2918750000000379
 20
-0.0075000000000136
 10
0.3018750000000385
 20
-0.0075000000000136
 10
0.3018750000000372
 20
-0.617500000000014
 10
0.2918750000000383
 20
-0.617500000000014
 97
        1
330
4B3881
 75
     0
 76
     1
 52
90.0
 41
0.25
 77
     0
 78
     1
 53
90.0
 43
-3.611312044416422
 44
-5.060374581297608
 45
-0.015625
 46
0.0078125
 79
     2
 49
0.0
 49
-0.015625
 47
0.0011899997355916
 98
        2
 10
0.2000650292932997
 20
-0.3154905681298565
 10
0.2000650292932997
 20
-0.3154905681298565
  0
LWPOLYLINE
  5
4B3881
102
{ACAD_REACTORS
330
4B3880
102
}
330
4B387A
100
AcDbEntity
  8
THIN
100
AcDbPolyline
 90
        4
 70
     1
 43
0.0
 10
0.3018750000000381
 20
-0.617500000000014
 10
0.3018750000000381
 20
-0.0075000000000136
 10
0.2918750000000383
 20
-0.0075000000000136
 10
0.2918750000000383
 20
-0.617500000000014
  0
LINE
  5
4B3882
330
4B387A
100
AcDbEntity
  8
THIN
100
AcDbLine
 10
0.1562500000000382
 20
-0.0000000000000142
 30
0.0
 11
0.1562500000000382
 21
-0.6250000000000142
 31
0.0
  0
ENDBLK
  5
4B3884
330
4B387A
100
AcDbEntity
  8
0
100
AcDbBlockEnd
  0
BLOCK
  5
4B388E
330
4B388A
100
AcDbEntity
  8
0
100
AcDbBlockBegin
  2
Weather Seal
 70
     0
 10
0.0
 20
0.0
 30
0.0
  3
Weather Seal
  1

  0
LWPOLYLINE
  5
4B388B
330
4B388A
100
AcDbEntity
  8
10
100
AcDbPolyline
 90
        8
 70
     0
 43
0.0
 10
-0.2140040708706117
 20
-0.0700547851418496
 42
0.2308365435434813
 10
-0.1014570656801901
 20
0.0
 10
-0.0313972213123126
 20
0.0000000000000004
 10
-0.0722456559543829
 20
-0.048469460869498
 42
-0.2169055378432189
 10
-0.1846107348229395
 20
-0.10200000000009
 10
-0.2331996891443744
 20
-0.1020000000000873
 42
-0.9441104267323005
 10
-0.2343217948658616
 20
-0.0720693186292443
 10
-0.2130040708706762
 20
-0.0700547851418425
  0
ENDBLK
  5
4B388F
330
4B388A
100
AcDbEntity
  8
0
100
AcDbBlockEnd
  0
BLOCK
  5
4B389C
330
4B3897
100
AcDbEntity
  8
0
100
AcDbBlockBegin
  2
Silicon Horizontal Small
 70
     0
 10
0.0
 20
0.0
 30
0.0
  3
Silicon Horizontal Small
  1

  0
HATCH
  5
4B3898
330
4B3897
100
AcDbEntity
  8
3
100
AcDbHatch
 10
0.0
 20
0.0
 30
0.0
210
0.0
220
0.0
230
1.0
  2
ANSI31
 70
     0
 71
     0
 91
        1
 92
        1
 93
       67
 72
     2
 10
0.0660000000000194
 20
0.06600000000003
 40
0.0660000000000167
 50
90.0
 51
270.0
 73
     0
 72
     1
 10
0.0660000000000194
 20
0.1320000000000467
 11
0.2152499999999859
 21
0.1320000000000467
 72
     1
 10
0.2152499999999859
 20
0.1320000000000467
 11
0.2184884665055966
 21
0.1319205001095876
 72
     1
 10
0.2184884665055966
 20
0.1319205001095876
 11
0.2217191312617386
 21
0.1316821919604116
 72
     1
 10
0.2217191312617386
 20
0.1316821919604116
 11
0.224934211314042
 21
0.1312856496577224
 72
     1
 10
0.224934211314042
 20
0.1312856496577224
 11
0.2281259612530535
 21
0.1307318285066596
 72
     1
 10
0.2281259612530535
 20
0.1307318285066596
 11
0.2312866918736054
 21
0.1300220627108866
 72
     1
 10
0.2312866918736054
 20
0.1300220627108866
 11
0.2344087886987856
 21
0.1291580621583721
 72
     1
 10
0.2344087886987856
 20
0.1291580621583721
 11
0.2374847303238772
 21
0.1281419083021245
 72
     1
 10
0.2374847303238772
 20
0.1281419083021245
 11
0.2405071065360884
 21
0.1269760491457896
 72
     1
 10
0.2405071065360884
 20
0.1269760491457896
 11
0.2434686361663916
 21
0.1256632933461921
 72
     1
 10
0.2434686361663916
 20
0.1256632933461921
 11
0.2463621846305104
 21
0.124206803447036
 72
     1
 10
0.2463621846305104
 20
0.124206803447036
 11
0.2491807811167463
 21
0.1226100882600622
 72
     1
 10
0.2491807811167463
 20
0.1226100882600622
 11
0.2519176353792885
 21
0.1208769944120114
 72
     1
 10
0.2519176353792885
 20
0.1208769944120114
 11
0.254566154096497
 21
0.1190116970777657
 72
     1
 10
0.254566154096497
 20
0.1190116970777657
 11
0.2571199567547984
 21
0.1170186899219834
 72
     1
 10
0.2571199567547984
 20
0.1170186899219834
 11
0.2595728910199009
 21
0.1149027742734692
 72
     1
 10
0.2595728910199009
 20
0.1149027742734692
 11
0.2619190475583091
 21
0.112669047558354
 72
     1
 10
0.2619190475583091
 20
0.112669047558354
 11
0.264152774273426
 21
0.1103228910199441
 72
     1
 10
0.264152774273426
 20
0.1103228910199441
 11
0.2662686899219393
 21
0.1078699567548407
 72
     1
 10
0.2662686899219393
 20
0.1078699567548407
 11
0.2682616970777216
 21
0.1053161540965402
 72
     1
 10
0.2682616970777216
 20
0.1053161540965402
 11
0.2701269944119664
 21
0.1026676353793325
 72
     1
 10
0.2701269944119664
 20
0.1026676353793325
 11
0.2718600882600173
 21
0.0999307811167913
 72
     1
 10
0.2718600882600173
 20
0.0999307811167913
 11
0.2734568034469929
 21
0.0971121846305536
 72
     1
 10
0.2734568034469929
 20
0.0971121846305536
 11
0.2749132933461498
 21
0.0942186361664357
 72
     1
 10
0.2749132933461498
 20
0.0942186361664357
 11
0.2762260491457473
 21
0.0912571065361316
 72
     1
 10
0.2762260491457473
 20
0.0912571065361316
 11
0.2773919083020813
 21
0.0882347303239213
 72
     1
 10
0.2773919083020813
 20
0.0882347303239213
 11
0.278408062158328
 21
0.0851587886988288
 72
     1
 10
0.278408062158328
 20
0.0851587886988288
 11
0.2792720627108425
 21
0.0820366918736495
 72
     1
 10
0.2792720627108425
 20
0.0820366918736495
 11
0.2799818285066147
 21
0.0788759612530967
 72
     1
 10
0.2799818285066147
 20
0.0788759612530967
 11
0.2805356496576783
 21
0.0756842113140861
 72
     1
 10
0.2805356496576783
 20
0.0756842113140861
 11
0.2809321919603667
 21
0.0724691312617818
 72
     1
 10
0.2809321919603667
 20
0.0724691312617818
 11
0.2811705001095435
 21
0.0692384665056398
 72
     1
 10
0.2811705001095435
 20
0.0692384665056398
 11
0.2812500000000027
 21
0.06600000000003
 72
     1
 10
0.2812500000000027
 20
0.06600000000003
 11
0.2811705001095452
 21
0.0627615334944194
 72
     1
 10
0.2811705001095452
 20
0.0627615334944194
 11
0.2809321919603667
 21
0.0595308687382765
 72
     1
 10
0.2809321919603667
 20
0.0595308687382765
 11
0.2805356496576783
 21
0.0563157886859731
 72
     1
 10
0.2805356496576783
 20
0.0563157886859731
 11
0.2799818285066147
 21
0.0531240387469616
 72
     1
 10
0.2799818285066147
 20
0.0531240387469616
 11
0.2792720627108425
 21
0.0499633081264097
 72
     1
 10
0.2792720627108425
 20
0.0499633081264097
 11
0.2784080621583262
 21
0.0468412113012304
 72
     1
 10
0.2784080621583262
 20
0.0468412113012304
 11
0.2773919083020813
 21
0.043765269676137
 72
     1
 10
0.2773919083020813
 20
0.043765269676137
 11
0.2762260491457473
 21
0.0407428934639267
 72
     1
 10
0.2762260491457473
 20
0.0407428934639267
 11
0.274913293346148
 21
0.0377813638336235
 72
     1
 10
0.274913293346148
 20
0.0377813638336235
 11
0.2734568034469911
 21
0.0348878153695065
 72
     1
 10
0.2734568034469911
 20
0.0348878153695065
 11
0.2718600882600191
 21
0.0320692188832688
 72
     1
 10
0.2718600882600191
 20
0.0320692188832688
 11
0.2701269944119682
 21
0.0293323646207266
 72
     1
 10
0.2701269944119682
 20
0.0293323646207266
 11
0.2682616970777216
 21
0.026683845903519
 72
     1
 10
0.2682616970777216
 20
0.026683845903519
 11
0.2662686899219393
 21
0.0241300432452185
 72
     1
 10
0.2662686899219393
 20
0.0241300432452185
 11
0.2641527742734242
 21
0.0216771089801151
 72
     1
 10
0.2641527742734242
 20
0.0216771089801151
 11
0.2619190475583109
 21
0.019330952441706
 72
     1
 10
0.2619190475583109
 20
0.019330952441706
 11
0.2595728910198991
 21
0.01709722572659
 72
     1
 10
0.2595728910198991
 20
0.01709722572659
 11
0.2571199567547984
 21
0.0149813100780758
 72
     1
 10
0.2571199567547984
 20
0.0149813100780758
 11
0.254566154096497
 21
0.0129883029222935
 72
     1
 10
0.254566154096497
 20
0.0129883029222935
 11
0.2519176353792902
 21
0.0111230055880478
 72
     1
 10
0.2519176353792902
 20
0.0111230055880478
 11
0.2491807811167481
 21
0.0093899117399978
 72
     1
 10
0.2491807811167481
 20
0.0093899117399978
 11
0.2463621846305086
 21
0.007793196553024
 72
     1
 10
0.2463621846305086
 20
0.007793196553024
 11
0.2434686361663916
 21
0.006336706653868
 72
     1
 10
0.2434686361663916
 20
0.006336706653868
 11
0.2405071065360884
 21
0.0050239508542695
 72
     1
 10
0.2405071065360884
 20
0.0050239508542695
 11
0.2374847303238772
 21
0.0038580916979356
 72
     1
 10
0.2374847303238772
 20
0.0038580916979356
 11
0.2344087886987838
 21
0.002841937841688
 72
     1
 10
0.2344087886987838
 20
0.002841937841688
 11
0.2312866918736054
 21
0.0019779372891735
 72
     1
 10
0.2312866918736054
 20
0.0019779372891735
 11
0.2281259612530535
 21
0.0012681714934004
 72
     1
 10
0.2281259612530535
 20
0.0012681714934004
 11
0.224934211314042
 21
0.0007143503423377
 72
     1
 10
0.224934211314042
 20
0.0007143503423377
 11
0.2217191312617386
 21
0.0003178080396475
 72
     1
 10
0.2217191312617386
 20
0.0003178080396475
 11
0.2184884665055966
 21
0.0000794998904725
 72
     1
 10
0.2184884665055966
 20
0.0000794998904725
 11
0.2152499999999859
 21
0.0000000000000133
 72
     1
 10
0.2152499999999859
 20
0.0000000000000133
 11
0.0660000000000194
 21
0.0000000000000133
 97
        0
 75
     0
 76
     1
 52
0.0
 41
0.25
 77
     0
 78
     1
 53
45.0
 43
-8.14017173921723
 44
-8.193344402733142
 45
-0.0220970869120796
 46
0.0220970869120796
 79
     0
 98
        1
 10
10.49505695906111
 20
-4.856956167588923
1001
ACAD
1010
0.0
1020
0.0
1030
0.0
  0
LWPOLYLINE
  5
4B3899
330
4B3897
100
AcDbEntity
  8
THIN
100
AcDbPolyline
 90
        4
 70
     1
 43
0.0
 10
0.2152499999999859
 20
0.0000000000000133
 10
0.0660000000000194
 20
0.0000000000000133
 42
-0.9999999999999998
 10
0.0660000000000194
 20
0.1320000000000467
 10
0.2152499999999859
 20
0.1320000000000467
 42
-0.9999999999999998
  0
ENDBLK
  5
4B389D
330
4B3897
100
AcDbEntity
  8
0
100
AcDbBlockEnd
  0
BLOCK
  5
4B38D0
330
4B38CB
100
AcDbEntity
  8
0
100
AcDbBlockBegin
  2
Silicon Vertical Bottom
 70
     0
 10
0.0
 20
0.0
 30
0.0
  3
Silicon Vertical Bottom
  1

  0
HATCH
  5
4B38CC
330
4B38CB
100
AcDbEntity
  8
3
100
AcDbHatch
 10
0.0
 20
0.0
 30
0.0
210
0.0
220
0.0
230
1.0
  2
ANSI31
 70
     0
 71
     1
 91
        1
 92
        7
 72
     1
 73
     1
 93
        4
 10
-0.0000000000000009
 20
0.3089999999999904
 42
1.0
 10
-0.1320000000000343
 20
0.3089999999999904
 42
0.0
 10
-0.1320000000000343
 20
0.1285000000000238
 42
1.0
 10
-0.0000000000000009
 20
0.1285000000000238
 42
0.0
 97
        1
330
4B38CD
 75
     0
 76
     1
 52
90.0
 41
0.25
 77
     0
 78
     1
 53
135.0
 43
8.193344402733156
 44
-8.046421739217223
 45
-0.0220970869120796
 46
-0.0220970869120796
 79
     0
 47
0.0013387605417888
 98
        1
 10
-0.0624891598898119
 20
0.2248641427243712
1001
ACAD
1010
0.0
1020
0.0
1030
0.0
  0
LWPOLYLINE
  5
4B38CD
102
{ACAD_REACTORS
330
4B38CC
102
}
330
4B38CB
100
AcDbEntity
  8
THIN
100
AcDbPolyline
 90
        4
 70
     1
 43
0.0
 10
-0.1320000000000343
 20
0.3089999999999904
 10
-0.1320000000000343
 20
0.1285000000000238
 42
0.9999999999999998
 10
-0.0000000000000009
 20
0.1285000000000238
 10
-0.0000000000000009
 20
0.3089999999999904
 42
0.9999999999999998
  0
ENDBLK
  5
4B38D1
330
4B38CB
100
AcDbEntity
  8
0
100
AcDbBlockEnd
  0
BLOCK
  5
4B38DD
330
4B38D8
100
AcDbEntity
  8
0
100
AcDbBlockBegin
  2
Silicon Small Vertical Top
 70
     0
 10
0.0
 20
0.0
 30
0.0
  3
Silicon Small Vertical Top
  1

  0
HATCH
  5
4B38D9
330
4B38D8
100
AcDbEntity
  8
3
100
AcDbHatch
 10
0.0
 20
0.0
 30
0.0
210
0.0
220
0.0
230
1.0
  2
ANSI31
 70
     0
 71
     0
 91
        1
 92
        1
 93
       67
 72
     2
 10
0.0660000000000176
 20
-0.1214999999999833
 40
0.0660000000000167
 50
180.0
 51
360.0
 73
     1
 72
     1
 10
0.1320000000000343
 20
-0.1214999999999833
 11
0.1320000000000343
 21
-0.0660000000000167
 72
     1
 10
0.1320000000000343
 20
-0.0660000000000167
 11
0.1319205001095756
 21
-0.0627615334944061
 72
     1
 10
0.1319205001095756
 20
-0.0627615334944061
 11
0.1316821919603992
 21
-0.0595308687382641
 72
     1
 10
0.1316821919603992
 20
-0.0595308687382641
 11
0.1312856496577095
 21
-0.0563157886859607
 72
     1
 10
0.1312856496577095
 20
-0.0563157886859607
 11
0.1307318285066468
 21
-0.0531240387469509
 72
     1
 10
0.1307318285066468
 20
-0.0531240387469509
 11
0.1300220627108732
 21
-0.0499633081263973
 72
     1
 10
0.1300220627108732
 20
-0.0499633081263973
 11
0.1291580621583588
 21
-0.0468412113012171
 72
     1
 10
0.1291580621583588
 20
-0.0468412113012171
 11
0.128141908302112
 21
-0.0437652696761219
 72
     1
 10
0.128141908302112
 20
-0.0437652696761219
 11
0.1269760491457772
 21
-0.0407428934639143
 72
     1
 10
0.1269760491457772
 20
-0.0407428934639143
 11
0.1256632933461792
 21
-0.0377813638336093
 72
     1
 10
0.1256632933461792
 20
-0.0377813638336093
 11
0.1242068034470227
 21
-0.034887815369494
 72
     1
 10
0.1242068034470227
 20
-0.034887815369494
 11
0.1226100882600489
 21
-0.0320692188832545
 72
     1
 10
0.1226100882600489
 20
-0.0320692188832545
 11
0.1208769944119985
 21
-0.0293323646207107
 72
     1
 10
0.1208769944119985
 20
-0.0293323646207107
 11
0.1190116970777528
 21
-0.0266838459035057
 72
     1
 10
0.1190116970777528
 20
-0.0266838459035057
 11
0.1170186899219701
 21
-0.0241300432452079
 72
     1
 10
0.1170186899219701
 20
-0.0241300432452079
 11
0.1149027742734563
 21
-0.0216771089801036
 72
     1
 10
0.1149027742734563
 20
-0.0216771089801036
 11
0.1126690475583398
 21
-0.0193309524416918
 72
     1
 10
0.1126690475583398
 20
-0.0193309524416918
 11
0.1103228910199303
 21
-0.0170972257265767
 72
     1
 10
0.1103228910199303
 20
-0.0170972257265767
 11
0.1078699567548274
 21
-0.0149813100780634
 72
     1
 10
0.1078699567548274
 20
-0.0149813100780634
 11
0.1053161540965264
 21
-0.0129883029222811
 72
     1
 10
0.1053161540965264
 20
-0.0129883029222811
 11
0.1026676353793188
 21
-0.0111230055880327
 72
     1
 10
0.1026676353793188
 20
-0.0111230055880327
 11
0.0999307811167771
 21
-0.0093899117399836
 72
     1
 10
0.0999307811167771
 20
-0.0093899117399836
 11
0.0971121846305394
 21
-0.0077931965530098
 72
     1
 10
0.0971121846305394
 20
-0.0077931965530098
 11
0.0942186361664219
 21
-0.0063367066538511
 72
     1
 10
0.0942186361664219
 20
-0.0063367066538511
 11
0.0912571065361183
 21
-0.0050239508542553
 72
     1
 10
0.0912571065361183
 20
-0.0050239508542553
 11
0.088234730323908
 21
-0.0038580916979214
 72
     1
 10
0.088234730323908
 20
-0.0038580916979214
 11
0.085158788698815
 21
-0.0028419378416764
 72
     1
 10
0.085158788698815
 20
-0.0028419378416764
 11
0.0820366918736348
 21
-0.001977937289162
 72
     1
 10
0.0820366918736348
 20
-0.001977937289162
 11
0.0788759612530834
 21
-0.0012681714933862
 72
     1
 10
0.0788759612530834
 20
-0.0012681714933862
 11
0.0756842113140719
 21
-0.0007143503423244
 72
     1
 10
0.0756842113140719
 20
-0.0007143503423244
 11
0.0724691312617685
 21
-0.000317808039636
 72
     1
 10
0.0724691312617685
 20
-0.000317808039636
 11
0.0692384665056261
 21
-0.0000794998904574
 72
     1
 10
0.0692384665056261
 20
-0.0000794998904574
 11
0.0660000000000158
 21
0.0
 72
     1
 10
0.0660000000000158
 20
0.0
 11
0.0627615334944052
 21
-0.0000794998904574
 72
     1
 10
0.0627615334944052
 20
-0.0000794998904574
 11
0.0595308687382632
 21
-0.000317808039636
 72
     1
 10
0.0595308687382632
 20
-0.000317808039636
 11
0.0563157886859593
 21
-0.0007143503423244
 72
     1
 10
0.0563157886859593
 20
-0.0007143503423244
 11
0.0531240387469483
 21
-0.0012681714933898
 72
     1
 10
0.0531240387469483
 20
-0.0012681714933898
 11
0.0499633081263959
 21
-0.001977937289162
 72
     1
 10
0.0499633081263959
 20
-0.001977937289162
 11
0.0468412113012167
 21
-0.0028419378416764
 72
     1
 10
0.0468412113012167
 20
-0.0028419378416764
 11
0.0437652696761237
 21
-0.0038580916979214
 72
     1
 10
0.0437652696761237
 20
-0.0038580916979214
 11
0.0407428934639134
 21
-0.0050239508542553
 72
     1
 10
0.0407428934639134
 20
-0.0050239508542553
 11
0.0377813638336102
 21
-0.0063367066538547
 72
     1
 10
0.0377813638336102
 20
-0.0063367066538547
 11
0.0348878153694923
 21
-0.0077931965530098
 72
     1
 10
0.0348878153694923
 20
-0.0077931965530098
 11
0.0320692188832545
 21
-0.0093899117399836
 72
     1
 10
0.0320692188832545
 20
-0.0093899117399836
 11
0.0293323646207129
 21
-0.0111230055880363
 72
     1
 10
0.0293323646207129
 20
-0.0111230055880363
 11
0.0266838459035053
 21
-0.0129883029222811
 72
     1
 10
0.0266838459035053
 20
-0.0129883029222811
 11
0.0241300432452047
 21
-0.0149813100780634
 72
     1
 10
0.0241300432452047
 20
-0.0149813100780634
 11
0.0216771089801018
 21
-0.0170972257265767
 72
     1
 10
0.0216771089801018
 20
-0.0170972257265767
 11
0.0193309524416927
 21
-0.0193309524416918
 72
     1
 10
0.0193309524416927
 20
-0.0193309524416918
 11
0.0170972257265767
 21
-0.0216771089801036
 72
     1
 10
0.0170972257265767
 20
-0.0216771089801036
 11
0.0149813100780629
 21
-0.0241300432452043
 72
     1
 10
0.0149813100780629
 20
-0.0241300432452043
 11
0.0129883029222806
 21
-0.0266838459035057
 72
     1
 10
0.0129883029222806
 20
-0.0266838459035057
 11
0.0111230055880349
 21
-0.0293323646207142
 72
     1
 10
0.0111230055880349
 20
-0.0293323646207142
 11
0.0093899117399845
 21
-0.0320692188832545
 72
     1
 10
0.0093899117399845
 20
-0.0320692188832545
 11
0.0077931965530107
 21
-0.034887815369494
 72
     1
 10
0.0077931965530107
 20
-0.034887815369494
 11
0.0063367066538547
 21
-0.0377813638336093
 72
     1
 10
0.0063367066538547
 20
-0.0377813638336093
 11
0.0050239508542567
 21
-0.0407428934639143
 72
     1
 10
0.0050239508542567
 20
-0.0407428934639143
 11
0.0038580916979218
 21
-0.0437652696761219
 72
     1
 10
0.0038580916979218
 20
-0.0437652696761219
 11
0.0028419378416751
 21
-0.0468412113012171
 72
     1
 10
0.0028419378416751
 20
-0.0468412113012171
 11
0.0019779372891611
 21
-0.0499633081263973
 72
     1
 10
0.0019779372891611
 20
-0.0499633081263973
 11
0.0012681714933875
 21
-0.0531240387469509
 72
     1
 10
0.0012681714933875
 20
-0.0531240387469509
 11
0.0007143503423253
 21
-0.0563157886859607
 72
     1
 10
0.0007143503423253
 20
-0.0563157886859607
 11
0.000317808039636
 21
-0.0595308687382641
 72
     1
 10
0.000317808039636
 20
-0.0595308687382641
 11
0.0000794998904596
 21
-0.0627615334944061
 72
     1
 10
0.0000794998904596
 20
-0.0627615334944061
 11
0.0000000000000009
 21
-0.0660000000000167
 72
     1
 10
0.0000000000000009
 20
-0.0660000000000167
 11
0.0000000000000009
 21
-0.1214999999999833
 97
        0
 75
     0
 76
     1
 52
90.0
 41
0.25
 77
     0
 78
     1
 53
315.0
 43
-8.193344402733156
 44
8.108921739217226
 45
0.0220970869120796
 46
0.0220970869120796
 79
     0
 98
        1
 10
-3.134168425386246
 20
-17.9142790158413
1001
ACAD
1010
0.0
1020
0.0
1030
0.0
  0
LWPOLYLINE
  5
4B38DA
330
4B38D8
100
AcDbEntity
  8
THIN
100
AcDbPolyline
 90
        4
 70
     1
 43
0.0
 10
0.1320000000000343
 20
-0.1214999999999833
 10
0.1320000000000343
 20
-0.0660000000000167
 42
0.9999999999999998
 10
0.0000000000000009
 20
-0.0660000000000167
 10
0.0000000000000009
 20
-0.1214999999999833
 42
0.9999999999999998
  0
ENDBLK
  5
4B38DE
330
4B38D8
100
AcDbEntity
  8
0
100
AcDbBlockEnd
  0
BLOCK
  5
4B42C9
330
4B42C7
100
AcDbEntity
  8
0
100
AcDbBlockBegin
  2
AS extents block
 70
     0
 10
0.0
 20
0.0
 30
0.0
  3
AS extents block
  1

  0
LWPOLYLINE
  5
4B42CA
330
4B42C7
100
AcDbEntity
  8
PAPER
100
AcDbPolyline
 90
        4
 70
     1
 43
0.0
 10
0.0
 20
0.0
 10
17.0
 20
0.0
 10
17.0
 20
22.0
 10
0.0
 20
22.0
  0
ENDBLK
  5
4B42CB
330
4B42C7
100
AcDbEntity
  8
0
100
AcDbBlockEnd
  0
BLOCK
  5
4B451F
330
4B451C
100
AcDbEntity
  8
0
100
AcDbBlockBegin
  2
B4088 DS L-fin adapter
 70
     0
 10
0.0
 20
0.0
 30
0.0
  3
B4088 DS L-fin adapter
  1

  0
LWPOLYLINE
  5
4B4520
330
4B451C
100
AcDbEntity
  8
0
100
AcDbPolyline
 90
       34
 70
     1
 43
0.0
 10
-0.1680000000000756
 20
0.0
 10
-0.1680000000000792
 20
0.0390000000000033
 42
-0.4142135623731298
 10
-0.1530000000000786
 20
0.0540000000000056
 10
-0.0150000000000006
 20
0.0539999999999967
 42
0.4142135623731297
 10
0.0
 20
0.0689999999999991
 10
0.0
 20
0.1240000000000023
 42
0.4142135623731123
 10
-0.0150000000000006
 20
0.139000000000002
 10
-0.0400000000000027
 20
0.139000000000002
 42
0.4142135623730951
 10
-0.0550000000000015
 20
0.1240000000000023
 10
-0.0550000000000015
 20
0.1240000000000023
 42
-0.4142135623730953
 10
-0.0700000000000021
 20
0.1090000000000026
 10
-0.1530000000000875
 20
0.1090000000000035
 42
-0.4142135623730603
 10
-0.1680000000000863
 20
0.1240000000000005
 10
-0.1680000000001147
 20
0.460999999999693
 42
-0.4142135623731115
 10
-0.1600000000001138
 20
0.468999999999693
 10
-0.0150000000000006
 20
0.4689999999996939
 42
0.4142135623730864
 10
0.0
 20
0.4839999999996936
 10
0.0
 20
0.5189999999996964
 42
0.4142135623731298
 10
-0.0150000000000041
 20
0.5339999999996952
 10
-0.7930000000000011
 20
0.5339999999996313
 42
0.4142135623730952
 10
-0.8079999999999998
 20
0.5189999999996307
 10
-0.8079999999999998
 20
0.458999999999997
 42
-0.4142135623731297
 10
-0.8229999999999986
 20
0.4439999999999964
 10
-0.8380000000000009
 20
0.4439999999999964
 42
0.6681786379192806
 10
-0.8486066017177975
 20
0.4183933982821975
 10
-0.7823933982821992
 20
0.3521801948465999
 42
-0.1989123673796656
 10
-0.7779999999999987
 20
0.3415735931288006
 10
-0.7780000000000058
 20
0.0
 10
-0.7229999999999955
 20
0.0
 10
-0.7229999999999937
 20
0.1389999999999869
 42
-0.4142135623730951
 10
-0.7079999999999931
 20
0.1539999999999875
 10
-0.2380000000000741
 20
0.1539999999999857
 42
-0.4142135623730777
 10
-0.2230000000000736
 20
0.1389999999999869
 10
-0.2230000000000682
 20
0.0
  0
LWPOLYLINE
  5
4B4521
330
4B451C
100
AcDbEntity
  8
0
100
AcDbPolyline
 90
       14
 70
     1
 43
0.0
 10
-0.2230000000000984
 20
0.4609999999996833
 42
0.4142135623730788
 10
-0.2310000000000993
 20
0.4689999999996815
 10
-0.745000000000001
 20
0.4689999999996371
 42
0.4142135623730684
 10
-0.7530000000000002
 20
0.4609999999996371
 10
-0.7530000000000002
 20
0.4067817459305161
 42
0.1989123673796624
 10
-0.7486066017177962
 20
0.3961751442127177
 10
-0.7273933982821994
 20
0.3749619407771201
 42
-0.1989123673796651
 10
-0.7229999999999972
 20
0.3643553390593217
 10
-0.7230000000000008
 20
0.223999999999986
 42
0.4142135623730951
 10
-0.7080000000000002
 20
0.2089999999999863
 10
-0.4880000000000333
 20
0.2089999999999845
 42
-1.0
 10
-0.458000000000034
 20
0.2089999999999836
 10
-0.2380000000000653
 20
0.2089999999999819
 42
0.4142135623731297
 10
-0.2230000000000647
 20
0.2239999999999842
  0
ENDBLK
  5
4B4522
330
4B451C
100
AcDbEntity
  8
0
100
AcDbBlockEnd
  0
BLOCK
  5
4B458C
330
4B458B
100
AcDbEntity
  8
0
100
AcDbBlockBegin
  2
*D15
 70
     1
 10
0.0
 20
0.0
 30
0.0
  3
*D15
  1

  0
LINE
  5
4B45B7
330
4B458B
100
AcDbEntity
  8
DIM
 62
     9
440
 16777216
370
    -2
100
AcDbLine
 10
2.826967802531552
 20
20.87070689596426
 30
0.0
 11
6.049851220782194
 21
20.87070689596426
 31
0.0
  0
LINE
  5
4B45B8
330
4B458B
100
AcDbEntity
  8
DIM
 62
     9
440
 16777216
370
    -2
100
AcDbLine
 10
5.108967802531446
 20
19.62570689596425
 30
0.0
 11
6.049851220782194
 21
19.62570689596425
 31
0.0
  0
LINE
  5
4B45B9
330
4B458B
100
AcDbEntity
  8
DIM
 62
   112
440
 16777216
370
    -2
100
AcDbLine
 10
5.889851220782194
 20
20.62070689596426
 30
0.0
 11
5.889851220782194
 21
20.55011165786902
 31
0.0
  0
LINE
  5
4B45BA
330
4B458B
100
AcDbEntity
  8
DIM
 62
   112
440
 16777216
370
    -2
100
AcDbLine
 10
5.889851220782194
 20
19.87570689596425
 30
0.0
 11
5.889851220782194
 21
19.94630213405949
 31
0.0
  0
SOLID
  5
4B45BB
330
4B458B
100
AcDbEntity
  8
DIM
 62
   112
440
 16777216
100
AcDbTrace
 10
5.848184554115527
 20
20.62070689596426
 30
0.0
 11
5.931517887448861
 21
20.62070689596426
 31
0.0
 12
5.889851220782194
 22
20.87070689596426
 32
0.0
 13
5.889851220782194
 23
20.87070689596426
 33
0.0
  0
SOLID
  5
4B45BC
330
4B458B
100
AcDbEntity
  8
DIM
 62
   112
440
 16777216
100
AcDbTrace
 10
5.848184554115527
 20
19.87570689596425
 30
0.0
 11
5.931517887448861
 21
19.87570689596425
 31
0.0
 12
5.889851220782194
 22
19.62570689596425
 32
0.0
 13
5.889851220782194
 23
19.62570689596425
 33
0.0
  0
MTEXT
  5
4B45BD
330
4B458B
100
AcDbEntity
  8
DIM
440
 16777216
100
AcDbMText
 10
5.88985122078219
 20
20.24820689596426
 30
0.0
 40
0.16
 41
0.0
 46
0.0
 71
     5
 72
     1
  1
\A1;1 1/4"
  7
ROMANS
 73
     1
 44
1.0
  0
POINT
  5
4B45BE
330
4B458B
100
AcDbEntity
  8
DEFPOINTS
 62
     0
440
 16777216
100
AcDbPoint
 10
2.736967802531552
 20
20.87070689596426
 30
0.0
  0
POINT
  5
4B45BF
330
4B458B
100
AcDbEntity
  8
DEFPOINTS
 62
     0
440
 16777216
100
AcDbPoint
 10
5.018967802531446
 20
19.62570689596425
 30
0.0
  0
POINT
  5
4B45C0
330
4B458B
100
AcDbEntity
  8
DEFPOINTS
 62
     0
440
 16777216
100
AcDbPoint
 10
5.889851220782194
 20
19.62570689596425
 30
0.0
  0
ENDBLK
  5
4B458D
330
4B458B
100
AcDbEntity
  8
0
100
AcDbBlockEnd
  0
ENDSEC
  0
SECTION
  2
ENTITIES
  0
LINE
  5
4B1E29
330
4B1AC8
100
AcDbEntity
  8
IG
100
AcDbLine
 10
8.444205474204686
 20
4.063234936439187
 30
0.0
 11
5.718750459811274
 21
4.063234936439187
 31
0.0
  0
LINE
  5
4B1E2A
330
4B1AC8
100
AcDbEntity
  8
IG
100
AcDbLine
 10
8.459554836614977
 20
4.188234936439187
 30
0.0
 11
5.718750459811274
 21
4.188234936439187
 31
0.0
  0
LINE
  5
4B1E2B
330
4B1AC8
100
AcDbEntity
  8
IG
100
AcDbLine
 10
8.45347257007932
 20
4.813234936439187
 30
0.0
 11
5.718750459811274
 21
4.813234936439215
 31
0.0
  0
LINE
  5
4B1E2C
330
4B1AC8
100
AcDbEntity
  8
IG
100
AcDbLine
 10
8.46797390141716
 20
4.938234936439158
 30
0.0
 11
5.718750459811274
 21
4.938234936439213
 31
0.0
  0
LINE
  5
4B1E2F
330
4B1AC8
100
AcDbEntity
  8
IG
100
AcDbLine
 10
8.527890449231442
 20
4.813234936439158
 30
0.0
 11
11.28125045981125
 21
4.813234936439213
 31
0.0
  0
LINE
  5
4B1E30
330
4B1AC8
100
AcDbEntity
  8
IG
100
AcDbLine
 10
8.542391780569339
 20
4.938234936439158
 30
0.0
 11
11.28125045981125
 21
4.938234936439213
 31
0.0
  0
LINE
  5
4B21B5
330
4B1AC8
100
AcDbEntity
  8
IG
100
AcDbLine
 10
4.081967802531514
 20
14.24552446068534
 30
0.0
 11
4.081967802531545
 21
10.1757068959643
 31
0.0
  0
LINE
  5
4B21B6
330
4B1AC8
100
AcDbEntity
  8
IG
100
AcDbLine
 10
3.956967802531514
 20
14.26002579202323
 30
0.0
 11
3.956967802531546
 21
10.1757068959643
 31
0.0
  0
LINE
  5
4B21D5
330
4B1AC8
100
AcDbEntity
  8
IG
100
AcDbLine
 10
3.956967802531518
 20
14.38474561768472
 30
0.0
 11
3.956967802531545
 21
18.3007068959643
 31
0.0
  0
LINE
  5
4B21D6
330
4B1AC8
100
AcDbEntity
  8
IG
100
AcDbLine
 10
4.081967802531518
 20
14.37024428634688
 30
0.0
 11
4.081967802531545
 21
18.3007068959643
 31
0.0
  0
DIMENSION
  5
4B221A
330
4B1AC8
100
AcDbEntity
  8
DIM
100
AcDbDimension
280
     0
  2
*D1
 10
2.27690533498977
 20
2.640234936439175
 30
0.0
 11
2.27690533498977
 21
4.265234936439155
 31
0.0
 70
    32
 71
     5
 42
3.249999999999959
 73
     0
 74
     0
 75
     0
  3
Copy of HSTANDARD
100
AcDbAlignedDimension
 13
4.515000459811345
 23
5.890234936439133
 33
0.0
 14
4.315000459811351
 24
2.640234936439174
 34
0.0
 50
270.0
100
AcDbRotatedDimension
1001
ACAD
1000
DSTYLE
1002
{
1070
    40
1040
2.0
1070
   146
1040
1.0
1070
   276
1070
     2
1002
}
  0
DIMENSION
  5
4B2232
330
4B1AC8
100
AcDbEntity
  8
DIM
100
AcDbDimension
280
     0
  2
*D2
 10
4.500000459811296
 20
6.617660608354373
 30
0.0
 11
5.367742479525152
 21
6.617660608354373
 31
0.0
 70
    32
 71
     5
 42
1.735484039427712
 73
     0
 74
     0
 75
     0
  3
Copy of HSTANDARD
100
AcDbAlignedDimension
 13
6.235484499239008
 23
4.956731631678211
 33
0.0
 14
4.500000459811296
 24
5.875234936439131
 34
0.0
100
AcDbRotatedDimension
1001
ACAD
1000
DSTYLE
1002
{
1070
    40
1040
2.0
1070
   146
1040
1.0
1070
   276
1070
     2
1002
}
  0
TEXT
  5
4B224A
330
4B1AC8
100
AcDbEntity
  8
DIM
100
AcDbText
 10
5.832883159668714
 20
7.243092672661579
 30
0.0
 40
0.2
  1
3
 51
10.0
  7
SIMPLEX
 72
     1
 11
5.89954982633538
 21
7.343092672661579
 31
0.0
100
AcDbText
 73
     2
  0
CIRCLE
  5
4B224B
330
4B1AC8
100
AcDbEntity
  8
DIM
100
AcDbCircle
 10
5.89954982633538
 20
7.34309267266158
 30
0.0
 40
0.24
  0
TEXT
  5
4B224C
330
4B1AC8
100
AcDbEntity
  8
DIM
100
AcDbText
 10
4.71990946567497
 20
11.24854938811329
 30
0.0
 40
0.2
  1
2
 51
10.0
  7
SIMPLEX
 72
     1
 11
4.786576132341637
 21
11.34854938811329
 31
0.0
100
AcDbText
 73
     2
  0
CIRCLE
  5
4B224D
330
4B1AC8
100
AcDbEntity
  8
DIM
100
AcDbCircle
 10
4.786576132341637
 20
11.34854938811329
 30
0.0
 40
0.24
  0
CIRCLE
  5
4B224E
330
4B1AC8
100
AcDbEntity
  8
DIM
100
AcDbCircle
 10
4.774129711145108
 20
17.53675095790824
 30
0.0
 40
0.24
  0
TEXT
  5
4B224F
330
4B1AC8
100
AcDbEntity
  8
DIM
100
AcDbText
 10
4.750320187335584
 20
17.43675095790823
 30
0.0
 40
0.2
  1
1
 51
10.0
  7
SIMPLEX
 72
     1
 11
4.774129711145108
 21
17.53675095790824
 31
0.0
100
AcDbText
 73
     2
  0
DIMENSION
  5
4B2250
330
4B1AC8
100
AcDbEntity
  8
DIM
100
AcDbDimension
280
     0
  2
*D3
 10
14.62085653356523
 20
3.553234936439185
 30
0.0
 11
14.62085653356523
 21
3.096734936439184
 31
0.0
 70
   160
 71
     5
 42
0.9130000000000016
 73
     0
 74
     0
 75
     0
  3
Copy of HSTANDARD
100
AcDbAlignedDimension
 13
12.68500045981127
 23
2.640234936439184
 33
0.0
 14
13.70500045981122
 24
3.553234936439185
 34
0.0
 50
270.0
100
AcDbRotatedDimension
1001
ACAD
1000
DSTYLE
1002
{
1070
    40
1040
2.0
1070
   146
1040
1.0
1070
   276
1070
     2
1002
}
  0
DIMENSION
  5
4B2268
330
4B1AC8
100
AcDbEntity
  8
DIM
100
AcDbDimension
280
     0
  2
*D4
 10
13.37370415433812
 20
3.633234936439226
 30
0.0
 11
13.37370415433812
 21
4.761734936439202
 31
0.0
 70
    32
 71
     5
 42
2.256999999999947
 73
     0
 74
     0
 75
     0
  3
Copy of HSTANDARD
100
AcDbAlignedDimension
 13
12.48500045981131
 23
5.890234936439174
 33
0.0
 14
13.70500045981122
 24
3.633234936439226
 34
0.0
 50
270.0
100
AcDbRotatedDimension
1001
ACAD
1000
DSTYLE
1002
{
1070
    40
1040
2.0
1070
   146
1040
1.0
1070
   276
1070
     2
1002
}
  0
MTEXT
  5
4B228D
330
4B1AC8
100
AcDbEntity
  8
DIM
100
AcDbMText
 10
12.89981532718078
 20
19.7274876898361
 30
0.0
 40
0.3
 41
6.184
 46
0.0
 71
     5
 72
     5
  1
Harvey Building Products\PDesigner Shape Rectangle\PIntegral J-Fin w/L-Fin Adapter\P{\H0.8333x;(1/2 Scale)}
  7
TAHOMA
 73
     1
 44
1.0
  0
INSERT
  5
4B2293
330
4B1AC8
100
AcDbEntity
  8
DIM
100
AcDbBlockReference
 66
     1
  2
ASDTNUM
 10
0.0
 20
0.0
 30
0.0
1001
MTVPROFILELINK
1002
{
1000
#BlockRef=533e4a92-0xa7cf-11d7-A5DD-005004E2D0E9|
1002
}
1005
0
  0
ATTRIB
  5
4B2295
330
4B2293
100
AcDbEntity
  8
THIN
100
AcDbText
 10
1.645491964163355
 20
0.7077964671298738
 30
0.0
 40
0.18
  1
12/18
 51
10.0
  7
ROMANS
100
AcDbAttribute
280
     0
  2
REV:
 70
     0
280
     0
  0
ATTRIB
  5
4B2296
330
4B2293
100
AcDbEntity
  8
THIN
100
AcDbText
 10
14.18958977281909
 20
0.6570000000000001
 30
0.0
 40
0.25
  1
622
 51
10.0
  7
ROMANS
100
AcDbAttribute
280
     0
  2
AS#
 70
     0
280
     0
  0
SEQEND
  5
4B2297
330
4B2293
100
AcDbEntity
  8
DIM
  0
LINE
  5
4B239E
330
4B1AC8
100
AcDbEntity
  8
10
100
AcDbLine
 10
3.206967802531533
 20
10.75472637975872
 30
0.0
 11
3.205984298954821
 21
10.75407244103771
 31
0.0
  0
LINE
  5
4B23C9
330
4B1AC8
100
AcDbEntity
  8
10
100
AcDbLine
 10
3.206967802531532
 20
17.87168741216986
 30
0.0
 11
3.20598429895482
 21
17.87234135089087
 31
0.0
  0
LINE
  5
4B30CC
330
4B1AC8
100
AcDbEntity
  8
THIN
100
AcDbLine
 10
2.710967802531453
 20
10.2367068959643
 30
0.0
 11
2.87796780253146
 21
10.2367068959643
 31
0.0
  0
LINE
  5
4B3167
330
4B1AC8
100
AcDbEntity
  8
THIN
100
AcDbLine
 10
2.805967802531461
 20
10.00784613647063
 30
0.0
 11
2.80596780253145
 21
10.0917068959643
 31
0.0
  0
CIRCLE
  5
4B316C
330
4B1AC8
100
AcDbEntity
  8
THIN
100
AcDbCircle
 10
2.80596780253145
 20
10.13651871358181
 30
0.0
 40
0.025
  0
LINE
  5
4B316D
330
4B1AC8
100
AcDbEntity
  8
THIN
100
AcDbLine
 10
2.805967802531454
 20
10.0917068959643
 30
0.0
 11
2.844824945388601
 21
10.0917068959643
 31
0.0
  0
LINE
  5
4B316E
330
4B1AC8
100
AcDbEntity
  8
THIN
100
AcDbLine
 10
2.788967802531455
 20
10.2367068959643
 30
0.0
 11
2.788967802531455
 21
10.2597068959643
 31
0.0
  0
LINE
  5
4B316F
330
4B1AC8
100
AcDbEntity
  8
THIN
100
AcDbLine
 10
2.788967802531455
 20
10.2597068959643
 30
0.0
 11
2.811967802531454
 21
10.2397068959643
 31
0.0
  0
LINE
  5
4B3170
330
4B1AC8
100
AcDbEntity
  8
THIN
100
AcDbLine
 10
2.811967802531454
 20
10.2397068959643
 30
0.0
 11
2.811967802531454
 21
10.2597068959643
 31
0.0
  0
LINE
  5
4B3171
330
4B1AC8
100
AcDbEntity
  8
THIN
100
AcDbLine
 10
2.834967802531454
 20
10.2597068959643
 30
0.0
 11
2.857967802531454
 21
10.2397068959643
 31
0.0
  0
LINE
  5
4B3172
330
4B1AC8
100
AcDbEntity
  8
THIN
100
AcDbLine
 10
2.834967802531454
 20
10.2397068959643
 30
0.0
 11
2.834967802531454
 21
10.2597068959643
 31
0.0
  0
LINE
  5
4B3173
330
4B1AC8
100
AcDbEntity
  8
THIN
100
AcDbLine
 10
2.857967802531454
 20
10.2367068959643
 30
0.0
 11
2.857967802531454
 21
10.2397068959643
 31
0.0
  0
LINE
  5
4B3174
330
4B1AC8
100
AcDbEntity
  8
THIN
100
AcDbLine
 10
2.811967802531454
 20
10.2597068959643
 30
0.0
 11
2.834967802531454
 21
10.2397068959643
 31
0.0
  0
LWPOLYLINE
  5
4B3689
330
4B1AC8
100
AcDbEntity
  8
10
100
AcDbPolyline
 90
        2
 70
     0
 43
0.0
 10
4.660478915137134
 20
18.79858918164085
 42
0.4931454260313043
 10
4.67496780253147
 20
18.77970689596434
  0
LWPOLYLINE
  5
4B36C2
330
4B1AC8
100
AcDbEntity
  8
IG
100
AcDbPolyline
 90
        2
 70
     0
 43
0.0
 10
3.206967802531532
 20
14.39399632276799
 10
3.206967802531532
 20
18.3007068959643
  0
LWPOLYLINE
  5
4B36C3
330
4B1AC8
100
AcDbEntity
  8
IG
100
AcDbPolyline
 90
        2
 70
     0
 43
0.0
 10
3.331967802531532
 20
14.3786469603577
 10
3.331967802531532
 20
18.3007068959643
  0
LWPOLYLINE
  5
4B36C4
330
4B1AC8
100
AcDbEntity
  8
DIM
100
AcDbPolyline
 90
        4
 70
     0
 43
0.0
 10
4.262889651398121
 20
14.34925542493354
 10
3.54214161525186
 20
14.43286987359962
 10
3.658927229244365
 20
14.3384980104852
 10
3.109806845707775
 20
14.4059271926753
  0
LWPOLYLINE
  5
4B36C5
330
4B1AC8
100
AcDbEntity
  8
DIM
100
AcDbPolyline
 90
        4
 70
     0
 43
0.0
 10
4.265629823357552
 20
14.22421771013992
 10
3.716558932732108
 20
14.28791578144338
 10
3.833344546724641
 20
14.19354391832896
 10
3.11259651057838
 20
14.28204810083522
  0
LWPOLYLINE
  5
4B36C8
330
4B1AC8
100
AcDbEntity
  8
THIN
100
AcDbPolyline
 90
        5
 70
     0
 43
0.0
 10
2.710967802531459
 20
9.9667068959643
 10
2.74096780253146
 20
9.9667068959643
 10
2.819967802531457
 20
10.0167068959643
 10
2.87796780253146
 20
10.1917068959643
 10
2.87796780253146
 20
10.2367068959643
  0
LWPOLYLINE
  5
4B36C9
330
4B1AC8
100
AcDbEntity
  8
THIN
100
AcDbPolyline
 90
        4
 70
     1
 43
0.0
 10
2.775967802531442
 20
10.1717068959643
 10
2.775967802531446
 20
10.13670689596429
 42
0.9999999999999701
 10
2.835967802531448
 20
10.1367068959643
 10
2.835967802531444
 20
10.1717068959643
  0
LWPOLYLINE
  5
4B36CA
330
4B1AC8
100
AcDbEntity
  8
THIN
100
AcDbPolyline
 90
        4
 70
     0
 43
0.0
 10
2.710967802531459
 20
10.2557068959643
 10
2.672967802531458
 20
10.2557068959643
 10
2.672967802531458
 20
9.9477068959643
 10
2.710967802531459
 20
9.9477068959643
  0
LWPOLYLINE
  5
4B36D0
330
4B1AC8
100
AcDbEntity
  8
IG
100
AcDbPolyline
 90
        2
 70
     0
 43
0.0
 10
3.206967802531532
 20
14.27045978754474
 10
3.206967802531532
 20
10.1757068959643
  0
LWPOLYLINE
  5
4B36D1
330
4B1AC8
100
AcDbEntity
  8
IG
100
AcDbPolyline
 90
        2
 70
     0
 43
0.0
 10
3.331967802531532
 20
14.25511042513445
 10
3.331967802531532
 20
10.1757068959643
  0
LWPOLYLINE
  5
4B36DB
330
4B1AC8
100
AcDbEntity
  8
10
100
AcDbPolyline
 90
        2
 70
     0
 43
0.0
 10
4.67496780253147
 20
9.971706895964238
 42
0.4931454260313044
 10
4.660478915137134
 20
9.952824610287727
  0
LWPOLYLINE
  5
4B370C
330
4B1AC8
100
AcDbEntity
  8
10
100
AcDbPolyline
 90
        2
 70
     0
 43
0.0
 10
11.67288274548785
 20
5.516746049044815
 42
-0.4931454260313135
 10
11.65400045981134
 20
5.531234936439137
  0
LWPOLYLINE
  5
4B3734
330
4B1AC8
100
AcDbEntity
  8
10
100
AcDbPolyline
 90
        7
 70
     0
 43
0.0
 10
5.327118174134731
 20
5.516746049044787
 10
5.266882745487855
 20
5.532886083506515
 42
0.4931454260309855
 10
5.248000459811343
 20
5.518397196112164
 10
5.248000459811343
 20
4.980234936439149
 42
0.4142135623732336
 10
5.26300045981133
 20
4.965234936439163
 10
5.331000459811313
 20
4.965234936439163
 42
0.414213562373234
 10
5.3460004598113
 20
4.980234936439149
  0
LWPOLYLINE
  5
4B373C
330
4B1AC8
100
AcDbEntity
  8
10
100
AcDbPolyline
 90
        2
 70
     0
 43
0.0
 10
5.346000459811243
 20
5.531234936439137
 42
-0.4931454260313135
 10
5.327118174134731
 20
5.516746049044815
  0
LWPOLYLINE
  5
4B375C
330
4B1AC8
100
AcDbEntity
  8
DIM
100
AcDbPolyline
 90
        4
 70
     0
 43
0.0
 10
8.489243045362961
 20
5.119156785305762
 10
8.405628596696878
 20
4.398408749159528
 10
8.500000459811296
 20
4.515194363152005
 10
8.4325712776212
 20
3.96607397961543
  0
LWPOLYLINE
  5
4B375D
330
4B1AC8
100
AcDbEntity
  8
DIM
100
AcDbPolyline
 90
        4
 70
     0
 43
0.0
 10
8.563698531114759
 20
5.121896957265192
 10
8.500000459811296
 20
4.572826066639748
 10
8.594372322925714
 20
4.689611680632282
 10
8.505868140419458
 20
3.968863644486049
  0
LWPOLYLINE
  5
4B3760
330
4B1AC8
100
AcDbEntity
  8
IG
100
AcDbPolyline
 90
        4
 70
     0
 43
0.0
 10
8.517456453709932
 20
4.063234936439187
 10
11.28125045981125
 20
4.063234936439187
 10
11.28125045981125
 20
4.188234936439187
 10
8.532805816120223
 20
4.188234936439187
  0
LINE
  5
4B3824
330
4B1AC8
100
AcDbEntity
  8
THIN
100
AcDbLine
 10
5.3460004598113
 20
4.980234936439149
 30
0.0
 11
5.3460004598113
 21
5.122734936439133
 31
0.0
  0
INSERT
  5
4B3835
330
4B1AC8
100
AcDbEntity
  8
THIN
100
AcDbBlockReference
  2
Glazing Bead
 10
11.45000045981135
 20
4.93823493643911
 30
0.0
 41
-1.0
 50
90.0
1001
MTVPROFILELINK
1002
{
1000
#BlockRef=13b2f151-0x4b1c-4f74-A1E9-79DCC11120FF|
1002
}
1005
AA
  0
INSERT
  5
4B3837
330
4B1AC8
100
AcDbEntity
  8
THIN
100
AcDbBlockReference
  2
Glazing Bead
 10
5.550000459811277
 20
4.93823493643911
 30
0.0
 50
270.0
1001
MTVPROFILELINK
1002
{
1000
#BlockRef=13b2f151-0x4b1c-4f74-A1E9-79DCC11120FF| 
1002
}
1005
0
  0
INSERT
  5
4B3838
330
4B1AC8
100
AcDbEntity
  8
THIN
100
AcDbBlockReference
  2
Glazing Bead
 10
4.08196780253143
 20
10.1757068959642
 30
0.0
 41
-1.0
1001
MTVPROFILELINK
1002
{
1000
#BlockRef=13b2f151-0x4b1c-4f74-A1E9-79DCC11120FF| 
1002
}
1005
0
  0
INSERT
  5
4B383A
330
4B1AC8
100
AcDbEntity
  8
THIN
100
AcDbBlockReference
  2
Glazing Bead
 10
4.08196780253143
 20
18.57570689596435
 30
0.0
 50
180.0
1001
MTVPROFILELINK
1002
{
1000
#BlockRef=13b2f151-0x4b1c-4f74-A1E9-79DCC11120FF| 
1002
}
1005
0
  0
LINE
  5
4B3858
330
4B1AC8
100
AcDbEntity
  8
IG
100
AcDbLine
 10
5.718750459811274
 20
4.063234936439187
 30
0.0
 11
5.718750459811274
 21
4.188234936439187
 31
0.0
  0
LINE
  5
4B3860
330
4B1AC8
100
AcDbEntity
  8
IG
100
AcDbLine
 10
5.718750459811274
 20
4.938234936439213
 30
0.0
 11
5.718750459811274
 21
4.813234936439215
 31
0.0
  0
LINE
  5
4B3866
330
4B1AC8
100
AcDbEntity
  8
IG
100
AcDbLine
 10
11.28125045981125
 20
4.938234936439213
 30
0.0
 11
11.28125045981125
 21
4.813234936439213
 31
0.0
  0
INSERT
  5
4B3885
330
4B1AC8
100
AcDbEntity
  8
THIN
100
AcDbBlockReference
  2
Reinforced Bytyl Spacer
 10
5.718750459811274
 20
4.188234936439187
 30
0.0
 41
-1.0
 50
180.0
1001
MTVPROFILELINK
1002
{
1000
#BlockRef=5294f65e-0x2a6f-49f8-9DBD-D9FC677B36F6|
1002
}
1005
AA
  0
INSERT
  5
4B3887
330
4B1AC8
100
AcDbEntity
  8
THIN
100
AcDbBlockReference
  2
Reinforced Bytyl Spacer
 10
11.28125045981125
 20
4.188234936439187
 30
0.0
 50
180.0
1001
MTVPROFILELINK
1002
{
1000
#BlockRef=5294f65e-0x2a6f-49f8-9DBD-D9FC677B36F6| 
1002
}
1005
0
  0
INSERT
  5
4B3891
330
4B1AC8
100
AcDbEntity
  8
THIN
100
AcDbBlockReference
  2
Weather Seal
 10
10.97845752549146
 20
3.961234936439144
 30
0.0
 41
-1.0
 50
180.0
1001
MTVPROFILELINK
1002
{
1000
#BlockRef=dbadb4fc-0xc76d-43c6-BEA3-0F179EB77B8A|
1002
}
1005
AA
  0
INSERT
  5
4B3893
330
4B1AC8
100
AcDbEntity
  8
THIN
100
AcDbBlockReference
  2
Weather Seal
 10
6.021543394131141
 20
3.961234936439312
 30
0.0
 50
180.0
1001
MTVPROFILELINK
1002
{
1000
#BlockRef=dbadb4fc-0xc76d-43c6-BEA3-0F179EB77B8A| 
1002
}
1005
0
  0
INSERT
  5
4B389F
330
4B1AC8
100
AcDbEntity
  8
THIN
100
AcDbBlockReference
  2
Silicon Horizontal Small
 10
5.718750459811274
 20
4.063234936439187
 30
0.0
 41
-1.0
 50
180.0
1001
MTVPROFILELINK
1002
{
1000
#BlockRef=2700c0d9-0xb1e-4ead-828B-0BE682CF338B|
1002
}
1005
AA
  0
INSERT
  5
4B38A1
330
4B1AC8
100
AcDbEntity
  8
THIN
100
AcDbBlockReference
  2
Silicon Horizontal Small
 10
11.28125045981125
 20
4.063234936439187
 30
0.0
 50
180.0
1001
MTVPROFILELINK
1002
{
1000
#BlockRef=2700c0d9-0xb1e-4ead-828B-0BE682CF338B| 
1002
}
1005
0
  0
INSERT
  5
4B38A3
330
4B1AC8
100
AcDbEntity
  8
THIN
100
AcDbBlockReference
  2
Weather Seal
 10
3.104967802531444
 20
10.64724983028395
 30
0.0
 41
-1.0
 50
90.0
1001
MTVPROFILELINK
1002
{
1000
#BlockRef=dbadb4fc-0xc76d-43c6-BEA3-0F179EB77B8A| 
1002
}
1005
0
  0
INSERT
  5
4B38A4
330
4B1AC8
100
AcDbEntity
  8
THIN
100
AcDbBlockReference
  2
Weather Seal
 10
3.104967802531462
 20
18.10416396164443
 30
0.0
 50
90.0
1001
MTVPROFILELINK
1002
{
1000
#BlockRef=dbadb4fc-0xc76d-43c6-BEA3-0F179EB77B8A| 
1002
}
1005
0
  0
LINE
  5
4B38B1
330
4B1AC8
100
AcDbEntity
  8
IG
100
AcDbLine
 10
4.081967802531546
 20
10.1757068959643
 30
0.0
 11
3.956967802531546
 21
10.1757068959643
 31
0.0
  0
LINE
  5
4B38B7
330
4B1AC8
100
AcDbEntity
  8
IG
100
AcDbLine
 10
3.206967802531532
 20
10.1757068959643
 30
0.0
 11
3.331967802531532
 21
10.1757068959643
 31
0.0
  0
LINE
  5
4B38BD
330
4B1AC8
100
AcDbEntity
  8
IG
100
AcDbLine
 10
3.206967802531532
 20
18.3007068959643
 30
0.0
 11
3.331967802531532
 21
18.3007068959643
 31
0.0
  0
LINE
  5
4B38C3
330
4B1AC8
100
AcDbEntity
  8
IG
100
AcDbLine
 10
4.081967802531546
 20
18.3007068959643
 30
0.0
 11
3.956967802531546
 21
18.3007068959643
 31
0.0
  0
INSERT
  5
4B38C6
330
4B1AC8
100
AcDbEntity
  8
THIN
100
AcDbBlockReference
  2
Reinforced Bytyl Spacer
 10
3.331967802531533
 20
10.1757068959643
 30
0.0
 50
90.0
1001
MTVPROFILELINK
1002
{
1000
#BlockRef=5294f65e-0x2a6f-49f8-9DBD-D9FC677B36F6| 
1002
}
1005
0
  0
INSERT
  5
4B38C7
330
4B1AC8
100
AcDbEntity
  8
THIN
100
AcDbBlockReference
  2
Reinforced Bytyl Spacer
 10
3.331967802531518
 20
18.30070689596434
 30
0.0
 41
-1.0
 50
90.0
1001
MTVPROFILELINK
1002
{
1000
#BlockRef=5294f65e-0x2a6f-49f8-9DBD-D9FC677B36F6| 
1002
}
1005
0
  0
INSERT
  5
4B38D4
330
4B1AC8
100
AcDbEntity
  8
THIN
100
AcDbBlockReference
  2
Silicon Vertical Bottom
 10
3.206967802531532
 20
10.1757068959643
 30
0.0
1001
MTVPROFILELINK
1002
{
1000
#BlockRef=43cfe8ea-0x622d-4913-95E0-B1FCB226BC51|
1002
}
1005
AA
  0
INSERT
  5
4B38E0
330
4B1AC8
100
AcDbEntity
  8
THIN
100
AcDbBlockReference
  2
Silicon Small Vertical Top
 10
3.206967802531532
 20
18.3007068959643
 30
0.0
 41
-1.0
1001
MTVPROFILELINK
1002
{
1000
#BlockRef=dd5988cd-0xe1ef-42b2-8E76-4BD449D000C6|
1002
}
1005
AA
  0
LWPOLYLINE
  5
4B392A
330
4B1AC8
100
AcDbEntity
  8
THIN
100
AcDbPolyline
 90
        8
 70
     1
 43
0.0
 10
4.613000459811329
 20
5.497234936439133
 10
5.135000459811335
 20
5.497234936439129
 42
-0.4142135623730857
 10
5.150000459811336
 20
5.482234936439128
 10
5.150000459811336
 20
4.962234936439135
 42
-0.4142135623730953
 10
5.135000459811335
 20
4.947234936439135
 10
4.613000459811372
 20
4.947234936439135
 42
-0.4142135623730839
 10
4.598000459811371
 20
4.962234936439135
 10
4.598000459811329
 20
5.482234936439132
 42
-0.4142135623731205
  0
LWPOLYLINE
  5
4B392B
330
4B1AC8
100
AcDbEntity
  8
THIN
100
AcDbPolyline
 90
        8
 70
     1
 43
0.0
 10
4.598000459811342
 20
3.648234936439184
 42
0.4142135623730951
 10
4.613000459811343
 20
3.633234936439183
 10
5.232000459811348
 20
3.633234936439141
 42
0.4142135623731151
 10
5.247000459811348
 20
3.648234936439141
 10
5.247000459811348
 20
3.866234936439144
 42
0.4142135623729563
 10
5.232000459811334
 20
3.881234936439152
 10
4.613000459811329
 20
3.88123493643913
 42
0.4142135623732337
 10
4.598000459811343
 20
3.86623493643913
  0
LWPOLYLINE
  5
4B392F
330
4B1AC8
100
AcDbEntity
  8
THIN
100
AcDbPolyline
 90
       12
 70
     1
 43
0.0
 10
5.027000459811359
 20
5.792234936439131
 10
5.23300045981132
 20
5.79223493643912
 42
-0.4142135623730906
 10
5.24800045981132
 20
5.77723493643912
 10
5.248000459811335
 20
5.659234936439128
 42
-0.4142135623731157
 10
5.233000459811334
 20
5.644234936439127
 10
5.16500045981135
 20
5.644234936439131
 42
0.4142135623730701
 10
5.15000045981135
 20
5.62923493643913
 10
5.150000459811336
 20
5.592234936439138
 42
-0.414213562373009
 10
5.135000459811335
 20
5.577234936439141
 10
5.027000459811317
 20
5.57723493643913
 42
-0.4142135623731397
 10
5.012000459811316
 20
5.592234936439131
 10
5.012000459811359
 20
5.77723493643913
 42
-0.4142135623730836
  0
LWPOLYLINE
  5
4B3930
330
4B1AC8
100
AcDbEntity
  8
THIN
100
AcDbPolyline
 90
        8
 70
     1
 43
0.0
 10
5.342000459811336
 20
3.833234936439118
 42
0.4142135623730984
 10
5.327000459811335
 20
3.818234936439117
 10
5.327000459811335
 20
3.680234936439126
 42
0.4142135623730951
 10
5.342000459811336
 20
3.665234936439126
 10
5.930720528351844
 20
3.665234936439158
 42
0.3394542588633731
 10
5.94520941574618
 20
3.676352650762619
 10
5.98218640430168
 20
3.814352650762617
 42
0.4931454260313063
 10
5.967697516907344
 20
3.833234936439157
  0
LWPOLYLINE
  5
4B3931
330
4B1AC8
100
AcDbEntity
  8
THIN
100
AcDbPolyline
 90
        8
 70
     1
 43
0.0
 10
4.988391205695875
 20
2.744164384078308
 42
-0.3394542588634429
 10
4.980663799085561
 20
2.738234936439125
 10
4.968000459811348
 20
2.738234936439125
 42
-0.4142135623729975
 10
4.960000459811353
 20
2.746234936439128
 10
4.960000459811324
 20
3.53823493643918
 42
-0.4142135623731549
 10
4.975000459811327
 20
3.553234936439181
 10
5.185632626228149
 20
3.553234936439145
 42
-0.4931454260312531
 10
5.200121513622482
 20
3.534352650762608
  0
LWPOLYLINE
  5
4B3932
330
4B1AC8
100
AcDbEntity
  8
THIN
100
AcDbPolyline
 90
       12
 70
     1
 43
0.0
 10
5.315846980296725
 20
4.210666184882374
 42
0.3401424000459158
 10
5.327000459811357
 20
4.225164608250302
 10
5.327000459811342
 20
4.852234936439129
 42
0.4142135623730951
 10
5.312000459811342
 20
4.86723493643913
 10
4.613000459811344
 20
4.867234936439134
 42
0.4142135623730951
 10
4.598000459811343
 20
4.852234936439133
 10
4.598000459811329
 20
3.976234936439118
 42
0.4142135623730951
 10
4.613000459811329
 20
3.961234936439117
 10
5.214000459811343
 20
3.961234936439117
 42
0.4142135623731213
 10
5.229000459811342
 20
3.976234936439118
 10
5.229000459811315
 20
4.176085934318122
 42
-0.3401424000459496
 10
5.240153939325947
 20
4.19058435768605
  0
LWPOLYLINE
  5
4B3934
330
4B1AC8
100
AcDbEntity
  8
THIN
100
AcDbPolyline
 90
       65
 70
     1
 43
0.0
 10
5.3270004598113
 20
4.100695599473022
 10
5.327000459811317
 20
3.946234936439108
 42
0.4142135623730864
 10
5.342000459811319
 20
3.93123493643911
 10
6.013504918358211
 20
3.931234936439149
 10
6.021543394131143
 20
3.961234936439143
 10
6.123000459811331
 20
3.961234936439143
 10
6.029344408292072
 20
3.611705793733014
 42
-0.3394542588633526
 10
5.971388858714732
 20
3.567234936439167
 10
5.321899266014665
 20
3.56723493643912
 42
0.3394542588633642
 10
5.30741037862033
 20
3.556117222115657
 10
5.073916390109929
 20
2.68470579373294
 42
-0.3394542588634112
 10
5.015960840532577
 20
2.640234936439092
 10
4.315000459811342
 20
2.640234936439183
 42
-0.4142135623730951
 10
4.300000459811341
 20
2.655234936439184
 10
4.300000459811343
 20
2.710234936439118
 42
-0.4142135623730688
 10
4.330000459811341
 20
2.740234936439118
 10
4.390000459811348
 20
2.740234936439123
 42
-0.41421356237303
 10
4.398000459811347
 20
2.732234936439122
 10
4.398000459811353
 20
2.708234936439144
 42
0.4142135623729325
 10
4.40600045981135
 20
2.70023493643915
 10
4.428981221924878
 20
2.700234936439136
 42
0.131652497587552
 10
4.436481221924887
 20
2.70224455538237
 10
4.495337628385454
 20
2.736225317495912
 42
-0.131652497587376
 10
4.502837628385452
 20
2.738234936439148
 10
4.847000459811339
 20
2.738234936439182
 42
0.4142135623732339
 10
4.862000459811326
 20
2.753234936439183
 10
4.862000459811339
 20
3.538234936439165
 42
0.4142135623730951
 10
4.847000459811338
 20
3.553234936439165
 10
3.29500045981136
 20
3.553234936439179
 42
-0.9999999999999998
 10
3.29500045981136
 20
3.633234936439191
 10
4.485000459811343
 20
3.633234936439178
 42
0.4142135623730951
 10
4.500000459811344
 20
3.648234936439179
 10
4.50000045981133
 20
5.875234936439126
 42
-0.4142135623729564
 10
4.515000459811345
 20
5.890234936439133
 10
4.682000459811346
 20
5.890234936439126
 42
-0.4142135623732338
 10
4.697000459811333
 20
5.875234936439126
 10
4.697000459811333
 20
5.807234936439128
 42
-0.4142135623732338
 10
4.682000459811346
 20
5.792234936439134
 10
4.613000459811329
 20
5.792234936439127
 42
0.4142135623732337
 10
4.598000459811343
 20
5.777234936439127
 10
4.598000459811343
 20
5.610234936439125
 42
0.4142135623732337
 10
4.613000459811329
 20
5.595234936439132
 10
4.899000459811331
 20
5.595234936439124
 42
0.4142135623729561
 10
4.914000459811346
 20
5.610234936439125
 10
4.914000459811346
 20
5.777234936439127
 42
0.4142135623729563
 10
4.899000459811331
 20
5.792234936439134
 10
4.830000459811342
 20
5.792234936439127
 42
-0.4142135623729563
 10
4.815000459811328
 20
5.807234936439128
 10
4.815000459811328
 20
5.875234936439126
 42
-0.4142135623729564
 10
4.830000459811342
 20
5.890234936439133
 10
5.286000459811334
 20
5.89023493643913
 42
-0.4142135623730864
 10
5.346000459811333
 20
5.83023493643913
 10
5.346000459811333
 20
5.531234936439146
 42
-0.4931454260309717
 10
5.327118174134794
 20
5.516746049044796
 10
5.266882745487889
 20
5.532886083506495
 42
0.4931454260309717
 10
5.248000459811349
 20
5.518397196112145
 10
5.248000459811349
 20
4.98023493643913
 42
0.414213562373234
 10
5.263000459811335
 20
4.965234936439129
 10
5.331000459811347
 20
4.965234936439129
 42
0.4142135623732339
 10
5.346000459811333
 20
4.98023493643913
 10
5.346000459811333
 20
5.122734936439128
 42
-0.9999999999999998
 10
5.425000459811341
 20
5.122734936439128
 10
5.42500045981134
 20
4.1497742734052
 42
-0.3401424000459107
 10
5.413846980296708
 20
4.135275850037273
 10
5.338153939325933
 20
4.115194022840951
 42
0.3401424000459436
  0
ARC
  5
4B3935
330
4B1AC8
100
AcDbEntity
  8
10
100
AcDbCircle
 10
4.59800045981135
 20
5.222234936439133
 30
0.0
 40
0.015
100
AcDbArc
 50
270.0
 51
90.00000000000003
  0
ARC
  5
4B3941
330
4B1AC8
100
AcDbEntity
  8
10
100
AcDbCircle
 10
4.59800045981135
 20
5.222234936439133
 30
0.0
 40
0.015
100
AcDbArc
 50
270.0
 51
90.00000000000003
  0
LWPOLYLINE
  5
4B3943
330
4B1AC8
100
AcDbEntity
  8
THIN
100
AcDbPolyline
 90
        8
 70
     1
 43
0.0
 10
12.38700045981128
 20
5.497234936439133
 10
11.86500045981127
 20
5.49723493643913
 42
0.4142135623730857
 10
11.85000045981127
 20
5.482234936439129
 10
11.85000045981127
 20
4.962234936439136
 42
0.4142135623730953
 10
11.86500045981127
 20
4.947234936439135
 10
12.38700045981123
 20
4.947234936439135
 42
0.4142135623730839
 10
12.40200045981123
 20
4.962234936439136
 10
12.40200045981128
 20
5.482234936439133
 42
0.4142135623731205
  0
LWPOLYLINE
  5
4B3944
330
4B1AC8
100
AcDbEntity
  8
THIN
100
AcDbPolyline
 90
        8
 70
     1
 43
0.0
 10
12.40200045981126
 20
3.648234936439185
 42
-0.4142135623730951
 10
12.38700045981126
 20
3.633234936439184
 10
11.76800045981126
 20
3.633234936439142
 42
-0.4142135623731151
 10
11.75300045981126
 20
3.648234936439142
 10
11.75300045981126
 20
3.866234936439145
 42
-0.4142135623729563
 10
11.76800045981127
 20
3.881234936439152
 10
12.38700045981128
 20
3.881234936439131
 42
-0.4142135623732337
 10
12.40200045981126
 20
3.866234936439131
  0
LWPOLYLINE
  5
4B3945
330
4B1AC8
100
AcDbEntity
  8
THIN
100
AcDbPolyline
 90
       12
 70
     1
 43
0.0
 10
11.97300045981125
 20
5.792234936439132
 10
11.76700045981129
 20
5.792234936439121
 42
0.4142135623730906
 10
11.75200045981129
 20
5.77723493643912
 10
11.75200045981127
 20
5.659234936439129
 42
0.4142135623731157
 10
11.76700045981127
 20
5.644234936439128
 10
11.83500045981126
 20
5.644234936439132
 42
-0.4142135623730701
 10
11.85000045981126
 20
5.629234936439131
 10
11.85000045981127
 20
5.592234936439139
 42
0.414213562373009
 10
11.86500045981127
 20
5.577234936439142
 10
11.97300045981129
 20
5.577234936439131
 42
0.4142135623731397
 10
11.98800045981129
 20
5.592234936439131
 10
11.98800045981125
 20
5.777234936439131
 42
0.4142135623730836
  0
LWPOLYLINE
  5
4B3946
330
4B1AC8
100
AcDbEntity
  8
THIN
100
AcDbPolyline
 90
        8
 70
     1
 43
0.0
 10
11.65800045981127
 20
3.833234936439119
 42
-0.4142135623730984
 10
11.67300045981127
 20
3.818234936439118
 10
11.67300045981127
 20
3.680234936439127
 42
-0.4142135623730951
 10
11.65800045981127
 20
3.665234936439127
 10
11.06928039127076
 20
3.665234936439158
 42
-0.3394542588633731
 10
11.05479150387642
 20
3.67635265076262
 10
11.01781451532092
 20
3.814352650762618
 42
-0.4931454260313063
 10
11.03230340271526
 20
3.833234936439158
  0
LWPOLYLINE
  5
4B3947
330
4B1AC8
100
AcDbEntity
  8
THIN
100
AcDbPolyline
 90
        8
 70
     1
 43
0.0
 10
12.01160971392673
 20
2.744164384078309
 42
0.3394542588634429
 10
12.01933712053704
 20
2.738234936439126
 10
12.03200045981126
 20
2.738234936439126
 42
0.4142135623729975
 10
12.04000045981125
 20
2.746234936439129
 10
12.04000045981128
 20
3.538234936439181
 42
0.4142135623731549
 10
12.02500045981128
 20
3.553234936439181
 10
11.81436829339446
 20
3.553234936439146
 42
0.4931454260312531
 10
11.79987940600012
 20
3.534352650762609
  0
LWPOLYLINE
  5
4B3948
330
4B1AC8
100
AcDbEntity
  8
THIN
100
AcDbPolyline
 90
       12
 70
     1
 43
0.0
 10
11.68415393932588
 20
4.210666184882375
 42
-0.3401424000459158
 10
11.67300045981125
 20
4.225164608250302
 10
11.67300045981126
 20
4.85223493643913
 42
-0.4142135623730951
 10
11.68800045981126
 20
4.867234936439131
 10
12.38700045981126
 20
4.867234936439134
 42
-0.4142135623730951
 10
12.40200045981126
 20
4.852234936439134
 10
12.40200045981128
 20
3.976234936439118
 42
-0.4142135623730951
 10
12.38700045981128
 20
3.961234936439118
 10
11.78600045981126
 20
3.961234936439118
 42
-0.4142135623731213
 10
11.77100045981126
 20
3.976234936439118
 10
11.77100045981129
 20
4.176085934318122
 42
0.3401424000459496
 10
11.75984698029666
 20
4.190584357686051
  0
LWPOLYLINE
  5
4B394A
330
4B1AC8
100
AcDbEntity
  8
THIN
100
AcDbPolyline
 90
       65
 70
     1
 43
0.0
 10
11.6730004598113
 20
4.100695599473023
 10
11.67300045981129
 20
3.946234936439108
 42
-0.4142135623730864
 10
11.65800045981129
 20
3.931234936439111
 10
10.98649600126439
 20
3.93123493643915
 10
10.97845752549146
 20
3.961234936439144
 10
10.87700045981127
 20
3.961234936439144
 10
10.97065651133053
 20
3.611705793733015
 42
0.3394542588633526
 10
11.02861206090787
 20
3.567234936439168
 10
11.67810165360794
 20
3.56723493643912
 42
-0.3394542588633642
 10
11.69259054100228
 20
3.556117222115658
 10
11.92608452951268
 20
2.684705793732941
 42
0.3394542588634112
 10
11.98404007909003
 20
2.640234936439092
 10
12.68500045981127
 20
2.640234936439184
 42
0.4142135623730951
 10
12.70000045981127
 20
2.655234936439184
 10
12.70000045981126
 20
2.710234936439119
 42
0.4142135623730688
 10
12.67000045981127
 20
2.740234936439119
 10
12.61000045981125
 20
2.740234936439124
 42
0.41421356237303
 10
12.60200045981126
 20
2.732234936439123
 10
12.60200045981125
 20
2.708234936439144
 42
-0.4142135623729325
 10
12.59400045981126
 20
2.700234936439151
 10
12.57101969769773
 20
2.700234936439137
 42
-0.131652497587552
 10
12.56351969769772
 20
2.702244555382371
 10
12.50466329123715
 20
2.736225317495913
 42
0.131652497587376
 10
12.49716329123715
 20
2.738234936439149
 10
12.15300045981126
 20
2.738234936439183
 42
-0.4142135623732339
 10
12.13800045981128
 20
2.753234936439183
 10
12.13800045981127
 20
3.538234936439166
 42
-0.4142135623730951
 10
12.15300045981127
 20
3.553234936439166
 10
13.70500045981124
 20
3.55323493643918
 42
0.9999999999999998
 10
13.70500045981124
 20
3.633234936439192
 10
12.51500045981126
 20
3.633234936439179
 42
-0.4142135623730951
 10
12.50000045981126
 20
3.648234936439179
 10
12.50000045981128
 20
5.875234936439126
 42
0.4142135623729564
 10
12.48500045981126
 20
5.890234936439134
 10
12.31800045981126
 20
5.890234936439127
 42
0.4142135623732338
 10
12.30300045981127
 20
5.875234936439126
 10
12.30300045981127
 20
5.807234936439129
 42
0.4142135623732338
 10
12.31800045981126
 20
5.792234936439135
 10
12.38700045981128
 20
5.792234936439128
 42
-0.4142135623732337
 10
12.40200045981126
 20
5.777234936439127
 10
12.40200045981126
 20
5.610234936439126
 42
-0.4142135623732337
 10
12.38700045981128
 20
5.595234936439132
 10
12.10100045981128
 20
5.595234936439125
 42
-0.4142135623729561
 10
12.08600045981126
 20
5.610234936439126
 10
12.08600045981126
 20
5.777234936439127
 42
-0.4142135623729563
 10
12.10100045981128
 20
5.792234936439135
 10
12.17000045981126
 20
5.792234936439128
 42
0.4142135623729563
 10
12.18500045981128
 20
5.807234936439129
 10
12.18500045981128
 20
5.875234936439126
 42
0.4142135623729564
 10
12.17000045981126
 20
5.890234936439134
 10
11.71400045981127
 20
5.890234936439131
 42
0.4142135623730864
 10
11.65400045981127
 20
5.830234936439131
 10
11.65400045981127
 20
5.531234936439147
 42
0.4931454260309717
 10
11.67288274548781
 20
5.516746049044797
 10
11.73311817413472
 20
5.532886083506496
 42
-0.4931454260309717
 10
11.75200045981126
 20
5.518397196112146
 10
11.75200045981126
 20
4.98023493643913
 42
-0.414213562373234
 10
11.73700045981127
 20
4.96523493643913
 10
11.66900045981126
 20
4.96523493643913
 42
-0.4142135623732339
 10
11.65400045981127
 20
4.98023493643913
 10
11.65400045981127
 20
5.122734936439129
 42
0.9999999999999998
 10
11.57500045981127
 20
5.122734936439129
 10
11.57500045981127
 20
4.149774273405201
 42
0.3401424000459107
 10
11.5861539393259
 20
4.135275850037274
 10
11.66184698029667
 20
4.115194022840952
 42
-0.3401424000459436
  0
ARC
  5
4B394B
330
4B1AC8
100
AcDbEntity
  8
10
100
AcDbCircle
 10
12.40200045981126
 20
5.222234936439134
 30
0.0
 40
0.015
100
AcDbArc
 50
90.00000000000003
 51
270.0
  0
ARC
  5
4B3950
330
4B1AC8
100
AcDbEntity
  8
10
100
AcDbCircle
 10
12.40200045981126
 20
5.222234936439134
 30
0.0
 40
0.015
100
AcDbArc
 50
90.00000000000003
 51
270.0
  0
LWPOLYLINE
  5
4B395C
330
4B1AC8
100
AcDbEntity
  8
THIN
100
AcDbPolyline
 90
        8
 70
     1
 43
0.0
 10
4.640967802531453
 20
19.51270689596425
 10
4.64096780253145
 20
18.99070689596424
 42
-0.4142135623730857
 10
4.625967802531449
 20
18.97570689596424
 10
4.105967802531456
 20
18.97570689596424
 42
-0.4142135623730953
 10
4.090967802531456
 20
18.99070689596424
 10
4.090967802531456
 20
19.51270689596421
 42
-0.4142135623730839
 10
4.105967802531456
 20
19.52770689596421
 10
4.625967802531453
 20
19.52770689596425
 42
-0.4142135623731205
  0
LWPOLYLINE
  5
4B395D
330
4B1AC8
100
AcDbEntity
  8
THIN
100
AcDbPolyline
 90
        8
 70
     1
 43
0.0
 10
2.791967802531506
 20
19.52770689596423
 42
0.4142135623730951
 10
2.776967802531506
 20
19.51270689596423
 10
2.776967802531463
 20
18.89370689596423
 42
0.4142135623731151
 10
2.791967802531464
 20
18.87870689596423
 10
3.009967802531464
 20
18.87870689596423
 42
0.4142135623729563
 10
3.024967802531471
 20
18.89370689596424
 10
3.02496780253145
 20
19.51270689596425
 42
0.4142135623732337
 10
3.009967802531449
 20
19.52770689596423
  0
LWPOLYLINE
  5
4B395E
330
4B1AC8
100
AcDbEntity
  8
THIN
100
AcDbPolyline
 90
       12
 70
     1
 43
0.0
 10
4.935967802531451
 20
19.09870689596422
 10
4.935967802531441
 20
18.89270689596426
 42
-0.4142135623730906
 10
4.92096780253144
 20
18.87770689596426
 10
4.802967802531449
 20
18.87770689596424
 42
-0.4142135623731157
 10
4.787967802531448
 20
18.89270689596424
 10
4.787967802531452
 20
18.96070689596423
 42
0.4142135623730701
 10
4.772967802531451
 20
18.97570689596423
 10
4.735967802531459
 20
18.97570689596424
 42
-0.414213562373009
 10
4.720967802531462
 20
18.99070689596424
 10
4.720967802531451
 20
19.09870689596426
 42
-0.4142135623731397
 10
4.735967802531452
 20
19.11370689596426
 10
4.920967802531451
 20
19.11370689596422
 42
-0.4142135623730836
  0
LWPOLYLINE
  5
4B395F
330
4B1AC8
100
AcDbEntity
  8
THIN
100
AcDbPolyline
 90
        8
 70
     1
 43
0.0
 10
2.976967802531441
 20
18.78370689596424
 42
0.4142135623730984
 10
2.96196780253144
 20
18.79870689596424
 10
2.823967802531449
 20
18.79870689596424
 42
0.4142135623730951
 10
2.808967802531449
 20
18.78370689596424
 10
2.808967802531477
 20
18.19498682742373
 42
0.3394542588633731
 10
2.820085516854939
 20
18.1804979400294
 10
2.958085516854937
 20
18.14352095147389
 42
0.4931454260313063
 10
2.976967802531476
 20
18.15800983886823
  0
LWPOLYLINE
  5
4B3960
330
4B1AC8
100
AcDbEntity
  8
THIN
100
AcDbPolyline
 90
        8
 70
     1
 43
0.0
 10
1.887897250170628
 20
19.1373161500797
 42
-0.3394542588634429
 10
1.881967802531446
 20
19.14504355669001
 10
1.881967802531446
 20
19.15770689596423
 42
-0.4142135623729975
 10
1.889967802531448
 20
19.16570689596422
 10
2.681967802531503
 20
19.16570689596425
 42
-0.4142135623731549
 10
2.696967802531504
 20
19.15070689596425
 10
2.696967802531468
 20
18.94007472954743
 42
-0.4931454260312531
 10
2.678085516854928
 20
18.9255858421531
  0
LWPOLYLINE
  5
4B3961
330
4B1AC8
100
AcDbEntity
  8
THIN
100
AcDbPolyline
 90
       12
 70
     1
 43
0.0
 10
3.354399050974696
 20
18.80986037547885
 42
0.3401424000459158
 10
3.368897474342625
 20
18.79870689596422
 10
3.99596780253145
 20
18.79870689596424
 42
0.4142135623730951
 10
4.010967802531451
 20
18.81370689596424
 10
4.010967802531454
 20
19.51270689596423
 42
0.4142135623730951
 10
3.995967802531454
 20
19.52770689596423
 10
3.119967802531438
 20
19.52770689596425
 42
0.4142135623730951
 10
3.104967802531438
 20
19.51270689596425
 10
3.104967802531438
 20
18.91170689596424
 42
0.4142135623731213
 10
3.119967802531438
 20
18.89670689596423
 10
3.319818800410442
 20
18.89670689596426
 42
-0.3401424000459496
 10
3.334317223778371
 20
18.88555341644963
  0
LWPOLYLINE
  5
4B3962
330
4B1AC8
100
AcDbEntity
  8
THIN
100
AcDbPolyline
 90
       65
 70
     1
 43
0.0
 10
3.244428465565342
 20
18.79870689596427
 10
3.08996780253143
 20
18.79870689596426
 42
0.4142135623730864
 10
3.074967802531433
 20
18.78370689596426
 10
3.074967802531468
 20
18.11220243741736
 10
3.104967802531462
 20
18.10416396164443
 10
3.104967802531462
 20
18.00270689596424
 10
2.755438659825334
 20
18.0963629474835
 42
-0.3394542588633526
 10
2.710967802531489
 20
18.15431849706084
 10
2.710967802531443
 20
18.80380808976091
 42
0.3394542588633642
 10
2.699850088207978
 20
18.81829697715525
 10
1.82843865982526
 20
19.05179096566565
 42
-0.3394542588634112
 10
1.783967802531415
 20
19.109746515243
 10
1.783967802531503
 20
19.81070689596424
 42
-0.4142135623730951
 10
1.798967802531504
 20
19.82570689596424
 10
1.85396780253144
 20
19.82570689596423
 42
-0.4142135623730688
 10
1.883967802531437
 20
19.79570689596424
 10
1.883967802531445
 20
19.73570689596423
 42
-0.41421356237303
 10
1.875967802531442
 20
19.72770689596423
 10
1.851967802531466
 20
19.72770689596422
 42
0.4142135623729325
 10
1.84396780253147
 20
19.71970689596423
 10
1.84396780253146
 20
19.6967261338507
 42
0.131652497587552
 10
1.845977421474693
 20
19.68922613385069
 10
1.879958183588233
 20
19.63036972739012
 42
-0.131652497587376
 10
1.881967802531471
 20
19.62286972739012
 10
1.881967802531502
 20
19.27870689596424
 42
0.4142135623732339
 10
1.896967802531503
 20
19.26370689596425
 10
2.681967802531485
 20
19.26370689596424
 42
0.4142135623730951
 10
2.696967802531486
 20
19.27870689596424
 10
2.6969678025315
 20
20.83070689596421
 42
-0.9999999999999998
 10
2.776967802531513
 20
20.83070689596421
 10
2.776967802531498
 20
19.64070689596423
 42
0.4142135623730951
 10
2.791967802531499
 20
19.62570689596423
 10
5.018967802531446
 20
19.62570689596425
 42
-0.4142135623729564
 10
5.033967802531454
 20
19.61070689596423
 10
5.033967802531447
 20
19.44370689596423
 42
-0.4142135623732338
 10
5.018967802531446
 20
19.42870689596425
 10
4.950967802531448
 20
19.42870689596425
 42
-0.4142135623732338
 10
4.935967802531455
 20
19.44370689596423
 10
4.935967802531448
 20
19.51270689596425
 42
0.4142135623732337
 10
4.920967802531447
 20
19.52770689596423
 10
4.753967802531446
 20
19.52770689596423
 42
0.4142135623732337
 10
4.738967802531452
 20
19.51270689596425
 10
4.738967802531445
 20
19.22670689596425
 42
0.4142135623729561
 10
4.753967802531446
 20
19.21170689596423
 10
4.920967802531447
 20
19.21170689596423
 42
0.4142135623729563
 10
4.935967802531455
 20
19.22670689596425
 10
4.935967802531448
 20
19.29570689596424
 42
-0.4142135623729563
 10
4.950967802531448
 20
19.31070689596425
 10
5.018967802531446
 20
19.31070689596425
 42
-0.4142135623729564
 10
5.033967802531454
 20
19.29570689596424
 10
5.03396780253145
 20
18.83970689596424
 42
-0.4142135623730864
 10
4.973967802531451
 20
18.77970689596424
 10
4.674967802531466
 20
18.77970689596424
 42
-0.4931454260309717
 10
4.660478915137116
 20
18.79858918164078
 10
4.676618949598815
 20
18.85882461028769
 42
0.4931454260309717
 10
4.662130062204465
 20
18.87770689596423
 10
4.12396780253145
 20
18.87770689596423
 42
0.414213562373234
 10
4.108967802531449
 20
18.86270689596424
 10
4.108967802531449
 20
18.79470689596423
 42
0.4142135623732339
 10
4.12396780253145
 20
18.77970689596424
 10
4.266467802531448
 20
18.77970689596424
 42
-0.9999999999999998
 10
4.266467802531448
 20
18.70070689596424
 10
3.293507139497521
 20
18.70070689596424
 42
-0.3401424000459107
 10
3.279008716129596
 20
18.71186037547887
 10
3.258926888933271
 20
18.78755341644964
 42
0.3401424000459436
  0
ARC
  5
4B3963
330
4B1AC8
100
AcDbEntity
  8
10
100
AcDbCircle
 10
4.365967802531454
 20
19.52770689596423
 30
0.0
 40
0.015
100
AcDbArc
 50
180.0
 51
0.0
  0
ARC
  5
4B3967
330
4B1AC8
100
AcDbEntity
  8
10
100
AcDbCircle
 10
4.365967802531454
 20
19.52770689596423
 30
0.0
 40
0.015
100
AcDbArc
 50
180.0
 51
0.0
  0
LWPOLYLINE
  5
4B3968
330
4B1AC8
100
AcDbEntity
  8
THIN
100
AcDbPolyline
 90
        8
 70
     1
 43
0.0
 10
4.640967802531434
 20
9.238706895964133
 10
4.640967802531431
 20
9.760706895964139
 42
0.4142135623730857
 10
4.62596780253143
 20
9.775706895964139
 10
4.105967802531438
 20
9.775706895964139
 42
0.4142135623730953
 10
4.090967802531437
 20
9.760706895964139
 10
4.090967802531437
 20
9.238706895964176
 42
0.4142135623730839
 10
4.105967802531438
 20
9.223706895964175
 10
4.625967802531434
 20
9.223706895964133
 42
0.4142135623731205
  0
LWPOLYLINE
  5
4B3969
330
4B1AC8
100
AcDbEntity
  8
THIN
100
AcDbPolyline
 90
        8
 70
     1
 43
0.0
 10
2.791967802531488
 20
9.223706895964147
 42
-0.4142135623730951
 10
2.776967802531487
 20
9.238706895964147
 10
2.776967802531444
 20
9.857706895964154
 42
-0.4142135623731151
 10
2.791967802531445
 20
9.872706895964155
 10
3.009967802531445
 20
9.872706895964155
 42
-0.4142135623729563
 10
3.024967802531453
 20
9.85770689596414
 10
3.024967802531431
 20
9.238706895964133
 42
-0.4142135623732337
 10
3.009967802531431
 20
9.223706895964147
  0
LWPOLYLINE
  5
4B396A
330
4B1AC8
100
AcDbEntity
  8
THIN
100
AcDbPolyline
 90
       12
 70
     1
 43
0.0
 10
4.935967802531433
 20
9.652706895964163
 10
4.935967802531422
 20
9.858706895964123
 42
0.4142135623730906
 10
4.920967802531421
 20
9.873706895964124
 10
4.80296780253143
 20
9.873706895964138
 42
0.4142135623731157
 10
4.787967802531429
 20
9.858706895964138
 10
4.787967802531433
 20
9.790706895964154
 42
-0.4142135623730701
 10
4.772967802531432
 20
9.775706895964153
 10
4.73596780253144
 20
9.775706895964139
 42
0.414213562373009
 10
4.720967802531443
 20
9.760706895964139
 10
4.720967802531433
 20
9.65270689596412
 42
0.4142135623731397
 10
4.735967802531433
 20
9.63770689596412
 10
4.920967802531432
 20
9.637706895964162
 42
0.4142135623730836
  0
LWPOLYLINE
  5
4B396B
330
4B1AC8
100
AcDbEntity
  8
THIN
100
AcDbPolyline
 90
        8
 70
     1
 43
0.0
 10
2.976967802531422
 20
9.967706895964139
 42
-0.4142135623730984
 10
2.961967802531422
 20
9.952706895964139
 10
2.823967802531431
 20
9.952706895964139
 42
-0.4142135623730951
 10
2.80896780253143
 20
9.967706895964139
 10
2.808967802531459
 20
10.55642696450465
 42
-0.3394542588633731
 10
2.82008551685492
 20
10.57091585189898
 10
2.958085516854918
 20
10.60789284045449
 42
-0.4931454260313063
 10
2.976967802531458
 20
10.59340395306015
  0
LWPOLYLINE
  5
4B396C
330
4B1AC8
100
AcDbEntity
  8
THIN
100
AcDbPolyline
 90
        8
 70
     1
 43
0.0
 10
1.88789725017061
 20
9.614097641848681
 42
0.3394542588634429
 10
1.881967802531427
 20
9.606370235238367
 10
1.881967802531427
 20
9.593706895964155
 42
0.4142135623729975
 10
1.88996780253143
 20
9.585706895964159
 10
2.681967802531485
 20
9.585706895964127
 42
0.4142135623731549
 10
2.696967802531485
 20
9.600706895964131
 10
2.69696780253145
 20
9.811339062380953
 42
0.4931454260312531
 10
2.67808551685491
 20
9.825827949775286
  0
LWPOLYLINE
  5
4B396D
330
4B1AC8
100
AcDbEntity
  8
THIN
100
AcDbPolyline
 90
       12
 70
     1
 43
0.0
 10
3.354399050974677
 20
9.941553416449531
 42
-0.3401424000459158
 10
3.368897474342606
 20
9.952706895964164
 10
3.995967802531431
 20
9.952706895964146
 42
-0.4142135623730951
 10
4.010967802531432
 20
9.937706895964145
 10
4.010967802531435
 20
9.238706895964147
 42
-0.4142135623730951
 10
3.995967802531435
 20
9.223706895964147
 10
3.119967802531419
 20
9.223706895964133
 42
-0.4142135623730951
 10
3.104967802531419
 20
9.238706895964133
 10
3.104967802531419
 20
9.839706895964146
 42
-0.4142135623731213
 10
3.119967802531419
 20
9.854706895964147
 10
3.319818800410423
 20
9.854706895964119
 42
0.3401424000459496
 10
3.334317223778352
 20
9.865860375478751
  0
LWPOLYLINE
  5
4B396E
330
4B1AC8
100
AcDbEntity
  8
THIN
100
AcDbPolyline
 90
       65
 70
     1
 43
0.0
 10
3.244428465565324
 20
9.952706895964107
 10
3.089967802531411
 20
9.952706895964125
 42
-0.4142135623730864
 10
3.074967802531414
 20
9.967706895964125
 10
3.07496780253145
 20
10.63921135451102
 10
3.104967802531444
 20
10.64724983028395
 10
3.104967802531444
 20
10.74870689596414
 10
2.755438659825315
 20
10.65505084444487
 42
0.3394542588633526
 10
2.71096780253147
 20
10.59709529486754
 10
2.710967802531424
 20
9.94760570216747
 42
-0.3394542588633642
 10
2.699850088207959
 20
9.933116814773134
 10
1.828438659825241
 20
9.699622826262734
 42
0.3394542588634112
 10
1.783967802531396
 20
9.641667276685383
 10
1.783967802531485
 20
8.940706895964146
 42
0.4142135623730951
 10
1.798967802531485
 20
8.925706895964145
 10
1.853967802531421
 20
8.925706895964149
 42
0.4142135623730688
 10
1.883967802531419
 20
8.955706895964146
 10
1.883967802531426
 20
9.015706895964155
 42
0.41421356237303
 10
1.875967802531423
 20
9.023706895964151
 10
1.851967802531447
 20
9.023706895964158
 42
-0.4142135623729325
 10
1.843967802531452
 20
9.031706895964154
 10
1.843967802531441
 20
9.054687658077684
 42
-0.131652497587552
 10
1.845977421474675
 20
9.062187658077695
 10
1.879958183588215
 20
9.121044064538258
 42
0.131652497587376
 10
1.881967802531452
 20
9.128544064538258
 10
1.881967802531484
 20
9.472706895964146
 42
-0.4142135623732339
 10
1.896967802531484
 20
9.487706895964132
 10
2.681967802531467
 20
9.487706895964143
 42
-0.4142135623730951
 10
2.696967802531467
 20
9.472706895964142
 10
2.696967802531482
 20
7.920706895964167
 42
0.9999999999999998
 10
2.776967802531494
 20
7.920706895964167
 10
2.77696780253148
 20
9.110706895964147
 42
-0.4142135623730951
 10
2.79196780253148
 20
9.125706895964148
 10
5.018967802531427
 20
9.125706895964134
 42
0.4142135623729564
 10
5.033967802531435
 20
9.140706895964148
 10
5.033967802531428
 20
9.30770689596415
 42
0.4142135623732338
 10
5.018967802531427
 20
9.322706895964136
 10
4.95096780253143
 20
9.322706895964136
 42
0.4142135623732338
 10
4.935967802531436
 20
9.30770689596415
 10
4.935967802531429
 20
9.238706895964133
 42
-0.4142135623732337
 10
4.920967802531428
 20
9.223706895964147
 10
4.753967802531427
 20
9.223706895964147
 42
-0.4142135623732337
 10
4.738967802531433
 20
9.238706895964133
 10
4.738967802531426
 20
9.524706895964135
 42
-0.4142135623729561
 10
4.753967802531427
 20
9.539706895964149
 10
4.920967802531428
 20
9.539706895964149
 42
-0.4142135623729563
 10
4.935967802531436
 20
9.524706895964135
 10
4.935967802531429
 20
9.455706895964146
 42
0.4142135623729563
 10
4.95096780253143
 20
9.440706895964131
 10
5.018967802531427
 20
9.440706895964131
 42
0.4142135623729564
 10
5.033967802531435
 20
9.455706895964146
 10
5.033967802531432
 20
9.911706895964139
 42
0.4142135623730864
 10
4.973967802531433
 20
9.971706895964137
 10
4.674967802531448
 20
9.971706895964137
 42
0.4931454260309717
 10
4.660478915137097
 20
9.952824610287597
 10
4.676618949598797
 20
9.892589181640692
 42
-0.4931454260309717
 10
4.662130062204447
 20
9.873706895964152
 10
4.123967802531431
 20
9.873706895964152
 42
-0.414213562373234
 10
4.108967802531431
 20
9.888706895964139
 10
4.108967802531431
 20
9.956706895964151
 42
-0.4142135623732339
 10
4.123967802531431
 20
9.971706895964137
 10
4.26646780253143
 20
9.971706895964137
 42
0.9999999999999998
 10
4.26646780253143
 20
10.05070689596414
 10
3.293507139497503
 20
10.05070689596414
 42
0.3401424000459107
 10
3.279008716129578
 20
10.03955341644951
 10
3.258926888933252
 20
9.96386037547874
 42
-0.3401424000459436
  0
ARC
  5
4B396F
330
4B1AC8
100
AcDbEntity
  8
10
100
AcDbCircle
 10
4.365967802531436
 20
9.223706895964154
 30
0.0
 40
0.015
100
AcDbArc
 50
0.0
 51
180.0
  0
ARC
  5
4B3973
330
4B1AC8
100
AcDbEntity
  8
10
100
AcDbCircle
 10
4.365967802531436
 20
9.223706895964154
 30
0.0
 40
0.015
100
AcDbArc
 50
0.0
 51
180.0
  0
INSERT
  5
4B42D6
330
4B1AC8
100
AcDbEntity
  8
XTHIN
100
AcDbBlockReference
  2
AS extents block
 10
0.0000004598113037
 20
0.0000003029880986
 30
0.0
  0
LINE
  5
4B436A
330
4B1AC8
100
AcDbEntity
  8
XTHIN
100
AcDbLine
 10
7.228137531270956
 20
11.77852906855098
 30
0.0
 11
15.26366924501571
 21
11.77852906855098
 31
0.0
  0
LINE
  5
4B436C
330
4B1AC8
100
AcDbEntity
  8
XTHIN
100
AcDbLine
 10
7.46066891720234
 20
11.98752906855098
 30
0.0
 11
15.03113785908432
 21
11.98752906855098
 31
0.0
  0
LINE
  5
4B436E
330
4B1AC8
100
AcDbEntity
  8
XTHIN
100
AcDbLine
 10
7.628110667203443
 20
12.13802628255098
 30
0.0
 11
14.86369610908322
 21
12.13802628255098
 31
0.0
  0
LINE
  5
4B4370
330
4B1AC8
100
AcDbEntity
  8
XTHIN
100
AcDbLine
 10
7.686027964879666
 20
12.19008254655098
 30
0.0
 11
14.805778811407
 21
12.19008254655097
 31
0.0
  0
LINE
  5
4B4372
330
4B1AC8
100
AcDbEntity
  8
XTHIN
100
AcDbLine
 10
7.840710668780744
 20
12.32911188655098
 30
0.0
 11
14.65109610750592
 21
12.32911188655098
 31
0.0
  0
LINE
  5
4B4374
330
4B1AC8
100
AcDbEntity
  8
XTHIN
100
AcDbLine
 10
7.866319365889637
 20
12.35212907055098
 30
0.0
 11
14.62548741039702
 21
12.35212907055098
 31
0.0
  0
LINE
  5
4B4376
330
4B1AC8
100
AcDbEntity
  8
XTHIN
100
AcDbLine
 10
7.89912188537249
 20
12.38161208655098
 30
0.0
 11
14.59268489091417
 21
12.38161208655097
 31
0.0
  0
LINE
  5
4B4377
330
4B1AC8
100
AcDbEntity
  8
XTHIN
100
AcDbLine
 10
7.228137531270956
 20
11.77852906855098
 30
0.0
 11
7.89912188537249
 21
12.38161208655098
 31
0.0
  0
CIRCLE
  5
4B4378
330
4B1AC8
100
AcDbEntity
  8
DIM
100
AcDbCircle
 10
6.739897377035404
 20
13.10239765738407
 30
0.0
 40
0.24
  0
TEXT
  5
4B4379
330
4B1AC8
100
AcDbEntity
  8
DIM
100
AcDbText
 10
6.673230710368738
 20
13.00239765738407
 30
0.0
 40
0.2
  1
3
 51
10.0
  7
SIMPLEX
 72
     1
 11
6.739897377035404
 21
13.10239765738407
 31
0.0
100
AcDbText
 73
     2
  0
LINE
  5
4B437A
330
4B1AC8
100
AcDbEntity
  8
DIM
100
AcDbLine
 10
6.979897377035413
 20
13.10239765738407
 30
0.0
 11
8.548814839701819
 21
13.10239765738406
 31
0.0
  0
LINE
  5
4B437B
330
4B1AC8
100
AcDbEntity
  8
XTHIN
100
AcDbLine
 10
8.160668917202343
 20
12.21832906855099
 30
0.0
 11
8.340668917202364
 21
12.21832906855099
 31
0.0
  0
LINE
  5
4B437C
330
4B1AC8
100
AcDbEntity
  8
XTHIN
100
AcDbLine
 10
8.160668917202343
 20
12.22232906855099
 30
0.0
 11
8.340668917202364
 21
12.22232906855099
 31
0.0
  0
LINE
  5
4B437D
330
4B1AC8
100
AcDbEntity
  8
XTHIN
100
AcDbLine
 10
8.160668917202343
 20
12.22992906855099
 30
0.0
 11
8.340668917202364
 21
12.22992906855099
 31
0.0
  0
LINE
  5
4B437E
330
4B1AC8
100
AcDbEntity
  8
XTHIN
100
AcDbLine
 10
8.160668917202343
 20
12.23632906855097
 30
0.0
 11
8.340668917202364
 21
12.23632906855097
 31
0.0
  0
LINE
  5
4B437F
330
4B1AC8
100
AcDbEntity
  8
XTHIN
100
AcDbLine
 10
8.160668917202343
 20
12.19592906855097
 30
0.0
 11
8.340668917202364
 21
12.19592906855097
 31
0.0
  0
LINE
  5
4B4380
330
4B1AC8
100
AcDbEntity
  8
XTHIN
100
AcDbLine
 10
8.151068917202337
 20
12.25032906855096
 30
0.0
 11
8.350268917202342
 21
12.25032906855096
 31
0.0
  0
LINE
  5
4B4381
330
4B1AC8
100
AcDbEntity
  8
XTHIN
100
AcDbLine
 10
8.151068917202337
 20
12.18832906855097
 30
0.0
 11
8.350268917202342
 21
12.18832906855097
 31
0.0
  0
LINE
  5
4B4382
330
4B1AC8
100
AcDbEntity
  8
XTHIN
100
AcDbLine
 10
8.160668917202343
 20
12.23632906855097
 30
0.0
 11
8.160668917202343
 21
12.19592906855097
 31
0.0
  0
ARC
  5
4B4383
330
4B1AC8
100
AcDbEntity
  8
XTHIN
100
AcDbCircle
 10
8.151068917202337
 20
12.21932906855097
 30
0.0
 40
0.0310000000000002
100
AcDbArc
 50
90.0
 51
270.0
  0
LINE
  5
4B4384
330
4B1AC8
100
AcDbEntity
  8
XTHIN
100
AcDbLine
 10
8.340668917202364
 20
12.23632906855097
 30
0.0
 11
8.340668917202364
 21
12.19592906855097
 31
0.0
  0
ARC
  5
4B4385
330
4B1AC8
100
AcDbEntity
  8
XTHIN
100
AcDbCircle
 10
8.250668917202332
 20
12.19592906855097
 30
0.0
 40
0.01
100
AcDbArc
 50
0.0000000000000127
 51
180.0
  0
ARC
  5
4B4386
330
4B1AC8
100
AcDbEntity
  8
XTHIN
100
AcDbCircle
 10
8.350268917202342
 20
12.21932906855097
 30
0.0
 40
0.0310000000000002
100
AcDbArc
 50
270.0
 51
89.99999999999349
  0
LINE
  5
4B4387
330
4B1AC8
100
AcDbEntity
  8
DIM
100
AcDbLine
 10
10.39890782884559
 20
12.63685393876195
 30
0.0
 11
10.39890782884559
 21
11.06793647609556
 31
0.0
  0
LINE
  5
4B4388
330
4B1AC8
100
AcDbEntity
  8
XTHIN
100
AcDbLine
 10
14.59268489091417
 20
12.38161208655097
 30
0.0
 11
15.26366924501571
 21
11.77852906855098
 31
0.0
  0
LINE
  5
4B4389
330
4B1AC8
100
AcDbEntity
  8
DIM
100
AcDbLine
 10
10.39890782884559
 20
16.10440911080825
 30
0.0
 11
10.39890782884559
 21
14.53549164814186
 31
0.0
  0
CIRCLE
  5
4B438A
330
4B1AC8
100
AcDbEntity
  8
DIM
100
AcDbCircle
 10
10.39890782884559
 20
12.87685393876195
 30
0.0
 40
0.24
  0
TEXT
  5
4B438B
330
4B1AC8
100
AcDbEntity
  8
DIM
100
AcDbText
 10
10.33224116217893
 20
12.77685393876195
 30
0.0
 40
0.2
  1
2
 51
10.0
  7
SIMPLEX
 72
     1
 11
10.39890782884559
 21
12.87685393876195
 31
0.0
100
AcDbText
 73
     2
  0
CIRCLE
  5
4B438C
330
4B1AC8
100
AcDbEntity
  8
DIM
100
AcDbCircle
 10
10.39890782884559
 20
16.34440911080825
 30
0.0
 40
0.24
  0
TEXT
  5
4B438D
330
4B1AC8
100
AcDbEntity
  8
DIM
100
AcDbText
 10
10.37509830503607
 20
16.24440911080825
 30
0.0
 40
0.2
  1
1
 51
10.0
  7
SIMPLEX
 72
     1
 11
10.39890782884559
 21
16.34440911080825
 31
0.0
100
AcDbText
 73
     2
  0
LINE
  5
4B438E
330
4B1AC8
100
AcDbEntity
  8
XTHIN
100
AcDbLine
 10
14.33113785908432
 20
12.21832906855099
 30
0.0
 11
14.15113785908429
 21
12.21832906855099
 31
0.0
  0
LINE
  5
4B438F
330
4B1AC8
100
AcDbEntity
  8
XTHIN
100
AcDbLine
 10
14.33113785908432
 20
12.22232906855099
 30
0.0
 11
14.15113785908429
 21
12.22232906855099
 31
0.0
  0
LINE
  5
4B4390
330
4B1AC8
100
AcDbEntity
  8
XTHIN
100
AcDbLine
 10
14.33113785908432
 20
12.22992906855099
 30
0.0
 11
14.15113785908429
 21
12.22992906855099
 31
0.0
  0
LINE
  5
4B4391
330
4B1AC8
100
AcDbEntity
  8
XTHIN
100
AcDbLine
 10
14.33113785908432
 20
12.23632906855097
 30
0.0
 11
14.15113785908429
 21
12.23632906855097
 31
0.0
  0
LINE
  5
4B4392
330
4B1AC8
100
AcDbEntity
  8
XTHIN
100
AcDbLine
 10
14.33113785908432
 20
12.19592906855097
 30
0.0
 11
14.15113785908429
 21
12.19592906855097
 31
0.0
  0
LINE
  5
4B4393
330
4B1AC8
100
AcDbEntity
  8
XTHIN
100
AcDbLine
 10
14.34073785908432
 20
12.25032906855096
 30
0.0
 11
14.14153785908432
 21
12.25032906855096
 31
0.0
  0
LINE
  5
4B4394
330
4B1AC8
100
AcDbEntity
  8
XTHIN
100
AcDbLine
 10
14.34073785908432
 20
12.18832906855097
 30
0.0
 11
14.14153785908432
 21
12.18832906855097
 31
0.0
  0
ARC
  5
4B4395
330
4B1AC8
100
AcDbEntity
  8
XTHIN
100
AcDbCircle
 10
14.14153785908432
 20
12.21932906855097
 30
0.0
 40
0.0310000000000002
100
AcDbArc
 50
90.0000000000065
 51
270.0
  0
ARC
  5
4B4396
330
4B1AC8
100
AcDbEntity
  8
XTHIN
100
AcDbCircle
 10
14.24113785908433
 20
12.19592906855097
 30
0.0
 40
0.01
100
AcDbArc
 50
0.0
 51
180.0
  0
LINE
  5
4B4397
330
4B1AC8
100
AcDbEntity
  8
XTHIN
100
AcDbLine
 10
14.15113785908429
 20
12.23632906855097
 30
0.0
 11
14.15113785908429
 21
12.19592906855097
 31
0.0
  0
LINE
  5
4B4398
330
4B1AC8
100
AcDbEntity
  8
XTHIN
100
AcDbLine
 10
14.33113785908432
 20
12.23632906855097
 30
0.0
 11
14.33113785908432
 21
12.19592906855097
 31
0.0
  0
ARC
  5
4B4399
330
4B1AC8
100
AcDbEntity
  8
XTHIN
100
AcDbCircle
 10
14.34073785908432
 20
12.21932906855097
 30
0.0
 40
0.0310000000000002
100
AcDbArc
 50
270.0
 51
90.0
  0
LWPOLYLINE
  5
4B439A
330
4B1AC8
100
AcDbEntity
  8
XTHIN
100
AcDbPolyline
 90
        4
 70
     1
 43
0.0
 10
14.4553033881434
 20
11.83792906855099
 42
0.9999999999999998
 10
14.4553033881434
 20
11.81912906855099
 10
14.46780338814335
 20
11.81912906855099
 42
0.9999999999999998
 10
14.46780338814335
 20
11.83792906855099
  0
LWPOLYLINE
  5
4B439B
330
4B1AC8
100
AcDbEntity
  8
XTHIN
100
AcDbPolyline
 90
        4
 70
     1
 43
0.0
 10
12.85530338814333
 20
11.83792906855098
 42
0.9999999999999998
 10
12.85530338814333
 20
11.81912906855098
 10
12.86780338814334
 20
11.81912906855098
 42
0.9999999999999998
 10
12.86780338814334
 20
11.83792906855098
  0
LWPOLYLINE
  5
4B439C
330
4B1AC8
100
AcDbEntity
  8
XTHIN
100
AcDbPolyline
 90
        4
 70
     1
 43
0.0
 10
12.05530338814332
 20
11.83792906855098
 42
0.9999999999999998
 10
12.05530338814332
 20
11.81912906855098
 10
12.06780338814331
 20
11.81912906855098
 42
0.9999999999999998
 10
12.06780338814331
 20
11.83792906855098
  0
LWPOLYLINE
  5
4B439D
330
4B1AC8
100
AcDbEntity
  8
XTHIN
100
AcDbPolyline
 90
        4
 70
     1
 43
0.0
 10
13.65530338814335
 20
11.83792906855098
 42
0.9999999999999998
 10
13.65530338814335
 20
11.81912906855098
 10
13.66780338814338
 20
11.81912906855098
 42
0.9999999999999998
 10
13.66780338814338
 20
11.83792906855098
  0
LWPOLYLINE
  5
4B439E
330
4B1AC8
100
AcDbEntity
  8
XTHIN
100
AcDbPolyline
 90
        4
 70
     1
 43
0.0
 10
11.25530338814333
 20
11.83792906855098
 42
0.9999999999999998
 10
11.25530338814333
 20
11.81912906855098
 10
11.26780338814336
 20
11.81912906855098
 42
0.9999999999999998
 10
11.26780338814336
 20
11.83792906855098
  0
LWPOLYLINE
  5
4B439F
330
4B1AC8
100
AcDbEntity
  8
XTHIN
100
AcDbPolyline
 90
        4
 70
     1
 43
0.0
 10
10.45530338814333
 20
11.83792906855098
 42
0.9999999999999998
 10
10.45530338814333
 20
11.81912906855098
 10
10.46780338814332
 20
11.81912906855098
 42
0.9999999999999998
 10
10.46780338814332
 20
11.83792906855098
  0
LWPOLYLINE
  5
4B43A0
330
4B1AC8
100
AcDbEntity
  8
XTHIN
100
AcDbPolyline
 90
        4
 70
     1
 43
0.0
 10
9.655303388143337
 20
11.83792906855098
 42
0.9999999999999998
 10
9.655303388143337
 20
11.81912906855098
 10
9.667803388143326
 20
11.81912906855098
 42
0.9999999999999998
 10
9.667803388143326
 20
11.83792906855098
  0
LWPOLYLINE
  5
4B43A1
330
4B1AC8
100
AcDbEntity
  8
XTHIN
100
AcDbPolyline
 90
        4
 70
     1
 43
0.0
 10
8.85530338814334
 20
11.83792906855098
 42
0.9999999999999998
 10
8.85530338814334
 20
11.81912906855098
 10
8.867803388143329
 20
11.81912906855098
 42
0.9999999999999998
 10
8.867803388143329
 20
11.83792906855098
  0
LWPOLYLINE
  5
4B43A2
330
4B1AC8
100
AcDbEntity
  8
XTHIN
100
AcDbPolyline
 90
        4
 70
     1
 43
0.0
 10
8.055303388143329
 20
11.83792906855098
 42
0.9999999999999998
 10
8.055303388143329
 20
11.81912906855098
 10
8.067803388143317
 20
11.81912906855098
 42
0.9999999999999998
 10
8.067803388143317
 20
11.83792906855098
  0
LINE
  5
4B43B7
330
4B1AC8
100
AcDbEntity
  8
XTHIN
100
AcDbLine
 10
7.228137531270956
 20
15.77852906855097
 30
0.0
 11
15.26366924501571
 21
15.77852906855097
 31
0.0
  0
LINE
  5
4B43B8
330
4B1AC8
100
AcDbEntity
  8
XTHIN
100
AcDbLine
 10
7.46066891720234
 20
15.56952906855097
 30
0.0
 11
15.03113785908432
 21
15.56952906855097
 31
0.0
  0
LINE
  5
4B43B9
330
4B1AC8
100
AcDbEntity
  8
XTHIN
100
AcDbLine
 10
7.628110667203443
 20
15.41903185455097
 30
0.0
 11
14.86369610908322
 21
15.41903185455097
 31
0.0
  0
LINE
  5
4B43BA
330
4B1AC8
100
AcDbEntity
  8
XTHIN
100
AcDbLine
 10
7.686027964879666
 20
15.36697559055097
 30
0.0
 11
14.805778811407
 21
15.36697559055097
 31
0.0
  0
LINE
  5
4B43BB
330
4B1AC8
100
AcDbEntity
  8
XTHIN
100
AcDbLine
 10
7.840710668780744
 20
15.22794625055097
 30
0.0
 11
14.65109610750592
 21
15.22794625055097
 31
0.0
  0
LINE
  5
4B43BC
330
4B1AC8
100
AcDbEntity
  8
XTHIN
100
AcDbLine
 10
7.866319365889637
 20
15.20492906655097
 30
0.0
 11
14.62548741039702
 21
15.20492906655097
 31
0.0
  0
LINE
  5
4B43BD
330
4B1AC8
100
AcDbEntity
  8
XTHIN
100
AcDbLine
 10
7.89912188537249
 20
15.17544605055097
 30
0.0
 11
14.59268489091417
 21
15.17544605055098
 31
0.0
  0
LINE
  5
4B43BE
330
4B1AC8
100
AcDbEntity
  8
XTHIN
100
AcDbLine
 10
7.228137531270956
 20
15.77852906855097
 30
0.0
 11
7.89912188537249
 21
15.17544605055097
 31
0.0
  0
LINE
  5
4B43CB
330
4B1AC8
100
AcDbEntity
  8
XTHIN
100
AcDbLine
 10
14.59268489091417
 20
15.17544605055098
 30
0.0
 11
15.26366924501571
 21
15.77852906855097
 31
0.0
  0
LWPOLYLINE
  5
4B43D8
330
4B1AC8
100
AcDbEntity
  8
XTHIN
100
AcDbPolyline
 90
        4
 70
     1
 43
0.0
 10
14.4553033881434
 20
15.71912906855096
 42
-0.9999999999999998
 10
14.4553033881434
 20
15.73792906855096
 10
14.46780338814335
 20
15.73792906855096
 42
-0.9999999999999998
 10
14.46780338814335
 20
15.71912906855096
  0
LWPOLYLINE
  5
4B43D9
330
4B1AC8
100
AcDbEntity
  8
XTHIN
100
AcDbPolyline
 90
        4
 70
     1
 43
0.0
 10
12.85530338814333
 20
15.71912906855097
 42
-0.9999999999999998
 10
12.85530338814333
 20
15.73792906855097
 10
12.86780338814334
 20
15.73792906855097
 42
-0.9999999999999998
 10
12.86780338814334
 20
15.71912906855097
  0
LWPOLYLINE
  5
4B43DA
330
4B1AC8
100
AcDbEntity
  8
XTHIN
100
AcDbPolyline
 90
        4
 70
     1
 43
0.0
 10
12.05530338814332
 20
15.71912906855097
 42
-0.9999999999999998
 10
12.05530338814332
 20
15.73792906855097
 10
12.06780338814331
 20
15.73792906855097
 42
-0.9999999999999998
 10
12.06780338814331
 20
15.71912906855097
  0
LWPOLYLINE
  5
4B43DB
330
4B1AC8
100
AcDbEntity
  8
XTHIN
100
AcDbPolyline
 90
        4
 70
     1
 43
0.0
 10
13.65530338814335
 20
15.71912906855098
 42
-0.9999999999999998
 10
13.65530338814335
 20
15.73792906855097
 10
13.66780338814338
 20
15.73792906855097
 42
-0.9999999999999998
 10
13.66780338814338
 20
15.71912906855098
  0
LWPOLYLINE
  5
4B43DC
330
4B1AC8
100
AcDbEntity
  8
XTHIN
100
AcDbPolyline
 90
        4
 70
     1
 43
0.0
 10
11.25530338814333
 20
15.71912906855097
 42
-0.9999999999999998
 10
11.25530338814333
 20
15.73792906855097
 10
11.26780338814336
 20
15.73792906855097
 42
-0.9999999999999998
 10
11.26780338814336
 20
15.71912906855097
  0
LWPOLYLINE
  5
4B43DD
330
4B1AC8
100
AcDbEntity
  8
XTHIN
100
AcDbPolyline
 90
        4
 70
     1
 43
0.0
 10
10.45530338814333
 20
15.71912906855097
 42
-0.9999999999999998
 10
10.45530338814333
 20
15.73792906855097
 10
10.46780338814332
 20
15.73792906855097
 42
-0.9999999999999998
 10
10.46780338814332
 20
15.71912906855097
  0
LWPOLYLINE
  5
4B43DE
330
4B1AC8
100
AcDbEntity
  8
XTHIN
100
AcDbPolyline
 90
        4
 70
     1
 43
0.0
 10
9.655303388143337
 20
15.71912906855098
 42
-0.9999999999999998
 10
9.655303388143337
 20
15.73792906855097
 10
9.667803388143326
 20
15.73792906855097
 42
-0.9999999999999998
 10
9.667803388143326
 20
15.71912906855098
  0
LWPOLYLINE
  5
4B43DF
330
4B1AC8
100
AcDbEntity
  8
XTHIN
100
AcDbPolyline
 90
        4
 70
     1
 43
0.0
 10
8.85530338814334
 20
15.71912906855097
 42
-0.9999999999999998
 10
8.85530338814334
 20
15.73792906855097
 10
8.867803388143329
 20
15.73792906855097
 42
-0.9999999999999998
 10
8.867803388143329
 20
15.71912906855097
  0
LWPOLYLINE
  5
4B43E0
330
4B1AC8
100
AcDbEntity
  8
XTHIN
100
AcDbPolyline
 90
        4
 70
     1
 43
0.0
 10
8.055303388143329
 20
15.71912906855097
 42
-0.9999999999999998
 10
8.055303388143329
 20
15.73792906855097
 10
8.067803388143317
 20
15.73792906855097
 42
-0.9999999999999998
 10
8.067803388143317
 20
15.71912906855097
  0
LINE
  5
4B43EC
330
4B1AC8
100
AcDbEntity
  8
XTHIN
100
AcDbLine
 10
15.26366924501571
 20
15.77852906855097
 30
0.0
 11
15.26366924501571
 21
11.77852906855098
 31
0.0
  0
LINE
  5
4B43ED
330
4B1AC8
100
AcDbEntity
  8
XTHIN
100
AcDbLine
 10
15.03113785908432
 20
15.56952906855097
 30
0.0
 11
15.03113785908433
 21
11.98752906855098
 31
0.0
  0
LINE
  5
4B43EE
330
4B1AC8
100
AcDbEntity
  8
XTHIN
100
AcDbLine
 10
14.86369610908322
 20
12.13802628255098
 30
0.0
 11
14.86369610908322
 21
15.41903185455097
 31
0.0
  0
LINE
  5
4B43EF
330
4B1AC8
100
AcDbEntity
  8
XTHIN
100
AcDbLine
 10
14.805778811407
 20
15.36697559055097
 30
0.0
 11
14.80577881140699
 21
12.19008254655097
 31
0.0
  0
LINE
  5
4B43F0
330
4B1AC8
100
AcDbEntity
  8
XTHIN
100
AcDbLine
 10
14.65109610750592
 20
12.32911188655098
 30
0.0
 11
14.65109610750592
 21
15.22794625055097
 31
0.0
  0
LINE
  5
4B43F1
330
4B1AC8
100
AcDbEntity
  8
XTHIN
100
AcDbLine
 10
14.62548741039702
 20
15.20492906655097
 30
0.0
 11
14.62548741039702
 21
12.35212907055098
 31
0.0
  0
LINE
  5
4B43F2
330
4B1AC8
100
AcDbEntity
  8
XTHIN
100
AcDbLine
 10
14.59268489091417
 20
12.38161208655097
 30
0.0
 11
14.59268489091417
 21
15.17544605055098
 31
0.0
  0
LINE
  5
4B43F3
330
4B1AC8
100
AcDbEntity
  8
XTHIN
100
AcDbLine
 10
7.228137531270942
 20
15.77852906855097
 30
0.0
 11
7.228137531270942
 21
11.77852906855098
 31
0.0
  0
LINE
  5
4B43F4
330
4B1AC8
100
AcDbEntity
  8
XTHIN
100
AcDbLine
 10
7.460668917202337
 20
15.56952906855097
 30
0.0
 11
7.46066891720233
 21
11.98752906855098
 31
0.0
  0
LINE
  5
4B43F5
330
4B1AC8
100
AcDbEntity
  8
XTHIN
100
AcDbLine
 10
7.62811066720344
 20
12.13802628255098
 30
0.0
 11
7.62811066720344
 21
15.41903185455097
 31
0.0
  0
LINE
  5
4B43F6
330
4B1AC8
100
AcDbEntity
  8
XTHIN
100
AcDbLine
 10
7.686027964879652
 20
15.36697559055097
 30
0.0
 11
7.686027964879666
 21
12.19008254655097
 31
0.0
  0
LINE
  5
4B43F7
330
4B1AC8
100
AcDbEntity
  8
XTHIN
100
AcDbLine
 10
7.84071066878074
 20
12.32911188655098
 30
0.0
 11
7.84071066878074
 21
15.22794625055097
 31
0.0
  0
LINE
  5
4B43F8
330
4B1AC8
100
AcDbEntity
  8
XTHIN
100
AcDbLine
 10
7.866319365889633
 20
15.20492906655097
 30
0.0
 11
7.866319365889633
 21
12.35212907055098
 31
0.0
  0
LINE
  5
4B43F9
330
4B1AC8
100
AcDbEntity
  8
XTHIN
100
AcDbLine
 10
7.89912188537249
 20
12.38161208655097
 30
0.0
 11
7.89912188537249
 21
15.17544605055098
 31
0.0
  0
LWPOLYLINE
  5
4B4407
330
4B1AC8
100
AcDbEntity
  8
XTHIN
100
AcDbPolyline
 90
        4
 70
     1
 43
0.0
 10
15.20426924501571
 20
14.57227906855098
 42
0.9999999999999998
 10
15.22306924501571
 20
14.57227906855098
 10
15.22306924501571
 20
14.58477906855097
 42
0.9999999999999998
 10
15.20426924501571
 20
14.58477906855097
  0
LWPOLYLINE
  5
4B4408
330
4B1AC8
100
AcDbEntity
  8
XTHIN
100
AcDbPolyline
 90
        4
 70
     1
 43
0.0
 10
15.20426924501571
 20
13.77227906855098
 42
0.9999999999999998
 10
15.22306924501571
 20
13.77227906855098
 10
15.22306924501571
 20
13.78477906855097
 42
0.9999999999999998
 10
15.20426924501571
 20
13.78477906855097
  0
LWPOLYLINE
  5
4B4409
330
4B1AC8
100
AcDbEntity
  8
XTHIN
100
AcDbPolyline
 90
        4
 70
     1
 43
0.0
 10
15.20426924501571
 20
12.97227906855098
 42
0.9999999999999998
 10
15.22306924501571
 20
12.97227906855098
 10
15.22306924501571
 20
12.98477906855097
 42
0.9999999999999998
 10
15.20426924501571
 20
12.98477906855097
  0
LWPOLYLINE
  5
4B440A
330
4B1AC8
100
AcDbEntity
  8
XTHIN
100
AcDbPolyline
 90
        4
 70
     1
 43
0.0
 10
15.20426924501571
 20
12.17227906855097
 42
0.9999999999999998
 10
15.22306924501571
 20
12.17227906855097
 10
15.22306924501571
 20
12.18477906855096
 42
0.9999999999999998
 10
15.20426924501571
 20
12.18477906855096
  0
LWPOLYLINE
  5
4B440B
330
4B1AC8
100
AcDbEntity
  8
XTHIN
100
AcDbPolyline
 90
        4
 70
     1
 43
0.0
 10
15.20426924501571
 20
15.37227906855098
 42
0.9999999999999998
 10
15.22306924501571
 20
15.37227906855098
 10
15.22306924501571
 20
15.38477906855096
 42
0.9999999999999998
 10
15.20426924501571
 20
15.38477906855096
  0
LWPOLYLINE
  5
4B440D
330
4B1AC8
100
AcDbEntity
  8
XTHIN
100
AcDbPolyline
 90
        4
 70
     1
 43
0.0
 10
7.287537531270945
 20
14.57227906855098
 42
-0.9999999999999998
 10
7.268737531270947
 20
14.57227906855098
 10
7.268737531270947
 20
14.58477906855097
 42
-0.9999999999999998
 10
7.287537531270945
 20
14.58477906855097
  0
LWPOLYLINE
  5
4B440E
330
4B1AC8
100
AcDbEntity
  8
XTHIN
100
AcDbPolyline
 90
        4
 70
     1
 43
0.0
 10
7.287537531270945
 20
13.77227906855098
 42
-0.9999999999999998
 10
7.268737531270947
 20
13.77227906855098
 10
7.268737531270947
 20
13.78477906855097
 42
-0.9999999999999998
 10
7.287537531270945
 20
13.78477906855097
  0
LWPOLYLINE
  5
4B440F
330
4B1AC8
100
AcDbEntity
  8
XTHIN
100
AcDbPolyline
 90
        4
 70
     1
 43
0.0
 10
7.287537531270945
 20
12.97227906855098
 42
-0.9999999999999998
 10
7.268737531270947
 20
12.97227906855098
 10
7.268737531270947
 20
12.98477906855097
 42
-0.9999999999999998
 10
7.287537531270945
 20
12.98477906855097
  0
LWPOLYLINE
  5
4B4410
330
4B1AC8
100
AcDbEntity
  8
XTHIN
100
AcDbPolyline
 90
        4
 70
     1
 43
0.0
 10
7.287537531270945
 20
12.17227906855097
 42
-0.9999999999999998
 10
7.268737531270947
 20
12.17227906855097
 10
7.268737531270947
 20
12.18477906855096
 42
-0.9999999999999998
 10
7.287537531270945
 20
12.18477906855096
  0
LWPOLYLINE
  5
4B4411
330
4B1AC8
100
AcDbEntity
  8
XTHIN
100
AcDbPolyline
 90
        4
 70
     1
 43
0.0
 10
7.287537531270945
 20
15.37227906855098
 42
-0.9999999999999998
 10
7.268737531270947
 20
15.37227906855098
 10
7.268737531270947
 20
15.38477906855096
 42
-0.9999999999999998
 10
7.287537531270945
 20
15.38477906855096
  0
INSERT
  5
4B4531
330
4B1AC8
100
AcDbEntity
  8
THIN
  6
Continuous
 48
0.3
100
AcDbBlockReference
  2
B4088 DS L-fin adapter
 10
2.69696780253146
 20
9.487706895964148
 30
0.0
 41
-1.0
 50
180.0
1001
MTVPROFILELINK
1002
{
1000
#BlockRef=e5edb59-0x12b-4574-837A-8BA6CF32C5A4|
1002
}
1005
0
  0
INSERT
  5
4B4533
330
4B1AC8
100
AcDbEntity
  8
THIN
  6
Continuous
 48
0.3
100
AcDbBlockReference
  2
B4088 DS L-fin adapter
 10
2.69696780253146
 20
19.26370689596424
 30
0.0
1001
MTVPROFILELINK
1002
{
1000
#BlockRef=e5edb59-0x12b-4574-837A-8BA6CF32C5A4|
1002
}
1005
0
  0
INSERT
  5
4B4534
330
4B1AC8
100
AcDbEntity
  8
THIN
  6
Continuous
 48
0.3
100
AcDbBlockReference
  2
B4088 DS L-fin adapter
 10
12.13800045981127
 20
3.553234936439159
 30
0.0
 41
-1.0
 50
270.0
1001
MTVPROFILELINK
1002
{
1000
#BlockRef=e5edb59-0x12b-4574-837A-8BA6CF32C5A4|
1002
}
1005
0
  0
INSERT
  5
4B4536
330
4B1AC8
100
AcDbEntity
  8
THIN
  6
Continuous
 48
0.3
100
AcDbBlockReference
  2
B4088 DS L-fin adapter
 10
4.862000459811337
 20
3.553234936439159
 30
0.0
 50
90.00000000000003
1001
MTVPROFILELINK
1002
{
1000
#BlockRef=e5edb59-0x12b-4574-837A-8BA6CF32C5A4|
1002
}
1005
0
  0
DIMENSION
  5
4B458A
330
4B1AC8
100
AcDbEntity
  8
DIM
100
AcDbDimension
280
     0
  2
*D15
 10
5.889851220782194
 20
19.62570689596425
 30
0.0
 11
5.88985122078219
 21
20.24820689596426
 31
0.0
 70
   160
 71
     5
 42
1.245000000000011
 73
     0
 74
     0
 75
     0
  3
Copy of HSTANDARD
100
AcDbAlignedDimension
 13
2.736967802531552
 23
20.87070689596426
 33
0.0
 14
5.018967802531446
 24
19.62570689596425
 34
0.0
 50
270.0
100
AcDbRotatedDimension
1001
ACAD
1000
DSTYLE
1002
{
1070
    40
1040
2.0
1070
   146
1040
1.0
1070
   276
1070
     2
1002
}
  0
MTEXT
  5
4B4633
330
4B1AC8
100
AcDbEntity
  8
DIM
100
AcDbMText
 10
10.9607295869183
 20
11.15216346046134
 30
0.0
 40
0.15
 41
0.5513510052979527
 46
0.0
 71
     1
 72
     5
  1
(1/20)
  7
SIMPLEX
 73
     1
 44
1.0
101
Embedded Object
 70
     1
 10
1.0
 20
0.0
 30
0.0
 11
10.9607295869183
 21
11.15216346046134
 31
0.0
 40
0.5513510052979527
 41
0.0
 42
0.7121807708773847
 43
0.2285714285714286
 71
     2
 72
     1
 44
0.5513510052979527
 45
0.225
 73
     0
 74
     0
 46
0.0
  0
ENDSEC
  0
SECTION
  2
OBJECTS
  0
DICTIONARY
  5
4B1ABC
330
0
100
AcDbDictionary
281
     1
  3
ACAD_CIP_PREVIOUS_PRODUCT_INFO
350
4B4228
  3
ACAD_COLOR
350
4B3767
  3
ACAD_DETAILVIEWSTYLE
350
4B421F
  3
ACAD_GROUP
350
4B1ABD
  3
ACAD_IMAGE_DICT
350
4B1D3D
  3
ACAD_LAYOUT
350
4B1D14
  3
ACAD_MATERIAL
350
4B3766
  3
ACAD_MLEADERSTYLE
350
4B421B
  3
ACAD_MLINESTYLE
350
4B1ABE
  3
ACAD_PLOTSETTINGS
350
4B1D15
  3
ACAD_PLOTSTYLENAME
350
4B1D12
  3
ACAD_SCALELIST
350
4B4209
  3
ACAD_SECTIONVIEWSTYLE
350
4B421D
  3
ACAD_TABLESTYLE
350
4B3768
  3
ACAD_VISUALSTYLE
350
4B41F0
  3
AcAmCatalogState
350
4B37CC
  3
ACDB_RECOMPOSE_DATA
350
4B4768
  3
AcDbVariableDictionary
350
4B3181
  3
ACDMSYSVARMGR
350
4B3787
  3
ACGREF_MASTER
350
4B3781
  3
ACGREFACAD_MASTER
350
4B37AA
  3
AcmDictionary
350
4B37CA
  3
ACME_BOM_MANAGER_NAME
350
4B377B
  3
ACME_COMMAND_HISTORY
350
4B3778
  3
ACME_SCOPE_NAME
350
4B3777
  3
ACMESTATEMGR
350
4B3780
  3
AcmeSysVarManager
350
4B3779
  3
AcmSystemVariableManager
350
4B37AF
  3
AD_APPL
350
4B37B7
  3
ADSYSVARMGR
350
4B37B6
  3
AmdtNamedDwgMgr
350
4B37A5
  3
AMG
350
4B3770
  3
AMGSNAPSETTINGS
350
4B381D
  3
AMI_MASTER
350
4B37AD
  3
AUTOCAD_ASSEMBLIES_PROJECT
350
4B37BF
  3
Designer_Assemblies_SysVars
350
4B37BA
  3
GREFAM_MODULE
350
4B37AE
  3
MTV_XATTACH
350
4B228A
  0
DICTIONARY
  5
4B1D43
330
4B1AB2
100
AcDbDictionary
280
     1
281
     1
  3
ACAD_LAYERSTATES
360
4B1D44
  0
DICTIONARY
  5
4B422A
330
4B1ABF
100
AcDbDictionary
280
     1
281
     1
  3
ADSK_XREC_LAYER_RECONCILED
360
4B422B
  0
DICTIONARY
  5
4B422C
330
4B1AE0
100
AcDbDictionary
280
     1
281
     1
  3
ADSK_XREC_LAYER_RECONCILED
360
4B422D
  0
DICTIONARY
  5
4B422E
330
4B1AE2
100
AcDbDictionary
280
     1
281
     1
  3
ADSK_XREC_LAYER_RECONCILED
360
4B422F
  0
DICTIONARY
  5
4B4232
330
4B1AE5
100
AcDbDictionary
280
     1
281
     1
  3
ADSK_XREC_LAYER_RECONCILED
360
4B4233
  0
DICTIONARY
  5
4B4234
330
4B1D42
100
AcDbDictionary
280
     1
281
     1
  3
ADSK_XREC_LAYER_RECONCILED
360
4B4235
  0
DICTIONARY
  5
4B4238
330
4B3896
100
AcDbDictionary
280
     1
281
     1
  3
ADSK_XREC_LAYER_RECONCILED
360
4B4239
  0
DICTIONARY
  5
4B42CD
330
4B42CC
100
AcDbDictionary
280
     1
281
     1
  0
DICTIONARY
  5
4B4490
330
4B448F
100
AcDbDictionary
280
     1
281
     1
  0
DICTIONARY
  5
4B3859
330
4B1AC8
100
AcDbDictionary
280
     1
281
     1
  3
ACAD_SORTENTS
360
4B385A
  0
DICTIONARY
  5
4B382F
330
4B382B
100
AcDbDictionary
280
     1
281
     1
  3
ACAD_SORTENTS
360
4B3830
  0
DICTIONARY
  5
4B388C
330
4B388A
100
AcDbDictionary
280
     1
281
     1
  3
ACAD_SORTENTS
360
4B388D
  0
DICTIONARY
  5
4B389A
330
4B3897
100
AcDbDictionary
280
     1
281
     1
  3
ACAD_SORTENTS
360
4B389B
  0
DICTIONARY
  5
4B38CE
330
4B38CB
100
AcDbDictionary
280
     1
281
     1
  3
ACAD_SORTENTS
360
4B38CF
  0
DICTIONARY
  5
4B38DB
330
4B38D8
100
AcDbDictionary
280
     1
281
     1
  3
ACAD_SORTENTS
360
4B38DC
  0
DICTIONARY
  5
4B42C8
330
4B42C7
100
AcDbDictionary
280
     1
281
     1
  0
DICTIONARY
  5
4B451D
330
4B451C
100
AcDbDictionary
280
     1
281
     1
  3
ACAD_SORTENTS
360
4B451E
  0
XRECORD
  5
4B4228
102
{ACAD_REACTORS
330
4B1ABC
102
}
330
4B1ABC
100
AcDbXrecord
280
     1
300
ACDLT
300
2019
300

  0
DICTIONARY
  5
4B3767
102
{ACAD_REACTORS
330
4B1ABC
102
}
330
4B1ABC
100
AcDbDictionary
281
     1
  0
DICTIONARY
  5
4B421F
102
{ACAD_REACTORS
330
4B1ABC
102
}
330
4B1ABC
100
AcDbDictionary
281
     1
  3
Imperial24
350
4B4220
  0
DICTIONARY
  5
4B1ABD
102
{ACAD_REACTORS
330
4B1ABC
102
}
330
4B1ABC
100
AcDbDictionary
281
     1
  0
DICTIONARY
  5
4B1D3D
102
{ACAD_REACTORS
330
4B1ABC
102
}
330
4B1ABC
100
AcDbDictionary
281
     1
  0
DICTIONARY
  5
4B1D14
102
{ACAD_REACTORS
330
4B1ABC
102
}
330
4B1ABC
100
AcDbDictionary
281
     1
  3
Layout1
350
4B1D17
  3
Model
350
4B1D16
  0
DICTIONARY
  5
4B3766
102
{ACAD_REACTORS
330
4B1ABC
102
}
330
4B1ABC
100
AcDbDictionary
281
     1
  3
ByBlock
350
4B41E0
  3
ByLayer
350
4B41D8
  3
Global
350
4B41E8
  0
DICTIONARY
  5
4B421B
102
{ACAD_REACTORS
330
4B1ABC
102
}
330
4B1ABC
100
AcDbDictionary
281
     1
  3
Standard
350
4B421C
  0
DICTIONARY
  5
4B1ABE
102
{ACAD_REACTORS
330
4B1ABC
102
}
330
4B1ABC
100
AcDbDictionary
281
     1
  3
STANDARD
350
4B1ACB
  0
DICTIONARY
  5
4B1D15
102
{ACAD_REACTORS
330
4B1ABC
102
}
330
4B1ABC
100
AcDbDictionary
281
     1
  3
A_size_1_to_1
350
4B1D2C
  3
B_size_1_to_1
350
4B1D2E
  0
ACDBDICTIONARYWDFLT
  5
4B1D12
102
{ACAD_REACTORS
330
4B1ABC
102
}
330
4B1ABC
100
AcDbDictionary
281
     1
  3
Normal
350
4B1D13
100
AcDbDictionaryWithDefault
340
4B1D13
  0
DICTIONARY
  5
4B4209
102
{ACAD_REACTORS
330
4B1ABC
102
}
330
4B1ABC
100
AcDbDictionary
281
     1
  3
A0
350
4B420A
  3
A1
350
4B420B
  3
A2
350
4B420C
  3
A3
350
4B420D
  3
A4
350
4B420E
  3
A5
350
4B420F
  3
A6
350
4B4210
  3
A7
350
4B4211
  3
A8
350
4B4212
  3
A9
350
4B4213
  3
B0
350
4B4214
  3
B1
350
4B4215
  3
B2
350
4B4216
  3
B3
350
4B4217
  3
B4
350
4B4218
  3
B5
350
4B4219
  3
B6
350
4B421A
  0
DICTIONARY
  5
4B421D
102
{ACAD_REACTORS
330
4B1ABC
102
}
330
4B1ABC
100
AcDbDictionary
281
     1
  3
Imperial24
350
4B421E
  0
DICTIONARY
  5
4B3768
102
{ACAD_REACTORS
330
4B1ABC
102
}
330
4B1ABC
100
AcDbDictionary
281
     1
  3
Standard
350
4B3769
  0
DICTIONARY
  5
4B41F0
102
{ACAD_REACTORS
330
4B1ABC
102
}
330
4B1ABC
100
AcDbDictionary
281
     1
  3
2dWireframe
350
4B41F6
  3
Basic
350
4B41F5
  3
Brighten
350
4B41FC
  3
ColorChange
350
4B4200
  3
Conceptual
350
4B41F9
  3
Dim
350
4B41FB
  3
EdgeColorOff
350
4B4208
  3
Facepattern
350
4B41FF
  3
Flat
350
4B41F1
  3
FlatWithEdges
350
4B41F2
  3
Gouraud
350
4B41F3
  3
GouraudWithEdges
350
4B41F4
  3
Hidden
350
4B41F8
  3
JitterOff
350
4B4206
  3
Linepattern
350
4B41FE
  3
OverhangOff
350
4B4207
  3
Realistic
350
4B41FA
  3
Shaded
350
4B4205
  3
Shaded with edges
350
4B4204
  3
Shades of Gray
350
4B4201
  3
Sketchy
350
4B4202
  3
Thicken
350
4B41FD
  3
Wireframe
350
4B41F7
  3
X-Ray
350
4B4203
  0
ACAD_PROXY_OBJECT
  5
4B37CC
102
{ACAD_REACTORS
330
4B1ABC
102
}
330
4B1ABC
100
AcDbProxyObject
 90
      499
 91
      550
 71
    25
 97
       77
 70
     0
161
               640
310
3FFFFFFFE00A02814029BA19D2E283937B3B930B6902334B632B9AE32A1B430B733B2AE2BB7B935B9B830B1B2AE20A9991C1A102F96AF9819989C9B98181818AF98C008415332380D08111145349474E00
 94
        0
  0
XRECORD
  5
4B4768
102
{ACAD_REACTORS
330
4B1ABC
102
}
330
4B1ABC
100
AcDbXrecord
280
     1
 90
        1
330
4B3769
  0
DICTIONARY
  5
4B3181
102
{ACAD_REACTORS
330
4B1ABC
102
}
330
4B1ABC
100
AcDbDictionary
281
     1
  3
CANNOSCALE
350
4B468B
  3
CMLEADERSTYLE
350
4B4687
  3
CTABLESTYLE
350
4B3826
  3
CVIEWDETAILSTYLE
350
4B4688
  3
CVIEWSECTIONSTYLE
350
4B4689
  3
LAYEREVAL
350
4B468D
  3
LAYERNOTIFY
350
4B468E
  3
LIGHTINGUNITS
350
4B468C
  3
MSLTSCALE
350
4B468A
  3
SORTENTS
350
4B3182
  0
ACAD_PROXY_OBJECT
  5
4B3787
102
{ACAD_REACTORS
330
4B1ABC
102
}
330
4B1ABC
100
AcDbProxyObject
 90
      499
 91
      511
 71
    25
 97
       77
 70
     0
161
               240
310
4C51A47A0000000000000000000000000000000000000000000000000000A6
330
4B3788
330
4B3789
330
4B378A
330
4B378B
330
4B378C
330
4B378D
330
4B378E
330
4B378F
330
4B3790
330
4B3791
330
4B3792
330
4B3793
330
4B3794
330
4B3795
330
4B3796
330
4B3797
330
4B3798
330
4B3799
330
4B379A
330
4B379B
330
4B379C
330
4B379D
330
4B379E
330
4B379F
330
4B37A0
330
4B37A1
 94
        0
  0
ACAD_PROXY_OBJECT
  5
4B3781
102
{ACAD_REACTORS
330
4B1ABC
102
}
330
4B1ABC
100
AcDbProxyObject
 90
      499
 91
      519
 71
    25
 97
       77
 70
     0
161
                34
310
040000428C
 94
        0
  0
ACAD_PROXY_OBJECT
  5
4B37AA
102
{ACAD_REACTORS
330
4B1ABC
102
}
330
4B1ABC
100
AcDbProxyObject
 90
      499
 91
      528
 71
    25
 97
       77
 70
     0
161
               114
310
04000041C08000000000000000000C
 94
        0
  0
DICTIONARY
  5
4B37CA
102
{ACAD_REACTORS
330
4B1ABC
102
}
330
4B1ABC
100
AcDbDictionary
281
     1
  3
AcmBOMDATA
350
4B37CB
  3
AcmStdDictionary
350
4B37D5
  3
AMDTSECTSYM_ARROWCOLOR
350
4B37F3
  0
ACAD_PROXY_OBJECT
  5
4B377B
102
{ACAD_REACTORS
330
4B1ABC
102
}
330
4B1ABC
100
AcDbProxyObject
 90
      499
 91
      513
 71
    25
 97
       77
 70
     0
161
                50
310
0001004040000C
330
0
330
0
330
4B377C
 94
        0
  0
ACAD_PROXY_OBJECT
  5
4B3778
102
{ACAD_REACTORS
330
4B1ABC
102
}
330
4B1ABC
100
AcDbProxyObject
 90
      499
 91
      510
 71
    25
 97
       77
 70
     0
161
              5374
310
4780505455241534580504434F505940405184D5347202D20436F6D6D616E642043414E43454C4C45442E014151549054D16014115539113E014156131253916014115539113E014193D19194D15510101461354D1C80B4810DBDB5B585B990810D05390D1531311510B805044D4F5645805044D4F56458050545524153458
310
050444495354805055153415645404052E4D5347202D205050413A2020206465736B746F702E6172782046696C6556657273696F6E3A2031302E322E302E3501411693D3D3601415454D05591501014B9354D1C80B481414104E88080819195CDADD1BDC0B985C9E08119A5B1955995C9CDA5BDB8E880C4C0B8C8B8C0B8D40
310
50E414D4454524553455444424D4F4440805084E202D20554E444F014213880B4815539113C0504554E444F80504554E444F8050B434F4D4D414E444C494E45805044449535480504444953548050444495354805045A4F4F4D805055153415645404052E4D5347202D205050413A2020206465736B746F702E61727820466
310
96C6556657273696F6E3A2031302E322E302E35014390535115149154D15511109353D1102014213880B4815539113C05084E202D20554E444F0142135153955313D051102014213880B481693D3D3405184D5347202D20436F6D6D616E642043414E43454C4C45442E014311D4925417D4D514915510D22014211125354D5
310
16531160140D11253506014313880B4811125354D51653114050C4E202D2044494D5354594C45014313880B4811125354D5165311405084E202D205A4F4F4D014213880B481693D3D3405184D5347202D20436F6D6D616E642043414E43454C4C45442E014154155491D1601415454D05591501014B9354D1C80B481414104
310
E88080819195CDADD1BDC0B985C9E08119A5B1955995C9CDA5BDB8E880C4C0B8C8B8C0B8D4
 94
        0
  0
ACAD_PROXY_OBJECT
  5
4B3777
102
{ACAD_REACTORS
330
4B1ABC
102
}
330
4B1ABC
100
AcDbProxyObject
 90
      499
 91
      509
 71
    25
 97
       77
 70
     0
161
               546
310
0A0000480080000000000000000012F4CE0000000000000000000000000000000000000000000000000000000000000000000000000000000000000000000000AAA406AA8C
360
4B377A
360
4B377C
360
4B3782
360
4B3783
360
4B3784
360
4B3785
360
4B3788
360
4B3789
360
4B378A
360
4B378B
360
4B378C
360
4B378D
360
4B378E
360
4B378F
360
4B3790
360
4B3791
360
4B3792
360
4B3793
360
4B3794
360
4B3795
360
4B3796
360
4B3797
360
4B3798
360
4B3799
360
4B379A
360
4B379B
360
4B379C
360
4B379D
360
4B379E
360
4B379F
360
4B37A0
360
4B37A1
360
4B37B0
360
4B37B2
360
4B37B3
360
4B37B4
360
4B37B5
360
4B37BB
360
4B37BC
360
4B37BD
360
4B37BE
360
4B37C3
360
4B37C4
360
4B37C5
360
4B37C6
360
4B37C7
360
4B37C8
 94
        0
  0
ACAD_PROXY_OBJECT
  5
4B3780
102
{ACAD_REACTORS
330
4B1ABC
102
}
330
4B1ABC
100
AcDbProxyObject
 90
      499
 91
      518
 71
    25
 97
       77
 70
     0
161
                50
310
0A000042A4128C
 94
        0
  0
ACAD_PROXY_OBJECT
  5
4B3779
102
{ACAD_REACTORS
330
4B1ABC
102
}
330
4B1ABC
100
AcDbProxyObject
 90
      499
 91
      511
 71
    25
 97
       77
 70
     0
161
                32
310
90140A0000
330
4B377A
 94
        0
  0
ACAD_PROXY_OBJECT
  5
4B37AF
102
{ACAD_REACTORS
330
4B1ABC
102
}
330
4B1ABC
100
AcDbProxyObject
 90
      499
 91
      511
 71
    25
 97
       77
 70
     0
161
                32
310
90140A0000
330
4B37B0
 94
        0
  0
ACAD_PROXY_OBJECT
  5
4B37B7
102
{ACAD_REACTORS
330
4B1ABC
102
}
330
4B1ABC
100
AcDbProxyObject
 90
      499
 91
      539
 71
    25
 97
       77
 70
     0
161
                42
310
00090000404C
330
4B37B2
 94
        0
  0
ACAD_PROXY_OBJECT
  5
4B37B6
102
{ACAD_REACTORS
330
4B1ABC
102
}
330
4B1ABC
100
AcDbProxyObject
 90
      499
 91
      511
 71
    25
 97
       77
 70
     0
161
                 8
310
AA9F
 94
        0
  0
ACAD_PROXY_OBJECT
  5
4B37A5
102
{ACAD_REACTORS
330
4B1ABC
102
}
330
4B1ABC
100
AcDbProxyObject
 90
      499
 91
      525
 71
    25
 97
       77
 70
     0
161
                42
310
000100005E8C
330
4B3782
 94
        0
  0
DICTIONARY
  5
4B3770
102
{ACAD_REACTORS
330
4B1ABC
102
}
330
4B1ABC
100
AcDbDictionary
281
     1
  3
AcMgSettings
350
4B3771
  3
AMGLAYCFG
350
4B37D7
  0
DICTIONARY
  5
4B381D
102
{ACAD_REACTORS
330
4B1ABC
102
}
330
4B1ABC
100
AcDbDictionary
281
     1
  3
DIMENSION
350
4B3822
  3
FEA
350
4B3821
  3
HATCH (1)
350
4B381E
  3
HATCH (2)
350
4B381F
  3
SIMPLE WELD
350
4B3823
  3
SYMBOLS
350
4B3820
  0
ACAD_PROXY_OBJECT
  5
4B37AD
102
{ACAD_REACTORS
330
4B1ABC
102
}
330
4B1ABC
100
AcDbProxyObject
 90
      499
 91
      531
 71
    25
 97
       77
 70
     0
161
                34
310
050000428C
 94
        0
  0
ACAD_PROXY_OBJECT
  5
4B37BF
102
{ACAD_REACTORS
330
4B1ABC
102
}
330
4B1ABC
100
AcDbProxyObject
 90
      499
 91
      542
 71
    25
 97
       77
 70
     0
161
                98
310
0A00004FC0000000000000000C
330
4B37C6
330
0
330
4B37C7
330
0
330
0
330
0
330
0
330
0
 94
        0
  0
ACAD_PROXY_OBJECT
  5
4B37BA
102
{ACAD_REACTORS
330
4B1ABC
102
}
330
4B1ABC
100
AcDbProxyObject
 90
      499
 91
      511
 71
    25
 97
       77
 70
     0
161
                56
310
9044160000000064
330
4B37BB
330
4B37BC
330
4B37BD
330
4B37BE
 94
        0
  0
ACAD_PROXY_OBJECT
  5
4B37AE
102
{ACAD_REACTORS
330
4B1ABC
102
}
330
4B1ABC
100
AcDbProxyObject
 90
      499
 91
      532
 71
    25
 97
       77
 70
     0
161
                 8
310
0501
 94
        0
  0
DICTIONARY
  5
4B228A
102
{ACAD_REACTORS
330
4B1ABC
102
}
330
4B1ABC
100
AcDbDictionary
280
     1
281
     1
  3
13b2f151-0x4b1c-4f74-A1E9-79DCC11120FF
360
4B3836
  3
2700c0d9-0xb1e-4ead-828B-0BE682CF338B
360
4B38A0
  3
43cfe8ea-0x622d-4913-95E0-B1FCB226BC51
360
4B38D5
  3
5294f65e-0x2a6f-49f8-9DBD-D9FC677B36F6
360
4B3886
  3
533e4a92-0xa7cf-11d7-A5DD-005004E2D0E9
360
4B2294
  3
bb38635b-0xb2f7-11d7-A5E6-005004E2D0E9
360
4B3122
  3
dbadb4fc-0xc76d-43c6-BEA3-0F179EB77B8A
360
4B3892
  3
dd5988cd-0xe1ef-42b2-8E76-4BD449D000C6
360
4B38E1
  0
DICTIONARY
  5
4B1D44
102
{ACAD_REACTORS
330
4B1D43
102
}
330
4B1D43
100
AcDbDictionary
281
     1
  0
XRECORD
  5
4B422B
102
{ACAD_REACTORS
330
4B422A
102
}
330
4B422A
100
AcDbXrecord
280
     1
290
     1
  0
XRECORD
  5
4B422D
102
{ACAD_REACTORS
330
4B422C
102
}
330
4B422C
100
AcDbXrecord
280
     1
290
     1
  0
XRECORD
  5
4B422F
102
{ACAD_REACTORS
330
4B422E
102
}
330
4B422E
100
AcDbXrecord
280
     1
290
     1
  0
XRECORD
  5
4B4233
102
{ACAD_REACTORS
330
4B4232
102
}
330
4B4232
100
AcDbXrecord
280
     1
290
     1
  0
XRECORD
  5
4B4235
102
{ACAD_REACTORS
330
4B4234
102
}
330
4B4234
100
AcDbXrecord
280
     1
290
     1
  0
XRECORD
  5
4B4239
102
{ACAD_REACTORS
330
4B4238
102
}
330
4B4238
100
AcDbXrecord
280
     1
290
     1
  0
SORTENTSTABLE
  5
4B385A
102
{ACAD_REACTORS
330
4B3859
102
}
330
4B3859
100
AcDbSortentsTable
330
4B1AC8
331
4B21B5
  5
4B21F0
331
4B21B6
  5
4B21F1
331
4B21D5
  5
4B221A
331
4B21D6
  5
4B2232
331
4B221A
  5
4B224D
331
4B2232
  5
4B224E
331
4B224A
  5
4B224F
331
4B224B
  5
4B2250
331
4B224C
  5
4B2268
331
4B224D
  5
4B228D
331
4B224E
  5
4B2293
331
4B224F
  5
4B239E
331
4B2250
  5
4B23C9
331
4B2268
  5
4B23D5
331
4B228D
  5
4B30CC
331
4B2293
  5
4B3167
331
4B239E
  5
4B316C
331
4B23C9
  5
4B316E
331
4B30CC
  5
4B316F
331
4B3167
  5
4B3170
331
4B316C
  5
4B3171
331
4B316D
  5
4B3172
331
4B316E
  5
4B3173
331
4B316F
  5
4B3174
331
4B3170
  5
4B31B4
331
4B3171
  5
4B31C6
331
4B3172
  5
4B31C7
331
4B3173
  5
4B31C8
331
4B3174
  5
4B31C9
331
4B3689
  5
4B36AC
331
4B36C2
  5
4B36CA
331
4B36C3
  5
4B36CB
331
4B36C4
  5
4B36CC
331
4B36C5
  5
4B36CD
331
4B36C8
  5
4B36CE
331
4B36C9
  5
4B36CF
331
4B36CA
  5
4B36D0
331
4B36D0
  5
4B36F9
331
4B36D1
  5
4B36FA
331
4B36DB
  5
4B3700
331
4B370C
  5
4B3731
331
4B3734
  5
4B375F
331
4B373C
  5
4B3824
331
4B375C
  5
4B3838
331
4B375D
  5
4B383A
331
4B3760
  5
4B3858
331
4B3824
  5
4B3860
331
4B3835
  5
4B3866
331
4B3837
  5
4B386C
331
4B3838
  5
4B3885
331
4B383A
  5
4B3887
331
4B3858
  5
4B21D5
331
4B3860
  5
4B21B5
331
4B3866
  5
4B1E34
331
4B3885
  5
4B3891
331
4B3887
  5
4B3893
331
4B3891
  5
4B389F
331
4B3893
  5
4B38A1
331
4B389F
  5
4B38A3
331
4B38A1
  5
4B38A4
331
4B38A3
  5
4B38A6
331
4B38A4
  5
4B38A7
331
4B38B1
  5
4B38C3
331
4B38BD
  5
4B224C
331
4B38C3
  5
4B31CB
  0
SORTENTSTABLE
  5
4B3830
102
{ACAD_REACTORS
330
4B382F
102
}
330
4B382F
100
AcDbSortentsTable
330
4B382B
  0
SORTENTSTABLE
  5
4B388D
102
{ACAD_REACTORS
330
4B388C
102
}
330
4B388C
100
AcDbSortentsTable
330
4B388A
  0
SORTENTSTABLE
  5
4B389B
102
{ACAD_REACTORS
330
4B389A
102
}
330
4B389A
100
AcDbSortentsTable
330
4B3897
  0
SORTENTSTABLE
  5
4B38CF
102
{ACAD_REACTORS
330
4B38CE
102
}
330
4B38CE
100
AcDbSortentsTable
330
4B38CB
  0
SORTENTSTABLE
  5
4B38DC
102
{ACAD_REACTORS
330
4B38DB
102
}
330
4B38DB
100
AcDbSortentsTable
330
4B38D8
  0
SORTENTSTABLE
  5
4B451E
102
{ACAD_REACTORS
330
4B451D
102
}
330
4B451D
100
AcDbSortentsTable
330
4B451C
  0
ACDBDETAILVIEWSTYLE
  5
4B4220
102
{ACAD_REACTORS
330
4B421F
102
}
330
4B421F
100
AcDbModelDocViewStyle
 70
     0
  3
Imperial24
290
     0
300
Imperial24
 90
        0
100
AcDbDetailViewStyle
 70
     0
 71
     0
 90
        3
 71
     1
340
4B1AC0
 62
   256
 40
0.24
340
0
 62
   256
 40
0.24
300

 40
0.36
280
     3
 71
     2
340
4B1AC4
 90
       25
 62
   256
 71
     3
340
4B1AC0
 62
   256
 40
0.24
 90
        1
 40
0.75
 90
        1
300
%<\AcVar ViewType \f "%tc1">% %<\AcVar ViewDetailId>%\PSCALE %<\AcVar ViewScale \f "%sn">%
 71
     4
340
4B1AC4
 90
       25
 62
   256
340
4B1AC4
 90
       25
 62
   256
280
     0
  0
LAYOUT
  5
4B1D17
102
{ACAD_REACTORS
330
4B1D14
102
}
330
4B1D14
100
AcDbPlotSettings
  1

  2
\\CADSERVER\Jet25 Eng
  4

  6

 40
0.0
 41
0.0
 42
0.0
 43
0.0
 44
0.0
 45
0.0
 46
0.0
 47
0.0
 48
0.0
 49
0.0
140
0.0
141
0.0
142
1.0
143
1.0
 70
   688
 72
     0
 73
     0
 74
     5
  7
Harvey Std Plot Style.ctb
 75
    16
147
1.0
 76
     0
 77
     2
 78
   300
148
0.0
149
0.0
100
AcDbLayout
  1
Layout1
 70
     1
 71
     1
 10
0.0
 20
0.0
 11
12.0
 21
9.0
 12
0.0
 22
0.0
 32
0.0
 14
1.000000000000000E+20
 24
1.000000000000000E+20
 34
1.000000000000000E+20
 15
-1.000000000000000E+20
 25
-1.000000000000000E+20
 35
-1.000000000000000E+20
146
0.0
 13
0.0
 23
0.0
 33
0.0
 16
1.0
 26
0.0
 36
0.0
 17
0.0
 27
1.0
 37
0.0
 76
     0
330
4B1AC5
  0
LAYOUT
  5
4B1D16
102
{ACAD_REACTORS
330
4B1D14
102
}
330
4B1D14
100
AcDbPlotSettings
  1

  2
LaserJet 4V.pc3
  4
ANSI_A_(8.50_x_11.00_Inches)
  6
OLE1
 40
5.027082920074462
 41
5.027082920074462
 42
9.345077514648437
 43
5.11175537109375
 44
215.8999938964844
 45
279.3999938964844
 46
0.0
 47
0.0
 48
0.0
 49
0.0
140
0.0
141
0.0
142
1.0
143
2.0
 70
 11952
 72
     0
 73
     0
 74
     1
  7
Harvey Std Plot Style.ctb
 75
    17
147
0.5
 76
     0
 77
     2
 78
   300
148
-11.83096059512709
149
-16.42668728283952
100
AcDbLayout
  1
Model
 70
     1
 71
     0
 10
0.0
 20
0.0
 11
12.0
 21
9.0
 12
0.0
 22
0.0
 32
0.0
 14
0.0
 24
0.0
 34
0.0
 15
0.0
 25
0.0
 35
0.0
146
0.0
 13
0.0
 23
0.0
 33
0.0
 16
1.0
 26
0.0
 36
0.0
 17
0.0
 27
1.0
 37
0.0
 76
     0
330
4B1AC8
331
4B41D6
  0
MATERIAL
  5
4B41E0
102
{ACAD_XDICTIONARY
360
4B41E1
102
}
102
{ACAD_REACTORS
330
4B3766
102
}
330
4B3766
100
AcDbMaterial
  1
ByBlock
 72
     0
 43
0.0208333333333333
 43
0.0
 43
0.0
 43
0.0
 43
0.0
 43
0.0208333333333333
 43
0.0
 43
0.0
 43
0.0
 43
0.0
 43
1.0
 43
0.0
 43
0.0
 43
0.0
 43
0.0
 43
1.0
 77
     0
 47
0.0208333333333333
 47
0.0
 47
0.0
 47
0.0
 47
0.0
 47
0.0208333333333333
 47
0.0
 47
0.0
 47
0.0
 47
0.0
 47
1.0
 47
0.0
 47
0.0
 47
0.0
 47
0.0
 47
1.0
171
     0
 49
0.0208333333333333
 49
0.0
 49
0.0
 49
0.0
 49
0.0
 49
0.0208333333333333
 49
0.0
 49
0.0
 49
0.0
 49
0.0
 49
1.0
 49
0.0
 49
0.0
 49
0.0
 49
0.0
 49
1.0
175
     0
142
0.0208333333333333
142
0.0
142
0.0
142
0.0
142
0.0
142
0.0208333333333333
142
0.0
142
0.0
142
0.0
142
0.0
142
1.0
142
0.0
142
0.0
142
0.0
142
0.0
142
1.0
179
     0
144
0.0208333333333333
144
0.0
144
0.0
144
0.0
144
0.0
144
0.0208333333333333
144
0.0
144
0.0
144
0.0
144
0.0
144
1.0
144
0.0
144
0.0
144
0.0
144
0.0
144
1.0
147
0.0208333333333333
147
0.0
147
0.0
147
0.0
147
0.0
147
0.0208333333333333
147
0.0
147
0.0
147
0.0
147
0.0
147
1.0
147
0.0
147
0.0
147
0.0
147
0.0
147
1.0
  0
MATERIAL
  5
4B41D8
102
{ACAD_XDICTIONARY
360
4B41D9
102
}
102
{ACAD_REACTORS
330
4B3766
102
}
330
4B3766
100
AcDbMaterial
  1
ByLayer
 72
     0
 43
0.0208333333333333
 43
0.0
 43
0.0
 43
0.0
 43
0.0
 43
0.0208333333333333
 43
0.0
 43
0.0
 43
0.0
 43
0.0
 43
1.0
 43
0.0
 43
0.0
 43
0.0
 43
0.0
 43
1.0
 77
     0
 47
0.0208333333333333
 47
0.0
 47
0.0
 47
0.0
 47
0.0
 47
0.0208333333333333
 47
0.0
 47
0.0
 47
0.0
 47
0.0
 47
1.0
 47
0.0
 47
0.0
 47
0.0
 47
0.0
 47
1.0
171
     0
 49
0.0208333333333333
 49
0.0
 49
0.0
 49
0.0
 49
0.0
 49
0.0208333333333333
 49
0.0
 49
0.0
 49
0.0
 49
0.0
 49
1.0
 49
0.0
 49
0.0
 49
0.0
 49
0.0
 49
1.0
175
     0
142
0.0208333333333333
142
0.0
142
0.0
142
0.0
142
0.0
142
0.0208333333333333
142
0.0
142
0.0
142
0.0
142
0.0
142
1.0
142
0.0
142
0.0
142
0.0
142
0.0
142
1.0
179
     0
144
0.0208333333333333
144
0.0
144
0.0
144
0.0
144
0.0
144
0.0208333333333333
144
0.0
144
0.0
144
0.0
144
0.0
144
1.0
144
0.0
144
0.0
144
0.0
144
0.0
144
1.0
147
0.0208333333333333
147
0.0
147
0.0
147
0.0
147
0.0
147
0.0208333333333333
147
0.0
147
0.0
147
0.0
147
0.0
147
1.0
147
0.0
147
0.0
147
0.0
147
0.0
147
1.0
  0
MATERIAL
  5
4B41E8
102
{ACAD_XDICTIONARY
360
4B41E9
102
}
102
{ACAD_REACTORS
330
4B3766
102
}
330
4B3766
100
AcDbMaterial
  1
Global
 72
     0
 43
0.0208333333333333
 43
0.0
 43
0.0
 43
0.0
 43
0.0
 43
0.0208333333333333
 43
0.0
 43
0.0
 43
0.0
 43
0.0
 43
1.0
 43
0.0
 43
0.0
 43
0.0
 43
0.0
 43
1.0
 77
     0
 47
0.0208333333333333
 47
0.0
 47
0.0
 47
0.0
 47
0.0
 47
0.0208333333333333
 47
0.0
 47
0.0
 47
0.0
 47
0.0
 47
1.0
 47
0.0
 47
0.0
 47
0.0
 47
0.0
 47
1.0
171
     0
 49
0.0208333333333333
 49
0.0
 49
0.0
 49
0.0
 49
0.0
 49
0.0208333333333333
 49
0.0
 49
0.0
 49
0.0
 49
0.0
 49
1.0
 49
0.0
 49
0.0
 49
0.0
 49
0.0
 49
1.0
175
     0
142
0.0208333333333333
142
0.0
142
0.0
142
0.0
142
0.0
142
0.0208333333333333
142
0.0
142
0.0
142
0.0
142
0.0
142
1.0
142
0.0
142
0.0
142
0.0
142
0.0
142
1.0
179
     0
144
0.0208333333333333
144
0.0
144
0.0
144
0.0
144
0.0
144
0.0208333333333333
144
0.0
144
0.0
144
0.0
144
0.0
144
1.0
144
0.0
144
0.0
144
0.0
144
0.0
144
1.0
147
0.0208333333333333
147
0.0
147
0.0
147
0.0
147
0.0
147
0.0208333333333333
147
0.0
147
0.0
147
0.0
147
0.0
147
1.0
147
0.0
147
0.0
147
0.0
147
0.0
147
1.0
  0
MLEADERSTYLE
  5
4B421C
102
{ACAD_REACTORS
330
4B421B
102
}
330
4B421B
100
AcDbMLeaderStyle
179
     2
170
     2
171
     1
172
     0
 90
        2
 40
0.0
 41
0.0
173
     1
 91
-1056964608
340
4B1AC2
 92
       -2
290
     1
 42
0.09
291
     1
 43
0.36
  3
Standard
 44
0.18
300

342
4B1AC0
174
     1
178
     6
175
     1
176
     0
 93
-1056964608
 45
0.18
292
     0
297
     0
 46
0.18
 94
-1056964608
 47
1.0
 49
1.0
140
1.0
293
     1
141
0.0
294
     1
177
     0
142
1.0
295
     0
296
     0
143
0.125
271
     0
272
     9
273
     9
298
     1
  0
MLINESTYLE
  5
4B1ACB
102
{ACAD_REACTORS
330
4B1ABE
102
}
330
4B1ABE
100
AcDbMlineStyle
  2
STANDARD
 70
     0
  3

 62
     0
 51
90.0
 52
90.0
 71
     2
 49
0.5
 62
   256
  6
BYLAYER
 49
-0.5
 62
   256
  6
BYLAYER
  0
PLOTSETTINGS
  5
4B1D2C
102
{ACAD_REACTORS
330
4B1D15
102
}
330
4B1D15
100
AcDbPlotSettings
  1
A_size_1_to_1
  2
\\CADSERVER\Jet25 Eng
  4
Letter
  6
OLE1
 40
7.143749713897705
 41
6.720414161682128
 42
7.14373779296875
 43
5.027069091796875
 44
215.8999938964844
 45
279.3999938964844
 46
0.0
 47
0.0
 48
0.0
 49
0.0
140
0.0
141
0.0
142
1.0
143
1.0
 70
  1712
 72
     0
 73
     1
 74
     2
  7
Harvey Std Plot Style.ctb
 75
    16
147
1.0
 76
     0
 77
     2
 78
   300
148
0.0
149
0.0
  0
PLOTSETTINGS
  5
4B1D2E
102
{ACAD_REACTORS
330
4B1D15
102
}
330
4B1D15
100
AcDbPlotSettings
  1
B_size_1_to_1
  2
\\CADSERVER\Jet25 Eng
  4
Tabloid
  6
OLE1
 40
7.143749713897705
 41
5.873736858367919
 42
7.143768310546875
 43
7.14373779296875
 44
279.3999938964844
 45
431.7999877929687
 46
0.0
 47
0.0
 48
0.0
 49
0.0
140
0.0
141
0.0
142
1.0
143
1.0
 70
  1712
 72
     0
 73
     1
 74
     2
  7
Harvey Std Plot Style.ctb
 75
    16
147
1.0
 76
     0
 77
     2
 78
   300
148
0.0
149
0.0
  0
ACDBPLACEHOLDER
  5
4B1D13
102
{ACAD_REACTORS
330
4B1D12
102
}
330
4B1D12
  0
SCALE
  5
4B420A
102
{ACAD_REACTORS
330
4B4209
102
}
330
4B4209
100
AcDbScale
 70
     0
300
1:1
140
1.0
141
1.0
290
     1
  0
SCALE
  5
4B420B
102
{ACAD_REACTORS
330
4B4209
102
}
330
4B4209
100
AcDbScale
 70
     0
300
1/128" = 1'-0"
140
0.0078125
141
12.0
290
     0
  0
SCALE
  5
4B420C
102
{ACAD_REACTORS
330
4B4209
102
}
330
4B4209
100
AcDbScale
 70
     0
300
1/64" = 1'-0"
140
0.015625
141
12.0
290
     0
  0
SCALE
  5
4B420D
102
{ACAD_REACTORS
330
4B4209
102
}
330
4B4209
100
AcDbScale
 70
     0
300
1/32" = 1'-0"
140
0.03125
141
12.0
290
     0
  0
SCALE
  5
4B420E
102
{ACAD_REACTORS
330
4B4209
102
}
330
4B4209
100
AcDbScale
 70
     0
300
1/16" = 1'-0"
140
0.0625
141
12.0
290
     0
  0
SCALE
  5
4B420F
102
{ACAD_REACTORS
330
4B4209
102
}
330
4B4209
100
AcDbScale
 70
     0
300
3/32" = 1'-0"
140
0.09375
141
12.0
290
     0
  0
SCALE
  5
4B4210
102
{ACAD_REACTORS
330
4B4209
102
}
330
4B4209
100
AcDbScale
 70
     0
300
1/8" = 1'-0"
140
0.125
141
12.0
290
     0
  0
SCALE
  5
4B4211
102
{ACAD_REACTORS
330
4B4209
102
}
330
4B4209
100
AcDbScale
 70
     0
300
3/16" = 1'-0"
140
0.1875
141
12.0
290
     0
  0
SCALE
  5
4B4212
102
{ACAD_REACTORS
330
4B4209
102
}
330
4B4209
100
AcDbScale
 70
     0
300
1/4" = 1'-0"
140
0.25
141
12.0
290
     0
  0
SCALE
  5
4B4213
102
{ACAD_REACTORS
330
4B4209
102
}
330
4B4209
100
AcDbScale
 70
     0
300
3/8" = 1'-0"
140
0.375
141
12.0
290
     0
  0
SCALE
  5
4B4214
102
{ACAD_REACTORS
330
4B4209
102
}
330
4B4209
100
AcDbScale
 70
     0
300
1/2" = 1'-0"
140
0.5
141
12.0
290
     0
  0
SCALE
  5
4B4215
102
{ACAD_REACTORS
330
4B4209
102
}
330
4B4209
100
AcDbScale
 70
     0
300
3/4" = 1'-0"
140
0.75
141
12.0
290
     0
  0
SCALE
  5
4B4216
102
{ACAD_REACTORS
330
4B4209
102
}
330
4B4209
100
AcDbScale
 70
     0
300
1" = 1'-0"
140
1.0
141
12.0
290
     0
  0
SCALE
  5
4B4217
102
{ACAD_REACTORS
330
4B4209
102
}
330
4B4209
100
AcDbScale
 70
     0
300
1-1/2" = 1'-0"
140
1.5
141
12.0
290
     0
  0
SCALE
  5
4B4218
102
{ACAD_REACTORS
330
4B4209
102
}
330
4B4209
100
AcDbScale
 70
     0
300
3" = 1'-0"
140
3.0
141
12.0
290
     0
  0
SCALE
  5
4B4219
102
{ACAD_REACTORS
330
4B4209
102
}
330
4B4209
100
AcDbScale
 70
     0
300
6" = 1'-0"
140
6.0
141
12.0
290
     0
  0
SCALE
  5
4B421A
102
{ACAD_REACTORS
330
4B4209
102
}
330
4B4209
100
AcDbScale
 70
     0
300
1'-0" = 1'-0"
140
12.0
141
12.0
290
     0
  0
ACDBSECTIONVIEWSTYLE
  5
4B421E
102
{ACAD_REACTORS
330
4B421D
102
}
330
4B421D
100
AcDbModelDocViewStyle
 70
     0
  3
Imperial24
290
     0
300
Imperial24
 90
        0
100
AcDbSectionViewStyle
 70
     0
 71
     0
 90
       78
 71
     1
340
4B1AC0
 62
   256
 40
0.24
340
0
340
0
 62
   256
 40
0.24
300
I, O, Q, S, X, Z
 40
0.48
 90
        3
 40
0.18
 90
        1
 71
     2
340
4B37A3
 90
       25
 62
   256
340
4B1AC4
 90
       50
 62
   256
 40
0.24
 40
0.0
 40
0.24
 71
     3
340
4B1AC0
 62
   256
 40
0.24
 90
        1
 40
0.75
 90
        1
300
%<\AcVar ViewType \f "%tc1">% %<\AcVar ViewSectionStartId>%-%<\AcVar ViewSectionEndId>%\PSCALE %<\AcVar ViewScale \f "%sn">%
 71
     4
 62
   256
 62
   257
300
ANSI31
 40
1.0
 90
        0
290
     0
290
     0
 90
        6
 40
0.0
 40
1.570796326794896
 40
0.2617993877991494
 40
1.308996938995747
 40
-0.2617993877991494
 40
1.832595714594046
  0
TABLESTYLE
  5
4B3769
102
{ACAD_XDICTIONARY
360
4B4766
102
}
102
{ACAD_REACTORS
330
4B3768
102
}
330
4B3768
100
AcDbTableStyle
280
     0
  3
Standard
 70
     0
 71
     0
 40
0.06
 41
0.06
280
     0
281
     0
  7
STANDARD
140
0.18
170
     2
 62
     0
 63
     7
283
     0
 90
        4
 91
        0
  1

274
    -2
284
     1
 64
     0
275
    -2
285
     1
 65
     0
276
    -2
286
     1
 66
     0
277
    -2
287
     1
 67
     0
278
    -2
288
     1
 68
     0
279
    -2
289
     1
 69
     0
  7
STANDARD
140
0.25
170
     5
 62
     0
 63
     7
283
     0
 90
        4
 91
        0
  1

274
    -2
284
     1
 64
     0
275
    -2
285
     1
 65
     0
276
    -2
286
     1
 66
     0
277
    -2
287
     1
 67
     0
278
    -2
288
     1
 68
     0
279
    -2
289
     1
 69
     0
  7
STANDARD
140
0.18
170
     5
 62
     0
 63
     7
283
     0
 90
        4
 91
        0
  1

274
    -2
284
     1
 64
     0
275
    -2
285
     1
 65
     0
276
    -2
286
     1
 66
     0
277
    -2
287
     1
 67
     0
278
    -2
288
     1
 68
     0
279
    -2
289
     1
 69
     0
  0
VISUALSTYLE
  5
4B41F6
102
{ACAD_REACTORS
330
4B41F0
102
}
330
4B41F0
100
AcDbVisualStyle
  2
2dWireframe
 70
     4
177
     3
291
     0
 70
    58
 90
        0
176
     1
 90
        2
176
     1
 90
        0
176
     1
 90
        0
176
     1
 40
0.6
176
     1
 40
30.0
176
     1
 62
     7
420
 16777215
176
     1
 90
        1
176
     1
 90
        4
176
     1
 62
     7
176
     1
 62
   257
176
     1
 90
        1
176
     1
 90
        1
176
     1
 40
1.0
176
     1
 90
        0
176
     1
 62
   257
176
     1
 40
1.0
176
     1
 90
        1
176
     1
 90
        6
176
     1
 90
        2
176
     1
 62
     7
176
     1
 90
        5
176
     1
 90
        0
176
     1
 90
        0
176
     1
290
     0
176
     1
 90
        1
176
     1
 40
0.0
176
     1
 90
        0
176
     1
290
     1
176
     1
290
     1
176
     1
290
     0
176
     1
290
     0
176
     1
290
     0
176
     1
290
     0
176
     1
290
     0
176
     1
290
     0
176
     1
290
     0
176
     1
 90
       50
176
     1
 40
0.0
176
     1
 40
1.0
176
     1
 90
        0
176
     1
 62
    18
420
        0
176
     1
 90
       50
176
     1
 90
        3
176
     1
 62
     5
420
      255
176
     1
290
     0
176
     1
 90
       50
176
     1
 90
       50
176
     1
 90
       50
176
     1
290
     0
176
     1
 90
       50
176
     1
 62
   256
176
     0
 40
1.0
176
     0
 90
        2
176
     1
  1
strokes_ogs.tif
176
     1
290
     0
176
     1
 40
1.0
176
     1
 40
1.0
176
     1
  0
VISUALSTYLE
  5
4B41F5
102
{ACAD_REACTORS
330
4B41F0
102
}
330
4B41F0
100
AcDbVisualStyle
  2
Basic
 70
     7
177
     3
291
     1
 70
    58
 90
        1
176
     1
 90
        0
176
     1
 90
        1
176
     1
 90
        0
176
     1
 40
0.6
176
     1
 40
30.0
176
     1
 62
     7
420
 16777215
176
     1
 90
        0
176
     1
 90
        4
176
     1
 62
     7
176
     1
 62
   257
176
     1
 90
        1
176
     1
 90
        1
176
     1
 40
1.0
176
     1
 90
        8
176
     1
 62
     7
176
     1
 40
1.0
176
     1
 90
        1
176
     1
 90
        6
176
     1
 90
        2
176
     1
 62
     7
176
     1
 90
        5
176
     1
 90
        0
176
     1
 90
        0
176
     1
290
     0
176
     1
 90
        1
176
     1
 40
0.0
176
     1
 90
        0
176
     1
290
     0
176
     1
290
     1
176
     1
290
     1
176
     1
290
     0
176
     1
290
     0
176
     1
290
     0
176
     1
290
     0
176
     1
290
     0
176
     1
290
     0
176
     1
 90
       50
176
     1
 40
0.0
176
     1
 40
1.0
176
     1
 90
        0
176
     1
 62
    18
420
        0
176
     1
 90
       50
176
     1
 90
        3
176
     1
 62
     5
420
      255
176
     1
290
     0
176
     1
 90
       50
176
     1
 90
       50
176
     1
 90
       50
176
     1
290
     0
176
     1
 90
       50
176
     1
 62
   256
176
     0
 40
1.0
176
     0
 90
        2
176
     1
  1
strokes_ogs.tif
176
     1
290
     0
176
     1
 40
1.0
176
     1
 40
1.0
176
     1
  0
VISUALSTYLE
  5
4B41FC
102
{ACAD_REACTORS
330
4B41F0
102
}
330
4B41F0
100
AcDbVisualStyle
  2
Brighten
 70
    12
177
     3
291
     1
 70
    58
 90
        2
176
     1
 90
        2
176
     1
 90
        0
176
     1
 90
        0
176
     1
 40
0.6
176
     1
 40
30.0
176
     1
 62
     7
420
 16777215
176
     1
 90
        1
176
     1
 90
        4
176
     1
 62
     7
176
     1
 62
   257
176
     1
 90
        1
176
     1
 90
        1
176
     1
 40
1.0
176
     1
 90
        8
176
     1
 62
     7
176
     1
 40
1.0
176
     1
 90
        1
176
     1
 90
        6
176
     1
 90
        2
176
     1
 62
     7
176
     1
 90
        5
176
     1
 90
        0
176
     1
 90
        0
176
     1
290
     0
176
     1
 90
        1
176
     1
 40
50.0
176
     1
 90
        0
176
     1
290
     0
176
     1
290
     1
176
     1
290
     1
176
     1
290
     0
176
     1
290
     0
176
     1
290
     0
176
     1
290
     0
176
     1
290
     0
176
     1
290
     0
176
     1
 90
       50
176
     1
 40
0.0
176
     1
 40
1.0
176
     1
 90
        0
176
     1
 62
    18
420
        0
176
     1
 90
       50
176
     1
 90
        3
176
     1
 62
     5
420
      255
176
     1
290
     0
176
     1
 90
       50
176
     1
 90
       50
176
     1
 90
       50
176
     1
290
     0
176
     1
 90
       50
176
     1
 62
   256
176
     0
 40
1.0
176
     0
 90
        2
176
     1
  1
strokes_ogs.tif
176
     1
290
     0
176
     1
 40
1.0
176
     1
 40
1.0
176
     1
  0
VISUALSTYLE
  5
4B4200
102
{ACAD_REACTORS
330
4B41F0
102
}
330
4B41F0
100
AcDbVisualStyle
  2
ColorChange
 70
    16
177
     3
291
     1
 70
    58
 90
        2
176
     1
 90
        2
176
     1
 90
        3
176
     1
 90
        0
176
     1
 40
0.6
176
     1
 40
30.0
176
     1
 62
     8
420
  8421504
176
     1
 90
        1
176
     1
 90
        4
176
     1
 62
     7
176
     1
 62
   257
176
     1
 90
        1
176
     1
 90
        1
176
     1
 40
1.0
176
     1
 90
        8
176
     1
 62
     8
420
  8421504
176
     1
 40
1.0
176
     1
 90
        1
176
     1
 90
        6
176
     1
 90
        2
176
     1
 62
     7
176
     1
 90
        5
176
     1
 90
        0
176
     1
 90
        0
176
     1
290
     0
176
     1
 90
        1
176
     1
 40
0.0
176
     1
 90
        0
176
     1
290
     0
176
     1
290
     1
176
     1
290
     1
176
     1
290
     0
176
     1
290
     0
176
     1
290
     0
176
     1
290
     0
176
     1
290
     0
176
     1
290
     0
176
     1
 90
       50
176
     1
 40
0.0
176
     1
 40
1.0
176
     1
 90
        0
176
     1
 62
    18
420
        0
176
     1
 90
       50
176
     1
 90
        3
176
     1
 62
     5
420
      255
176
     1
290
     0
176
     1
 90
       50
176
     1
 90
       50
176
     1
 90
       50
176
     1
290
     0
176
     1
 90
       50
176
     1
 62
   256
176
     0
 40
1.0
176
     0
 90
        2
176
     1
  1
strokes_ogs.tif
176
     1
290
     0
176
     1
 40
1.0
176
     1
 40
1.0
176
     1
  0
VISUALSTYLE
  5
4B41F9
102
{ACAD_REACTORS
330
4B41F0
102
}
330
4B41F0
100
AcDbVisualStyle
  2
Conceptual
 70
     9
177
     3
291
     0
 70
    58
 90
        3
176
     1
 90
        2
176
     1
 90
        0
176
     1
 90
        0
176
     1
 40
0.6
176
     1
 40
30.0
176
     1
 62
     7
420
 16777215
176
     1
 90
        2
176
     1
 90
        2
176
     1
 62
     7
176
     1
 62
   257
176
     1
 90
        1
176
     1
 90
        1
176
     1
 40
179.0
176
     1
 90
        8
176
     1
 62
     7
176
     1
 40
1.0
176
     1
 90
        1
176
     1
 90
        6
176
     1
 90
        2
176
     1
 62
     7
176
     1
 90
        3
176
     1
 90
        0
176
     1
 90
        0
176
     1
290
     0
176
     1
 90
        1
176
     1
 40
0.0
176
     1
 90
        0
176
     1
290
     0
176
     1
290
     1
176
     1
290
     1
176
     1
290
     0
176
     1
290
     0
176
     1
290
     0
176
     1
290
     0
176
     1
290
     0
176
     1
290
     0
176
     1
 90
       50
176
     1
 40
0.0
176
     1
 40
1.0
176
     1
 90
        0
176
     1
 62
    18
420
        0
176
     1
 90
       50
176
     1
 90
        3
176
     1
 62
     5
420
      255
176
     1
290
     0
176
     1
 90
       50
176
     1
 90
       50
176
     1
 90
       50
176
     1
290
     0
176
     1
 90
       50
176
     1
 62
   256
176
     0
 40
1.0
176
     0
 90
        2
176
     1
  1
strokes_ogs.tif
176
     1
290
     0
176
     1
 40
1.0
176
     1
 40
1.0
176
     1
  0
VISUALSTYLE
  5
4B41FB
102
{ACAD_REACTORS
330
4B41F0
102
}
330
4B41F0
100
AcDbVisualStyle
  2
Dim
 70
    11
177
     3
291
     1
 70
    58
 90
        2
176
     1
 90
        2
176
     1
 90
        0
176
     1
 90
        0
176
     1
 40
0.6
176
     1
 40
30.0
176
     1
 62
     7
420
 16777215
176
     1
 90
        1
176
     1
 90
        4
176
     1
 62
     7
176
     1
 62
   257
176
     1
 90
        1
176
     1
 90
        1
176
     1
 40
1.0
176
     1
 90
        8
176
     1
 62
     7
176
     1
 40
1.0
176
     1
 90
        1
176
     1
 90
        6
176
     1
 90
        2
176
     1
 62
     7
176
     1
 90
        5
176
     1
 90
        0
176
     1
 90
        0
176
     1
290
     0
176
     1
 90
        1
176
     1
 40
-50.0
176
     1
 90
        0
176
     1
290
     0
176
     1
290
     1
176
     1
290
     1
176
     1
290
     0
176
     1
290
     0
176
     1
290
     0
176
     1
290
     0
176
     1
290
     0
176
     1
290
     0
176
     1
 90
       50
176
     1
 40
0.0
176
     1
 40
1.0
176
     1
 90
        0
176
     1
 62
    18
420
        0
176
     1
 90
       50
176
     1
 90
        3
176
     1
 62
     5
420
      255
176
     1
290
     0
176
     1
 90
       50
176
     1
 90
       50
176
     1
 90
       50
176
     1
290
     0
176
     1
 90
       50
176
     1
 62
   256
176
     0
 40
1.0
176
     0
 90
        2
176
     1
  1
strokes_ogs.tif
176
     1
290
     0
176
     1
 40
1.0
176
     1
 40
1.0
176
     1
  0
VISUALSTYLE
  5
4B4208
102
{ACAD_REACTORS
330
4B41F0
102
}
330
4B41F0
100
AcDbVisualStyle
  2
EdgeColorOff
 70
    22
177
     3
291
     1
 70
    58
 90
        2
176
     0
 90
        2
176
     0
 90
        0
176
     0
 90
        0
176
     0
 40
0.6
176
     0
 40
30.0
176
     0
 62
     7
420
 16777215
176
     0
 90
        1
176
     0
 90
        4
176
     0
 62
     7
176
     0
 62
   257
176
     0
 90
        1
176
     0
 90
        1
176
     0
 40
1.0
176
     0
 90
        8
176
     2
 62
     7
176
     0
 40
1.0
176
     0
 90
        1
176
     0
 90
        6
176
     0
 90
        2
176
     0
 62
     7
176
     0
 90
        5
176
     0
 90
        0
176
     0
 90
        0
176
     0
290
     0
176
     0
 90
        1
176
     0
 40
0.0
176
     0
 90
        0
176
     0
290
     0
176
     0
290
     1
176
     0
290
     1
176
     0
290
     0
176
     0
290
     0
176
     0
290
     0
176
     0
290
     0
176
     0
290
     0
176
     0
290
     0
176
     0
 90
       50
176
     0
 40
0.0
176
     0
 40
1.0
176
     0
 90
        0
176
     0
 62
    18
420
        0
176
     0
 90
       50
176
     0
 90
        3
176
     0
 62
     5
420
      255
176
     0
290
     0
176
     0
 90
       50
176
     0
 90
       50
176
     0
 90
       50
176
     0
290
     0
176
     0
 90
       50
176
     0
 62
   256
176
     0
 40
1.0
176
     0
 90
        2
176
     0
  1
strokes_ogs.tif
176
     0
290
     0
176
     0
 40
1.0
176
     0
 40
1.0
176
     0
  0
VISUALSTYLE
  5
4B41FF
102
{ACAD_REACTORS
330
4B41F0
102
}
330
4B41F0
100
AcDbVisualStyle
  2
Facepattern
 70
    15
177
     3
291
     1
 70
    58
 90
        2
176
     1
 90
        2
176
     1
 90
        0
176
     1
 90
        0
176
     1
 40
0.6
176
     1
 40
30.0
176
     1
 62
     7
420
 16777215
176
     1
 90
        1
176
     1
 90
        4
176
     1
 62
     7
176
     1
 62
   257
176
     1
 90
        1
176
     1
 90
        1
176
     1
 40
1.0
176
     1
 90
        8
176
     1
 62
     7
176
     1
 40
1.0
176
     1
 90
        1
176
     1
 90
        6
176
     1
 90
        2
176
     1
 62
     7
176
     1
 90
        5
176
     1
 90
        0
176
     1
 90
        0
176
     1
290
     0
176
     1
 90
        1
176
     1
 40
0.0
176
     1
 90
        0
176
     1
290
     0
176
     1
290
     1
176
     1
290
     1
176
     1
290
     0
176
     1
290
     0
176
     1
290
     0
176
     1
290
     0
176
     1
290
     0
176
     1
290
     0
176
     1
 90
       50
176
     1
 40
0.0
176
     1
 40
1.0
176
     1
 90
        0
176
     1
 62
    18
420
        0
176
     1
 90
       50
176
     1
 90
        3
176
     1
 62
     5
420
      255
176
     1
290
     0
176
     1
 90
       50
176
     1
 90
       50
176
     1
 90
       50
176
     1
290
     0
176
     1
 90
       50
176
     1
 62
   256
176
     0
 40
1.0
176
     0
 90
        2
176
     1
  1
strokes_ogs.tif
176
     1
290
     0
176
     1
 40
1.0
176
     1
 40
1.0
176
     1
  0
VISUALSTYLE
  5
4B41F1
102
{ACAD_REACTORS
330
4B41F0
102
}
330
4B41F0
100
AcDbVisualStyle
  2
Flat
 70
     0
177
     3
291
     1
 70
    58
 90
        2
176
     1
 90
        1
176
     1
 90
        1
176
     1
 90
        2
176
     1
 40
0.6
176
     1
 40
30.0
176
     1
 62
     7
420
 16777215
176
     1
 90
        0
176
     1
 90
        0
176
     1
 62
     7
176
     1
 62
   257
176
     1
 90
        1
176
     1
 90
        1
176
     1
 40
1.0
176
     1
 90
        8
176
     1
 62
     7
176
     1
 40
1.0
176
     1
 90
        1
176
     1
 90
        6
176
     1
 90
        2
176
     1
 62
     7
176
     1
 90
        5
176
     1
 90
        0
176
     1
 90
        0
176
     1
290
     0
176
     1
 90
       13
176
     1
 40
0.0
176
     1
 90
        0
176
     1
290
     0
176
     1
290
     1
176
     1
290
     1
176
     1
290
     0
176
     1
290
     0
176
     1
290
     0
176
     1
290
     0
176
     1
290
     0
176
     1
290
     0
176
     1
 90
       50
176
     1
 40
0.0
176
     1
 40
1.0
176
     1
 90
        0
176
     1
 62
    18
420
        0
176
     1
 90
       50
176
     1
 90
        3
176
     1
 62
     5
420
      255
176
     1
290
     0
176
     1
 90
       50
176
     1
 90
       50
176
     1
 90
       50
176
     1
290
     0
176
     1
 90
       50
176
     1
 62
   256
176
     0
 40
1.0
176
     0
 90
        2
176
     1
  1
strokes_ogs.tif
176
     1
290
     0
176
     1
 40
1.0
176
     1
 40
1.0
176
     1
  0
VISUALSTYLE
  5
4B41F2
102
{ACAD_REACTORS
330
4B41F0
102
}
330
4B41F0
100
AcDbVisualStyle
  2
FlatWithEdges
 70
     1
177
     3
291
     1
 70
    58
 90
        2
176
     1
 90
        1
176
     1
 90
        1
176
     1
 90
        2
176
     1
 40
0.6
176
     1
 40
30.0
176
     1
 62
     7
420
 16777215
176
     1
 90
        1
176
     1
 90
        0
176
     1
 62
     7
176
     1
 62
   257
176
     1
 90
        1
176
     1
 90
        1
176
     1
 40
1.0
176
     1
 90
        0
176
     1
 62
   257
176
     1
 40
1.0
176
     1
 90
        1
176
     1
 90
        6
176
     1
 90
        2
176
     1
 62
     7
176
     1
 90
        5
176
     1
 90
        0
176
     1
 90
        0
176
     1
290
     0
176
     1
 90
       13
176
     1
 40
0.0
176
     1
 90
        0
176
     1
290
     0
176
     1
290
     1
176
     1
290
     1
176
     1
290
     0
176
     1
290
     0
176
     1
290
     0
176
     1
290
     0
176
     1
290
     0
176
     1
290
     0
176
     1
 90
       50
176
     1
 40
0.0
176
     1
 40
1.0
176
     1
 90
        0
176
     1
 62
    18
420
        0
176
     1
 90
       50
176
     1
 90
        3
176
     1
 62
     5
420
      255
176
     1
290
     0
176
     1
 90
       50
176
     1
 90
       50
176
     1
 90
       50
176
     1
290
     0
176
     1
 90
       50
176
     1
 62
   256
176
     0
 40
1.0
176
     0
 90
        2
176
     1
  1
strokes_ogs.tif
176
     1
290
     0
176
     1
 40
1.0
176
     1
 40
1.0
176
     1
  0
VISUALSTYLE
  5
4B41F3
102
{ACAD_REACTORS
330
4B41F0
102
}
330
4B41F0
100
AcDbVisualStyle
  2
Gouraud
 70
     2
177
     3
291
     1
 70
    58
 90
        2
176
     1
 90
        2
176
     1
 90
        1
176
     1
 90
        2
176
     1
 40
0.6
176
     1
 40
30.0
176
     1
 62
     7
420
 16777215
176
     1
 90
        0
176
     1
 90
        0
176
     1
 62
     7
176
     1
 62
   257
176
     1
 90
        1
176
     1
 90
        1
176
     1
 40
1.0
176
     1
 90
        0
176
     1
 62
     7
176
     1
 40
1.0
176
     1
 90
        1
176
     1
 90
        6
176
     1
 90
        2
176
     1
 62
     7
176
     1
 90
        5
176
     1
 90
        0
176
     1
 90
        0
176
     1
290
     0
176
     1
 90
       13
176
     1
 40
0.0
176
     1
 90
        0
176
     1
290
     0
176
     1
290
     1
176
     1
290
     1
176
     1
290
     0
176
     1
290
     0
176
     1
290
     0
176
     1
290
     0
176
     1
290
     0
176
     1
290
     0
176
     1
 90
       50
176
     1
 40
0.0
176
     1
 40
1.0
176
     1
 90
        0
176
     1
 62
    18
420
        0
176
     1
 90
       50
176
     1
 90
        3
176
     1
 62
     5
420
      255
176
     1
290
     0
176
     1
 90
       50
176
     1
 90
       50
176
     1
 90
       50
176
     1
290
     0
176
     1
 90
       50
176
     1
 62
   256
176
     0
 40
1.0
176
     0
 90
        2
176
     1
  1
strokes_ogs.tif
176
     1
290
     0
176
     1
 40
1.0
176
     1
 40
1.0
176
     1
  0
VISUALSTYLE
  5
4B41F4
102
{ACAD_REACTORS
330
4B41F0
102
}
330
4B41F0
100
AcDbVisualStyle
  2
GouraudWithEdges
 70
     3
177
     3
291
     1
 70
    58
 90
        2
176
     1
 90
        2
176
     1
 90
        1
176
     1
 90
        2
176
     1
 40
0.6
176
     1
 40
30.0
176
     1
 62
     7
420
 16777215
176
     1
 90
        1
176
     1
 90
        0
176
     1
 62
     7
176
     1
 62
   257
176
     1
 90
        1
176
     1
 90
        1
176
     1
 40
1.0
176
     1
 90
        0
176
     1
 62
   257
176
     1
 40
1.0
176
     1
 90
        1
176
     1
 90
        6
176
     1
 90
        2
176
     1
 62
     7
176
     1
 90
        5
176
     1
 90
        0
176
     1
 90
        0
176
     1
290
     0
176
     1
 90
       13
176
     1
 40
0.0
176
     1
 90
        0
176
     1
290
     0
176
     1
290
     1
176
     1
290
     1
176
     1
290
     0
176
     1
290
     0
176
     1
290
     0
176
     1
290
     0
176
     1
290
     0
176
     1
290
     0
176
     1
 90
       50
176
     1
 40
0.0
176
     1
 40
1.0
176
     1
 90
        0
176
     1
 62
    18
420
        0
176
     1
 90
       50
176
     1
 90
        3
176
     1
 62
     5
420
      255
176
     1
290
     0
176
     1
 90
       50
176
     1
 90
       50
176
     1
 90
       50
176
     1
290
     0
176
     1
 90
       50
176
     1
 62
   256
176
     0
 40
1.0
176
     0
 90
        2
176
     1
  1
strokes_ogs.tif
176
     1
290
     0
176
     1
 40
1.0
176
     1
 40
1.0
176
     1
  0
VISUALSTYLE
  5
4B41F8
102
{ACAD_REACTORS
330
4B41F0
102
}
330
4B41F0
100
AcDbVisualStyle
  2
Hidden
 70
     6
177
     3
291
     0
 70
    58
 90
        1
176
     1
 90
        2
176
     1
 90
        2
176
     1
 90
        0
176
     1
 40
0.6
176
     1
 40
30.0
176
     1
 62
     7
420
 16777215
176
     1
 90
        2
176
     1
 90
        2
176
     1
 62
     7
176
     1
 62
   257
176
     1
 90
        2
176
     1
 90
        1
176
     1
 40
40.0
176
     1
 90
        0
176
     1
 62
   257
176
     1
 40
1.0
176
     1
 90
        1
176
     1
 90
        6
176
     1
 90
        2
176
     1
 62
     7
176
     1
 90
        3
176
     1
 90
        0
176
     1
 90
        0
176
     1
290
     0
176
     1
 90
        1
176
     1
 40
0.0
176
     1
 90
        0
176
     1
290
     0
176
     1
290
     1
176
     1
290
     1
176
     1
290
     0
176
     1
290
     0
176
     1
290
     0
176
     1
290
     0
176
     1
290
     0
176
     1
290
     0
176
     1
 90
       50
176
     1
 40
0.0
176
     1
 40
1.0
176
     1
 90
        0
176
     1
 62
    18
420
        0
176
     1
 90
       50
176
     1
 90
        3
176
     1
 62
     5
420
      255
176
     1
290
     0
176
     1
 90
       50
176
     1
 90
       50
176
     1
 90
       50
176
     1
290
     0
176
     1
 90
       50
176
     1
 62
   256
176
     0
 40
1.0
176
     0
 90
        2
176
     1
  1
strokes_ogs.tif
176
     1
290
     0
176
     1
 40
1.0
176
     1
 40
1.0
176
     1
  0
VISUALSTYLE
  5
4B4206
102
{ACAD_REACTORS
330
4B41F0
102
}
330
4B41F0
100
AcDbVisualStyle
  2
JitterOff
 70
    20
177
     3
291
     1
 70
    58
 90
        2
176
     0
 90
        2
176
     0
 90
        0
176
     0
 90
        0
176
     0
 40
0.6
176
     0
 40
30.0
176
     0
 62
     7
420
 16777215
176
     0
 90
        1
176
     0
 90
        4
176
     0
 62
     7
176
     0
 62
   257
176
     0
 90
        1
176
     0
 90
        1
176
     0
 40
1.0
176
     0
 90
       10
176
     2
 62
     7
176
     0
 40
1.0
176
     0
 90
        1
176
     0
 90
        6
176
     0
 90
        2
176
     0
 62
     7
176
     0
 90
        5
176
     0
 90
        0
176
     0
 90
        0
176
     0
290
     0
176
     0
 90
        1
176
     0
 40
0.0
176
     0
 90
        0
176
     0
290
     0
176
     0
290
     1
176
     0
290
     1
176
     0
290
     0
176
     0
290
     0
176
     0
290
     0
176
     0
290
     0
176
     0
290
     0
176
     0
290
     0
176
     0
 90
       50
176
     0
 40
0.0
176
     0
 40
1.0
176
     0
 90
        0
176
     0
 62
    18
420
        0
176
     0
 90
       50
176
     0
 90
        3
176
     0
 62
     5
420
      255
176
     0
290
     0
176
     0
 90
       50
176
     0
 90
       50
176
     0
 90
       50
176
     0
290
     0
176
     0
 90
       50
176
     0
 62
   256
176
     0
 40
1.0
176
     0
 90
        2
176
     0
  1
strokes_ogs.tif
176
     0
290
     0
176
     0
 40
1.0
176
     0
 40
1.0
176
     0
  0
VISUALSTYLE
  5
4B41FE
102
{ACAD_REACTORS
330
4B41F0
102
}
330
4B41F0
100
AcDbVisualStyle
  2
Linepattern
 70
    14
177
     3
291
     1
 70
    58
 90
        2
176
     1
 90
        2
176
     1
 90
        0
176
     1
 90
        0
176
     1
 40
0.6
176
     1
 40
30.0
176
     1
 62
     7
420
 16777215
176
     1
 90
        1
176
     1
 90
        4
176
     1
 62
     7
176
     1
 62
   257
176
     1
 90
        7
176
     1
 90
        7
176
     1
 40
1.0
176
     1
 90
        8
176
     1
 62
     7
176
     1
 40
1.0
176
     1
 90
        1
176
     1
 90
        6
176
     1
 90
        2
176
     1
 62
     7
176
     1
 90
        5
176
     1
 90
        0
176
     1
 90
        0
176
     1
290
     0
176
     1
 90
        1
176
     1
 40
0.0
176
     1
 90
        0
176
     1
290
     0
176
     1
290
     1
176
     1
290
     1
176
     1
290
     0
176
     1
290
     0
176
     1
290
     0
176
     1
290
     0
176
     1
290
     0
176
     1
290
     0
176
     1
 90
       50
176
     1
 40
0.0
176
     1
 40
1.0
176
     1
 90
        0
176
     1
 62
    18
420
        0
176
     1
 90
       50
176
     1
 90
        3
176
     1
 62
     5
420
      255
176
     1
290
     0
176
     1
 90
       50
176
     1
 90
       50
176
     1
 90
       50
176
     1
290
     0
176
     1
 90
       50
176
     1
 62
   256
176
     0
 40
1.0
176
     0
 90
        2
176
     1
  1
strokes_ogs.tif
176
     1
290
     0
176
     1
 40
1.0
176
     1
 40
1.0
176
     1
  0
VISUALSTYLE
  5
4B4207
102
{ACAD_REACTORS
330
4B41F0
102
}
330
4B41F0
100
AcDbVisualStyle
  2
OverhangOff
 70
    21
177
     3
291
     1
 70
    58
 90
        2
176
     0
 90
        2
176
     0
 90
        0
176
     0
 90
        0
176
     0
 40
0.6
176
     0
 40
30.0
176
     0
 62
     7
420
 16777215
176
     0
 90
        1
176
     0
 90
        4
176
     0
 62
     7
176
     0
 62
   257
176
     0
 90
        1
176
     0
 90
        1
176
     0
 40
1.0
176
     0
 90
        9
176
     2
 62
     7
176
     0
 40
1.0
176
     0
 90
        1
176
     0
 90
        6
176
     0
 90
        2
176
     0
 62
     7
176
     0
 90
        5
176
     0
 90
        0
176
     0
 90
        0
176
     0
290
     0
176
     0
 90
        1
176
     0
 40
0.0
176
     0
 90
        0
176
     0
290
     0
176
     0
290
     1
176
     0
290
     1
176
     0
290
     0
176
     0
290
     0
176
     0
290
     0
176
     0
290
     0
176
     0
290
     0
176
     0
290
     0
176
     0
 90
       50
176
     0
 40
0.0
176
     0
 40
1.0
176
     0
 90
        0
176
     0
 62
    18
420
        0
176
     0
 90
       50
176
     0
 90
        3
176
     0
 62
     5
420
      255
176
     0
290
     0
176
     0
 90
       50
176
     0
 90
       50
176
     0
 90
       50
176
     0
290
     0
176
     0
 90
       50
176
     0
 62
   256
176
     0
 40
1.0
176
     0
 90
        2
176
     0
  1
strokes_ogs.tif
176
     0
290
     0
176
     0
 40
1.0
176
     0
 40
1.0
176
     0
  0
VISUALSTYLE
  5
4B41FA
102
{ACAD_REACTORS
330
4B41F0
102
}
330
4B41F0
100
AcDbVisualStyle
  2
Realistic
 70
     8
177
     3
291
     0
 70
    58
 90
        2
176
     1
 90
        3
176
     1
 90
        0
176
     1
 90
        2
176
     1
 40
0.6
176
     1
 40
30.0
176
     1
 62
     7
420
 16777215
176
     1
 90
        0
176
     1
 90
        0
176
     1
 62
     7
176
     1
 62
   257
176
     1
 90
        1
176
     1
 90
        1
176
     1
 40
1.0
176
     1
 90
        8
176
     1
 62
   257
176
     1
 40
1.0
176
     1
 90
        1
176
     1
 90
        6
176
     1
 90
        2
176
     1
 62
     7
176
     1
 90
        3
176
     1
 90
        0
176
     1
 90
        0
176
     1
290
     0
176
     1
 90
       13
176
     1
 40
0.0
176
     1
 90
        0
176
     1
290
     0
176
     1
290
     1
176
     1
290
     1
176
     1
290
     0
176
     1
290
     0
176
     1
290
     0
176
     1
290
     0
176
     1
290
     0
176
     1
290
     0
176
     1
 90
       50
176
     1
 40
0.0
176
     1
 40
1.0
176
     1
 90
        0
176
     1
 62
    18
420
        0
176
     1
 90
       50
176
     1
 90
        3
176
     1
 62
     5
420
      255
176
     1
290
     0
176
     1
 90
       50
176
     1
 90
       50
176
     1
 90
       50
176
     1
290
     0
176
     1
 90
       50
176
     1
 62
   256
176
     0
 40
1.0
176
     0
 90
        2
176
     1
  1
strokes_ogs.tif
176
     1
290
     0
176
     1
 40
1.0
176
     1
 40
1.0
176
     1
  0
VISUALSTYLE
  5
4B4205
102
{ACAD_REACTORS
330
4B41F0
102
}
330
4B41F0
100
AcDbVisualStyle
  2
Shaded
 70
    27
177
     3
291
     0
 70
    58
 90
        2
176
     1
 90
        2
176
     1
 90
        1
176
     1
 90
        2
176
     1
 40
0.6
176
     1
 40
30.0
176
     1
 62
     7
420
 16777215
176
     1
 90
        0
176
     1
 90
        4
176
     1
 62
     7
176
     1
 62
   257
176
     1
 90
        1
176
     1
 90
        1
176
     1
 40
1.0
176
     1
 90
        8
176
     1
 62
   257
176
     1
 40
1.0
176
     1
 90
        1
176
     1
 90
        6
176
     1
 90
        2
176
     1
 62
     8
420
  7895160
176
     1
 90
        3
176
     1
 90
        0
176
     1
 90
        0
176
     1
290
     0
176
     1
 90
        5
176
     1
 40
0.0
176
     1
 90
        0
176
     1
290
     0
176
     1
290
     1
176
     1
290
     1
176
     1
290
     0
176
     1
290
     0
176
     1
290
     0
176
     1
290
     0
176
     1
290
     0
176
     1
290
     0
176
     1
 90
       50
176
     1
 40
0.0
176
     1
 40
1.0
176
     1
 90
        0
176
     1
 62
    18
420
        0
176
     1
 90
       50
176
     1
 90
        3
176
     1
 62
     5
420
      255
176
     1
290
     0
176
     1
 90
       50
176
     1
 90
       50
176
     1
 90
       50
176
     1
290
     0
176
     1
 90
       50
176
     1
 62
   256
176
     0
 40
1.0
176
     0
 90
        2
176
     1
  1
strokes_ogs.tif
176
     1
290
     0
176
     1
 40
1.0
176
     1
 40
1.0
176
     1
  0
VISUALSTYLE
  5
4B4204
102
{ACAD_REACTORS
330
4B41F0
102
}
330
4B41F0
100
AcDbVisualStyle
  2
Shaded with edges
 70
    26
177
     3
291
     0
 70
    58
 90
        2
176
     1
 90
        2
176
     1
 90
        1
176
     1
 90
        2
176
     1
 40
0.6
176
     1
 40
30.0
176
     1
 62
     7
420
 16777215
176
     1
 90
        1
176
     1
 90
        2
176
     1
 62
     7
176
     1
 62
   257
176
     1
 90
        2
176
     1
 90
        1
176
     1
 40
1.0
176
     1
 90
        8
176
     1
 62
   257
176
     1
 40
1.0
176
     1
 90
        1
176
     1
 90
        6
176
     1
 90
        2
176
     1
 62
     7
176
     1
 90
        3
176
     1
 90
        0
176
     1
 90
        0
176
     1
290
     0
176
     1
 90
        5
176
     1
 40
0.0
176
     1
 90
        0
176
     1
290
     0
176
     1
290
     1
176
     1
290
     1
176
     1
290
     0
176
     1
290
     0
176
     1
290
     0
176
     1
290
     0
176
     1
290
     0
176
     1
290
     0
176
     1
 90
       50
176
     1
 40
0.0
176
     1
 40
1.0
176
     1
 90
        0
176
     1
 62
    18
420
        0
176
     1
 90
       50
176
     1
 90
        3
176
     1
 62
     5
420
      255
176
     1
290
     0
176
     1
 90
       50
176
     1
 90
       50
176
     1
 90
       50
176
     1
290
     0
176
     1
 90
       50
176
     1
 62
   256
176
     0
 40
1.0
176
     0
 90
        2
176
     1
  1
strokes_ogs.tif
176
     1
290
     0
176
     1
 40
1.0
176
     1
 40
1.0
176
     1
  0
VISUALSTYLE
  5
4B4201
102
{ACAD_REACTORS
330
4B41F0
102
}
330
4B41F0
100
AcDbVisualStyle
  2
Shades of Gray
 70
    23
177
     3
291
     0
 70
    58
 90
        2
176
     1
 90
        2
176
     1
 90
        3
176
     1
 90
        0
176
     1
 40
0.6
176
     1
 40
30.0
176
     1
 62
     7
420
 16777215
176
     1
 90
        2
176
     1
 90
        2
176
     1
 62
     7
176
     1
 62
     7
176
     1
 90
        1
176
     1
 90
        1
176
     1
 40
40.0
176
     1
 90
        8
176
     1
 62
     7
176
     1
 40
1.0
176
     1
 90
        1
176
     1
 90
        6
176
     1
 90
        2
176
     1
 62
     7
176
     1
 90
        3
176
     1
 90
        0
176
     1
 90
        0
176
     1
290
     0
176
     1
 90
        1
176
     1
 40
0.0
176
     1
 90
        0
176
     1
290
     0
176
     1
290
     1
176
     1
290
     1
176
     1
290
     0
176
     1
290
     0
176
     1
290
     0
176
     1
290
     0
176
     1
290
     0
176
     1
290
     0
176
     1
 90
       50
176
     1
 40
0.0
176
     1
 40
1.0
176
     1
 90
        0
176
     1
 62
    18
420
        0
176
     1
 90
       50
176
     1
 90
        3
176
     1
 62
     5
420
      255
176
     1
290
     0
176
     1
 90
       50
176
     1
 90
       50
176
     1
 90
       50
176
     1
290
     0
176
     1
 90
       50
176
     1
 62
   256
176
     0
 40
1.0
176
     0
 90
        2
176
     1
  1
strokes_ogs.tif
176
     1
290
     0
176
     1
 40
1.0
176
     1
 40
1.0
176
     1
  0
VISUALSTYLE
  5
4B4202
102
{ACAD_REACTORS
330
4B41F0
102
}
330
4B41F0
100
AcDbVisualStyle
  2
Sketchy
 70
    24
177
     3
291
     0
 70
    58
 90
        1
176
     1
 90
        2
176
     1
 90
        2
176
     1
 90
        0
176
     1
 40
0.6
176
     1
 40
30.0
176
     1
 62
     7
420
 16777215
176
     1
 90
        2
176
     1
 90
        2
176
     1
 62
     7
176
     1
 62
     7
176
     1
 90
        1
176
     1
 90
        1
176
     1
 40
40.0
176
     1
 90
       11
176
     1
 62
     7
176
     1
 40
1.0
176
     1
 90
        1
176
     1
 90
        6
176
     1
 90
        2
176
     1
 62
     7
176
     1
 90
        6
176
     1
 90
        0
176
     1
 90
        0
176
     1
290
     0
176
     1
 90
        1
176
     1
 40
0.0
176
     1
 90
        0
176
     1
290
     0
176
     1
290
     1
176
     1
290
     1
176
     1
290
     0
176
     1
290
     0
176
     1
290
     0
176
     1
290
     0
176
     1
290
     0
176
     1
290
     0
176
     1
 90
       50
176
     1
 40
0.0
176
     1
 40
1.0
176
     1
 90
        0
176
     1
 62
    18
420
        0
176
     1
 90
       50
176
     1
 90
        3
176
     1
 62
     5
420
      255
176
     1
290
     0
176
     1
 90
       50
176
     1
 90
       50
176
     1
 90
       50
176
     1
290
     0
176
     1
 90
       50
176
     1
 62
   256
176
     0
 40
1.0
176
     0
 90
        2
176
     1
  1
strokes_ogs.tif
176
     1
290
     0
176
     1
 40
1.0
176
     1
 40
1.0
176
     1
  0
VISUALSTYLE
  5
4B41FD
102
{ACAD_REACTORS
330
4B41F0
102
}
330
4B41F0
100
AcDbVisualStyle
  2
Thicken
 70
    13
177
     3
291
     1
 70
    58
 90
        2
176
     1
 90
        2
176
     1
 90
        0
176
     1
 90
        0
176
     1
 40
0.6
176
     1
 40
30.0
176
     1
 62
     7
420
 16777215
176
     1
 90
        1
176
     1
 90
        4
176
     1
 62
     7
176
     1
 62
   257
176
     1
 90
        1
176
     1
 90
        1
176
     1
 40
1.0
176
     1
 90
       12
176
     1
 62
     7
176
     1
 40
1.0
176
     1
 90
        1
176
     1
 90
        6
176
     1
 90
        2
176
     1
 62
     7
176
     1
 90
        5
176
     1
 90
        0
176
     1
 90
        0
176
     1
290
     0
176
     1
 90
        1
176
     1
 40
0.0
176
     1
 90
        0
176
     1
290
     0
176
     1
290
     1
176
     1
290
     1
176
     1
290
     0
176
     1
290
     0
176
     1
290
     0
176
     1
290
     0
176
     1
290
     0
176
     1
290
     0
176
     1
 90
       50
176
     1
 40
0.0
176
     1
 40
1.0
176
     1
 90
        0
176
     1
 62
    18
420
        0
176
     1
 90
       50
176
     1
 90
        3
176
     1
 62
     5
420
      255
176
     1
290
     0
176
     1
 90
       50
176
     1
 90
       50
176
     1
 90
       50
176
     1
290
     0
176
     1
 90
       50
176
     1
 62
   256
176
     0
 40
1.0
176
     0
 90
        2
176
     1
  1
strokes_ogs.tif
176
     1
290
     0
176
     1
 40
1.0
176
     1
 40
1.0
176
     1
  0
VISUALSTYLE
  5
4B41F7
102
{ACAD_REACTORS
330
4B41F0
102
}
330
4B41F0
100
AcDbVisualStyle
  2
Wireframe
 70
     5
177
     3
291
     0
 70
    58
 90
        0
176
     1
 90
        2
176
     1
 90
        0
176
     1
 90
        0
176
     1
 40
0.6
176
     1
 40
30.0
176
     1
 62
     7
420
 16777215
176
     1
 90
        1
176
     1
 90
        4
176
     1
 62
     7
176
     1
 62
   257
176
     1
 90
        1
176
     1
 90
        1
176
     1
 40
1.0
176
     1
 90
        0
176
     1
 62
   257
176
     1
 40
1.0
176
     1
 90
        1
176
     1
 90
        6
176
     1
 90
        2
176
     1
 62
     7
176
     1
 90
        3
176
     1
 90
        0
176
     1
 90
        0
176
     1
290
     0
176
     1
 90
        1
176
     1
 40
0.0
176
     1
 90
        0
176
     1
290
     0
176
     1
290
     1
176
     1
290
     1
176
     1
290
     0
176
     1
290
     0
176
     1
290
     0
176
     1
290
     0
176
     1
290
     0
176
     1
290
     0
176
     1
 90
       50
176
     1
 40
0.0
176
     1
 40
1.0
176
     1
 90
        0
176
     1
 62
    18
420
        0
176
     1
 90
       50
176
     1
 90
        3
176
     1
 62
     5
420
      255
176
     1
290
     0
176
     1
 90
       50
176
     1
 90
       50
176
     1
 90
       50
176
     1
290
     0
176
     1
 90
       50
176
     1
 62
   256
176
     0
 40
1.0
176
     0
 90
        2
176
     1
  1
strokes_ogs.tif
176
     1
290
     0
176
     1
 40
1.0
176
     1
 40
1.0
176
     1
  0
VISUALSTYLE
  5
4B4203
102
{ACAD_REACTORS
330
4B41F0
102
}
330
4B41F0
100
AcDbVisualStyle
  2
X-Ray
 70
    25
177
     3
291
     0
 70
    58
 90
        2
176
     1
 90
        2
176
     1
 90
        1
176
     1
 90
        1
176
     1
 40
0.5
176
     1
 40
30.0
176
     1
 62
     7
420
 16777215
176
     1
 90
        1
176
     1
 90
        0
176
     1
 62
     7
176
     1
 62
   257
176
     1
 90
        1
176
     1
 90
        1
176
     1
 40
1.0
176
     1
 90
        8
176
     1
 62
     7
176
     1
 40
1.0
176
     1
 90
        1
176
     1
 90
        6
176
     1
 90
        2
176
     1
 62
     7
176
     1
 90
        3
176
     1
 90
        0
176
     1
 90
        0
176
     1
290
     0
176
     1
 90
       13
176
     1
 40
0.0
176
     1
 90
        0
176
     1
290
     0
176
     1
290
     1
176
     1
290
     1
176
     1
290
     0
176
     1
290
     0
176
     1
290
     0
176
     1
290
     0
176
     1
290
     0
176
     1
290
     0
176
     1
 90
       50
176
     1
 40
0.0
176
     1
 40
1.0
176
     1
 90
        0
176
     1
 62
    18
420
        0
176
     1
 90
       50
176
     1
 90
        3
176
     1
 62
     5
420
      255
176
     1
290
     0
176
     1
 90
       50
176
     1
 90
       50
176
     1
 90
       50
176
     1
290
     0
176
     1
 90
       50
176
     1
 62
   256
176
     0
 40
1.0
176
     0
 90
        2
176
     1
  1
strokes_ogs.tif
176
     1
290
     0
176
     1
 40
1.0
176
     1
 40
1.0
176
     1
  0
DICTIONARYVAR
  5
4B468B
102
{ACAD_REACTORS
330
4B3181
102
}
330
4B3181
100
DictionaryVariables
280
     0
  1
1:1
  0
DICTIONARYVAR
  5
4B4687
102
{ACAD_REACTORS
330
4B3181
102
}
330
4B3181
100
DictionaryVariables
280
     0
  1
STANDARD
  0
DICTIONARYVAR
  5
4B3826
102
{ACAD_REACTORS
330
4B3181
102
}
330
4B3181
100
DictionaryVariables
280
     0
  1
STANDARD
  0
DICTIONARYVAR
  5
4B4688
102
{ACAD_REACTORS
330
4B3181
102
}
330
4B3181
100
DictionaryVariables
280
     0
  1
Imperial24
  0
DICTIONARYVAR
  5
4B4689
102
{ACAD_REACTORS
330
4B3181
102
}
330
4B3181
100
DictionaryVariables
280
     0
  1
Imperial24
  0
DICTIONARYVAR
  5
4B468D
102
{ACAD_REACTORS
330
4B3181
102
}
330
4B3181
100
DictionaryVariables
280
     0
  1
1
  0
DICTIONARYVAR
  5
4B468E
102
{ACAD_REACTORS
330
4B3181
102
}
330
4B3181
100
DictionaryVariables
280
     0
  1
15
  0
DICTIONARYVAR
  5
4B468C
102
{ACAD_REACTORS
330
4B3181
102
}
330
4B3181
100
DictionaryVariables
280
     0
  1
0
  0
DICTIONARYVAR
  5
4B468A
102
{ACAD_REACTORS
330
4B3181
102
}
330
4B3181
100
DictionaryVariables
280
     0
  1
0
  0
DICTIONARYVAR
  5
4B3182
102
{ACAD_REACTORS
330
4B3181
102
}
330
4B3181
100
DictionaryVariables
280
     0
  1
96
  0
ACAD_PROXY_OBJECT
  5
4B37CB
102
{ACAD_REACTORS
330
4B37CA
102
}
330
4B37CA
100
AcDbProxyObject
 90
      499
 91
      549
 71
    25
 97
       77
 70
     0
161
                78
310
90100057356C1D8241E8
 94
        0
  0
DICTIONARY
  5
4B37D5
102
{ACAD_REACTORS
330
4B37CA
102
}
330
4B37CA
100
AcDbDictionary
281
     1
  3
ANSI
350
4B37D6
  0
XRECORD
  5
4B37F3
102
{ACAD_REACTORS
330
4B37CA
102
}
330
4B37CA
100
AcDbXrecord
280
     1
 90
-1023410169
  0
ACAD_PROXY_OBJECT
  5
4B377A
330
0
100
AcDbProxyObject
 90
      499
 91
      512
 71
    25
 97
       77
 70
     0
161
               156
310
000101439050D35154D6535093D314D25691508C
330
4B3777
 94
        0
  0
ACAD_PROXY_OBJECT
  5
4B377C
330
0
100
AcDbProxyObject
 90
      499
 91
      514
 71
    25
 97
       77
 70
     0
161
                88
310
000101411093D34C402B007F
330
4B3777
330
0
330
0
 94
        0
  0
ACAD_PROXY_OBJECT
  5
4B3782
330
0
100
AcDbProxyObject
 90
      499
 91
      520
 71
    25
 97
       77
 70
     0
161
               382
310
0001014119185D194050831302E322E302E35014119185D194050831302E322E302E3540501000041905394D24CCC658
330
4B3777
330
4B3783
330
4B3787
 94
        0
  0
ACAD_PROXY_OBJECT
  5
4B3783
330
0
100
AcDbProxyObject
 90
      499
 91
      521
 71
    25
 97
       77
 70
     0
161
                48
310
000190140A000A
330
4B3777
330
4B3784
 94
        0
  0
ACAD_PROXY_OBJECT
  5
4B3784
330
0
100
AcDbProxyObject
 90
      499
 91
      522
 71
    25
 97
       77
 70
     0
161
                48
310
0001AA0000002D
330
4B3777
330
4B1D17
330
4B3785
330
0
 94
        0
  0
ACAD_PROXY_OBJECT
  5
4B3785
330
0
100
AcDbProxyObject
 90
      499
 91
      523
 71
    25
 97
       77
 70
     0
161
                28
310
0001AAAC
330
4B3777
 94
        0
  0
ACAD_PROXY_OBJECT
  5
4B3788
330
0
100
AcDbProxyObject
 90
      499
 91
      512
 71
    25
 97
       77
 70
     0
161
               108
310
000101421053521310D05310D01C
330
4B3777
 94
        0
  0
ACAD_PROXY_OBJECT
  5
4B3789
330
0
100
AcDbProxyObject
 90
      499
 91
      512
 71
    25
 97
       77
 70
     0
161
               124
310
00010142905354915554D1511253501C
330
4B3777
 94
        0
  0
ACAD_PROXY_OBJECT
  5
4B378A
330
0
100
AcDbProxyObject
 90
      499
 91
      512
 71
    25
 97
       77
 70
     0
161
               132
310
00010143105354D150D51253D39112536C
330
4B3777
 94
        0
  0
ACAD_PROXY_OBJECT
  5
4B378B
330
0
100
AcDbProxyObject
 90
      499
 91
      512
 71
    25
 97
       77
 70
     0
161
               124
310
00010142905355941093D4911154901C
330
4B3777
 94
        0
  0
ACAD_PROXY_OBJECT
  5
4B378C
330
0
100
AcDbProxyObject
 90
      499
 91
      512
 71
    25
 97
       77
 70
     0
161
               116
310
0001014290535115D1D0D3D313D4AC
330
4B3777
 94
        0
  0
ACAD_PROXY_OBJECT
  5
4B378D
330
0
100
AcDbProxyObject
 90
      499
 91
      512
 71
    25
 97
       77
 70
     0
161
               148
310
00010143505355925155D49151949154D2101C
330
4B3777
 94
        0
  0
ACAD_PROXY_OBJECT
  5
4B378E
330
0
100
AcDbProxyObject
 90
      499
 91
      512
 71
    25
 97
       77
 70
     0
161
               172
310
00010144105350539393D51154149154D1549591501C
330
4B3777
 94
        0
  0
ACAD_PROXY_OBJECT
  5
4B378F
330
0
100
AcDbProxyObject
 90
      499
 91
      512
 71
    25
 97
       77
 70
     0
161
               172
310
00010144105350555513D11253505494905391D1501C
330
4B3777
 94
        0
  0
ACAD_PROXY_OBJECT
  5
4B3790
330
0
100
AcDbProxyObject
 90
      499
 91
      512
 71
    25
 97
       77
 70
     0
161
               124
310
00010142D0535156151491519112536C
330
4B3777
 94
        0
  0
ACAD_PROXY_OBJECT
  5
4B3791
330
0
100
AcDbProxyObject
 90
      499
 91
      512
 71
    25
 97
       77
 70
     0
161
               132
310
00010142D05355105410539393D511501C
330
4B3777
 94
        0
  0
ACAD_PROXY_OBJECT
  5
4B3792
330
0
100
AcDbProxyObject
 90
      499
 91
      512
 71
    25
 97
       77
 70
     0
161
               108
310
00010142105350555513D0D3101C
330
4B3777
 94
        0
  0
ACAD_PROXY_OBJECT
  5
4B3793
330
0
100
AcDbProxyObject
 90
      499
 91
      512
 71
    25
 97
       77
 70
     0
161
               108
310
00010142105350D311915055105C
330
4B3777
 94
        0
  0
ACAD_PROXY_OBJECT
  5
4B3794
330
0
100
AcDbProxyObject
 90
      499
 91
      512
 71
    25
 97
       77
 70
     0
161
               108
310
00010142105350D315925155D3FC
330
4B3777
 94
        0
  0
ACAD_PROXY_OBJECT
  5
4B3795
330
0
100
AcDbProxyObject
 90
      499
 91
      512
 71
    25
 97
       77
 70
     0
161
               148
310
0001014350535212511156915493D11253501C
330
4B3777
 94
        0
  0
ACAD_PROXY_OBJECT
  5
4B3796
330
0
100
AcDbProxyObject
 90
      499
 91
      512
 71
    25
 97
       77
 70
     0
161
               124
310
00010142905352105510D21254D3D01C
330
4B3777
 94
        0
  0
ACAD_PROXY_OBJECT
  5
4B3797
330
0
100
AcDbProxyObject
 90
      499
 91
      512
 71
    25
 97
       77
 70
     0
161
               148
310
00010143905354D25391D3115210551310566C
330
4B3777
 94
        0
  0
ACAD_PROXY_OBJECT
  5
4B3798
330
0
100
AcDbProxyObject
 90
      499
 91
      512
 71
    25
 97
       77
 70
     0
161
               124
310
00010142D0535115D1D193111254D42C
330
4B3777
 94
        0
  0
ACAD_PROXY_OBJECT
  5
4B3799
330
0
100
AcDbProxyObject
 90
      499
 91
      512
 71
    25
 97
       77
 70
     0
161
               100
310
00010142105350555513D213AC
330
4B3777
 94
        0
  0
ACAD_PROXY_OBJECT
  5
4B379A
330
0
100
AcDbProxyObject
 90
      499
 91
      512
 71
    25
 97
       77
 70
     0
161
               116
310
000101425053521390D3D55395101C
330
4B3777
 94
        0
  0
ACAD_PROXY_OBJECT
  5
4B379B
330
0
100
AcDbProxyObject
 90
      499
 91
      512
 71
    25
 97
       77
 70
     0
161
               108
310
0001014210535213941493D2901C
330
4B3777
 94
        0
  0
ACAD_PROXY_OBJECT
  5
4B379C
330
0
100
AcDbProxyObject
 90
      499
 91
      512
 71
    25
 97
       77
 70
     0
161
               108
310
000101421053521395165411507C
330
4B3777
 94
        0
  0
ACAD_PROXY_OBJECT
  5
4B379D
330
0
100
AcDbProxyObject
 90
      499
 91
      512
 71
    25
 97
       77
 70
     0
161
               108
310
000101421053521395925155D0FC
330
4B3777
 94
        0
  0
ACAD_PROXY_OBJECT
  5
4B379E
330
0
100
AcDbProxyObject
 90
      499
 91
      512
 71
    25
 97
       77
 70
     0
161
               140
310
00010143505354D150D51253D390D3D4166C
330
4B3777
 94
        0
  0
ACAD_PROXY_OBJECT
  5
4B379F
330
0
100
AcDbProxyObject
 90
      499
 91
      512
 71
    25
 97
       77
 70
     0
161
               108
310
00010142105350D3141493D2903C
330
4B3777
 94
        0
  0
ACAD_PROXY_OBJECT
  5
4B37A0
330
0
100
AcDbProxyObject
 90
      499
 91
      524
 71
    25
 97
       77
 70
     0
161
               212
310
00010143905350555513D2105510D21493D500000000000002E40C
330
4B3777
 94
        0
  0
ACAD_PROXY_OBJECT
  5
4B37A1
330
0
100
AcDbProxyObject
 90
      499
 91
      512
 71
    25
 97
       77
 70
     0
161
               156
310
00010143905350555513D2105510D2111155101C
330
4B3777
 94
        0
  0
ACAD_PROXY_OBJECT
  5
4B37B0
330
0
100
AcDbProxyObject
 90
      499
 91
      533
 71
    25
 97
       77
 70
     0
161
               148
310
00010142105350D55494D51100504414E5349C
330
4B3777
 94
        0
  0
ACAD_PROXY_OBJECT
  5
4B37B2
330
0
100
AcDbProxyObject
 90
      499
 91
      535
 71
    25
 97
       77
 70
     0
161
               714
310
0001000000009AA6A9AA4051E546875204A756E2031352031383A33383A3234203230303620285554432901420C4C0B8C8B8C0B8D40518576564204D61722032352030393A30373A3036203230303901420C4C0B8C8B8C0B8D4C
330
4B3777
330
4B37B3
330
4B37B4
330
4B37B6
330
0
 94
        0
  0
ACAD_PROXY_OBJECT
  5
4B37B3
330
0
100
AcDbProxyObject
 90
      499
 91
      536
 71
    25
 97
       77
 70
     0
161
                70
310
0001AAA80820000000
330
4B3777
330
4B37B3
330
4B37B3
 94
        0
  0
ACAD_PROXY_OBJECT
  5
4B37B4
330
0
100
AcDbProxyObject
 90
      499
 91
      537
 71
    25
 97
       77
 70
     0
161
                48
310
000100000000AE
330
4B3777
330
0
330
4B37B5
330
0
330
0
 94
        0
  0
ACAD_PROXY_OBJECT
  5
4B37B5
330
0
100
AcDbProxyObject
 90
      499
 91
      538
 71
    25
 97
       77
 70
     0
161
                40
310
000100AAAA00
330
4B3777
330
0
 94
        0
  0
ACAD_PROXY_OBJECT
  5
4B37BB
330
0
100
AcDbProxyObject
 90
      499
 91
      533
 71
    25
 97
       77
 70
     0
161
               180
310
00010143105050D3D35411119390535140504434F4D50C
330
4B3777
 94
        0
  0
ACAD_PROXY_OBJECT
  5
4B37BC
330
0
100
AcDbProxyObject
 90
      499
 91
      533
 71
    25
 97
       77
 70
     0
161
               212
310
0001014390505193D311115491119390535140506466F6C646572C
330
4B3777
 94
        0
  0
ACAD_PROXY_OBJECT
  5
4B37BD
330
0
100
AcDbProxyObject
 90
      499
 91
      533
 71
    25
 97
       77
 70
     0
161
               180
310
00010143105050539393D111939053514050428415629C
330
4B3777
 94
        0
  0
ACAD_PROXY_OBJECT
  5
4B37BE
330
0
100
AcDbProxyObject
 90
      499
 91
      533
 71
    25
 97
       77
 70
     0
161
               420
310
00010143905050D3D35415925155D31254D500520546F700A46726F6E740A52696768740A4C6566740A426F74746F6D0A41757831C
330
4B3777
 94
        0
  0
ACAD_PROXY_OBJECT
  5
4B37C3
330
0
100
AcDbProxyObject
 90
      499
 91
      543
 71
    25
 97
       77
 70
     0
161
                32
310
0001000000
330
4B3777
340
4B37C0
330
4B37C5
330
4B37C0
 94
        0
  0
ACAD_PROXY_OBJECT
  5
4B37C4
330
0
100
AcDbProxyObject
 90
      499
 91
      544
 71
    25
 97
       77
 70
     0
161
                18
310
00018C
330
4B3777
 94
        0
  0
ACAD_PROXY_OBJECT
  5
4B37C5
330
0
100
AcDbProxyObject
 90
      499
 91
      545
 71
    25
 97
       77
 70
     0
161
               458
310
0001014B9054CC8E0D08111154D251D391548814D21054114812105311881493D55391081253951151D4905308128B519253905005540155000C
330
4B3777
330
4B37C3
330
4B37C4
 94
        0
  0
ACAD_PROXY_OBJECT
  5
4B37C6
330
0
100
AcDbProxyObject
 90
      499
 91
      546
 71
    25
 97
       77
 70
     0
161
               178
310
000100AAAAAAB62AF8F49525A712A1E00037A99934044C
330
4B3777
330
4B37C5
 94
        0
  0
ACAD_PROXY_OBJECT
  5
4B37C7
330
0
100
AcDbProxyObject
 90
      499
 91
      547
 71
    25
 97
       77
 70
     0
161
               108
310
000190140A000000000000AAAAAC
330
4B3777
330
4B37C8
330
4B37C8
330
4B37C8
330
4B37C8
330
4B37C8
330
0
 94
        0
  0
ACAD_PROXY_OBJECT
  5
4B37C8
330
0
100
AcDbProxyObject
 90
      499
 91
      548
 71
    25
 97
       77
 70
     0
161
                51
310
00010000AAAA8C
330
4B3777
330
4B37C7
330
4B37C5
 94
        0
  0
DICTIONARY
  5
4B3771
102
{ACAD_REACTORS
330
4B3770
102
}
330
4B3770
100
AcDbDictionary
281
     1
  3
DWGSETTINGS
350
4B3772
  3
TRANSSETTINGS
350
4B3773
  0
ACAD_PROXY_OBJECT
  5
4B37D7
102
{ACAD_REACTORS
330
4B3770
102
}
330
4B3770
100
AcDbProxyObject
 90
      499
 91
      556
 71
    25
 97
       77
 70
     0
161
             17992
310
41903491013041105357CC201C00030C011E442404C504414D5F3180E0000C300479109013241105357CCA01400030C011E442404CD04414D5F338060000C30043E9013441105357CD200C00030C010FA404D504414D5F358030000C30043E9013641105357CDA00800030C011EA404DD04414D5F378040000C30043E90138
310
41105357CE200400030C010FA404E504414D5F398FD0000C300904902324141505357CC4C201C00030C011EA408D10505414D5F31318030000C30043E902495041505357CC4CA01C00030C011E40A408C13905414D5F304E8070000C30047A902314E41505357CC53A03800030C011EA408C93905414D5F324E8050000C300
310
47A902334E41505357CCD3A01800030C010FA408D13905414D5F344E8030000C30043E902354E41505357CD53A00C00030C010FA408D93905414D5F364E8020000C30047A902374E41505357CDD3A01000030C010FA408E13905414D5F384E8010000C30043E902394E41505357CE53A3F400030C0241240CC9053906414D5
310
F31304E8070000C30047A90334414E41905357CC4C53A00C00030C010FA40D25413906414D5F31324E8070000C300479029044B4C494E41505357D0D3200400030C010F4264112539193D08414D5F50415245468040000C30043D0B9055241484D3541905357D093D4A01C00030C011E4264115925155D08414D5F56494557
310
538010000C30043D0B906424548494E4441905357D25395A3F400030C02436415514905253105414D5F54528030000C30043D0990348494441905357D21251201C00030C010F42640D59254D06414D5F5649538070000C3004790990650415244494D42505357D41054911253600C00030C010F42641949151911253509414
310
D5F52454644494D8040000C30043D099534110921395901398000000C0003FFFFFFFE415092139594D06424548494E448000000C0003FFFFFFFE411093D48C9055241484D358010000C30043E411093D48CD055241484D358020000C30047A411093D48D5055241484D358000000C0003FFFFFFFE4110D0530C90134800000
310
0C0003FFFFFFFE4110D0530CD01348020000C30047A4110D0530D501348070000C30047A4110D0530DD013481E0000C3004F24110D15393901378000000C0003FFFFFFFE4110D15395D01378000000C0003FFFFFFFE4110D312539044B4C494E8000000C0003FFFFFFFE4110D3D38C501308000000C0003FFFFFFFD034110D
310
3D38C901318000000C0003FFFFFFFD034110D3D38CD01328000000C0003FFFFFFFD034110D3D38D101328000000C0003FFFFFFFD034111115510501348000000C0003FFFFFFFE4111125051D01358000000C0003FFFFFFFE4111125312501358000000C0003FFFFFFFE411112535410650415244494D8000000C0003FFFFFF
310
FE411112535490652454644494D8000000C0003FFFFFFFE4111915353901388000000C0003FFFFFFFE415191535413901388030000C3003FFFFFFFE4151915354D410234418000000C0003FFFFFFFE4151915354D510234418030000C30043E415191535593901328000000C0003FFFFFFFE415191535595101328030000C3
310
0043E4112105510D01388000000C0003FFFFFFFD014112125113901338000000C0003FFFFFFFD034112125115D01338000000C0003FFFFFFFD034112131253901348000000C0003FFFFFFFD01411213D0D3901378000000C0003FFFFFFFE411213D0D5D01378000000C0003FFFFFFFE4112539193D04494E464F8000000C00
310
03FFFFFFFE4113115051101358000000C0003FFFFFFFE419397D0921395902394E8000000C0003FFFFFFFE419397D0D3D38C502304E8000000C0003FFFFFFFD03419397D0D3D38C902314E8000000C0003FFFFFFFD03419397D0D3D38CD02324E8000000C0003FFFFFFFD03419397D0D3D38D102324E8000000C0003FFFFFF
310
FD03419397D0D15393902374E8000000C0003FFFFFFFE419397D0D15395D02374E8000000C0003FFFFFFFE419397D1125312502354E8000000C0003FFFFFFFE419397D2105510D02384E8000000C0003FFFFFFFD01419397D2125113902334E8000000C0003FFFFFFFD03419397D2125115D02334E8000000C0003FFFFFFFD
310
03419397D3115051102354E8000000C0003FFFFFFFE419397D391D25410349504E8000000C0003FFFFFFFE419397D412105390334414E8000000C0003FFFFFFFE419397D510D3D3902304E8000000C0003FFFFFFFD03419397D5121312502344E8000000C0003FFFFFFFD01419397D5131153902304E8000000C0003FFFFFF
310
FD03419397D594131250332414E8000000C0003FFFFFFFE411391D25410249508000000C0003FFFFFFFE411410530C9055241484D358010000C30043E411410530CD055241484D358020000C30047A411410530D5055241484D358000000C0003FFFFFFFE411412105390234418000000C0003FFFFFFFE411413D4D3901358
310
000000C0003FFFFFFFE411490D1D3901378000000C0003FFFFFFFE411490D1D5D01378000000C0003FFFFFFFE4114D09492D01348070000C300479014114D150D5101348000000C0003FFFFFFFD014114D6508CD01358020000C30047A411354D653501358020000C30047A411510D3D3901308000000C0003FFFFFFFD0341
310
15121312501348000000C0003FFFFFFFD01411512550C9055241484D358010000C30043E411512550CD055241484D358020000C30047A411512550D5055241484D358000000C0003FFFFFFFE4115131153901308000000C0003FFFFFFFD03415514905253105545241494C8000000C0003FFFFFFFE41151493125013480000
310
00C0003FFFFFFFD01411516150C501368030000C30043E411516150C901368030000C30043E411516150CD01368000000C0003FFFFFFFE411516150D501368070000C30047A411516150DD013681E0000C3004F24115925155D04564945578000000C0003FFFFFFFE41159151121034849448000000C0003FFFFFFFD024115
310
9151159035649538000000C0003FFFFFFFD02411594131250232418000000C0003FFFFFFFE4116925690501348000000C0003FFFFFFFD01AAA3F400030C01013F90A4391E41D1E4190F4151E4110F40D0F4091E4050F4793C7F6CC
340
4B1AC4
340
4B1AC4
340
4B1AC4
340
4B37A2
340
4B1AC4
340
4B1AC4
340
4B1AC4
340
4B37A4
340
4B1AC4
340
4B1AC4
340
4B37A4
340
4B37A3
340
4B1AC4
340
4B1AC4
340
4B1AC4
340
4B1AC4
340
4B37A2
340
4B1AC4
340
4B1AC4
340
4B1AC4
340
4B37A4
340
4B1AC4
340
4B1AC4
340
4B37A4
340
4B37A3
340
4B1AC4
340
4B37DB
340
4B1AC4
340
4B1AC4
340
4B1AC4
340
4B1AC4
340
4B1AC4
340
4B37A2
340
4B1AC4
340
4B1AC4
340
4B1AC4
340
4B1AC3
340
4B1AC3
340
4B1AC3
340
4B1AC3
340
4B1AC3
340
4B1AC3
340
4B1AC3
340
4B1AC3
340
4B1AC3
340
4B37E1
340
4B1AC3
340
4B1AC3
340
4B1AC3
340
4B1AC3
340
4B1AC3
340
4B1AC3
340
4B1AC3
340
4B1AC3
340
4B1AC3
340
4B1AC3
340
4B1AC3
340
4B1AC3
340
4B1AC3
340
4B1AC4
340
4B1AC3
340
4B1AC3
340
4B1AC3
340
4B1AC3
340
4B37E2
340
4B1AC3
340
4B1AC3
340
4B37E1
340
4B1AC3
340
4B1AC3
340
4B1AC3
340
4B1AC3
340
4B1AC3
340
4B1AC3
340
4B1AC3
340
4B1AC3
340
4B37E1
340
4B1AC3
340
4B1AC3
340
4B1AC3
340
4B37E2
340
4B1AC3
340
4B1AC3
340
4B1AC3
340
4B1AC3
340
4B1AC3
340
4B37E2
340
4B1AC3
340
4B37A3
340
4B1AC3
340
4B1AC3
340
4B1AC3
340
4B1AC3
340
4B1AC3
340
4B1AC3
340
4B37E1
340
4B1AC3
340
4B1AC3
340
4B1AC3
340
4B1AC3
340
4B1AC3
340
4B1AC3
340
4B37E2
340
4B1AC3
340
4B1AC3
340
4B1AC3
340
4B1AC3
340
4B1AC3
340
4B1AC3
340
4B1AC3
340
4B1AC3
340
4B1AC3
340
4B1AC3
340
4B1AC3
340
4B1AC3
340
4B1AC3
340
4B1AC3
340
4B37A3
340
4B37E3
 94
        0
  0
ACAD_PROXY_OBJECT
  5
4B3822
102
{ACAD_REACTORS
330
4B381D
102
}
330
4B381D
100
AcDbProxyObject
 90
      499
 91
      573
 71
    25
 97
       77
 70
     0
161
               253
310
43D1444494D454E53494F4E2C414D44545F2A5F44494D404A9012A404A9012AC
 94
        0
  0
ACAD_PROXY_OBJECT
  5
4B3821
102
{ACAD_REACTORS
330
4B381D
102
}
330
4B381D
100
AcDbProxyObject
 90
      499
 91
      573
 71
    25
 97
       77
 70
     0
161
               181
310
43D012A42D05357D191504B505357CA9012A404A9012AC
 94
        0
  0
ACAD_PROXY_OBJECT
  5
4B381E
102
{ACAD_REACTORS
330
4B381D
102
}
330
4B381D
100
AcDbProxyObject
 90
      499
 91
      573
 71
    25
 97
       77
 70
     0
161
               133
310
43D054841544348404A9012A404A9012AC
 94
        0
  0
ACAD_PROXY_OBJECT
  5
4B381F
102
{ACAD_REACTORS
330
4B381D
102
}
330
4B381D
100
AcDbProxyObject
 90
      499
 91
      573
 71
    25
 97
       77
 70
     0
161
               549
310
43D044C494E4549CE0B0E138B0A8B4E0B0A8B4E138B105357CE0B105357CE138B0A8B505357CE0B0A8B505357CE139012A404A910494E534552542C535444504152543244C
 94
        0
  0
ACAD_PROXY_OBJECT
  5
4B3823
102
{ACAD_REACTORS
330
4B381D
102
}
330
4B381D
100
AcDbProxyObject
 90
      499
 91
      573
 71
    25
 97
       77
 70
     0
161
               181
310
43D0341524341105357CD5012A404C906494E534552544
 94
        0
  0
ACAD_PROXY_OBJECT
  5
4B3820
102
{ACAD_REACTORS
330
4B381D
102
}
330
4B381D
100
AcDbProxyObject
 90
      499
 91
      573
 71
    25
 97
       77
 70
     0
161
              1053
310
43D7841434D46434652414D452C41434D444154554D5441524745542C41434D444154554D49442C41434D57454C4453594D2C41434D5355524653594D2C41434D4645415449442C41434D504152545245462C41434D42414C4C4F4F4E2C414D44544544474553594D2C414D47534352455743414C435441424C45404A9012A
310
404A9012AC
 94
        0
  0
ACAD_PROXY_OBJECT
  5
4B3836
102
{ACAD_REACTORS
330
4B228A
102
}
330
4B228A
100
AcDbProxyObject
 90
      499
 91
      504
 71
    25
 97
       77
 70
     0
161
               484
310
404810C476C617A696E672042656164498C4CD88C998C4D4C4B4C1E0D188C58CB4D198DCD0B504C514E4B4DCE5110D0CC4C4C4C8C1191A02800010104C
 94
        0
  0
ACAD_PROXY_OBJECT
  5
4B38A0
102
{ACAD_REACTORS
330
4B228A
102
}
330
4B228A
100
AcDbProxyObject
 90
      499
 91
      504
 71
    25
 97
       77
 70
     0
161
               572
310
404811853696C69636F6E20486F72697A6F6E74616C20536D616C6C494C8DCC0C18CC190E4B4C1E188C594B4D1958590B4E0C8E108B4C10914D8E0C90D18CCCCE10A02800010102C
 94
        0
  0
ACAD_PROXY_OBJECT
  5
4B38D5
102
{ACAD_REACTORS
330
4B228A
102
}
330
4B228A
100
AcDbProxyObject
 90
      499
 91
      504
 71
    25
 97
       77
 70
     0
161
               572
310
404811753696C69636F6E20566572746963616C20426F74746F6D498D0CD8D9994E19584B4C1E0D8C8C990B4D0E4C4CCB4E4D514C0B508C5190D08C8C8D9090CD4C602800010101C
 94
        0
  0
ACAD_PROXY_OBJECT
  5
4B3886
102
{ACAD_REACTORS
330
4B228A
102
}
330
4B228A
100
AcDbProxyObject
 90
      499
 91
      504
 71
    25
 97
       77
 70
     0
161
               572
310
40481175265696E666F7263656420427974796C20537061636572498D4C8E4D198D8D594B4C1E0C984D998B4D0E598E0B4E5110910B510E5190CD8DCDD08CCD918DA02800010104C
 94
        0
  0
ACAD_PROXY_OBJECT
  5
4B2294
102
{ACAD_REACTORS
330
4B228A
102
}
330
4B228A
100
AcDbProxyObject
 90
      499
 91
      504
 71
    25
 97
       77
 70
     0
161
               444
310
4048107415344544E554D498D4CCCD94D184E4C8B4C1E184DD8D98B4C4C590DCB504D51110B4C0C0D4C0C0D114C910C114E602800010101C
 94
        0
  0
ACAD_PROXY_OBJECT
  5
4B3122
102
{ACAD_REACTORS
330
4B228A
102
}
330
4B228A
100
AcDbProxyObject
 90
      499
 91
      504
 71
    25
 97
       77
 70
     0
161
               452
310
404810857656570636170324998988CCE0D8CCD588B4C1E188C998DCB4C4C590DCB504D514D8B4C0C0D4C0C0D114C910C114E602800010101C
 94
        0
  0
ACAD_PROXY_OBJECT
  5
4B3892
102
{ACAD_REACTORS
330
4B228A
102
}
330
4B228A
100
AcDbProxyObject
 90
      499
 91
      504
 71
    25
 97
       77
 70
     0
161
               484
310
404810C57656174686572205365616C4999189859188D1998CB4C1E18CDCD990B4D0CD8CD8B5091504CCB4C118C4DCE51508DCDD08E10602800010104C
 94
        0
  0
ACAD_PROXY_OBJECT
  5
4B38E1
102
{ACAD_REACTORS
330
4B228A
102
}
330
4B228A
100
AcDbProxyObject
 90
      499
 91
      504
 71
    25
 97
       77
 70
     0
161
               596
310
404811A53696C69636F6E20536D616C6C20566572746963616C20546F704999190D4E4E0E18D90B4C1E194C59598B4D0C988C8B4E114DCD8B4D10910D0D0E510C0C0C10CDA02800010101C
 94
        0
  0
DICTIONARY
  5
4B41E1
330
4B41E0
100
AcDbDictionary
280
     1
281
     1
  3
BUMPTILE
360
4B41E3
  3
DIFFUSETILE
360
4B41E2
  3
OPACITYTILE
360
4B41E6
  3
REFLECTIONTILE
360
4B41E5
  3
REFRACTIONTILE
360
4B41E7
  3
SPECULARTILE
360
4B41E4
  0
DICTIONARY
  5
4B41D9
330
4B41D8
100
AcDbDictionary
280
     1
281
     1
  3
BUMPTILE
360
4B41DB
  3
DIFFUSETILE
360
4B41DA
  3
OPACITYTILE
360
4B41DE
  3
REFLECTIONTILE
360
4B41DD
  3
REFRACTIONTILE
360
4B41DF
  3
SPECULARTILE
360
4B41DC
  0
DICTIONARY
  5
4B41E9
330
4B41E8
100
AcDbDictionary
280
     1
281
     1
  3
BUMPTILE
360
4B41EB
  3
DIFFUSETILE
360
4B41EA
  3
OPACITYTILE
360
4B41EE
  3
REFLECTIONTILE
360
4B41ED
  3
REFRACTIONTILE
360
4B41EF
  3
SPECULARTILE
360
4B41EC
  0
DICTIONARY
  5
4B4766
330
4B3769
100
AcDbDictionary
280
     1
281
     1
  3
ACAD_ROUNDTRIP_2008_TABLESTYLE_CELLSTYLEMAP
360
4B4767
  0
ACAD_PROXY_OBJECT
  5
4B37D6
102
{ACAD_REACTORS
330
4B37D5
102
}
330
4B37D5
100
AcDbProxyObject
 90
      499
 91
      555
 71
    25
 97
       77
 70
     0
161
              2431
310
608B81E85EB51B8BE3F8030000C30041105394D2501640600800030C0200800030C00B81E85EB51B8BE3F48821E8720B1B6A9BAB9332A32BC3A29BA3220480A1282C6DA8C868CA6E8C88120286A0B1B6ABB2B63234B733A9BA3220480A1082C6DA92C8A6E8C88120285A0B1B6A230BA3AB6A9BA3220480A1282C6DA849E9AA
310
6E8C8812028820B6B23A2232BA30B4B629BCB6A9BA3220480A2282DAC8E8A6CAC6E8D2DEDCA6F2DAA6E8C88120288A0B6B23A21B2B73A32B92634B732A9BA3220480A2282DAC8E8A8D0E4CAC2C898D2DCCAA6E8C88120285A0B6B23A2737BA32A9BA3220480A1682C682DACE98C2F2A6E8C88120285A0B1A0B6B3A234B6A9B
310
A3220480A2282C682DACE90DED8CA86D0C2E4E8A6E8C88120286A0B1A0B6B3AA34BA3632A9BA3220480A02812027FFF9FFFE
340
4B37E4
360
4B37E5
360
4B37E6
360
4B37E7
360
4B37E8
360
4B37E9
360
4B37EA
360
4B37EB
360
4B37EC
360
4B37ED
360
4B37EE
360
4B37EF
360
4B37FA
360
4B37FB
360
4B381A
360
4B381B
340
0
340
0
340
0
340
0
 94
        0
  0
ACAD_PROXY_OBJECT
  5
4B3772
102
{ACAD_REACTORS
330
4B3771
102
}
330
4B3771
100
AcDbProxyObject
 90
      499
 91
      508
 71
    25
 97
       77
 70
     0
161
              2436
310
4050B44574753455454494E4753A1286829C8E82A4A482B282A106660F8686AF86C608321A2A720A723A0A849A1ABE1C983E18999AA0C868A9C889282940000000000001C07E83A1A2A72224A0A9A0A8598171ABE1897183E18971AA0E868A9C8892A6A8940000000000001807E8321A2A72622A7250000000000000701FA0
310
C868A9C9E8C8C940000000000001C07E84A1A624A720A92920ACA0A851817181A991A981818182108698929C8AA8B2A082A0AB098929C8A84A22BA3AAA9A1A0A622A50A0E9882A6A89E849482A02608426A0A5A2AB24A2ABA7E8120CA0A68682988A0C00800010652455649534941501304154D0D0531150540CC4E8C50954
310
494D455354414D504A0FF6A7251DD28734141D5915494D253D3905414C4D4B8C0C1107B44574753455454494E4753454E447DC
 94
        0
  0
ACAD_PROXY_OBJECT
  5
4B3773
102
{ACAD_REACTORS
330
4B3771
102
}
330
4B3771
100
AcDbProxyObject
 90
      499
 91
      508
 71
    25
 97
       77
 70
     0
161
               852
310
4050D5452414E5353455454494E4753A2488A482AE929C8EA8A4829CA69882A8929E9C0C00800050D4F524947494E414C4C595F4F4E0600400008529A7AAA921A2A620A723A0A81A2A72AA12AAA0A48AA68AA4AC8A0C0080001107B44574753455454494E4753454E447DC
 94
        0
  0
XRECORD
  5
4B41E3
102
{ACAD_REACTORS
330
4B41E1
102
}
330
4B41E1
100
AcDbXrecord
280
     1
270
     1
271
     1
  0
XRECORD
  5
4B41E2
102
{ACAD_REACTORS
330
4B41E1
102
}
330
4B41E1
100
AcDbXrecord
280
     1
270
     1
271
     1
  0
XRECORD
  5
4B41E6
102
{ACAD_REACTORS
330
4B41E1
102
}
330
4B41E1
100
AcDbXrecord
280
     1
270
     1
271
     1
  0
XRECORD
  5
4B41E5
102
{ACAD_REACTORS
330
4B41E1
102
}
330
4B41E1
100
AcDbXrecord
280
     1
270
     1
271
     1
  0
XRECORD
  5
4B41E7
102
{ACAD_REACTORS
330
4B41E1
102
}
330
4B41E1
100
AcDbXrecord
280
     1
270
     1
271
     1
  0
XRECORD
  5
4B41E4
102
{ACAD_REACTORS
330
4B41E1
102
}
330
4B41E1
100
AcDbXrecord
280
     1
270
     1
271
     1
  0
XRECORD
  5
4B41DB
102
{ACAD_REACTORS
330
4B41D9
102
}
330
4B41D9
100
AcDbXrecord
280
     1
270
     1
271
     1
  0
XRECORD
  5
4B41DA
102
{ACAD_REACTORS
330
4B41D9
102
}
330
4B41D9
100
AcDbXrecord
280
     1
270
     1
271
     1
  0
XRECORD
  5
4B41DE
102
{ACAD_REACTORS
330
4B41D9
102
}
330
4B41D9
100
AcDbXrecord
280
     1
270
     1
271
     1
  0
XRECORD
  5
4B41DD
102
{ACAD_REACTORS
330
4B41D9
102
}
330
4B41D9
100
AcDbXrecord
280
     1
270
     1
271
     1
  0
XRECORD
  5
4B41DF
102
{ACAD_REACTORS
330
4B41D9
102
}
330
4B41D9
100
AcDbXrecord
280
     1
270
     1
271
     1
  0
XRECORD
  5
4B41DC
102
{ACAD_REACTORS
330
4B41D9
102
}
330
4B41D9
100
AcDbXrecord
280
     1
270
     1
271
     1
  0
XRECORD
  5
4B41EB
102
{ACAD_REACTORS
330
4B41E9
102
}
330
4B41E9
100
AcDbXrecord
280
     1
270
     1
271
     1
  0
XRECORD
  5
4B41EA
102
{ACAD_REACTORS
330
4B41E9
102
}
330
4B41E9
100
AcDbXrecord
280
     1
270
     1
271
     1
  0
XRECORD
  5
4B41EE
102
{ACAD_REACTORS
330
4B41E9
102
}
330
4B41E9
100
AcDbXrecord
280
     1
270
     1
271
     1
  0
XRECORD
  5
4B41ED
102
{ACAD_REACTORS
330
4B41E9
102
}
330
4B41E9
100
AcDbXrecord
280
     1
270
     1
271
     1
  0
XRECORD
  5
4B41EF
102
{ACAD_REACTORS
330
4B41E9
102
}
330
4B41E9
100
AcDbXrecord
280
     1
270
     1
271
     1
  0
XRECORD
  5
4B41EC
102
{ACAD_REACTORS
330
4B41E9
102
}
330
4B41E9
100
AcDbXrecord
280
     1
270
     1
271
     1
  0
CELLSTYLEMAP
  5
4B4767
102
{ACAD_REACTORS
330
4B4766
102
}
330
4B4766
100
AcDbCellStyleMap
 90
        3
300
CELLSTYLE
  1
TABLEFORMAT_BEGIN
 90
        5
170
     1
 91
        0
 92
    32768
 62
   257
 93
        1
300
CONTENTFORMAT
  1
CONTENTFORMAT_BEGIN
 90
        0
 91
        0
 92
        4
 93
        0
300

 40
0.0
140
1.0
 94
        5
 62
     0
340
4B1AC0
144
0.25
309
CONTENTFORMAT_END
171
     0
 94
        6
 95
        1
302
GRIDFORMAT
  1
GRIDFORMAT_BEGIN
 90
        0
 91
        1
 62
     0
 92
       -2
340
0
 93
        0
 40
0.045
309
GRIDFORMAT_END
 95
        2
302
GRIDFORMAT
  1
GRIDFORMAT_BEGIN
 90
        0
 91
        1
 62
     0
 92
       -2
340
0
 93
        0
 40
0.045
309
GRIDFORMAT_END
 95
        4
302
GRIDFORMAT
  1
GRIDFORMAT_BEGIN
 90
        0
 91
        1
 62
     0
 92
       -2
340
0
 93
        0
 40
0.045
309
GRIDFORMAT_END
 95
        8
302
GRIDFORMAT
  1
GRIDFORMAT_BEGIN
 90
        0
 91
        1
 62
     0
 92
       -2
340
0
 93
        0
 40
0.045
309
GRIDFORMAT_END
 95
       16
302
GRIDFORMAT
  1
GRIDFORMAT_BEGIN
 90
        0
 91
        1
 62
     0
 92
       -2
340
0
 93
        0
 40
0.045
309
GRIDFORMAT_END
 95
       32
302
GRIDFORMAT
  1
GRIDFORMAT_BEGIN
 90
        0
 91
        1
 62
     0
 92
       -2
340
0
 93
        0
 40
0.045
309
GRIDFORMAT_END
309
TABLEFORMAT_END
  1
CELLSTYLE_BEGIN
 90
        1
 91
        1
300
_TITLE
309
CELLSTYLE_END
300
CELLSTYLE
  1
TABLEFORMAT_BEGIN
 90
        5
170
     1
 91
        0
 92
        0
 62
   257
 93
        1
300
CONTENTFORMAT
  1
CONTENTFORMAT_BEGIN
 90
        0
 91
        0
 92
        4
 93
        0
300

 40
0.0
140
1.0
 94
        5
 62
     0
340
4B1AC0
144
0.18
309
CONTENTFORMAT_END
171
     0
 94
        6
 95
        1
302
GRIDFORMAT
  1
GRIDFORMAT_BEGIN
 90
        0
 91
        1
 62
     0
 92
       -2
340
0
 93
        0
 40
0.045
309
GRIDFORMAT_END
 95
        2
302
GRIDFORMAT
  1
GRIDFORMAT_BEGIN
 90
        0
 91
        1
 62
     0
 92
       -2
340
0
 93
        0
 40
0.045
309
GRIDFORMAT_END
 95
        4
302
GRIDFORMAT
  1
GRIDFORMAT_BEGIN
 90
        0
 91
        1
 62
     0
 92
       -2
340
0
 93
        0
 40
0.045
309
GRIDFORMAT_END
 95
        8
302
GRIDFORMAT
  1
GRIDFORMAT_BEGIN
 90
        0
 91
        1
 62
     0
 92
       -2
340
0
 93
        0
 40
0.045
309
GRIDFORMAT_END
 95
       16
302
GRIDFORMAT
  1
GRIDFORMAT_BEGIN
 90
        0
 91
        1
 62
     0
 92
       -2
340
0
 93
        0
 40
0.045
309
GRIDFORMAT_END
 95
       32
302
GRIDFORMAT
  1
GRIDFORMAT_BEGIN
 90
        0
 91
        1
 62
     0
 92
       -2
340
0
 93
        0
 40
0.045
309
GRIDFORMAT_END
309
TABLEFORMAT_END
  1
CELLSTYLE_BEGIN
 90
        2
 91
        1
300
_HEADER
309
CELLSTYLE_END
300
CELLSTYLE
  1
TABLEFORMAT_BEGIN
 90
        5
170
     1
 91
        0
 92
        0
 62
   257
 93
        1
300
CONTENTFORMAT
  1
CONTENTFORMAT_BEGIN
 90
        0
 91
        0
 92
        4
 93
        0
300

 40
0.0
140
1.0
 94
        2
 62
     0
340
4B1AC0
144
0.18
309
CONTENTFORMAT_END
171
     0
 94
        6
 95
        1
302
GRIDFORMAT
  1
GRIDFORMAT_BEGIN
 90
        0
 91
        1
 62
     0
 92
       -2
340
0
 93
        0
 40
0.045
309
GRIDFORMAT_END
 95
        2
302
GRIDFORMAT
  1
GRIDFORMAT_BEGIN
 90
        0
 91
        1
 62
     0
 92
       -2
340
0
 93
        0
 40
0.045
309
GRIDFORMAT_END
 95
        4
302
GRIDFORMAT
  1
GRIDFORMAT_BEGIN
 90
        0
 91
        1
 62
     0
 92
       -2
340
0
 93
        0
 40
0.045
309
GRIDFORMAT_END
 95
        8
302
GRIDFORMAT
  1
GRIDFORMAT_BEGIN
 90
        0
 91
        1
 62
     0
 92
       -2
340
0
 93
        0
 40
0.045
309
GRIDFORMAT_END
 95
       16
302
GRIDFORMAT
  1
GRIDFORMAT_BEGIN
 90
        0
 91
        1
 62
     0
 92
       -2
340
0
 93
        0
 40
0.045
309
GRIDFORMAT_END
 95
       32
302
GRIDFORMAT
  1
GRIDFORMAT_BEGIN
 90
        0
 91
        1
 62
     0
 92
       -2
340
0
 93
        0
 40
0.045
309
GRIDFORMAT_END
309
TABLEFORMAT_END
  1
CELLSTYLE_BEGIN
 90
        3
 91
        2
300
_DATA
309
CELLSTYLE_END
  0
ACAD_PROXY_OBJECT
  5
4B37E5
330
4B37D6
100
AcDbProxyObject
 90
      499
 91
      557
 71
    25
 97
       77
 70
     0
161
                96
310
60820E80A0280A0280A0280800
 94
        0
  0
ACAD_PROXY_OBJECT
  5
4B37E6
330
4B37D6
100
AcDbProxyObject
 90
      499
 91
      558
 71
    25
 97
       77
 70
     0
161
               332
310
6090E405014050140501405014050140501405014250140501405014050140501200000000000000040C
340
4B37F0
 94
        0
  0
ACAD_PROXY_OBJECT
  5
4B37E7
330
4B37D6
100
AcDbProxyObject
 90
      499
 91
      559
 71
    25
 97
       77
 70
     0
161
               403
310
608C199999999999E99F91F405014050140501405014050140501405014050140501405014050140501405014050140501404C
340
0
 94
        0
  0
ACAD_PROXY_OBJECT
  5
4B37E8
330
4B37D6
100
AcDbProxyObject
 90
      499
 91
      560
 71
    25
 97
       77
 70
     0
161
                10
310
608C
 94
        0
  0
ACAD_PROXY_OBJECT
  5
4B37E9
330
4B37D6
100
AcDbProxyObject
 90
      499
 91
      561
 71
    25
 97
       77
 70
     0
161
               257
310
60A290EA22A7D90F49F9353333333333727F44D4CCCCCCCCCDC9FC01000061804C
340
4B37F1
340
4B37F2
 94
        0
  0
ACAD_PROXY_OBJECT
  5
4B37EA
330
4B37D6
100
AcDbProxyObject
 90
      499
 91
      562
 71
    25
 97
       77
 70
     0
161
             13595
310
6090E41125511535014112551153501405014069011309A4F2590CB64FD3347454E545241434F2C454E552C302C4954454D2C47454E54524154582C25732C2847454E4D53472067656E647767203232322940690120281A8AA2CA0281A8AA2CA028120280A03202261349E4B2196C9FA648E8A9CA8A482869E588A9CAA5860
310
58A2A8B2588E8A9CA8A482A8B0584AE658508E8A9C9AA68E40CECADCC8EECE406464665280D202405044E414D45405044E414D454051C40640A8B95C2E97CBE502404CD1D15395149050D3CB1153954B0C0B139053514B11D15395149055160B095CCB0A11D1539354D1C819D95B991DD9C80C8C8D8A50192C3D4946284953
310
424C414E4B28504152543A4E414D45292C424C4F434B3A4E414D452C504152543A4E414D452940480A0A888AA686A480A16888AA686A492A0A8929E9C80A3A80C81D10782C06030180C809D23A2A72A2920A1A79622A72A9618162222A9A1A924A82A24A7A71623A2A72A2920AA2C1612B9961423A2A726A9A39033B2B7323
310
BB39019189B94A024809014214D51053911054911014214D510539110549110147501904A383BFDFEFF5FBFCFD3747454E545241434F2C454E552C302C5354414E444152442C47454E54524154582C25732C2847454E4D53472067656E64776720323138294049012028426A0AA22A924A0A62028426A0AA22A924A0A62028
310
EA0320B41396D838E9017D9FA6E8E8A9CA8A482869E588A9CAA5860589A82A88AA4928298588E8A9CA8A482A8B0584AE658508E8A9C9AA68E40CECADCC8EECE406464625280D202405044E4F5445405044E4F54454051D40641A8B95C2E97CBE5F23F4CD1D15395149050D3CB1153954B0C0B1393D5114B11D153951490551
310
60B095CCB0A11D1539354D1C819D95B991DD9C80C8C8D4A501A40480A0CAC8A9C889EA480A0CAC8A9C889EA480A3A80C83D172B85D2F97CBE47E9AA3A2A72A2920A1A79622A72A9618162B22A72227A91623A2A72A2920AA2C1612B9961423A2A726A9A39033B2B7323BB39019191A14A0348090141911154D0D48C9014351
310
1154D0D49254151253D3880C90147501908A20F0580C0603019013B47454E545241434F2C454E552C302C4445534352495054494F4E20322C47454E54524154582C25732C2847454E4D53472067656E6477672033362940490120284A9AA20A72220A922192028529AA20A72220A92210192028EA0321347077FBFDFEBF7F9
310
FA728E8A9CA8A482869E588A9CAA586058A6A8829C8882A4884064588E8A9CA8A482A8B0584AE658508E8A9C9AA68E40CECADCC8EECE4064646052809202405094D4154455249414C324050A4D4154455249414C20324051D40642A8272DB071D202FB3F4E11D15395149050D3CB1153954B0C0B1350551154925053080C8B
310
11D15395149055160B095CCB0A11D1539354D1C819D95B991DD9C80D0C0A501240480A089A82A6A680A089A82A6A680A3A80A0485A0681172B85D2F97CBE47E9923A2A72A2920A1A79622A72A96181626A0A9A99623A2A72A2920AA2C1612B9961423A2A726A9A39033B2B7323BB3901A1914A024809014154149250D15014
310
154149250D1501475014090C409022E570BA5F2F97C8FD3347454E545241434F2C454E552C302C50524943452C47454E54524154582C25732C2847454E4D53472067656E6477672034332940490120281A224A6A0285A6A2A0A9AAA922A6A2A72A2028EA028121A81A047DC2910F05877A1FA728E8A9CA8A482869E588A9CA
310
A5860589A8A82A6AAA48A9A8A9CA8588E8A9CA8A482A8B0584AE658508E8A9C9AA68E40CECADCC8EECE406868528092024050E441022E07A17AD46E338FE07800030C0001018ACD56AB55AADF63F2B355AAD56AB7D8FD073D3C4954454D3E405018ACD56AB55AADF63F2B355AAD56AB7D8FD073D3C4954454D3E40501890C7
310
E3F1783CEE3F2431F8FC5E0F3B8FD073D3C4954454D3E40501890C7E3F1783CEE3F2431F8FC5E0F3B8FD073D3C4954454D3E405029012B355AAD56AB7D8FCACD56AB55AADF63F41CF4F125511534F901418F4F1455164F9014062B355AAD56AB7D8FCACD56AB55AADF63F41CF4F125511534F9014061309A4F2590CBA4FC4C
310
2693C96432E93F41CF4F125511534F901901002B355AAD56AB7D8FCACD56AB55AADF63FA2000000000000008204018000618048220681A048120280C882148448820348520348452028521485214814000000000000F0BF0000000000003C2FD018020000C3008070000C3000EF7D3E365DBA88FC3BDF4F8D976EA23F2E07A
310
17AD46E2F8FF20341A405024150741A4069703D0BD6A3717C7F0040001860100400018601002000186002026280A03202C
340
0
340
0
 94
        0
  0
ACAD_PROXY_OBJECT
  5
4B37EB
330
4B37D6
100
AcDbProxyObject
 90
      499
 91
      563
 71
    25
 97
       77
 70
     0
161
               994
310
6080B81E85EB51B8CE3F4BCF511155105253080F11115510525317D3105091530F971414D0D05311480F11115510525317D05094D4D0D053114F92341C9A9999999999B93F26A666666666724FC000000000000E03F4000000000000004000000000000005100000000000000244081E0000C3002E07A17AD46E338FCC
340
4B37A3
340
4B37E4
 94
        0
  0
ACAD_PROXY_OBJECT
  5
4B37EC
330
4B37D6
100
AcDbProxyObject
 90
      499
 91
      564
 71
    25
 97
       77
 70
     0
161
               823
310
608031703D0BD6A3719C7E999EA9A2A1AA24A7A7101E29A2A1AA24A7A72FA620A122A62FA324A929AA1F169E29A2A1AA24A7A72FA620A122A62FA620A9AA1F1353333333333B27E3FFFE01C00030C008840F000061801353333333333B27F1703D0BD6A3719C7E
340
4B37A3
340
4B37E4
 94
        0
  0
ACAD_PROXY_OBJECT
  5
4B37ED
330
4B37D6
100
AcDbProxyObject
 90
      499
 91
      565
 71
    25
 97
       77
 70
     0
161
               280
310
6082B8716D9CEF7C33F0A5723F0BD4A2F0FC295C8FC2F528BC3FA199999999999F99FC7F
 94
        0
  0
ACAD_PROXY_OBJECT
  5
4B37EE
330
4B37D6
100
AcDbProxyObject
 90
      499
 91
      566
 71
    25
 97
       77
 70
     0
161
                14
310
60A4
340
0
 94
        0
  0
ACAD_PROXY_OBJECT
  5
4B37EF
330
4B37D6
100
AcDbProxyObject
 90
      499
 91
      567
 71
    25
 97
       77
 70
     0
161
              7408
310
609084050BA4050AA405024050A54656D706C617465203140405013D3C696628657175616C28486F6C653A7461707065642C223022292C22252563222C486F6C653A6E6F6D696E616C2022202220696628657175616C28486F6C653A756E6974732C223122292C2278222C222D222920222022293E3C696628657175616C28
310
486F6C653A7461707065642C223022292C486F6C653A6469612C486F6C653A706974636864657363293E207B5C46414D4744543B787D203C696628657175616C28486F6C653A7465726D696E6174696F6E2C223022292C486F6C653A64657074682C225448525522293E5C507B5C46414D4744543B767D2525633C486F6C65
310
3A63746469613E207B5C46414D4744543B787D203C486F6C653A637464657074683E406901405034050A54656D706C6174652031405FE3D3C696628657175616C28486F6C653A7461707065642C223022292C22252563222C486F6C653A6E6F6D696E616C2022202220696628657175616C28486F6C653A756E6974732C223
310
122292C2278222C222D222920222022293E3C696628657175616C28486F6C653A7461707065642C223022292C486F6C653A6469612C486F6C653A706974636864657363293E207B5C46414D4744543B787D203C696628657175616C28486F6C653A7465726D696E6174696F6E2C223022292C486F6C653A64657074682C225
310
448525522293E5C507B5C46414D4744543B777D2525633C486F6C653A63746469613E2058203C486F6C653A6374616E676C653E252564406901405014050A54656D706C6174652031405CF3D3C696628657175616C28486F6C653A7461707065642C223022292C22252563222C486F6C653A6E6F6D696E616C202220222069
310
6628657175616C28486F6C653A756E6974732C223122292C2278222C222D222920222022293E3C696628657175616C28486F6C653A7461707065642C223022292C486F6C653A6469612C486F6C653A706974636864657363293E5C507B5C46414D4744543B787D203C696628657175616C28486F6C653A7465726D696E6174
310
696F6E2C223022292C486F6C653A64657074682C225448525522293E4069014051E40D0A54656D706C6174652032405173D3C535444503A444553433E203C535444503A5354443E40690A54656D706C61746520314050C3D3C535444503A444553433E40690A54656D706C61746520334050B3D3C535444503A5354443E406
310
90340515AAAC145C0F42F5A8DC5F1F9703D0BD6A3717C7F8020000C3008030000C3004410300
360
4B37F8
330
4B37F8
360
4B37F9
330
4B37F9
360
4B37F7
330
4B37F7
360
4B37F5
360
4B37F4
360
4B37F6
330
4B37F5
330
4B37F4
330
4B37F6
 94
        0
  0
ACAD_PROXY_OBJECT
  5
4B37FA
330
4B37D6
100
AcDbProxyObject
 90
      499
 91
      569
 71
    25
 97
       77
 70
     0
161
                26
310
60902A8C
340
4B37D7
 94
        0
  0
ACAD_PROXY_OBJECT
  5
4B37FB
330
4B37D6
100
AcDbProxyObject
 90
      499
 91
      570
 71
    25
 97
       77
 70
     0
161
               258
310
60902000000000000380FC000000000000E03F408F0F9023C3E40DB18CCCFFFF8C
340
4B37FC
340
0
340
0
340
4B3805
340
4B3808
340
0
340
4B380D
340
4B3810
340
4B3817
340
0
 94
        0
  0
ACAD_PROXY_OBJECT
  5
4B381A
330
4B37D6
100
AcDbProxyObject
 90
      499
 91
      571
 71
    25
 97
       77
 70
     0
161
             17510
310
6091F023FFFFFFFD010300002E07A17AD46E2F8FE00800030C01010300002E07A17AD46E2F8FE00800030C0005134C495354204F4620434F4F5244494E41544553015091D15395149050D3CB1153954B0C0B131254D50813D18810D3D3D491125390551154CB11D15395149055160B095CCB0A11D1539354D1C819D95B991A
310
5B5E880CCC0A78000C000000000000000000000000000000007B14AE47E17AA43F2E07A17AD46E2F8FE00800030C007B14AE47E17AA43F2E07A17AD46E2F8FE00800030C020143CF4F111959985D5B1D151A5D1B194F8050A484F4C45205441424C45014E51D15395149050D3CB1153954B0C0B1213D3114815105093114B1
310
1D15395149055160B095CCB0A11D1539354D1C819D95B991A5B5E880CCC4A78000C000000000000000000000000000000007B14AE47E17AA43F2E07A17AD46E2F8FE00800030C007B14AE47E17AA43F2E07A17AD46E2F8FE00800030C020143CF4F111959985D5B1D151A5D1B194F90E4410F4450240D04415074310143912
310
44D154151241D144310D4400005064F524947494E014D11D15395149050D3CB1153954B0C0B13D49251D2538B11D15395149055160B095CCB0A11D1539354D1C819D95B991A5B5E880C4A400040410008850000A0C9EA4928E929C029A23A2A72A2920A1A79622A72A96181627A924A3A4A71623A2A72A2920AA2C1612B996
310
1423A2A726A9A39033B2B73234B6BD101894800080820010FA0001411213D3114053247454E545241434F2C454E552C302C484F4C452C47454E54524154582C25732C2847454E4D53472067656E64696D7A20322901538F4F12518A1254D093105392CA121BDB19525D195B4A4B13DC9A59DA5B8B08121BDB19525D195B4A4
310
F8F12518A1254D093105392CA121BDB19525D195B4A4B08888B08121BDB19525B99195E0A4F80404100088D0000A02B00297A3A2A72A2920A1A79622A72A9618162C1623A2A72A2920AA2C1612B9961423A2A726A9A39033B2B73234B6BD1019948000808000102A000140564052F47454E545241434F2C454E552C302C592
310
C47454E54524154582C25732C2847454E4D53472067656E64696D7A20342900010100002074000280A900A5E8E8A9CA8A482869E588A9CAA586058A4588E8A9CA8A482A8B0584AE658508E8A9C9AA68E40CECADCC8D2DAF4406C52000202000041280005187B5C4653594D424F4C7C42307C49307C43327C50303B4A7D0151
310
91D15395149050D3CB1153954B0C0B1ED71194D6535093D31F108C1F124C1F10CC9F140C0ED29F4B11D15395149055160B095CCB0A11D1539354D1C819D95B991A5B5E880DCA40004040C0082D0000A064A4A860298A3A2A72A2920A1A79622A72A9618161292A19623A2A72A2920AA2C1612B9961423A2A726A9A39033B2B
310
73234B6BD101C148000808080107A000142D11154D0D49254151253D38053A47454E545241434F2C454E552C302C4445534352495054494F4E2C47454E54524154582C25732C2847454E4D53472067656E64696D7A203230290001000400219400028224AA22A680A668E8A9CA8A482869E588A9CAA58605892A88A9A588E8
310
A9CA8A482A8B0584AE658508E8A9C9AA68E40CECADCC8D2DAF4406268520002020A014068000505494E444558014D11D15395149050D3CB1153954B0C0B12539111560B11D15395149055160B095CCB0A11D1539354D1C819D95B991A5B5E880C4D4A400040414028750000A08909E988A0299A3A2A72A2920A1A79622A72A
310
9618162427A6229623A2A72A2920AA2C1612B9961423A2A726A9A39033B2B73234B6BD10189B148000808200112A0001429213D3114812539111560053947454E545241434F2C454E552C302C484F4C4520494E4445582C47454E54524154582C25732C2847454E4D53472067656E64696D7A2031372900010105002274000
310
284AAA9A2A91024AA22A680A708E8A9CA8A482869E588A9CAA586058AAA68AA44092A88A9A588E8A9CA8A482A8B0584AE658508E8A9C9AA68E40CECADCC8D2DAF4406464520002020A004568000503515459014C91D15395149050D3CB1153954B0C0B1455164B11D15395149055160B095CCB0A11D1539354D1C819D95B99
310
1A5B5E880C4E4A400040418008A50000A10A6A8829C8882A488029BA3A2A72A2920A1A79622A72A96181629AA20A72220A9221623A2A72A2920AA2C1612B9961423A2A726A9A39033B2B73234B6BD10191894800080020010DA440019FFFFFFFE004D4CCCCCCCCCF49FCFFFFFFFF0326A6666666667A4FE7FFFFFFF8093533
310
33333333D27F3FFFFFFFC049A9999999999E93F9FFFFFFFE044D4CCCCCCCCCF49FCFFFFFFFF0226A6666666667A4FE7FFFFFFF81B3FFFFFFFC0C00000000000000409FFFFFFFE004D4CCCCCCCCCEC9FCFFFFFFFF0026A6666666667A4FE7FFFFFFF801353333333333D27F3FFFFFFFC009A9999999999E93F9FFFFFFFE004D
310
4CCCCCCCCCF49FCFFFFFFFF032E07A17AD46E378FE7FFFFFFF818CECCCCCCCCCC0C813FFFFFFFD100067FFFFFFF801353333333333D27F3FFFFFFFC0C9A9999999999E93F9FFFFFFFE064D4CCCCCCCCCF49FCFFFFFFFF0326A6666666667A4FE7FFFFFFF819353333333333D27F3FFFFFFFC0C9A9999999999E93F9FFFFFFF
310
E06CFFFFFFFF03000000000000001027FFFFFFF801353333333333B27F3FFFFFFFC009A9999999999E93F9FFFFFFFE064D4CCCCCCCCCF49FCFFFFFFFF0026A6666666667A4FE7FFFFFFF801353333333333D27F3FFFFFFFC0CB81E85EB51B8DE3F9FFFFFFFE0633B33333333303204FFFFFFFF4111000000043C0000011200
310
000044C0000010441C0004011200000040C000401020001003FFFFFFFD0240400054E3D3C4946284953424C414E4B28486F6C654974656D292C4F726967696E2C20486F6C654974656D293E3C4946284953424C414E4B28486F6C654974656D292C22222C20486F6C65496E646578293E4111000000043C000001120000004
310
4C0000010300004111000000043C00000112000000454000000FFFFFFFF8
340
0
340
0
340
0
340
0
340
4B37E4
340
4B37E4
 94
        0
  0
ACAD_PROXY_OBJECT
  5
4B381B
330
4B37D6
100
AcDbProxyObject
 90
      499
 91
      572
 71
    25
 97
       77
 70
     0
161
              5542
310
6099741105394D2506414E53495F4342905394D257D512551554D15414E53495F54525F5265766973696F6E6C697374614191143202831372E307832322E30696E63682941905394D257D0D1146202832382E307834302E30696E63682941905394D257D191142202831312E307831372E30696E63682941905394D257D091
310
144202832322E307833342E30696E63682941905394D257D111145202833342E307834342E30696E63682941905394D257D1510412028382E357831312E30696E63682941905394D257D0505439554C8151A5D1B1948109B1BD8DAD0A414E53495F544954555344D05B9CDA48151A5D1B1948109B1BD8DAC81110D0C414E53
310
495F5449544C45444344D05B9CDA48151A5D1B1948109B1BD8DAC81050D0C414E53495F5449544C45414344905B9CDA48151A5D1B1948109B1BD8DAC81050B414E53495F5449544C454144905B9CDA48151A5D1B1948109B1BD8DAC81110B414E53495F5449544C4544421125265766973696F6E6C69737420415F42525F45
310
505394D257D09497D4995D9A5CDA5BDB9B1A5CDD185125265766973696F6E6C69737420415F54525F45505394D257D51497D4995D9A5CDA5BDB9B1A5CDD185125265766973696F6E6C69737420445F42525F45505394D257D09497D4995D9A5CDA5BDB9B1A5CDD191125265766973696F6E6C69737420445F54525F4550539
310
4D257D51497D4995D9A5CDA5BDB9B1A5CDD191125265766973696F6E6C69737420415F424C5F45505394D257D09317D4995D9A5CDA5BDB9B1A5CDD185125265766973696F6E6C69737420415F544C5F45505394D257D51317D4995D9A5CDA5BDB9B1A5CDD185125265766973696F6E6C69737420445F424C5F45505394D257
310
D09317D4995D9A5CDA5BDB9B1A5CDD191125265766973696F6E6C69737420445F544C5F45505394D257D51317D4995D9A5CDA5BDB9B1A5CDD190
 94
        0
  0
ACAD_PROXY_OBJECT
  5
4B37F8
330
0
100
AcDbProxyObject
 90
      499
 91
      568
 71
    25
 97
       77
 70
     0
161
              2224
310
60A014295195B5C1B185D19480C40405013D3C696628657175616C28486F6C653A7461707065642C223022292C22252563222C486F6C653A6E6F6D696E616C2022202220696628657175616C28486F6C653A756E6974732C223122292C2278222C222D222920222022293E3C696628657175616C28486F6C653A7461707065
310
642C223022292C486F6C653A6469612C486F6C653A706974636864657363293E207B5C46414D4744543B787D203C696628657175616C28486F6C653A7465726D696E6174696F6E2C223022292C486F6C653A64657074682C225448525522293E5C507B5C46414D4744543B767D2525633C486F6C653A63746469613E207B5C
310
46414D4744543B787D203C486F6C653A637464657074683E99
 94
        0
  0
ACAD_PROXY_OBJECT
  5
4B37F9
330
0
100
AcDbProxyObject
 90
      499
 91
      568
 71
    25
 97
       77
 70
     0
161
              2160
310
60A014295195B5C1B185D19480C405FE3D3C696628657175616C28486F6C653A7461707065642C223022292C22252563222C486F6C653A6E6F6D696E616C2022202220696628657175616C28486F6C653A756E6974732C223122292C2278222C222D222920222022293E3C696628657175616C28486F6C653A746170706564
310
2C223022292C486F6C653A6469612C486F6C653A706974636864657363293E207B5C46414D4744543B787D203C696628657175616C28486F6C653A7465726D696E6174696F6E2C223022292C486F6C653A64657074682C225448525522293E5C507B5C46414D4744543B777D2525633C486F6C653A63746469613E2058203C
310
486F6C653A6374616E676C653E25256400
 94
        0
  0
ACAD_PROXY_OBJECT
  5
4B37F7
330
0
100
AcDbProxyObject
 90
      499
 91
      568
 71
    25
 97
       77
 70
     0
161
              1784
310
60A014295195B5C1B185D19480C405CF3D3C696628657175616C28486F6C653A7461707065642C223022292C22252563222C486F6C653A6E6F6D696E616C2022202220696628657175616C28486F6C653A756E6974732C223122292C2278222C222D222920222022293E3C696628657175616C28486F6C653A746170706564
310
2C223022292C486F6C653A6469612C486F6C653A706974636864657363293E5C507B5C46414D4744543B787D203C696628657175616C28486F6C653A7465726D696E6174696F6E2C223022292C486F6C653A64657074682C225448525522293E00
 94
        0
  0
ACAD_PROXY_OBJECT
  5
4B37F5
330
0
100
AcDbProxyObject
 90
      499
 91
      568
 71
    25
 97
       77
 70
     0
161
               312
310
60A014295195B5C1B185D19480C805173D3C535444503A444553433E203C535444503A5354443E00
 94
        0
  0
ACAD_PROXY_OBJECT
  5
4B37F4
330
0
100
AcDbProxyObject
 90
      499
 91
      568
 71
    25
 97
       77
 70
     0
161
               224
310
60A014295195B5C1B185D19480C4050C3D3C535444503A444553433E99
 94
        0
  0
ACAD_PROXY_OBJECT
  5
4B37F6
330
0
100
AcDbProxyObject
 90
      499
 91
      568
 71
    25
 97
       77
 70
     0
161
               216
310
60A014295195B5C1B185D19480CC050B3D3C535444503A5354443ECC
 94
        0
  0
ENDSEC
  0
SECTION
  2
ACDSDATA
 70
     2
 71
     8
  0
ACDSSCHEMA
 90
        0
  1
AcDb_Thumbnail_Schema
  2
AcDbDs::ID
280
    10
 91
        8
  2
Thumbnail_Data
280
    15
 91
        0
101
ACDSRECORD
 95
        0
 90
        1
  2
AcDbDs::TreatedAsObjectData
280
     1
291
     1
101
ACDSRECORD
 95
        0
 90
        2
  2
AcDbDs::Legacy
280
     1
291
     1
101
ACDSRECORD
  1
AcDbDs::ID
 90
        3
  2
AcDs:Indexable
280
     1
291
     1
101
ACDSRECORD
  1
AcDbDs::ID
 90
        4
  2
AcDbDs::HandleAttribute
280
     7
282
     1
  0
ACDSSCHEMA
 90
        1
  1
AcDbDs::TreatedAsObjectDataSchema
  2
AcDbDs::TreatedAsObjectData
280
     1
 91
        0
  0
ACDSSCHEMA
 90
        2
  1
AcDbDs::LegacySchema
  2
AcDbDs::Legacy
280
     1
 91
        0
  0
ACDSSCHEMA
 90
        3
  1
AcDbDs::IndexedPropertySchema
  2
AcDs:Indexable
280
     1
 91
        0
  0
ACDSSCHEMA
 90
        4
  1
AcDbDs::HandleAttributeSchema
  2
AcDbDs::HandleAttribute
280
     7
 91
        1
284
     1
  0
ACDSRECORD
 90
        0
  2
AcDbDs::ID
280
    10
320
4B1D16
  2
Thumbnail_Data
280
    15
 94
     1517
310
89504E470D0A1A0A0000000D494844520000010000000085080300000083A6D68B00000300504C5445000000000000C8C8C80000000000000000000000000000000000000000000000000000330000660000990000CC0000FF0033000033330033660033990033CC0033FF0066000066330066660066990066CC0066FF0099
310
000099330099660099990099CC0099FF00CC0000CC3300CC6600CC9900CCCC00CCFF00FF0000FF3300FF6600FF9900FFCC00FFFF3300003300333300663300993300CC3300FF3333003333333333663333993333CC3333FF3366003366333366663366993366CC3366FF3399003399333399663399993399CC3399FF33CC00
310
33CC3333CC6633CC9933CCCC33CCFF33FF0033FF3333FF6633FF9933FFCC33FFFF6600006600336600666600996600CC6600FF6633006633336633666633996633CC6633FF6666006666336666666666996666CC6666FF6699006699336699666699996699CC6699FF66CC0066CC3366CC6666CC9966CCCC66CCFF66FF0066
310
FF3366FF6666FF9966FFCC66FFFF9900009900339900669900999900CC9900FF9933009933339933669933999933CC9933FF9966009966339966669966999966CC9966FF9999009999339999669999999999CC9999FF99CC0099CC3399CC6699CC9999CCCC99CCFF99FF0099FF3399FF6699FF9999FFCC99FFFFCC0000CC00
310
33CC0066CC0099CC00CCCC00FFCC3300CC3333CC3366CC3399CC33CCCC33FFCC6600CC6633CC6666CC6699CC66CCCC66FFCC9900CC9933CC9966CC9999CC99CCCC99FFCCCC00CCCC33CCCC66CCCC99CCCCCCCCCCFFCCFF00CCFF33CCFF66CCFF99CCFFCCCCFFFFFF0000FF0033FF0066FF0099FF00CCFF00FFFF3300FF3333
310
FF3366FF3399FF33CCFF33FFFF6600FF6633FF6666FF6699FF66CCFF66FFFF9900FF9933FF9966FF9999FF99CCFF99FFFFCC00FFCC33FFCC66FFCC99FFCCCCFFCCFFFFFF00FFFF33FFFF66FFFF99FFFFCCFFFFFF0000000D0D0D1A1A1A2828283535354343435050505D5D5D6B6B6B787878868686939393A1A1A1AEAEAEBB
310
BBBBC9C9C9D6D6D6E4E4E4F1F1F1FFFFFF00000000000000000000000000000000000000000000000000000000000008F1915C000002A84944415478DAEDDD5B6E84300C05502F86DFEC7F01B321FFF8BFC32B220186C0D011F6BD96A6525554C851E2E6452A7267BC7E12F2DC7885B909010840000210E0FB67335D45A748
310
001B85ED8400BB61FB1104A02F4951183800A90A83067010D624E00340F5DE1CE01060087880226CFC72A1F40581AF1AA0732ED8AE0F04880D2019602F231C62B8EE09AE92001AC08A001220770BF4BF6EF27080944452520106183EF000673240208037C108F0BF377932808C39609C0A400730D6006400F81C40000210E0
310
7804040D60E800420003CF018205D09D0D02108000F1001A932001084000B7009692F59F1600095A03E0019A9B000108400010807EEA031DC0864215D36066D835E0C39C20013092203C00E260A80C439F112200E70443031C2F7BC45E186958FB240001647787B47F8086880890374B836E9585DF2BCCDDE204C84D0012E0
310
F24B53210096C5060438FFE2240108100CE09B374703D580DF0C389EDB0F20000108400002100017601D37BC3FEA1DC0A0010C1D00BE06002741CD87092A2040BFF89F014E6C108C5503645AFE54D4267057EF88004E00B45B9FA6D80670700AB39B1A506D83CC5364DA54FE8D5FE11BA06D6EB4BCA88B0720F379B31F3245
310
D41A302F0D1C014C574505A89B403534C85784CD01E9FDF7202DC28AEFC60B164A5B4327DF3960D82DB00BD0FF34E780BD93D8FD3681E160CD2A05AC9BC0982474DA31E6BA27583CFF7900E739A03E497F0740C202AC8A36020C796E9903521D1B005DE09E60D90474BB271803A0ECE31D8D03E2D4003DB54DA2E5487E9735
310
60B95FE630543E4201009435C5E77F98D802689D0A8207A8AFB6284DE02A80D31CA05627F37300B6373508B834E6B41F40000238BE09010840000210E0E2B3E934B177CBEB021B93085E006E795F423D02CCB31A7744B6640E2000015C00FC246E7DE43FC00F56DEC3758DEF0000000049454E44AE426082
  0
ENDSEC
  0
EOF
