  0
SECTION
  2
HEADER
  9
$ACADVER
  1
AC1032
  9
$ACADMAINTVER
 90
       55
  9
$DWGCODEPAGE
  3
ANSI_1252
  9
$LASTSAVEDBY
  1
Administrator
  9
$REQUIREDVERSIONS
160
                 0
  9
$INSBASE
 10
0.0
 20
0.0
 30
0.0
  9
$EXTMIN
 10
-0.2425567959943702
 20
0.6477964671298739
 30
0.0
  9
$EXTMAX
 10
14.88843342275811
 20
19.98940743118246
 30
0.0
  9
$LIMMIN
 10
0.0
 20
0.0
  9
$LIMMAX
 10
16.5
 20
10.5
  9
$ORTHOMODE
 70
     0
  9
$REGENMODE
 70
     1
  9
$FILLMODE
 70
     1
  9
$QTEXTMODE
 70
     0
  9
$MIRRTEXT
 70
     0
  9
$LTSCALE
 40
1.0
  9
$ATTMODE
 70
     1
  9
$TEXTSIZE
 40
0.08
  9
$TRACEWID
 40
0.05
  9
$TEXTSTYLE
  7
ROMANS
  9
$CLAYER
  8
XTHIN
  9
$CELTYPE
  6
BYLAYER
  9
$CECOLOR
 62
   256
  9
$CELTSCALE
 40
1.0
  9
$DISPSILH
 70
     0
  9
$DIMSCALE
 40
1.0
  9
$DIMASZ
 40
0.125
  9
$DIMEXO
 40
0.045
  9
$DIMDLI
 40
0.38
  9
$DIMRND
 40
0.0
  9
$DIMDLE
 40
0.0
  9
$DIMEXE
 40
0.08
  9
$DIMTP
 40
0.0
  9
$DIMTM
 40
0.0
  9
$DIMTXT
 40
0.08
  9
$DIMCEN
 40
0.0
  9
$DIMTSZ
 40
0.0
  9
$DIMTOL
 70
     0
  9
$DIMLIM
 70
     0
  9
$DIMTIH
 70
     1
  9
$DIMTOH
 70
     1
  9
$DIMSE1
 70
     0
  9
$DIMSE2
 70
     0
  9
$DIMTAD
 70
     0
  9
$DIMZIN
 70
     0
  9
$DIMBLK
  1

  9
$DIMASO
 70
     1
  9
$DIMSHO
 70
     1
  9
$DIMPOST
  1

  9
$DIMAPOST
  1

  9
$DIMALT
 70
     0
  9
$DIMALTD
 70
     2
  9
$DIMALTF
 40
25.4
  9
$DIMLFAC
 40
1.0
  9
$DIMTOFL
 70
     0
  9
$DIMTVP
 40
0.0
  9
$DIMTIX
 70
     0
  9
$DIMSOXD
 70
     0
  9
$DIMSAH
 70
     0
  9
$DIMBLK1
  1

  9
$DIMBLK2
  1

  9
$DIMSTYLE
  2
HSTANDARD
  9
$DIMCLRD
 70
   112
  9
$DIMCLRE
 70
     9
  9
$DIMCLRT
 70
   256
  9
$DIMTFAC
 40
0.4444444444444445
  9
$DIMGAP
 40
0.09
  9
$DIMJUST
 70
     0
  9
$DIMSD1
 70
     0
  9
$DIMSD2
 70
     0
  9
$DIMTOLJ
 70
     1
  9
$DIMTZIN
 70
     0
  9
$DIMALTZ
 70
     0
  9
$DIMALTTZ
 70
     0
  9
$DIMUPT
 70
     0
  9
$DIMDEC
 70
     3
  9
$DIMTDEC
 70
     3
  9
$DIMALTU
 70
     2
  9
$DIMALTTD
 70
     2
  9
$DIMTXSTY
  7
ROMANS
  9
$DIMAUNIT
 70
     0
  9
$DIMADEC
 70
     0
  9
$DIMALTRND
 40
0.0
  9
$DIMAZIN
 70
     0
  9
$DIMDSEP
 70
    46
  9
$DIMATFIT
 70
     3
  9
$DIMFRAC
 70
     0
  9
$DIMLDRBLK
  1

  9
$DIMLUNIT
 70
     2
  9
$DIMLWD
 70
    -2
  9
$DIMLWE
 70
    -2
  9
$DIMTMOVE
 70
     0
  9
$DIMFXL
 40
1.0
  9
$DIMFXLON
 70
     0
  9
$DIMJOGANG
 40
0.7853981633974483
  9
$DIMTFILL
 70
     0
  9
$DIMTFILLCLR
 70
     0
  9
$DIMARCSYM
 70
     1
  9
$DIMLTYPE
  6

  9
$DIMLTEX1
  6

  9
$DIMLTEX2
  6

  9
$DIMTXTDIRECTION
 70
     0
  9
$LUNITS
 70
     2
  9
$LUPREC
 70
     8
  9
$SKETCHINC
 40
0.1
  9
$FILLETRAD
 40
0.0
  9
$AUNITS
 70
     0
  9
$AUPREC
 70
     2
  9
$MENU
  1
TB
  9
$ELEVATION
 40
0.0
  9
$PELEVATION
 40
0.0
  9
$THICKNESS
 40
0.0
  9
$LIMCHECK
 70
     0
  9
$CHAMFERA
 40
0.0
  9
$CHAMFERB
 40
0.0
  9
$CHAMFERC
 40
0.0
  9
$CHAMFERD
 40
0.0
  9
$SKPOLY
 70
     0
  9
$TDCREATE
 40
2452818.325520834
  9
$TDUCREATE
 40
2452818.492189202
  9
$TDUPDATE
 40
2459264.425543981
  9
$TDUUPDATE
 40
2459264.633877315
  9
$TDINDWG
 40
0.5505111574
  9
$TDUSRTIMER
 40
0.5505110417
  9
$USRTIMER
 70
     1
  9
$ANGBASE
 50
0.0
  9
$ANGDIR
 70
     0
  9
$PDMODE
 70
     0
  9
$PDSIZE
 40
0.0
  9
$PLINEWID
 40
0.0
  9
$SPLFRAME
 70
     0
  9
$SPLINETYPE
 70
     6
  9
$SPLINESEGS
 70
     8
  9
$HANDSEED
  5
4B3190
  9
$SURFTAB1
 70
     6
  9
$SURFTAB2
 70
     6
  9
$SURFTYPE
 70
     6
  9
$SURFU
 70
     6
  9
$SURFV
 70
     6
  9
$UCSBASE
  2

  9
$UCSNAME
  2

  9
$UCSORG
 10
0.0
 20
0.0
 30
0.0
  9
$UCSXDIR
 10
1.0
 20
0.0
 30
0.0
  9
$UCSYDIR
 10
0.0
 20
1.0
 30
0.0
  9
$UCSORTHOREF
  2

  9
$UCSORTHOVIEW
 70
     0
  9
$UCSORGTOP
 10
0.0
 20
0.0
 30
0.0
  9
$UCSORGBOTTOM
 10
0.0
 20
0.0
 30
0.0
  9
$UCSORGLEFT
 10
0.0
 20
0.0
 30
0.0
  9
$UCSORGRIGHT
 10
0.0
 20
0.0
 30
0.0
  9
$UCSORGFRONT
 10
0.0
 20
0.0
 30
0.0
  9
$UCSORGBACK
 10
0.0
 20
0.0
 30
0.0
  9
$PUCSBASE
  2

  9
$PUCSNAME
  2

  9
$PUCSORG
 10
0.0
 20
0.0
 30
0.0
  9
$PUCSXDIR
 10
1.0
 20
0.0
 30
0.0
  9
$PUCSYDIR
 10
0.0
 20
1.0
 30
0.0
  9
$PUCSORTHOREF
  2

  9
$PUCSORTHOVIEW
 70
     0
  9
$PUCSORGTOP
 10
0.0
 20
0.0
 30
0.0
  9
$PUCSORGBOTTOM
 10
0.0
 20
0.0
 30
0.0
  9
$PUCSORGLEFT
 10
0.0
 20
0.0
 30
0.0
  9
$PUCSORGRIGHT
 10
0.0
 20
0.0
 30
0.0
  9
$PUCSORGFRONT
 10
0.0
 20
0.0
 30
0.0
  9
$PUCSORGBACK
 10
0.0
 20
0.0
 30
0.0
  9
$USERI1
 70
     0
  9
$USERI2
 70
     0
  9
$USERI3
 70
     0
  9
$USERI4
 70
     0
  9
$USERI5
 70
     0
  9
$USERR1
 40
0.0
  9
$USERR2
 40
0.0
  9
$USERR3
 40
0.0
  9
$USERR4
 40
0.0
  9
$USERR5
 40
0.0
  9
$WORLDVIEW
 70
     1
  9
$SHADEDGE
 70
     3
  9
$SHADEDIF
 70
    70
  9
$TILEMODE
 70
     1
  9
$MAXACTVP
 70
    16
  9
$PINSBASE
 10
0.0
 20
0.0
 30
0.0
  9
$PLIMCHECK
 70
     0
  9
$PEXTMIN
 10
1.000000000000000E+20
 20
1.000000000000000E+20
 30
1.000000000000000E+20
  9
$PEXTMAX
 10
-1.000000000000000E+20
 20
-1.000000000000000E+20
 30
-1.000000000000000E+20
  9
$PLIMMIN
 10
0.0
 20
0.0
  9
$PLIMMAX
 10
12.0
 20
9.0
  9
$UNITMODE
 70
     0
  9
$VISRETAIN
 70
     0
  9
$PLINEGEN
 70
     0
  9
$PSLTSCALE
 70
     1
  9
$TREEDEPTH
 70
  3020
  9
$CMLSTYLE
  2
STANDARD
  9
$CMLJUST
 70
     0
  9
$CMLSCALE
 40
1.0
  9
$PROXYGRAPHICS
 70
     1
  9
$MEASUREMENT
 70
     0
  9
$CELWEIGHT
370
    -1
  9
$ENDCAPS
280
     0
  9
$JOINSTYLE
280
     0
  9
$LWDISPLAY
290
     0
  9
$INSUNITS
 70
     0
  9
$HYPERLINKBASE
  1

  9
$STYLESHEET
  1
Harvey Std Plot Style.ctb
  9
$XEDIT
290
     1
  9
$CEPSNTYPE
380
     0
  9
$PSTYLEMODE
290
     1
  9
$FINGERPRINTGUID
  2
{E04C8470-A686-11D3-A221-005004E2D0E9}
  9
$VERSIONGUID
  2
{B7F292D2-EE3B-BE43-B642-8859951C1B2E}
  9
$EXTNAMES
290
     1
  9
$PSVPSCALE
 40
0.0
  9
$OLESTARTUP
290
     0
  9
$SORTENTS
280
    96
  9
$INDEXCTL
280
     0
  9
$HIDETEXT
280
     0
  9
$XCLIPFRAME
280
     0
  9
$HALOGAP
280
     0
  9
$OBSCOLOR
 70
   257
  9
$OBSLTYPE
280
     0
  9
$INTERSECTIONDISPLAY
280
     0
  9
$INTERSECTIONCOLOR
 70
   257
  9
$DIMASSOC
280
     1
  9
$PROJECTNAME
  1

  9
$CAMERADISPLAY
290
     0
  9
$LENSLENGTH
 40
50.0
  9
$CAMERAHEIGHT
 40
0.0
  9
$STEPSPERSEC
 40
2.0
  9
$STEPSIZE
 40
6.0
  9
$3DDWFPREC
 40
2.0
  9
$PSOLWIDTH
 40
0.25
  9
$PSOLHEIGHT
 40
4.0
  9
$LOFTANG1
 40
1.570796326794896
  9
$LOFTANG2
 40
1.570796326794896
  9
$LOFTMAG1
 40
0.0
  9
$LOFTMAG2
 40
0.0
  9
$LOFTPARAM
 70
     7
  9
$LOFTNORMALS
280
     1
  9
$LATITUDE
 40
37.795
  9
$LONGITUDE
 40
-122.394
  9
$NORTHDIRECTION
 40
0.0
  9
$TIMEZONE
 70
 -8000
  9
$LIGHTGLYPHDISPLAY
280
     1
  9
$TILEMODELIGHTSYNCH
280
     1
  9
$CMATERIAL
347
4B310E
  9
$SOLIDHIST
280
     0
  9
$SHOWHIST
280
     1
  9
$DWFFRAME
280
     2
  9
$DGNFRAME
280
     0
  9
$REALWORLDSCALE
290
     1
  9
$INTERFERECOLOR
 62
     1
  9
$INTERFEREOBJVS
345
4B3130
  9
$INTERFEREVPVS
346
4B312D
  9
$CSHADOW
280
     0
  9
$SHADOWPLANELOCATION
 40
0.0
  0
ENDSEC
  0
SECTION
  2
CLASSES
  0
CLASS
  1
ACDBDICTIONARYWDFLT
  2
AcDbDictionaryWithDefault
  3
ObjectDBX Classes
 90
        0
 91
        1
280
     0
281
     0
  0
CLASS
  1
ACDBPLACEHOLDER
  2
AcDbPlaceHolder
  3
ObjectDBX Classes
 90
        0
 91
        1
280
     0
281
     0
  0
CLASS
  1
LAYOUT
  2
AcDbLayout
  3
ObjectDBX Classes
 90
        0
 91
        2
280
     0
281
     0
  0
CLASS
  1
PLOTSETTINGS
  2
AcDbPlotSettings
  3
ObjectDBX Classes
 90
        0
 91
        2
280
     0
281
     0
  0
CLASS
  1
DICTIONARYVAR
  2
AcDbDictionaryVar
  3
ObjectDBX Classes
 90
        0
 91
       10
280
     0
281
     0
  0
CLASS
  1
TABLESTYLE
  2
AcDbTableStyle
  3
ObjectDBX Classes
 90
     4095
 91
        1
280
     0
281
     0
  0
CLASS
  1
ACME_DOCUMENT
  2
AcMeDbDoc
  3
AcMeServices
 90
        0
 91
        0
280
     0
281
     0
  0
CLASS
  1
AMGSETTINGSOBJ
  2
AmgSettingsObj
  3
"AcadM|Product Description: AutoCAD Mechanical 2000|Company: Autodesk"
 90
        0
 91
        3
280
     0
281
     0
  0
CLASS
  1
ACMESCOPE
  2
AcMeScope
  3
AcMeServices
 90
        0
 91
        2
280
     0
281
     0
  0
CLASS
  1
ACMECOMMANDHISTORY
  2
AcMeCommandHistory
  3
AcMeServices
 90
        0
 91
        2
280
     0
281
     0
  0
CLASS
  1
ACIMSYSVARMAN
  2
AcImSysVarManager
  3
AcMeServices
 90
        0
 91
        6
280
     0
281
     0
  0
CLASS
  1
ACIMINTSYSVAR
  2
AcImIntSysVar
  3
AcMeServices
 90
        0
 91
       27
280
     0
281
     0
  0
CLASS
  1
ACMEDRAWINGMAN
  2
AcMeDrawingMan
  3
AcMeServices
 90
        0
 91
        2
280
     0
281
     0
  0
CLASS
  1
ACMEVIEW
  2
AcMeView
  3
AcMeServices
 90
        0
 91
        2
280
     0
281
     0
  0
CLASS
  1
ACDBENTITYCACHE
  2
AcMeEntityCache
  3
AcMeServices
 90
        0
 91
        0
280
     0
281
     0
  0
CLASS
  1
GSMANAGER
  2
AcMeGSManager
  3
AcMeServices
 90
        0
 91
        0
280
     0
281
     0
  0
CLASS
  1
AMDTINTERNALREACTOR
  2
AmdtInternalReactor
  3
AcMeServices
 90
        0
 91
        0
280
     0
281
     0
  0
CLASS
  1
ACMESTATEMGR
  2
AcMeStateMgr
  3
AcMeServices
 90
        0
 91
        2
280
     0
281
     0
  0
CLASS
  1
ACGREFMASTER
  2
AcGrefMaster
  3
AcAttribServices
 90
        0
 91
        2
280
     0
281
     0
  0
CLASS
  1
AM_DRAWING_MGR
  2
AcDmDwgMgr
  3
AcMechDwgViewMgmt
 90
        0
 91
        2
280
     0
281
     0
  0
CLASS
  1
AM_DWG_DOCUMENT
  2
AcDmDwgDocument
  3
AcMechDwgViewMgmt
 90
        0
 91
        2
280
     0
281
     0
  0
CLASS
  1
AM_DWG_SHEET
  2
AcDmSheet
  3
AcMechDwgViewMgmt
 90
        0
 91
        2
280
     0
281
     0
  0
CLASS
  1
AM_VIEWDIMPARMAP
  2
AcDmViewDimParMap
  3
AcMechDwgViewMgmt
 90
        0
 91
        2
280
     0
281
     0
  0
CLASS
  1
ACIMREALSYSVAR
  2
AcImRealSysVar
  3
AcMeServices
 90
        0
 91
        2
280
     0
281
     0
  0
CLASS
  1
AM_DWGMGR_NAME
  2
AcDmDwgMgrName
  3
AcMechDwgViewMgmt
 90
        0
 91
        2
280
     0
281
     0
  0
CLASS
  1
ACME_DATABASE
  2
AcMeDbDatabase
  3
AcMeServices
 90
        0
 91
        0
280
     0
281
     0
  0
CLASS
  1
ACRFINSADJUSTERMGR
  2
AcRfInsAdjusterMgr
  3
AcMeServices
 90
        0
 91
        0
280
     0
281
     0
  0
CLASS
  1
ACGREFACADMASTER
  2
AcGrefacadMaster
  3
AcGrefServices
 90
        0
 91
        2
280
     0
281
     0
  0
CLASS
  1
AMDTMENUSTATEMGR
  2
AmdtMenuStateMgr
  3
McadcomServices
 90
        0
 91
        0
280
     0
281
     0
  0
CLASS
  1
AMDTMCOMMENUSTATE
  2
AmdtMcomMenuState
  3
McadcomServices
 90
        0
 91
        0
280
     0
281
     0
  0
CLASS
  1
AMIMASTER
  2
AmiMaster
  3
AmiServices
 90
        0
 91
        2
280
     0
281
     0
  0
CLASS
  1
MAPIAMMOUDLE
  2
MApiAmModule
  3
MApiAmServices
 90
        0
 91
        2
280
     0
281
     0
  0
CLASS
  1
ACIMSTRSYSVAR
  2
AcImStrSysVar
  3
AcMeServices
 90
        0
 91
        6
280
     0
281
     0
  0
CLASS
  1
AMDTADMENUSTATE
  2
AmdtAdMenuState
  3
DesignerServices
 90
        0
 91
        0
280
     0
281
     0
  0
CLASS
  1
ADAPPL
  2
AcAdAppl
  3
DesignerServices
 90
        0
 91
        2
280
     0
281
     0
  0
CLASS
  1
DEPMGR
  2
AcAdDepMgr
  3
DesignerServices
 90
        0
 91
        2
280
     0
281
     0
  0
CLASS
  1
PARAMMGR
  2
AcAdParamMgr
  3
DesignerServices
 90
        0
 91
        2
280
     0
281
     0
  0
CLASS
  1
PARAMSCOPE
  2
AcAdParamScope
  3
DesignerServices
 90
        0
 91
        2
280
     0
281
     0
  0
CLASS
  1
NAMEDAPPL
  2
AcAdNamedAppl
  3
DesignerServices
 90
        0
 91
        2
280
     0
281
     0
  0
CLASS
  1
AMDTDMMENUSTATE
  2
AmdtDmMenuState
  3
AcMechDwgViewMgmt
 90
        0
 91
        0
280
     0
281
     0
  0
CLASS
  1
AMDTAMMENUSTATE
  2
AmdtAmMenuState
  3
DesignerAssemblies
 90
        0
 91
        0
280
     0
281
     0
  0
CLASS
  1
ACAMPROJECT
  2
AcAmProject
  3
DesignerAssemblies
 90
        0
 91
        2
280
     0
281
     0
  0
CLASS
  1
ACAMGRCOMPDEF
  2
AcAmGrCompDef
  3
DesignerAssemblies
 90
        0
 91
        2
280
     0
281
     0
  0
CLASS
  1
ACCMCONTEXT
  2
AcCmContext
  3
DesignerAssemblies
 90
        0
 91
        2
280
     0
281
     0
  0
CLASS
  1
ACAMCOMPDEF
  2
AcAmCompDef
  3
DesignerAssemblies
 90
        0
 91
        2
280
     0
281
     0
  0
CLASS
  1
ACAMCOMPDEFMGR
  2
AcAmCompDefMgr
  3
DesignerAssemblies
 90
        0
 91
        2
280
     0
281
     0
  0
CLASS
  1
AMCONTEXTMGR
  2
AcAmContextMgr
  3
DesignerAssemblies
 90
        0
 91
        2
280
     0
281
     0
  0
CLASS
  1
ACAMCONTEXTMODELER
  2
AcAmContextModeler
  3
DesignerAssemblies
 90
        0
 91
        2
280
     0
281
     0
  0
CLASS
  1
ACMDATADICTIONARY
  2
AcmDataDictionary
  3
"AcmSymBB|Product Description: AutoCAD Mechanical 2004 DX|Company: Autodesk"
 90
        0
 91
        2
280
     0
281
     0
  0
CLASS
  1
CATALOGSTATE
  2
AcAmCatalogState
  3
DesignerAssemblies
 90
        0
 91
        2
280
     0
281
     0
  0
CLASS
  1
ACAMGRCOMPDEFSET
  2
AcAmGrCompDefSet
  3
DesignerAssemblies
 90
        0
 91
        0
280
     0
281
     0
  0
CLASS
  1
AMDTBROWSERDBTAB
  2
AmdtBrowserDbTab
  3
McadcomServices
 90
        0
 91
        0
280
     0
281
     0
  0
CLASS
  1
CBROWSERAPPOBJECT
  2
CBrowserAppObject
  3
McadcomServices
 90
        0
 91
        0
280
     0
281
     0
  0
CLASS
  1
DM_PLACEHOLDER
  2
AcDmSelsetPlaceholder
  3
AcMechDwgViewMgmt
 90
        0
 91
        0
280
     0
281
     0
  0
CLASS
  1
ACMSTANDARDANSI
  2
AcmStandardANSI
  3
"Amdt_StdImp|Product Description: AutoCAD Mechanical 2004 DX|Company: Autodesk"
 90
        0
 91
        2
280
     0
281
     0
  0
CLASS
  1
AMGOBJPROPCFG
  2
AmgObjPropCfg
  3
"AmgLay|Product Description: AutoCAD Mechanical 2000|Company: Autodesk"
 90
        1
 91
        2
280
     0
281
     0
  0
CLASS
  1
ACMSURFSTANDARDANSI
  2
AcmSurfTextStdANSI
  3
"Amdt_StdImp|Product Description: AutoCAD Mechanical 2004 DX|Company: Autodesk"
 90
        0
 91
        2
280
     0
281
     0
  0
CLASS
  1
ACMFCFSTANDARDANSI
  2
AcmFCFStdANSI
  3
"Amdt_StdImp|Product Description: AutoCAD Mechanical 2004 DX|Company: Autodesk"
 90
        0
 91
        2
280
     0
281
     0
  0
CLASS
  1
ACMWELDSTANDARDANSI
  2
AcmWeldingStdANSI
  3
"Amdt_StdImp|Product Description: AutoCAD Mechanical 2004 DX|Company: Autodesk"
 90
        0
 91
        2
280
     0
281
     0
  0
CLASS
  1
ACMIDSTANDARDANSI
  2
AcmIdStdANSI
  3
"Amdt_StdImp|Product Description: AutoCAD Mechanical 2004 DX|Company: Autodesk"
 90
        0
 91
        2
280
     0
281
     0
  0
CLASS
  1
ACMDATUMSTANDARDANSI
  2
AcmDatumStdANSI
  3
"Amdt_StdImp|Product Description: AutoCAD Mechanical 2004 DX|Company: Autodesk"
 90
        0
 91
        2
280
     0
281
     0
  0
CLASS
  1
ACMBOMSTANDARDANSI
  2
AcmBOMStdANSI
  3
"Amdt_StdImp|Product Description: AutoCAD Mechanical 2004 DX|Company: Autodesk"
 90
        0
 91
        2
280
     0
281
     0
  0
CLASS
  1
ACMDETAILSTANDARDANSI
  2
AmdtDetailSymStdANSI
  3
"Amdt_StdImp|Product Description: AutoCAD Mechanical 2004 DX|Company: Autodesk"
 90
        0
 91
        2
280
     0
281
     0
  0
CLASS
  1
ACMSECTIONSTANDARDANSI
  2
AmdtSectionSymStdANSI
  3
"Amdt_StdImp|Product Description: AutoCAD Mechanical 2004 DX|Company: Autodesk"
 90
        0
 91
        2
280
     0
281
     0
  0
CLASS
  1
ACMCENTERLINESTANDARDANSI
  2
AmdtCenterLineStdANSI
  3
"Amdt_StdImp|Product Description: AutoCAD Mechanical 2004 DX|Company: Autodesk"
 90
        0
 91
        2
280
     0
281
     0
  0
CLASS
  1
ACMTHREADLINESTANDARDANSI
  2
AmdtThreadLineStdANSI
  3
"Amdt_StdImp|Product Description: AutoCAD Mechanical 2004 DX|Company: Autodesk"
 90
        0
 91
        2
280
     0
281
     0
  0
CLASS
  1
ACMNOTESTANDARDANSI
  2
AmdtNoteStdANSI
  3
"Amdt_StdImp|Product Description: AutoCAD Mechanical 2004 DX|Company: Autodesk"
 90
        0
 91
        2
280
     0
281
     0
  0
CLASS
  1
AMDTNOTETEMPLATEDB
  2
AmdtNoteTemplateDB
  3
AMDT_STDIMP_MODULE_NAME
 90
        0
 91
        7
280
     0
281
     0
  0
CLASS
  1
ACAMGLAYSTD
  2
AcAmgLayStd
  3
"AcAmgLayStd|Product Description: AutoCAD Mechanical 2000|Company: Autodesk"
 90
        0
 91
        2
280
     0
281
     0
  0
CLASS
  1
ACAMGDIMSTD
  2
AcAmgDimStd
  3
"AcAmgDimStd|Product Description: AutoCAD Mechanical 2000|Company: Autodesk"
 90
        0
 91
        2
280
     0
281
     0
  0
CLASS
  1
ACAMGHOLECHARTSTDANSI
  2
AcAmgHoleChartStdANSI
  3
ACMSYMBB_MODULE_NAME
 90
        0
 91
        2
280
     0
281
     0
  0
CLASS
  1
ACAMGTITLESTD
  2
AcAmgTitleStd
  3
"TITLEAPP"
 90
        0
 91
        2
280
     0
281
     0
  0
CLASS
  1
ACAMGFILTERDAT
  2
AcAmgFilterDat
  3
"AcadM|Product Description: AutoCAD Mechanical 2000|Company: Autodesk"
 90
        0
 91
        7
280
     0
281
     0
  0
CLASS
  1
SORTENTSTABLE
  2
AcDbSortentsTable
  3
ObjectDBX Classes
 90
        0
 91
        6
280
     0
281
     0
  0
CLASS
  1
MTV_DERIVED_OBJECT
  2
CMtvAcDerivedObject
  3
MTV_ADME_ARX
 90
     1023
 91
        7
280
     0
281
     0
  0
CLASS
  1
ACMDATAENTRYBLOCK
  2
AcmDataEntryBlock
  3
"AcmSymBB|Product Description: AutoCAD Mechanical 2004 DX|Company: Autodesk"
 90
        0
 91
        0
280
     0
281
     0
  0
CLASS
  1
MATERIAL
  2
AcDbMaterial
  3
ObjectDBX Classes
 90
     1153
 91
        3
280
     0
281
     0
  0
CLASS
  1
VISUALSTYLE
  2
AcDbVisualStyle
  3
ObjectDBX Classes
 90
     4095
 91
       24
280
     0
281
     0
  0
CLASS
  1
SCALE
  2
AcDbScale
  3
ObjectDBX Classes
 90
     1153
 91
       17
280
     0
281
     0
  0
CLASS
  1
MLEADERSTYLE
  2
AcDbMLeaderStyle
  3
ACDB_MLEADERSTYLE_CLASS
 90
     4095
 91
        1
280
     0
281
     0
  0
CLASS
  1
ACDBSECTIONVIEWSTYLE
  2
AcDbSectionViewStyle
  3
ObjectDBX Classes
 90
     1025
 91
        1
280
     0
281
     0
  0
CLASS
  1
ACDBDETAILVIEWSTYLE
  2
AcDbDetailViewStyle
  3
ObjectDBX Classes
 90
     1025
 91
        1
280
     0
281
     0
  0
CLASS
  1
CELLSTYLEMAP
  2
AcDbCellStyleMap
  3
ObjectDBX Classes
 90
     1152
 91
        1
280
     0
281
     0
  0
ENDSEC
  0
SECTION
  2
TABLES
  0
TABLE
  2
VPORT
  5
4B1AB8
330
0
100
AcDbSymbolTable
 70
     1
  0
VPORT
  5
4B310C
330
4B1AB8
100
AcDbSymbolTableRecord
100
AcDbViewportTableRecord
  2
*Active
 70
     0
 10
0.0
 20
0.0
 11
1.0
 21
1.0
 12
12.03148663177538
 22
12.03526557929645
 13
0.0
 23
0.0
 14
0.125
 24
0.125
 15
0.25
 25
0.25
 16
0.0
 26
0.0
 36
1.0
 17
0.0
 27
0.0
 37
0.0
 40
19.541821608468
 41
2.292712066905615
 42
50.0
 43
0.0
 44
0.0
 50
0.0
 51
0.0
 71
     0
 72
 20000
 73
     1
 74
     3
 75
     0
 76
     0
 77
     0
 78
     0
281
     0
 65
     1
110
0.0
120
0.0
130
0.0
111
1.0
121
0.0
131
0.0
112
0.0
122
1.0
132
0.0
 79
     0
146
0.0
348
4B312C
 60
     3
 61
     5
292
     1
282
     1
141
0.0
142
0.0
 63
   250
421
  3355443
1001
ACAD_NAV_VCDISPLAY
1070
     3
  0
ENDTAB
  0
TABLE
  2
LTYPE
  5
4B1AB5
330
0
100
AcDbSymbolTable
 70
    10
  0
LTYPE
  5
4B1AC2
330
4B1AB5
100
AcDbSymbolTableRecord
100
AcDbLinetypeTableRecord
  2
BYBLOCK
 70
     0
  3

 72
    65
 73
     0
 40
0.0
  0
LTYPE
  5
4B1AC3
330
4B1AB5
100
AcDbSymbolTableRecord
100
AcDbLinetypeTableRecord
  2
BYLAYER
 70
     0
  3

 72
    65
 73
     0
 40
0.0
  0
LTYPE
  5
4B1AC4
330
4B1AB5
100
AcDbSymbolTableRecord
100
AcDbLinetypeTableRecord
  2
CONTINUOUS
 70
     0
  3
Solid line
 72
    65
 73
     0
 40
0.0
  0
LTYPE
  5
4B2ED2
330
4B1AB5
100
AcDbSymbolTableRecord
100
AcDbLinetypeTableRecord
  2
HIDDEN
 70
     0
  3
Hidden __ __ __ __ __ __ __ __ __ __ __ __ __ _
 72
    65
 73
     2
 40
0.375
 49
0.25
 74
     0
 49
-0.125
 74
     0
  0
LTYPE
  5
4B2ED3
330
4B1AB5
100
AcDbSymbolTableRecord
100
AcDbLinetypeTableRecord
  2
PHANTOM2
 70
     0
  3
Phantom (.5x) ___ _ _ ___ _ _ ___ _ _ ___ _ _
 72
    65
 73
     6
 40
1.25
 49
0.625
 74
     0
 49
-0.125
 74
     0
 49
0.125
 74
     0
 49
-0.125
 74
     0
 49
0.125
 74
     0
 49
-0.125
 74
     0
  0
LTYPE
  5
4B2ED4
330
4B1AB5
100
AcDbSymbolTableRecord
100
AcDbLinetypeTableRecord
  2
CENTER
 70
     0
  3
Center ____ _ ____ _ ____ _ ____ _ ____ _ ____
 72
    65
 73
     4
 40
2.0
 49
1.25
 74
     0
 49
-0.25
 74
     0
 49
0.25
 74
     0
 49
-0.25
 74
     0
  0
LTYPE
  5
4B2F0B
330
4B1AB5
100
AcDbSymbolTableRecord
100
AcDbLinetypeTableRecord
  2
Amconstr
 70
     0
  3
_______________________
 72
    65
 73
     2
 40
9999.0
 49
9999.0
 74
     0
 49
0.0
 74
     0
  0
LTYPE
  5
4B2F11
330
4B1AB5
100
AcDbSymbolTableRecord
100
AcDbLinetypeTableRecord
  2
CENTER2
 70
     0
  3
Center (.5x) ___ _ ___ _ ___ _ ___ _ ___ _ ___
 72
    65
 73
     4
 40
1.125
 49
0.75
 74
     0
 49
-0.125
 74
     0
 49
0.125
 74
     0
 49
-0.125
 74
     0
  0
LTYPE
  5
4B2F12
330
4B1AB5
100
AcDbSymbolTableRecord
100
AcDbLinetypeTableRecord
  2
HIDDEN2
 70
     0
  3
Hidden (.5x) _ _ _ _ _ _ _ _ _ _ _ _ _ _ _ _ _
 72
    65
 73
     2
 40
0.1875
 49
0.125
 74
     0
 49
-0.0625
 74
     0
  0
LTYPE
  5
4B2F13
330
4B1AB5
100
AcDbSymbolTableRecord
100
AcDbLinetypeTableRecord
  2
Amzigzag2
 70
     0
  3
/\/-/\/-/\/-/\/-/\/-/\/
 72
    65
 73
     2
 40
0.4401
 49
0.0001
 74
     4
 75
   136
340
4B2F0F
 46
0.0016
 50
0.0
 44
0.0
 45
0.0
 49
-0.4400000000000001
 74
     0
  0
LTYPE
  5
4B2F21
330
4B1AB5
100
AcDbSymbolTableRecord
100
AcDbLinetypeTableRecord
  2
ACANSTGB
 70
     0
  3
__ . . __ . .
 72
    65
 73
     6
 40
0.35433070866
 49
0.15748031496
 74
     0
 49
-0.03937007874
 74
     0
 49
0.03937007874
 74
     0
 49
-0.03937007874
 74
     0
 49
0.03937007874
 74
     0
 49
-0.03937007874
 74
     0
  0
LTYPE
  5
4B2F22
330
4B1AB5
100
AcDbSymbolTableRecord
100
AcDbLinetypeTableRecord
  2
ACANSTGL
 70
     0
  3
_ _ _ _ _
 72
    65
 73
     2
 40
0.11811023622
 49
0.07874015748
 74
     0
 49
-0.03937007874
 74
     0
  0
ENDTAB
  0
TABLE
  2
LAYER
  5
4B1AB2
102
{ACAD_XDICTIONARY
360
4B1D8E
102
}
330
0
100
AcDbSymbolTable
 70
     9
  0
LAYER
  5
4B1ABF
102
{ACAD_XDICTIONARY
360
4B3163
102
}
330
4B1AB2
100
AcDbSymbolTableRecord
100
AcDbLayerTableRecord
  2
0
 70
     0
 62
    31
  6
CONTINUOUS
370
    -3
390
4B1D13
347
4B311E
348
0
  0
LAYER
  5
4B1AE0
102
{ACAD_XDICTIONARY
360
4B3165
102
}
330
4B1AB2
100
AcDbSymbolTableRecord
100
AcDbLayerTableRecord
  2
THIN
 70
     0
 62
     9
  6
CONTINUOUS
370
    -3
390
4B1D13
347
4B311E
348
0
  0
LAYER
  5
4B1AE2
102
{ACAD_XDICTIONARY
360
4B3167
102
}
330
4B1AB2
100
AcDbSymbolTableRecord
100
AcDbLayerTableRecord
  2
DIM
 70
     0
 62
     7
  6
CONTINUOUS
370
    -3
390
4B1D13
347
4B311E
348
0
  0
LAYER
  5
4B1AE3
102
{ACAD_XDICTIONARY
360
4B3169
102
}
330
4B1AB2
100
AcDbSymbolTableRecord
100
AcDbLayerTableRecord
  2
CYAN
 70
     0
 62
     4
  6
CONTINUOUS
370
    -3
390
4B1D13
347
4B311E
348
0
  0
LAYER
  5
4B1AE8
330
4B1AB2
100
AcDbSymbolTableRecord
100
AcDbLayerTableRecord
  2
DEFPOINTS
 70
     0
 62
     7
  6
CONTINUOUS
290
     0
370
    -3
390
4B1D13
347
4B311E
348
0
  0
LAYER
  5
4B1D8A
102
{ACAD_XDICTIONARY
360
4B316B
102
}
330
4B1AB2
100
AcDbSymbolTableRecord
100
AcDbLayerTableRecord
  2
10
 70
     0
 62
     9
  6
CONTINUOUS
370
    -3
390
4B1D13
347
4B311E
348
0
  0
LAYER
  5
4B248D
102
{ACAD_XDICTIONARY
360
4B316D
102
}
330
4B1AB2
100
AcDbSymbolTableRecord
100
AcDbLayerTableRecord
  2
XTHIN
 70
     0
 62
   112
  6
CONTINUOUS
370
    -3
390
4B1D13
347
4B311E
348
0
  0
LAYER
  5
4B295A
102
{ACAD_XDICTIONARY
360
4B316F
102
}
330
4B1AB2
100
AcDbSymbolTableRecord
100
AcDbLayerTableRecord
  2
vent
 70
     0
 62
     7
  6
CONTINUOUS
370
    -3
390
4B1D13
347
4B311E
348
0
  0
LAYER
  5
4B2FE7
102
{ACAD_XDICTIONARY
360
4B3171
102
}
330
4B1AB2
100
AcDbSymbolTableRecord
100
AcDbLayerTableRecord
  2
3
 70
     0
 62
     3
  6
CONTINUOUS
370
    -3
390
4B1D13
347
4B311E
348
0
  0
ENDTAB
  0
TABLE
  2
STYLE
  5
4B1AB3
330
0
100
AcDbSymbolTable
 70
     7
  0
STYLE
  5
4B1AC0
330
4B1AB3
100
AcDbSymbolTableRecord
100
AcDbTextStyleTableRecord
  2
STANDARD
 70
     0
 40
0.0
 41
1.0
 50
0.0
 71
     0
 42
0.2
  3
txt
  4

  0
STYLE
  5
4B1ACE
330
4B1AB3
100
AcDbSymbolTableRecord
100
AcDbTextStyleTableRecord
  2
ROMANS
 70
     0
 40
0.0
 41
1.0
 50
10.0
 71
     0
 42
0.08
  3
romans
  4

  0
STYLE
  5
4B1BF0
330
4B1AB3
100
AcDbSymbolTableRecord
100
AcDbTextStyleTableRecord
  2
SIMPLEX
 70
     0
 40
0.0
 41
1.0
 50
10.0
 71
     0
 42
0.04
  3
SIMPLEX
  4

  0
STYLE
  5
4B1D8B
330
4B1AB3
100
AcDbSymbolTableRecord
100
AcDbTextStyleTableRecord
  2
TAHOMA
 70
     0
 40
0.0
 41
1.0
 50
0.0
 71
     0
 42
0.045
  3
tahoma.ttf
  4

1001
ACAD
1000
Tahoma
1071
       34
  0
STYLE
  5
4B2F0F
330
4B1AB3
100
AcDbSymbolTableRecord
100
AcDbTextStyleTableRecord
  2

 70
     1
 40
0.0
 41
1.0
 50
0.0
 71
     0
 42
0.08
  3
genltshp.shx
  4

  0
STYLE
  5
4B2F14
330
4B1AB3
100
AcDbSymbolTableRecord
100
AcDbTextStyleTableRecord
  2
ACANSTS
 70
     0
 40
1.0
 41
1.0
 50
0.0
 71
     0
 42
0.08
  3
romans.shx
  4

  0
STYLE
  5
4B2F20
330
4B1AB3
100
AcDbSymbolTableRecord
100
AcDbTextStyleTableRecord
  2
ACANSGDT
 70
     0
 40
0.0
 41
1.0
 50
0.0
 71
     0
 42
0.08
  3
amgdt.shx
  4

  0
ENDTAB
  0
TABLE
  2
VIEW
  5
4B1AB6
330
0
100
AcDbSymbolTable
 70
     1
  0
VIEW
  5
4B1AD8
330
4B1AB6
100
AcDbSymbolTableRecord
100
AcDbViewTableRecord
  2
OLE1
 70
     0
 40
5.004887585532746
 10
4.0
 20
2.502443792766373
 41
8.0
 11
0.0
 21
0.0
 31
1.0
 12
0.0
 22
0.0
 32
0.0
 42
50.0
 43
0.0
 44
0.0
 50
0.0
 71
     0
281
     0
 72
     0
 73
     0
348
4B312C
  0
ENDTAB
  0
TABLE
  2
UCS
  5
4B1AB7
330
0
100
AcDbSymbolTable
 70
     0
  0
ENDTAB
  0
TABLE
  2
APPID
  5
4B1AB9
330
0
100
AcDbSymbolTable
 70
    20
  0
APPID
  5
4B1AC1
330
4B1AB9
100
AcDbSymbolTableRecord
100
AcDbRegAppTableRecord
  2
ACAD
 70
     0
  0
APPID
  5
4B1ADB
330
4B1AB9
100
AcDbSymbolTableRecord
100
AcDbRegAppTableRecord
  2
TB_S_MPD
 70
     0
  0
APPID
  5
4B1D8D
330
4B1AB9
100
AcDbSymbolTableRecord
100
AcDbRegAppTableRecord
  2
MTVPROFILELINK
 70
     0
  0
APPID
  5
4B1FE4
330
4B1AB9
100
AcDbSymbolTableRecord
100
AcDbRegAppTableRecord
  2
RAK
 70
     0
  0
APPID
  5
4B2EA5
330
4B1AB9
100
AcDbSymbolTableRecord
100
AcDbRegAppTableRecord
  2
MCAD_NO_VIS
 70
     0
  0
APPID
  5
4B2EA6
330
4B1AB9
100
AcDbSymbolTableRecord
100
AcDbRegAppTableRecord
  2
ACAD_TEMP_GRAPHIC
 70
     0
  0
APPID
  5
4B2ED6
330
4B1AB9
100
AcDbSymbolTableRecord
100
AcDbRegAppTableRecord
  2
AD_DRAW
 70
     0
  0
APPID
  5
4B2ED9
330
4B1AB9
100
AcDbSymbolTableRecord
100
AcDbRegAppTableRecord
  2
ACATTRIBSERVICES
 70
     0
  0
APPID
  5
4B2EF9
330
4B1AB9
100
AcDbSymbolTableRecord
100
AcDbRegAppTableRecord
  2
DESIGNERASSEMBLIES
 70
     0
  0
APPID
  5
4B2EFF
330
4B1AB9
100
AcDbSymbolTableRecord
100
AcDbRegAppTableRecord
  2
ACADM_DIM_EDIT
 70
     0
  0
APPID
  5
4B2F00
330
4B1AB9
100
AcDbSymbolTableRecord
100
AcDbRegAppTableRecord
  2
AMDT_DM_ADJ
 70
     0
  0
APPID
  5
4B2F2D
330
4B1AB9
100
AcDbSymbolTableRecord
100
AcDbRegAppTableRecord
  2
ACAD_DSTYLE_DIMARC_LENGTH_SYMBOL
 70
     0
  0
APPID
  5
4B2F2E
330
4B1AB9
100
AcDbSymbolTableRecord
100
AcDbRegAppTableRecord
  2
ACAD_DSTYLE_DIMJOGGED_JOGANGLE_SYMBOL
 70
     0
  0
APPID
  5
4B2F7F
330
4B1AB9
100
AcDbSymbolTableRecord
100
AcDbRegAppTableRecord
  2
ADMEPROFILELINK
 70
     0
  0
APPID
  5
4B2F9C
330
4B1AB9
100
AcDbSymbolTableRecord
100
AcDbRegAppTableRecord
  2
AcAecLayerStandard
 70
     0
  0
APPID
  5
4B30AA
330
4B1AB9
100
AcDbSymbolTableRecord
100
AcDbRegAppTableRecord
  2
GENIUS_GENREC_14
 70
     0
  0
APPID
  5
4B30AB
330
4B1AB9
100
AcDbSymbolTableRecord
100
AcDbRegAppTableRecord
  2
GENIUS_GENODEF_13
 70
     0
  0
APPID
  5
4B30AC
330
4B1AB9
100
AcDbSymbolTableRecord
100
AcDbRegAppTableRecord
  2
GENIUS_GENOBJ-N-REC_13
 70
     0
  0
APPID
  5
4B3161
330
4B1AB9
100
AcDbSymbolTableRecord
100
AcDbRegAppTableRecord
  2
ACAD_EXEMPT_FROM_CAD_STANDARDS
 70
     0
  0
APPID
  5
4B317A
330
4B1AB9
100
AcDbSymbolTableRecord
100
AcDbRegAppTableRecord
  2
ACAD_NAV_VCDISPLAY
 70
     0
  0
ENDTAB
  0
TABLE
  2
DIMSTYLE
  5
4B1ABA
330
0
100
AcDbSymbolTable
 70
     8
100
AcDbDimStyleTable
 71
     2
340
4B1AED
340
4B1B38
  0
DIMSTYLE
105
4B1AED
102
{ACAD_REACTORS
330
4B1E7D
330
4B1E7E
330
4B1E8D
330
4B1EEA
330
4B28EA
102
}
330
4B1ABA
100
AcDbSymbolTableRecord
100
AcDbDimStyleTableRecord
  2
STANDARD
 70
     0
 41
0.125
 42
0.08
 44
0.08
140
0.09
141
0.0
146
0.4444444444444445
271
     3
272
     2
340
4B1ACE
  0
DIMSTYLE
105
4B1B38
330
4B1ABA
100
AcDbSymbolTableRecord
100
AcDbDimStyleTableRecord
  2
HSTANDARD
 70
     0
 41
0.125
 42
0.045
 44
0.08
140
0.08
141
0.0
146
0.4444444444444445
176
   112
177
     9
178
   256
271
     3
272
     3
340
4B1ACE
  0
DIMSTYLE
105
4B2F2C
330
4B1ABA
100
AcDbSymbolTableRecord
100
AcDbDimStyleTableRecord
  2
AM_ANSI
 70
     0
  4
mm
 41
0.1
 42
0.05
 43
0.5
 44
0.1
 47
0.1
 48
0.1
 78
     7
 79
     2
 90
     1
140
0.12
141
0.0
146
0.71
147
0.06
176
   256
177
   256
178
     2
274
     4
284
     7
340
4B1AC0
371
    -1
372
    -1
1001
ACAD_DSTYLE_DIMJOGGED_JOGANGLE_SYMBOL
1070
   384
1040
0.7853981633974483
  0
DIMSTYLE
105
4B2F35
330
4B1ABA
100
AcDbSymbolTableRecord
100
AcDbDimStyleTableRecord
  2
AM_ANSI$3
 70
     0
  4
mm
 41
0.1
 42
0.05
 43
0.5
 44
0.1
 47
0.1
 48
0.1
 78
     7
 79
     2
 90
     1
140
0.12
141
0.0
146
0.71
147
0.06
176
   256
177
   256
178
     2
274
     4
284
     7
288
     1
289
     0
340
4B1AC0
371
    -1
372
    -1
1001
ACAD_DSTYLE_DIMJOGGED_JOGANGLE_SYMBOL
1070
   384
1040
0.7853981633974483
  0
DIMSTYLE
105
4B2F38
330
4B1ABA
100
AcDbSymbolTableRecord
100
AcDbDimStyleTableRecord
  2
AM_ANSI$4
 70
     0
  4
mm
 41
0.1
 42
0.05
 43
0.5
 44
0.1
 47
0.1
 48
0.1
 78
     7
 79
     2
 90
     1
140
0.12
141
0.0
146
0.71
147
0.06
176
   256
177
   256
178
     2
274
     4
284
     7
288
     1
289
     0
340
4B1AC0
371
    -1
372
    -1
1001
ACAD_DSTYLE_DIMJOGGED_JOGANGLE_SYMBOL
1070
   384
1040
0.7853981633974483
  0
DIMSTYLE
105
4B2F3D
330
4B1ABA
100
AcDbSymbolTableRecord
100
AcDbDimStyleTableRecord
  2
AM_ANSI$7
 70
     0
  4
mm
 41
0.1
 42
0.05
 43
0.5
 44
0.1
 47
0.1
 48
0.1
 78
     7
 79
     2
 90
     1
140
0.24
141
0.0
146
0.71
147
0.06
176
   256
177
   256
178
     2
274
     4
284
     7
340
4B1AC0
371
    -1
372
    -1
1001
ACAD_DSTYLE_DIMJOGGED_JOGANGLE_SYMBOL
1070
   384
1040
0.7853981633974483
  0
DIMSTYLE
105
4B2F40
330
4B1ABA
100
AcDbSymbolTableRecord
100
AcDbDimStyleTableRecord
  2
AM_ANSI$SF
 70
     0
  4
mm
 41
0.1
 42
0.05
 43
0.5
 44
0.1
 47
0.1
 48
0.1
 75
     1
 76
     1
 78
     7
 79
     2
 90
     1
140
0.12
141
0.0
146
0.71
147
0.06
176
   256
177
   256
178
     2
274
     4
284
     7
340
4B1AC0
371
    -1
372
    -1
1001
ACAD_DSTYLE_DIMJOGGED_JOGANGLE_SYMBOL
1070
   384
1040
0.7853981633974483
  0
DIMSTYLE
105
4B2F47
330
4B1ABA
100
AcDbSymbolTableRecord
100
AcDbDimStyleTableRecord
  2
AM_ANSI$SH
 70
     0
  4
mm
 41
0.1
 42
0.05
 43
0.5
 44
0.1
 47
0.1
 48
0.1
 75
     1
 76
     1
 78
     7
 79
     2
 90
     1
140
0.12
141
0.0
146
0.71
147
0.06
173
     1
176
   256
177
   256
178
     2
274
     4
284
     7
340
4B1AC0
343
4B2F41
371
    -1
372
    -1
1001
ACAD_DSTYLE_DIMJOGGED_JOGANGLE_SYMBOL
1070
   384
1040
0.7853981633974483
  0
ENDTAB
  0
TABLE
  2
BLOCK_RECORD
  5
4B1AB1
330
0
100
AcDbSymbolTable
 70
    14
  0
BLOCK_RECORD
  5
4B1AC8
102
{ACAD_XDICTIONARY
360
4B2F5E
102
}
330
4B1AB1
100
AcDbSymbolTableRecord
100
AcDbBlockTableRecord
  2
*MODEL_SPACE
340
4B1D16
 70
     0
280
     1
281
     0
  0
BLOCK_RECORD
  5
4B1AC5
330
4B1AB1
100
AcDbSymbolTableRecord
100
AcDbBlockTableRecord
  2
*PAPER_SPACE
340
4B1D17
 70
     0
280
     1
281
     0
  0
BLOCK_RECORD
  5
4B1D42
330
4B1AB1
100
AcDbSymbolTableRecord
100
AcDbBlockTableRecord
  2
ASDTNUM
340
0
102
{BLKREFS
331
4B1E5F
102
}
 70
     0
280
     1
281
     0
  0
BLOCK_RECORD
  5
4B1F29
330
4B1AB1
100
AcDbSymbolTableRecord
100
AcDbBlockTableRecord
  2
*D1
340
0
 70
     0
280
     1
281
     0
  0
BLOCK_RECORD
  5
4B1F36
330
4B1AB1
100
AcDbSymbolTableRecord
100
AcDbBlockTableRecord
  2
*D2
340
0
 70
     0
280
     1
281
     0
  0
BLOCK_RECORD
  5
4B1F43
330
4B1AB1
100
AcDbSymbolTableRecord
100
AcDbBlockTableRecord
  2
*D3
340
0
 70
     0
280
     1
281
     0
  0
BLOCK_RECORD
  5
4B1F50
330
4B1AB1
100
AcDbSymbolTableRecord
100
AcDbBlockTableRecord
  2
*D4
340
0
 70
     0
280
     1
281
     0
  0
BLOCK_RECORD
  5
4B28EB
330
4B1AB1
100
AcDbSymbolTableRecord
100
AcDbBlockTableRecord
  2
*D5
340
0
 70
     0
280
     1
281
     0
  0
BLOCK_RECORD
  5
4B2EF0
330
4B1AB1
100
AcDbSymbolTableRecord
100
AcDbBlockTableRecord
  2
*U6
340
0
 70
     0
280
     1
281
     0
  0
BLOCK_RECORD
  5
4B2F41
330
4B1AB1
100
AcDbSymbolTableRecord
100
AcDbBlockTableRecord
  2
GENAXEH
340
0
 70
     0
280
     1
281
     0
  0
BLOCK_RECORD
  5
4B2F72
330
4B1AB1
100
AcDbSymbolTableRecord
100
AcDbBlockTableRecord
  2
Reinforced Bytyl Spacer
340
0
102
{BLKREFS
331
4B302E
331
4B302F
331
4B2F7E
331
4B2F82
102
}
 70
     0
280
     1
281
     0
  0
BLOCK_RECORD
  5
4B2F86
102
{ACAD_XDICTIONARY
360
4B2F8A
102
}
330
4B1AB1
100
AcDbSymbolTableRecord
100
AcDbBlockTableRecord
  2
Glazing Bead
340
0
102
{BLKREFS
331
4B2F8F
331
4B2F91
331
4B2F92
331
4B2F93
102
}
 70
     0
280
     1
281
     0
  0
BLOCK_RECORD
  5
4B2FDA
102
{ACAD_XDICTIONARY
360
4B2FDC
102
}
330
4B1AB1
100
AcDbSymbolTableRecord
100
AcDbBlockTableRecord
  2
Weather Seal
340
0
102
{BLKREFS
331
4B2FE1
331
4B2FE3
331
4B3031
331
4B3032
102
}
 70
     0
280
     1
281
     0
  0
BLOCK_RECORD
  5
4B2FE9
102
{ACAD_XDICTIONARY
360
4B2FEC
102
}
330
4B1AB1
100
AcDbSymbolTableRecord
100
AcDbBlockTableRecord
  2
Silicon Horizontal Small
340
0
102
{BLKREFS
331
4B2FF1
331
4B2FFD
102
}
 70
     0
280
     1
281
     0
  0
BLOCK_RECORD
  5
4B3035
102
{ACAD_XDICTIONARY
360
4B3038
102
}
330
4B1AB1
100
AcDbSymbolTableRecord
100
AcDbBlockTableRecord
  2
Silicon Small Vertical Top
340
0
102
{BLKREFS
331
4B303D
102
}
 70
     0
280
     1
281
     0
  0
BLOCK_RECORD
  5
4B3042
102
{ACAD_XDICTIONARY
360
4B3045
102
}
330
4B1AB1
100
AcDbSymbolTableRecord
100
AcDbBlockTableRecord
  2
Silicon Vertical Bottom
340
0
102
{BLKREFS
331
4B304B
102
}
 70
     0
280
     1
281
     0
  0
ENDTAB
  0
ENDSEC
  0
SECTION
  2
BLOCKS
  0
BLOCK
  5
4B1AEB
330
4B1AC8
100
AcDbEntity
  8
0
100
AcDbBlockBegin
  2
*MODEL_SPACE
 70
     0
 10
0.0
 20
0.0
 30
0.0
  3
*MODEL_SPACE
  1

  0
ENDBLK
  5
4B1AEC
330
4B1AC8
100
AcDbEntity
  8
0
100
AcDbBlockEnd
  0
BLOCK
  5
4B1AE9
330
4B1AC5
100
AcDbEntity
 67
     1
  8
0
100
AcDbBlockBegin
  2
*PAPER_SPACE
 70
     0
 10
0.0
 20
0.0
 30
0.0
  3
*PAPER_SPACE
  1

  0
ENDBLK
  5
4B1AEA
330
4B1AC5
100
AcDbEntity
 67
     1
  8
0
100
AcDbBlockEnd
  0
BLOCK
  5
4B1D47
330
4B1D42
100
AcDbEntity
  8
0
100
AcDbBlockBegin
  2
ASDTNUM
 70
     2
 10
0.0
 20
0.0
 30
0.0
  3
ASDTNUM
  1

  0
ATTDEF
  5
4B1D43
330
4B1D42
100
AcDbEntity
  8
THIN
100
AcDbText
 10
1.645491964163355
 20
0.7077964671298738
 30
0.0
 40
0.18
  1

 51
10.0
  7
ROMANS
100
AcDbAttributeDefinition
280
     0
  3
Revision date:
  2
REV:
 70
     0
280
     0
  0
TEXT
  5
4B1D44
330
4B1D42
100
AcDbEntity
  8
THIN
100
AcDbText
 10
0.8991511953395569
 20
0.7098478649101438
 30
0.0
 40
0.18
  1
REV.
 51
10.0
  7
ROMANS
100
AcDbText
  0
TEXT
  5
4B1D45
330
4B1D42
100
AcDbEntity
  8
THIN
100
AcDbText
 10
13.58214084242182
 20
0.6570694486990832
 30
0.0
 40
0.25
  1
AS
 51
10.0
  7
ROMANS
100
AcDbText
  0
ATTDEF
  5
4B1D46
330
4B1D42
100
AcDbEntity
  8
THIN
100
AcDbText
 10
14.18958977281909
 20
0.6570000000000001
 30
0.0
 40
0.25
  1

 51
10.0
  7
ROMANS
100
AcDbAttributeDefinition
280
     0
  3
AS Drawing Num.:
  2
AS#
 70
     0
280
     0
  0
ENDBLK
  5
4B1D48
330
4B1D42
100
AcDbEntity
  8
0
100
AcDbBlockEnd
  0
BLOCK
  5
4B1F34
330
4B1F29
100
AcDbEntity
  8
0
100
AcDbBlockBegin
  2
*D1
 70
     1
 10
0.0
 20
0.0
 30
0.0
  3
*D1
  1

  0
LINE
  5
4B2E5E
330
4B1F29
100
AcDbEntity
  8
DIM
 62
     0
440
 16777216
370
    -2
100
AcDbLine
 10
4.32542787070953
 20
2.908709354199114
 30
0.0
 11
2.811363055201518
 21
2.908709354199115
 31
0.0
  0
LINE
  5
4B2E5F
330
4B1F29
100
AcDbEntity
  8
DIM
 62
     0
440
 16777216
370
    -2
100
AcDbLine
 10
4.32542787070953
 20
6.158709354199102
 30
0.0
 11
2.811363055201519
 21
6.158709354199102
 31
0.0
  0
LINE
  5
4B2E60
330
4B1F29
100
AcDbEntity
  8
DIM
 62
     0
440
 16777216
370
    -2
100
AcDbLine
 10
3.011363055201518
 20
3.088709354199115
 30
0.0
 11
3.011363055201518
 21
4.216566497056252
 31
0.0
  0
LINE
  5
4B2E61
330
4B1F29
100
AcDbEntity
  8
DIM
 62
     0
440
 16777216
370
    -2
100
AcDbLine
 10
3.011363055201519
 20
5.978709354199103
 30
0.0
 11
3.011363055201518
 21
4.850852211341965
 31
0.0
  0
MTEXT
  5
4B2E62
330
4B1F29
100
AcDbEntity
  8
DIM
 62
     0
440
 16777216
100
AcDbMText
 10
3.011363055201519
 20
4.53370935419911
 30
0.0
 40
0.18
 41
0.0
 46
0.0
 71
     5
 72
     1
  1
\A1;3 1/4"
  7
ROMANS
 73
     1
 44
1.0
  0
SOLID
  5
4B2E63
330
4B1F29
100
AcDbEntity
  8
DIM
 62
     0
440
 16777216
100
AcDbTrace
 10
2.981363055201518
 20
3.088709354199115
 30
0.0
 11
3.041363055201518
 21
3.088709354199115
 31
0.0
 12
3.011363055201518
 22
2.908709354199114
 32
0.0
 13
3.011363055201518
 23
2.908709354199114
 33
0.0
  0
SOLID
  5
4B2E64
330
4B1F29
100
AcDbEntity
  8
DIM
 62
     0
440
 16777216
100
AcDbTrace
 10
2.981363055201519
 20
5.978709354199103
 30
0.0
 11
3.041363055201518
 21
5.978709354199103
 31
0.0
 12
3.011363055201519
 22
6.158709354199102
 32
0.0
 13
3.011363055201519
 23
6.158709354199102
 33
0.0
  0
POINT
  5
4B2E65
330
4B1F29
100
AcDbEntity
  8
DEFPOINTS
 62
     0
440
 16777216
100
AcDbPoint
 10
4.52542787070953
 20
2.908709354199114
 30
0.0
  0
POINT
  5
4B2E66
330
4B1F29
100
AcDbEntity
  8
DEFPOINTS
 62
     0
440
 16777216
100
AcDbPoint
 10
4.52542787070953
 20
6.158709354199102
 30
0.0
  0
POINT
  5
4B2E67
330
4B1F29
100
AcDbEntity
  8
DEFPOINTS
 62
     0
440
 16777216
100
AcDbPoint
 10
3.011363055201519
 20
6.158709354199102
 30
0.0
  0
ENDBLK
  5
4B1F35
330
4B1F29
100
AcDbEntity
  8
0
100
AcDbBlockEnd
  0
BLOCK
  5
4B1F41
330
4B1F36
100
AcDbEntity
  8
0
100
AcDbBlockBegin
  2
*D2
 70
     1
 10
0.0
 20
0.0
 30
0.0
  3
*D2
  1

  0
LINE
  5
4B2E7C
330
4B1F36
100
AcDbEntity
  8
DIM
 62
     0
440
 16777216
370
    -2
100
AcDbLine
 10
1.460246050932628
 20
9.044485312922915
 30
0.0
 11
1.460246050932628
 21
7.566691352359259
 31
0.0
  0
LINE
  5
4B2E7D
330
4B1F36
100
AcDbEntity
  8
DIM
 62
     0
440
 16777216
370
    -2
100
AcDbLine
 10
4.710246050932654
 20
9.043485312922864
 30
0.0
 11
4.710246050932654
 21
7.566691352359259
 31
0.0
  0
LINE
  5
4B2E7E
330
4B1F36
100
AcDbEntity
  8
DIM
 62
     0
440
 16777216
370
    -2
100
AcDbLine
 10
1.640246050932628
 20
7.766691352359259
 30
0.0
 11
2.410132309729058
 21
7.766691352359259
 31
0.0
  0
LINE
  5
4B2E7F
330
4B1F36
100
AcDbEntity
  8
DIM
 62
     0
440
 16777216
370
    -2
100
AcDbLine
 10
4.530246050932654
 20
7.766691352359259
 30
0.0
 11
3.760359792136223
 21
7.766691352359259
 31
0.0
  0
SOLID
  5
4B2E80
330
4B1F36
100
AcDbEntity
  8
DIM
 62
     0
440
 16777216
100
AcDbTrace
 10
1.640246050932628
 20
7.79669135235926
 30
0.0
 11
1.640246050932628
 21
7.736691352359259
 31
0.0
 12
1.460246050932628
 22
7.766691352359259
 32
0.0
 13
1.460246050932628
 23
7.766691352359259
 33
0.0
  0
SOLID
  5
4B2E81
330
4B1F36
100
AcDbEntity
  8
DIM
 62
     0
440
 16777216
100
AcDbTrace
 10
4.530246050932654
 20
7.79669135235926
 30
0.0
 11
4.530246050932654
 21
7.736691352359259
 31
0.0
 12
4.710246050932654
 22
7.766691352359259
 32
0.0
 13
4.710246050932654
 23
7.766691352359259
 33
0.0
  0
MTEXT
  5
4B2E82
330
4B1F36
100
AcDbEntity
  8
DIM
 62
     0
440
 16777216
100
AcDbMText
 10
3.085246050932641
 20
7.766691352359259
 30
0.0
 40
0.18
 41
0.0
 46
0.0
 71
     5
 72
     1
  1
\A1;3 1/4"
  7
ROMANS
 73
     1
 44
1.0
  0
POINT
  5
4B2E83
330
4B1F36
100
AcDbEntity
  8
DEFPOINTS
 62
     0
440
 16777216
100
AcDbPoint
 10
1.460246050932628
 20
9.244485312922915
 30
0.0
  0
POINT
  5
4B2E84
330
4B1F36
100
AcDbEntity
  8
DEFPOINTS
 62
     0
440
 16777216
100
AcDbPoint
 10
4.710246050932654
 20
9.243485312922864
 30
0.0
  0
POINT
  5
4B2E85
330
4B1F36
100
AcDbEntity
  8
DEFPOINTS
 62
     0
440
 16777216
100
AcDbPoint
 10
4.710246050932654
 20
7.766691352359259
 30
0.0
  0
ENDBLK
  5
4B1F42
330
4B1F36
100
AcDbEntity
  8
0
100
AcDbBlockEnd
  0
BLOCK
  5
4B1F4E
330
4B1F43
100
AcDbEntity
  8
0
100
AcDbBlockBegin
  2
*D3
 70
     1
 10
0.0
 20
0.0
 30
0.0
  3
*D3
  1

  0
LINE
  5
4B2E68
330
4B1F43
100
AcDbEntity
  8
DIM
 62
     0
440
 16777216
370
    -2
100
AcDbLine
 10
6.244911910137205
 20
3.64219123698189
 30
0.0
 11
6.244911910137205
 21
1.981262260305729
 31
0.0
  0
LINE
  5
4B2E69
330
4B1F43
100
AcDbEntity
  8
DIM
 62
     0
440
 16777216
370
    -2
100
AcDbLine
 10
4.510427870709529
 20
2.723709354199115
 30
0.0
 11
4.510427870709529
 21
1.981262260305729
 31
0.0
  0
LINE
  5
4B2E6A
330
4B1F43
100
AcDbEntity
  8
DIM
 62
     0
440
 16777216
370
    -2
100
AcDbLine
 10
6.424911910137205
 20
2.181262260305729
 30
0.0
 11
6.604911910137206
 21
2.181262260305729
 31
0.0
  0
LINE
  5
4B2E6B
330
4B1F43
100
AcDbEntity
  8
DIM
 62
     0
440
 16777216
370
    -2
100
AcDbLine
 10
4.330427870709529
 20
2.181262260305729
 30
0.0
 11
4.150427870709529
 21
2.181262260305729
 31
0.0
  0
SOLID
  5
4B2E6C
330
4B1F43
100
AcDbEntity
  8
DIM
 62
     0
440
 16777216
100
AcDbTrace
 10
6.424911910137205
 20
2.211262260305729
 30
0.0
 11
6.424911910137205
 21
2.151262260305729
 31
0.0
 12
6.244911910137205
 22
2.181262260305729
 32
0.0
 13
6.244911910137205
 23
2.181262260305729
 33
0.0
  0
SOLID
  5
4B2E6D
330
4B1F43
100
AcDbEntity
  8
DIM
 62
     0
440
 16777216
100
AcDbTrace
 10
4.330427870709529
 20
2.211262260305729
 30
0.0
 11
4.330427870709529
 21
2.151262260305729
 31
0.0
 12
4.510427870709529
 22
2.181262260305729
 32
0.0
 13
4.510427870709529
 23
2.181262260305729
 33
0.0
  0
MTEXT
  5
4B2E6E
330
4B1F43
100
AcDbEntity
  8
DIM
 62
     0
440
 16777216
100
AcDbMText
 10
5.377669890423367
 20
2.181262260305729
 30
0.0
 40
0.18
 41
0.0
 46
0.0
 71
     5
 72
     1
  1
\A1;1 3/4"
  7
ROMANS
 73
     1
 44
1.0
  0
POINT
  5
4B2E6F
330
4B1F43
100
AcDbEntity
  8
DEFPOINTS
 62
     0
440
 16777216
100
AcDbPoint
 10
6.244911910137205
 20
3.842191236981891
 30
0.0
  0
POINT
  5
4B2E70
330
4B1F43
100
AcDbEntity
  8
DEFPOINTS
 62
     0
440
 16777216
100
AcDbPoint
 10
4.510427870709529
 20
2.923709354199115
 30
0.0
  0
POINT
  5
4B2E71
330
4B1F43
100
AcDbEntity
  8
DEFPOINTS
 62
     0
440
 16777216
100
AcDbPoint
 10
4.510427870709529
 20
2.181262260305729
 30
0.0
  0
ENDBLK
  5
4B1F4F
330
4B1F43
100
AcDbEntity
  8
0
100
AcDbBlockEnd
  0
BLOCK
  5
4B1F5B
330
4B1F50
100
AcDbEntity
  8
0
100
AcDbBlockBegin
  2
*D4
 70
     1
 10
0.0
 20
0.0
 30
0.0
  3
*D4
  1

  0
LINE
  5
4B2FB1
330
4B1F50
100
AcDbEntity
  8
DIM
 62
     0
440
 16777216
370
    -2
100
AcDbLine
 10
12.6964278707095
 20
2.908709354199082
 30
0.0
 11
13.78513156523631
 21
2.908709354199082
 31
0.0
  0
LINE
  5
4B2FB2
330
4B1F50
100
AcDbEntity
  8
DIM
 62
     0
440
 16777216
370
    -2
100
AcDbLine
 10
12.69542787070945
 20
6.158709354199108
 30
0.0
 11
13.78513156523631
 21
6.158709354199108
 31
0.0
  0
LINE
  5
4B2FB3
330
4B1F50
100
AcDbEntity
  8
DIM
 62
     0
440
 16777216
370
    -2
100
AcDbLine
 10
13.58513156523631
 20
3.088709354199082
 30
0.0
 11
13.58513156523631
 21
4.216566497056239
 31
0.0
  0
LINE
  5
4B2FB4
330
4B1F50
100
AcDbEntity
  8
DIM
 62
     0
440
 16777216
370
    -2
100
AcDbLine
 10
13.58513156523631
 20
5.978709354199108
 30
0.0
 11
13.58513156523631
 21
4.850852211341952
 31
0.0
  0
SOLID
  5
4B2FB5
330
4B1F50
100
AcDbEntity
  8
DIM
 62
     0
440
 16777216
100
AcDbTrace
 10
13.55513156523631
 20
3.088709354199082
 30
0.0
 11
13.61513156523631
 21
3.088709354199082
 31
0.0
 12
13.58513156523631
 22
2.908709354199082
 32
0.0
 13
13.58513156523631
 23
2.908709354199082
 33
0.0
  0
SOLID
  5
4B2FB6
330
4B1F50
100
AcDbEntity
  8
DIM
 62
     0
440
 16777216
100
AcDbTrace
 10
13.55513156523631
 20
5.978709354199108
 30
0.0
 11
13.61513156523631
 21
5.978709354199108
 31
0.0
 12
13.58513156523631
 22
6.158709354199108
 32
0.0
 13
13.58513156523631
 23
6.158709354199108
 33
0.0
  0
MTEXT
  5
4B2FB7
330
4B1F50
100
AcDbEntity
  8
DIM
 62
     0
440
 16777216
100
AcDbMText
 10
13.58513156523631
 20
4.533709354199097
 30
0.0
 40
0.18
 41
0.0
 46
0.0
 71
     5
 72
     1
  1
\A1;3 1/4"
  7
ROMANS
 73
     1
 44
1.0
  0
POINT
  5
4B2FB8
330
4B1F50
100
AcDbEntity
  8
DEFPOINTS
 62
     0
440
 16777216
100
AcDbPoint
 10
12.4964278707095
 20
2.908709354199082
 30
0.0
  0
POINT
  5
4B2FB9
330
4B1F50
100
AcDbEntity
  8
DEFPOINTS
 62
     0
440
 16777216
100
AcDbPoint
 10
12.49542787070945
 20
6.158709354199108
 30
0.0
  0
POINT
  5
4B2FBA
330
4B1F50
100
AcDbEntity
  8
DEFPOINTS
 62
     0
440
 16777216
100
AcDbPoint
 10
13.58513156523631
 20
6.158709354199108
 30
0.0
  0
ENDBLK
  5
4B1F5C
330
4B1F50
100
AcDbEntity
  8
0
100
AcDbBlockEnd
  0
BLOCK
  5
4B28F6
330
4B28EB
100
AcDbEntity
  8
0
100
AcDbBlockBegin
  2
*D5
 70
     1
 10
0.0
 20
0.0
 30
0.0
  3
*D5
  1

  0
LINE
  5
4B2E86
330
4B28EB
100
AcDbEntity
  8
DIM
 62
     0
440
 16777216
370
    -2
100
AcDbLine
 10
2.66708778831831
 20
10.99891092713625
 30
0.0
 11
0.0298758705697424
 21
10.99891092713625
 31
0.0
  0
LINE
  5
4B2E87
330
4B28EB
100
AcDbEntity
  8
DIM
 62
     0
440
 16777216
370
    -2
100
AcDbLine
 10
1.275246050932629
 20
9.229485312922914
 30
0.0
 11
0.0298758705697422
 21
9.229485312922914
 31
0.0
  0
LINE
  5
4B2E88
330
4B28EB
100
AcDbEntity
  8
DIM
 62
     0
440
 16777216
370
    -2
100
AcDbLine
 10
0.2298758705697426
 20
10.81891092713625
 30
0.0
 11
0.2298758705697425
 21
10.43134097717244
 31
0.0
  0
LINE
  5
4B2E89
330
4B28EB
100
AcDbEntity
  8
DIM
 62
     0
440
 16777216
370
    -2
100
AcDbLine
 10
0.2298758705697423
 20
9.409485312922914
 30
0.0
 11
0.2298758705697423
 21
9.797055262886727
 31
0.0
  0
SOLID
  5
4B2E8A
330
4B28EB
100
AcDbEntity
  8
DIM
 62
     0
440
 16777216
100
AcDbTrace
 10
0.1998758705697426
 20
10.81891092713625
 30
0.0
 11
0.2598758705697425
 21
10.81891092713625
 31
0.0
 12
0.2298758705697426
 22
10.99891092713625
 32
0.0
 13
0.2298758705697426
 23
10.99891092713625
 33
0.0
  0
SOLID
  5
4B2E8B
330
4B28EB
100
AcDbEntity
  8
DIM
 62
     0
440
 16777216
100
AcDbTrace
 10
0.1998758705697423
 20
9.409485312922914
 30
0.0
 11
0.2598758705697422
 21
9.409485312922914
 31
0.0
 12
0.2298758705697423
 22
9.229485312922914
 32
0.0
 13
0.2298758705697423
 23
9.229485312922914
 33
0.0
  0
MTEXT
  5
4B2E8C
330
4B28EB
100
AcDbEntity
  8
DIM
 62
     0
440
 16777216
100
AcDbMText
 10
0.2298758705697408
 20
10.11419812002958
 30
0.0
 40
0.18
 41
0.0
 46
0.0
 71
     5
 72
     1
  1
\A1;1 3/4"
  7
ROMANS
 73
     1
 44
1.0
  0
POINT
  5
4B2E8D
330
4B28EB
100
AcDbEntity
  8
DEFPOINTS
 62
     0
440
 16777216
100
AcDbPoint
 10
2.86708778831831
 20
10.99891092713625
 30
0.0
  0
POINT
  5
4B2E8E
330
4B28EB
100
AcDbEntity
  8
DEFPOINTS
 62
     0
440
 16777216
100
AcDbPoint
 10
1.475246050932629
 20
9.229485312922914
 30
0.0
  0
POINT
  5
4B2E8F
330
4B28EB
100
AcDbEntity
  8
DEFPOINTS
 62
     0
440
 16777216
100
AcDbPoint
 10
0.2298758705697423
 20
9.229485312922914
 30
0.0
  0
ENDBLK
  5
4B28F7
330
4B28EB
100
AcDbEntity
  8
0
100
AcDbBlockEnd
  0
BLOCK
  5
4B2EF1
330
4B2EF0
100
AcDbEntity
  8
0
100
AcDbBlockBegin
  2
*U6
 70
     1
 10
0.0
 20
0.0
 30
0.0
  3
*U6
  1

  0
ENDBLK
  5
4B2EF2
330
4B2EF0
100
AcDbEntity
  8
0
100
AcDbBlockEnd
  0
BLOCK
  5
4B2F43
330
4B2F41
100
AcDbEntity
  8
0
100
AcDbBlockBegin
  2
GENAXEH
 70
     0
 10
0.0
 20
0.0
 30
0.0
  3
GENAXEH
  1

  0
LINE
  5
4B2F42
330
4B2F41
100
AcDbEntity
  8
0
100
AcDbLine
 10
-1.0
 20
0.0
 30
0.0
 11
1.0
 21
0.0
 31
0.0
  0
ENDBLK
  5
4B2F44
330
4B2F41
100
AcDbEntity
  8
0
100
AcDbBlockEnd
  0
BLOCK
  5
4B2F7B
330
4B2F72
100
AcDbEntity
  8
0
100
AcDbBlockBegin
  2
Reinforced Bytyl Spacer
 70
     0
 10
0.0
 20
0.0
 30
0.0
  3
Reinforced Bytyl Spacer
  1

  0
HATCH
  5
4B2F73
330
4B2F72
100
AcDbEntity
  8
THIN
100
AcDbHatch
 10
0.0
 20
0.0
 30
0.0
210
0.0
220
0.0
230
1.0
  2
DOTS
 70
     0
 71
     1
 91
        1
 92
        7
 72
     0
 73
     1
 93
        4
 10
0.1562500000000382
 20
-0.0000000000000142
 10
0.0312500000000382
 20
-0.0000000000000142
 10
0.0312500000000382
 20
-0.6250000000000142
 10
0.1562500000000382
 20
-0.6250000000000142
 97
        1
330
4B2F74
 75
     0
 76
     1
 52
90.0
 41
0.5
 77
     0
 78
     1
 53
90.0
 43
-3.611312044416422
 44
-5.060374581297608
 45
-0.03125
 46
0.015625
 79
     2
 49
0.0
 49
-0.03125
 47
0.0011899997355916
 98
        1
 10
0.1072450513476761
 20
-0.3381182195231638
  0
LWPOLYLINE
  5
4B2F74
102
{ACAD_REACTORS
330
4B2F73
330
4B2F78
102
}
330
4B2F72
100
AcDbEntity
  8
THIN
100
AcDbPolyline
 90
        4
 70
     1
 43
0.0
 10
0.0312500000000382
 20
-0.6250000000000142
 10
0.0312500000000382
 20
-0.0000000000000142
 10
0.1562500000000382
 20
-0.0000000000000142
 10
0.1562500000000382
 20
-0.6250000000000142
  0
HATCH
  5
4B2F75
330
4B2F72
100
AcDbEntity
  8
THIN
100
AcDbHatch
 10
0.0
 20
0.0
 30
0.0
210
0.0
220
0.0
230
1.0
  2
DOTS
 70
     0
 71
     1
 91
        1
 92
        7
 72
     0
 73
     1
 93
        4
 10
0.3925000000000391
 20
-0.6250000000000142
 10
0.4375000000000391
 20
-0.6250000000000142
 10
0.4375000000000382
 20
-0.0000000000000151
 10
0.3925000000000382
 20
-0.000000000000016
 97
        2
330
4B2F76
330
4B2F77
 75
     0
 76
     1
 52
90.0
 41
0.75
 77
     0
 78
     1
 53
90.0
 43
-3.611312044416422
 44
-5.060374581297608
 45
-0.046875
 46
0.0234375
 79
     2
 49
0.0
 49
-0.046875
 47
0.0016662947622985
 98
        1
 10
0.4139673496542083
 20
-0.5128218251640391
  0
LWPOLYLINE
  5
4B2F76
102
{ACAD_REACTORS
330
4B2F75
330
4B2F78
102
}
330
4B2F72
100
AcDbEntity
  8
THIN
100
AcDbPolyline
 90
        2
 70
     0
 43
0.0
 10
0.3925000000000382
 20
-0.0000000000000142
 10
0.3925000000000382
 20
-0.6250000000000142
  0
LWPOLYLINE
  5
4B2F77
102
{ACAD_REACTORS
330
4B2F75
330
4B2F78
102
}
330
4B2F72
100
AcDbEntity
  8
THIN
100
AcDbPolyline
 90
        4
 70
     0
 43
0.0
 10
0.1562500000000382
 20
-0.0000000000000142
 10
0.4375000000000382
 20
-0.0000000000000142
 10
0.4375000000000382
 20
-0.6250000000000142
 10
0.1562500000000382
 20
-0.6250000000000142
  0
HATCH
  5
4B2F78
330
4B2F72
100
AcDbEntity
  8
THIN
100
AcDbHatch
 10
0.0
 20
0.0
 30
0.0
210
0.0
220
0.0
230
1.0
  2
DOTS
 70
     0
 71
     1
 91
        2
 92
        7
 72
     0
 73
     1
 93
        4
 10
0.1562500000000386
 20
-0.6250000000000134
 10
0.3925000000000382
 20
-0.6250000000000142
 10
0.3925000000000391
 20
-0.0000000000000151
 10
0.1562500000000377
 20
-0.0000000000000133
 97
        3
330
4B2F74
330
4B2F77
330
4B2F76
 92
       22
 72
     0
 73
     1
 93
        4
 10
0.2918750000000379
 20
-0.0075000000000136
 10
0.3018750000000385
 20
-0.0075000000000136
 10
0.3018750000000372
 20
-0.617500000000014
 10
0.2918750000000383
 20
-0.617500000000014
 97
        1
330
4B2F79
 75
     0
 76
     1
 52
90.0
 41
0.25
 77
     0
 78
     1
 53
90.0
 43
-3.611312044416422
 44
-5.060374581297608
 45
-0.015625
 46
0.0078125
 79
     2
 49
0.0
 49
-0.015625
 47
0.0011899997355916
 98
        2
 10
0.2000650292932997
 20
-0.3154905681298565
 10
0.2000650292932997
 20
-0.3154905681298565
  0
LWPOLYLINE
  5
4B2F79
102
{ACAD_REACTORS
330
4B2F78
102
}
330
4B2F72
100
AcDbEntity
  8
THIN
100
AcDbPolyline
 90
        4
 70
     1
 43
0.0
 10
0.3018750000000381
 20
-0.617500000000014
 10
0.3018750000000381
 20
-0.0075000000000136
 10
0.2918750000000383
 20
-0.0075000000000136
 10
0.2918750000000383
 20
-0.617500000000014
  0
LINE
  5
4B2F7A
330
4B2F72
100
AcDbEntity
  8
THIN
100
AcDbLine
 10
0.1562500000000382
 20
-0.0000000000000142
 30
0.0
 11
0.1562500000000382
 21
-0.6250000000000142
 31
0.0
  0
ENDBLK
  5
4B2F7C
330
4B2F72
100
AcDbEntity
  8
0
100
AcDbBlockEnd
  0
BLOCK
  5
4B2F8C
330
4B2F86
100
AcDbEntity
  8
0
100
AcDbBlockBegin
  2
Glazing Bead
 70
     0
 10
0.0
 20
0.0
 30
0.0
  3
Glazing Bead
  1

  0
LWPOLYLINE
  5
4B2F87
330
4B2F86
100
AcDbEntity
  8
10
100
AcDbPolyline
 90
        6
 70
     0
 43
0.0
 10
-0.0980000000000412
 20
0.4497426842885677
 10
-0.0089808830642339
 20
0.6459625239750136
 42
-0.0522813753986091
 10
-0.0037468705670523
 20
0.6549815899243097
 42
0.577370775527271
 10
-0.0174245326643847
 20
0.6858638190480573
 42
0.2998307703621348
 10
-0.0320958779425364
 20
0.6783008097000085
 10
-0.0980000000000301
 20
0.5629999999999278
  0
LWPOLYLINE
  5
4B2F88
330
4B2F86
100
AcDbEntity
  8
10
100
AcDbPolyline
 90
       33
 70
     1
 43
0.0
 10
-0.5895601124111863
 20
-0.2641177143234383
 10
-0.5785111126056904
 20
-0.222882285676512
 42
0.4931454260312981
 10
-0.5930000000000262
 20
-0.203999999999974
 10
-0.6810000000000272
 20
-0.203999999999974
 42
-0.4142135623730951
 10
-0.6960000000000277
 20
-0.1889999999999734
 10
-0.6960000000000277
 20
0.548000000000025
 42
-0.4142135623730951
 10
-0.6660000000000266
 20
0.5780000000000225
 10
-0.0980000000000288
 20
0.5780000000000225
 10
-0.0980000000000856
 20
-0.0169999999999799
 42
-0.4142135623730795
 10
-0.1280000000000867
 20
-0.0469999999999775
 10
-0.2090000000000258
 20
-0.0469999999999775
 42
0.4142135623730951
 10
-0.2240000000000264
 20
-0.0619999999999781
 10
-0.2240000000000264
 20
-0.1889999999999734
 42
0.4142135623730951
 10
-0.2090000000000258
 20
-0.203999999999974
 10
-0.1065000000000267
 20
-0.2039999999999775
 42
-0.9999999999999998
 10
-0.1065000000000267
 20
-0.2829999999999746
 10
-0.2730000000000259
 20
-0.2829999999999746
 42
-0.4142135623730951
 10
-0.3030000000000252
 20
-0.252999999999977
 10
-0.303000000000027
 20
0.002000000000022
 42
-0.4142135623730951
 10
-0.2730000000000259
 20
0.0320000000000231
 10
-0.1920000000000512
 20
0.0320000000000196
 42
0.4142135623730951
 10
-0.1770000000000507
 20
0.0470000000000201
 10
-0.1770000000000507
 20
0.4840000000000213
 42
0.4142135623730951
 10
-0.1920000000000512
 20
0.4990000000000219
 10
-0.6020000000000266
 20
0.4990000000000219
 42
0.4142135623730951
 10
-0.6170000000000253
 20
0.4840000000000249
 10
-0.6170000000000271
 20
-0.1099999999999728
 42
0.4142135623730951
 10
-0.6020000000000266
 20
-0.1249999999999733
 10
-0.5290000000000262
 20
-0.1249999999999733
 42
-0.4142135623730951
 10
-0.499000000000025
 20
-0.1549999999999745
 10
-0.499000000000025
 20
-0.2679999999999776
 42
-0.4142135623730951
 10
-0.5140000000000256
 20
-0.2829999999999781
 10
-0.5750712250168504
 20
-0.2829999999999746
 42
-0.4931454260313336
  0
ARC
  5
4B2F89
330
4B2F86
100
AcDbEntity
  8
10
 48
0.25
100
AcDbCircle
 10
-0.075000000000061
 20
0.3020000000000227
 30
0.0
 40
0.0749999999999993
100
AcDbArc
 50
252.1415373015901
 51
107.8584626983988
  0
ENDBLK
  5
4B2F8D
330
4B2F86
100
AcDbEntity
  8
0
100
AcDbBlockEnd
  0
BLOCK
  5
4B2FDE
330
4B2FDA
100
AcDbEntity
  8
0
100
AcDbBlockBegin
  2
Weather Seal
 70
     0
 10
0.0
 20
0.0
 30
0.0
  3
Weather Seal
  1

  0
LWPOLYLINE
  5
4B2FDB
330
4B2FDA
100
AcDbEntity
  8
10
100
AcDbPolyline
 90
        8
 70
     0
 43
0.0
 10
-0.2140040708706117
 20
-0.0700547851418496
 42
0.2308365435434813
 10
-0.1014570656801901
 20
0.0
 10
-0.0313972213123126
 20
0.0000000000000004
 10
-0.0722456559543829
 20
-0.048469460869498
 42
-0.2169055378432189
 10
-0.1846107348229395
 20
-0.10200000000009
 10
-0.2331996891443744
 20
-0.1020000000000873
 42
-0.9441104267323005
 10
-0.2343217948658616
 20
-0.0720693186292443
 10
-0.2130040708706762
 20
-0.0700547851418425
  0
ENDBLK
  5
4B2FDF
330
4B2FDA
100
AcDbEntity
  8
0
100
AcDbBlockEnd
  0
BLOCK
  5
4B2FEE
330
4B2FE9
100
AcDbEntity
  8
0
100
AcDbBlockBegin
  2
Silicon Horizontal Small
 70
     0
 10
0.0
 20
0.0
 30
0.0
  3
Silicon Horizontal Small
  1

  0
HATCH
  5
4B2FEA
330
4B2FE9
100
AcDbEntity
  8
3
100
AcDbHatch
 10
0.0
 20
0.0
 30
0.0
210
0.0
220
0.0
230
1.0
  2
ANSI31
 70
     0
 71
     0
 91
        1
 92
        1
 93
       67
 72
     2
 10
0.0660000000000194
 20
0.06600000000003
 40
0.0660000000000167
 50
90.0
 51
270.0
 73
     0
 72
     1
 10
0.0660000000000194
 20
0.1320000000000467
 11
0.2152499999999859
 21
0.1320000000000467
 72
     1
 10
0.2152499999999859
 20
0.1320000000000467
 11
0.2184884665055966
 21
0.1319205001095876
 72
     1
 10
0.2184884665055966
 20
0.1319205001095876
 11
0.2217191312617386
 21
0.1316821919604116
 72
     1
 10
0.2217191312617386
 20
0.1316821919604116
 11
0.224934211314042
 21
0.1312856496577224
 72
     1
 10
0.224934211314042
 20
0.1312856496577224
 11
0.2281259612530535
 21
0.1307318285066596
 72
     1
 10
0.2281259612530535
 20
0.1307318285066596
 11
0.2312866918736054
 21
0.1300220627108866
 72
     1
 10
0.2312866918736054
 20
0.1300220627108866
 11
0.2344087886987856
 21
0.1291580621583721
 72
     1
 10
0.2344087886987856
 20
0.1291580621583721
 11
0.2374847303238772
 21
0.1281419083021245
 72
     1
 10
0.2374847303238772
 20
0.1281419083021245
 11
0.2405071065360884
 21
0.1269760491457896
 72
     1
 10
0.2405071065360884
 20
0.1269760491457896
 11
0.2434686361663916
 21
0.1256632933461921
 72
     1
 10
0.2434686361663916
 20
0.1256632933461921
 11
0.2463621846305104
 21
0.124206803447036
 72
     1
 10
0.2463621846305104
 20
0.124206803447036
 11
0.2491807811167463
 21
0.1226100882600622
 72
     1
 10
0.2491807811167463
 20
0.1226100882600622
 11
0.2519176353792885
 21
0.1208769944120114
 72
     1
 10
0.2519176353792885
 20
0.1208769944120114
 11
0.254566154096497
 21
0.1190116970777657
 72
     1
 10
0.254566154096497
 20
0.1190116970777657
 11
0.2571199567547984
 21
0.1170186899219834
 72
     1
 10
0.2571199567547984
 20
0.1170186899219834
 11
0.2595728910199009
 21
0.1149027742734692
 72
     1
 10
0.2595728910199009
 20
0.1149027742734692
 11
0.2619190475583091
 21
0.112669047558354
 72
     1
 10
0.2619190475583091
 20
0.112669047558354
 11
0.264152774273426
 21
0.1103228910199441
 72
     1
 10
0.264152774273426
 20
0.1103228910199441
 11
0.2662686899219393
 21
0.1078699567548407
 72
     1
 10
0.2662686899219393
 20
0.1078699567548407
 11
0.2682616970777216
 21
0.1053161540965402
 72
     1
 10
0.2682616970777216
 20
0.1053161540965402
 11
0.2701269944119664
 21
0.1026676353793325
 72
     1
 10
0.2701269944119664
 20
0.1026676353793325
 11
0.2718600882600173
 21
0.0999307811167913
 72
     1
 10
0.2718600882600173
 20
0.0999307811167913
 11
0.2734568034469929
 21
0.0971121846305536
 72
     1
 10
0.2734568034469929
 20
0.0971121846305536
 11
0.2749132933461498
 21
0.0942186361664357
 72
     1
 10
0.2749132933461498
 20
0.0942186361664357
 11
0.2762260491457473
 21
0.0912571065361316
 72
     1
 10
0.2762260491457473
 20
0.0912571065361316
 11
0.2773919083020813
 21
0.0882347303239213
 72
     1
 10
0.2773919083020813
 20
0.0882347303239213
 11
0.278408062158328
 21
0.0851587886988288
 72
     1
 10
0.278408062158328
 20
0.0851587886988288
 11
0.2792720627108425
 21
0.0820366918736495
 72
     1
 10
0.2792720627108425
 20
0.0820366918736495
 11
0.2799818285066147
 21
0.0788759612530967
 72
     1
 10
0.2799818285066147
 20
0.0788759612530967
 11
0.2805356496576783
 21
0.0756842113140861
 72
     1
 10
0.2805356496576783
 20
0.0756842113140861
 11
0.2809321919603667
 21
0.0724691312617818
 72
     1
 10
0.2809321919603667
 20
0.0724691312617818
 11
0.2811705001095435
 21
0.0692384665056398
 72
     1
 10
0.2811705001095435
 20
0.0692384665056398
 11
0.2812500000000027
 21
0.06600000000003
 72
     1
 10
0.2812500000000027
 20
0.06600000000003
 11
0.2811705001095452
 21
0.0627615334944194
 72
     1
 10
0.2811705001095452
 20
0.0627615334944194
 11
0.2809321919603667
 21
0.0595308687382765
 72
     1
 10
0.2809321919603667
 20
0.0595308687382765
 11
0.2805356496576783
 21
0.0563157886859731
 72
     1
 10
0.2805356496576783
 20
0.0563157886859731
 11
0.2799818285066147
 21
0.0531240387469616
 72
     1
 10
0.2799818285066147
 20
0.0531240387469616
 11
0.2792720627108425
 21
0.0499633081264097
 72
     1
 10
0.2792720627108425
 20
0.0499633081264097
 11
0.2784080621583262
 21
0.0468412113012304
 72
     1
 10
0.2784080621583262
 20
0.0468412113012304
 11
0.2773919083020813
 21
0.043765269676137
 72
     1
 10
0.2773919083020813
 20
0.043765269676137
 11
0.2762260491457473
 21
0.0407428934639267
 72
     1
 10
0.2762260491457473
 20
0.0407428934639267
 11
0.274913293346148
 21
0.0377813638336235
 72
     1
 10
0.274913293346148
 20
0.0377813638336235
 11
0.2734568034469911
 21
0.0348878153695065
 72
     1
 10
0.2734568034469911
 20
0.0348878153695065
 11
0.2718600882600191
 21
0.0320692188832688
 72
     1
 10
0.2718600882600191
 20
0.0320692188832688
 11
0.2701269944119682
 21
0.0293323646207266
 72
     1
 10
0.2701269944119682
 20
0.0293323646207266
 11
0.2682616970777216
 21
0.026683845903519
 72
     1
 10
0.2682616970777216
 20
0.026683845903519
 11
0.2662686899219393
 21
0.0241300432452185
 72
     1
 10
0.2662686899219393
 20
0.0241300432452185
 11
0.2641527742734242
 21
0.0216771089801151
 72
     1
 10
0.2641527742734242
 20
0.0216771089801151
 11
0.2619190475583109
 21
0.019330952441706
 72
     1
 10
0.2619190475583109
 20
0.019330952441706
 11
0.2595728910198991
 21
0.01709722572659
 72
     1
 10
0.2595728910198991
 20
0.01709722572659
 11
0.2571199567547984
 21
0.0149813100780758
 72
     1
 10
0.2571199567547984
 20
0.0149813100780758
 11
0.254566154096497
 21
0.0129883029222935
 72
     1
 10
0.254566154096497
 20
0.0129883029222935
 11
0.2519176353792902
 21
0.0111230055880478
 72
     1
 10
0.2519176353792902
 20
0.0111230055880478
 11
0.2491807811167481
 21
0.0093899117399978
 72
     1
 10
0.2491807811167481
 20
0.0093899117399978
 11
0.2463621846305086
 21
0.007793196553024
 72
     1
 10
0.2463621846305086
 20
0.007793196553024
 11
0.2434686361663916
 21
0.006336706653868
 72
     1
 10
0.2434686361663916
 20
0.006336706653868
 11
0.2405071065360884
 21
0.0050239508542695
 72
     1
 10
0.2405071065360884
 20
0.0050239508542695
 11
0.2374847303238772
 21
0.0038580916979356
 72
     1
 10
0.2374847303238772
 20
0.0038580916979356
 11
0.2344087886987838
 21
0.002841937841688
 72
     1
 10
0.2344087886987838
 20
0.002841937841688
 11
0.2312866918736054
 21
0.0019779372891735
 72
     1
 10
0.2312866918736054
 20
0.0019779372891735
 11
0.2281259612530535
 21
0.0012681714934004
 72
     1
 10
0.2281259612530535
 20
0.0012681714934004
 11
0.224934211314042
 21
0.0007143503423377
 72
     1
 10
0.224934211314042
 20
0.0007143503423377
 11
0.2217191312617386
 21
0.0003178080396475
 72
     1
 10
0.2217191312617386
 20
0.0003178080396475
 11
0.2184884665055966
 21
0.0000794998904725
 72
     1
 10
0.2184884665055966
 20
0.0000794998904725
 11
0.2152499999999859
 21
0.0000000000000133
 72
     1
 10
0.2152499999999859
 20
0.0000000000000133
 11
0.0660000000000194
 21
0.0000000000000133
 97
        0
 75
     0
 76
     1
 52
0.0
 41
0.25
 77
     0
 78
     1
 53
45.0
 43
-8.14017173921723
 44
-8.193344402733142
 45
-0.0220970869120796
 46
0.0220970869120796
 79
     0
 98
        1
 10
10.49505695906111
 20
-4.856956167588923
1001
ACAD
1010
0.0
1020
0.0
1030
0.0
  0
LWPOLYLINE
  5
4B2FEB
330
4B2FE9
100
AcDbEntity
  8
THIN
100
AcDbPolyline
 90
        4
 70
     1
 43
0.0
 10
0.2152499999999859
 20
0.0000000000000133
 10
0.0660000000000194
 20
0.0000000000000133
 42
-0.9999999999999998
 10
0.0660000000000194
 20
0.1320000000000467
 10
0.2152499999999859
 20
0.1320000000000467
 42
-0.9999999999999998
  0
ENDBLK
  5
4B2FEF
330
4B2FE9
100
AcDbEntity
  8
0
100
AcDbBlockEnd
  0
BLOCK
  5
4B303A
330
4B3035
100
AcDbEntity
  8
0
100
AcDbBlockBegin
  2
Silicon Small Vertical Top
 70
     0
 10
0.0
 20
0.0
 30
0.0
  3
Silicon Small Vertical Top
  1

  0
HATCH
  5
4B3036
330
4B3035
100
AcDbEntity
  8
3
100
AcDbHatch
 10
0.0
 20
0.0
 30
0.0
210
0.0
220
0.0
230
1.0
  2
ANSI31
 70
     0
 71
     0
 91
        1
 92
        1
 93
       67
 72
     2
 10
0.0660000000000176
 20
-0.1214999999999833
 40
0.0660000000000167
 50
180.0
 51
360.0
 73
     1
 72
     1
 10
0.1320000000000343
 20
-0.1214999999999833
 11
0.1320000000000343
 21
-0.0660000000000167
 72
     1
 10
0.1320000000000343
 20
-0.0660000000000167
 11
0.1319205001095756
 21
-0.0627615334944061
 72
     1
 10
0.1319205001095756
 20
-0.0627615334944061
 11
0.1316821919603992
 21
-0.0595308687382641
 72
     1
 10
0.1316821919603992
 20
-0.0595308687382641
 11
0.1312856496577095
 21
-0.0563157886859607
 72
     1
 10
0.1312856496577095
 20
-0.0563157886859607
 11
0.1307318285066468
 21
-0.0531240387469509
 72
     1
 10
0.1307318285066468
 20
-0.0531240387469509
 11
0.1300220627108732
 21
-0.0499633081263973
 72
     1
 10
0.1300220627108732
 20
-0.0499633081263973
 11
0.1291580621583588
 21
-0.0468412113012171
 72
     1
 10
0.1291580621583588
 20
-0.0468412113012171
 11
0.128141908302112
 21
-0.0437652696761219
 72
     1
 10
0.128141908302112
 20
-0.0437652696761219
 11
0.1269760491457772
 21
-0.0407428934639143
 72
     1
 10
0.1269760491457772
 20
-0.0407428934639143
 11
0.1256632933461792
 21
-0.0377813638336093
 72
     1
 10
0.1256632933461792
 20
-0.0377813638336093
 11
0.1242068034470227
 21
-0.034887815369494
 72
     1
 10
0.1242068034470227
 20
-0.034887815369494
 11
0.1226100882600489
 21
-0.0320692188832545
 72
     1
 10
0.1226100882600489
 20
-0.0320692188832545
 11
0.1208769944119985
 21
-0.0293323646207107
 72
     1
 10
0.1208769944119985
 20
-0.0293323646207107
 11
0.1190116970777528
 21
-0.0266838459035057
 72
     1
 10
0.1190116970777528
 20
-0.0266838459035057
 11
0.1170186899219701
 21
-0.0241300432452079
 72
     1
 10
0.1170186899219701
 20
-0.0241300432452079
 11
0.1149027742734563
 21
-0.0216771089801036
 72
     1
 10
0.1149027742734563
 20
-0.0216771089801036
 11
0.1126690475583398
 21
-0.0193309524416918
 72
     1
 10
0.1126690475583398
 20
-0.0193309524416918
 11
0.1103228910199303
 21
-0.0170972257265767
 72
     1
 10
0.1103228910199303
 20
-0.0170972257265767
 11
0.1078699567548274
 21
-0.0149813100780634
 72
     1
 10
0.1078699567548274
 20
-0.0149813100780634
 11
0.1053161540965264
 21
-0.0129883029222811
 72
     1
 10
0.1053161540965264
 20
-0.0129883029222811
 11
0.1026676353793188
 21
-0.0111230055880327
 72
     1
 10
0.1026676353793188
 20
-0.0111230055880327
 11
0.0999307811167771
 21
-0.0093899117399836
 72
     1
 10
0.0999307811167771
 20
-0.0093899117399836
 11
0.0971121846305394
 21
-0.0077931965530098
 72
     1
 10
0.0971121846305394
 20
-0.0077931965530098
 11
0.0942186361664219
 21
-0.0063367066538511
 72
     1
 10
0.0942186361664219
 20
-0.0063367066538511
 11
0.0912571065361183
 21
-0.0050239508542553
 72
     1
 10
0.0912571065361183
 20
-0.0050239508542553
 11
0.088234730323908
 21
-0.0038580916979214
 72
     1
 10
0.088234730323908
 20
-0.0038580916979214
 11
0.085158788698815
 21
-0.0028419378416764
 72
     1
 10
0.085158788698815
 20
-0.0028419378416764
 11
0.0820366918736348
 21
-0.001977937289162
 72
     1
 10
0.0820366918736348
 20
-0.001977937289162
 11
0.0788759612530834
 21
-0.0012681714933862
 72
     1
 10
0.0788759612530834
 20
-0.0012681714933862
 11
0.0756842113140719
 21
-0.0007143503423244
 72
     1
 10
0.0756842113140719
 20
-0.0007143503423244
 11
0.0724691312617685
 21
-0.000317808039636
 72
     1
 10
0.0724691312617685
 20
-0.000317808039636
 11
0.0692384665056261
 21
-0.0000794998904574
 72
     1
 10
0.0692384665056261
 20
-0.0000794998904574
 11
0.0660000000000158
 21
0.0
 72
     1
 10
0.0660000000000158
 20
0.0
 11
0.0627615334944052
 21
-0.0000794998904574
 72
     1
 10
0.0627615334944052
 20
-0.0000794998904574
 11
0.0595308687382632
 21
-0.000317808039636
 72
     1
 10
0.0595308687382632
 20
-0.000317808039636
 11
0.0563157886859593
 21
-0.0007143503423244
 72
     1
 10
0.0563157886859593
 20
-0.0007143503423244
 11
0.0531240387469483
 21
-0.0012681714933898
 72
     1
 10
0.0531240387469483
 20
-0.0012681714933898
 11
0.0499633081263959
 21
-0.001977937289162
 72
     1
 10
0.0499633081263959
 20
-0.001977937289162
 11
0.0468412113012167
 21
-0.0028419378416764
 72
     1
 10
0.0468412113012167
 20
-0.0028419378416764
 11
0.0437652696761237
 21
-0.0038580916979214
 72
     1
 10
0.0437652696761237
 20
-0.0038580916979214
 11
0.0407428934639134
 21
-0.0050239508542553
 72
     1
 10
0.0407428934639134
 20
-0.0050239508542553
 11
0.0377813638336102
 21
-0.0063367066538547
 72
     1
 10
0.0377813638336102
 20
-0.0063367066538547
 11
0.0348878153694923
 21
-0.0077931965530098
 72
     1
 10
0.0348878153694923
 20
-0.0077931965530098
 11
0.0320692188832545
 21
-0.0093899117399836
 72
     1
 10
0.0320692188832545
 20
-0.0093899117399836
 11
0.0293323646207129
 21
-0.0111230055880363
 72
     1
 10
0.0293323646207129
 20
-0.0111230055880363
 11
0.0266838459035053
 21
-0.0129883029222811
 72
     1
 10
0.0266838459035053
 20
-0.0129883029222811
 11
0.0241300432452047
 21
-0.0149813100780634
 72
     1
 10
0.0241300432452047
 20
-0.0149813100780634
 11
0.0216771089801018
 21
-0.0170972257265767
 72
     1
 10
0.0216771089801018
 20
-0.0170972257265767
 11
0.0193309524416927
 21
-0.0193309524416918
 72
     1
 10
0.0193309524416927
 20
-0.0193309524416918
 11
0.0170972257265767
 21
-0.0216771089801036
 72
     1
 10
0.0170972257265767
 20
-0.0216771089801036
 11
0.0149813100780629
 21
-0.0241300432452043
 72
     1
 10
0.0149813100780629
 20
-0.0241300432452043
 11
0.0129883029222806
 21
-0.0266838459035057
 72
     1
 10
0.0129883029222806
 20
-0.0266838459035057
 11
0.0111230055880349
 21
-0.0293323646207142
 72
     1
 10
0.0111230055880349
 20
-0.0293323646207142
 11
0.0093899117399845
 21
-0.0320692188832545
 72
     1
 10
0.0093899117399845
 20
-0.0320692188832545
 11
0.0077931965530107
 21
-0.034887815369494
 72
     1
 10
0.0077931965530107
 20
-0.034887815369494
 11
0.0063367066538547
 21
-0.0377813638336093
 72
     1
 10
0.0063367066538547
 20
-0.0377813638336093
 11
0.0050239508542567
 21
-0.0407428934639143
 72
     1
 10
0.0050239508542567
 20
-0.0407428934639143
 11
0.0038580916979218
 21
-0.0437652696761219
 72
     1
 10
0.0038580916979218
 20
-0.0437652696761219
 11
0.0028419378416751
 21
-0.0468412113012171
 72
     1
 10
0.0028419378416751
 20
-0.0468412113012171
 11
0.0019779372891611
 21
-0.0499633081263973
 72
     1
 10
0.0019779372891611
 20
-0.0499633081263973
 11
0.0012681714933875
 21
-0.0531240387469509
 72
     1
 10
0.0012681714933875
 20
-0.0531240387469509
 11
0.0007143503423253
 21
-0.0563157886859607
 72
     1
 10
0.0007143503423253
 20
-0.0563157886859607
 11
0.000317808039636
 21
-0.0595308687382641
 72
     1
 10
0.000317808039636
 20
-0.0595308687382641
 11
0.0000794998904596
 21
-0.0627615334944061
 72
     1
 10
0.0000794998904596
 20
-0.0627615334944061
 11
0.0000000000000009
 21
-0.0660000000000167
 72
     1
 10
0.0000000000000009
 20
-0.0660000000000167
 11
0.0000000000000009
 21
-0.1214999999999833
 97
        0
 75
     0
 76
     1
 52
90.0
 41
0.25
 77
     0
 78
     1
 53
315.0
 43
-8.193344402733156
 44
8.108921739217226
 45
0.0220970869120796
 46
0.0220970869120796
 79
     0
 98
        1
 10
-3.134168425386246
 20
-17.9142790158413
1001
ACAD
1010
0.0
1020
0.0
1030
0.0
  0
LWPOLYLINE
  5
4B3037
330
4B3035
100
AcDbEntity
  8
THIN
100
AcDbPolyline
 90
        4
 70
     1
 43
0.0
 10
0.1320000000000343
 20
-0.1214999999999833
 10
0.1320000000000343
 20
-0.0660000000000167
 42
0.9999999999999998
 10
0.0000000000000009
 20
-0.0660000000000167
 10
0.0000000000000009
 20
-0.1214999999999833
 42
0.9999999999999998
  0
ENDBLK
  5
4B303B
330
4B3035
100
AcDbEntity
  8
0
100
AcDbBlockEnd
  0
BLOCK
  5
4B3047
330
4B3042
100
AcDbEntity
  8
0
100
AcDbBlockBegin
  2
Silicon Vertical Bottom
 70
     0
 10
0.0
 20
0.0
 30
0.0
  3
Silicon Vertical Bottom
  1

  0
HATCH
  5
4B3043
330
4B3042
100
AcDbEntity
  8
3
100
AcDbHatch
 10
0.0
 20
0.0
 30
0.0
210
0.0
220
0.0
230
1.0
  2
ANSI31
 70
     0
 71
     1
 91
        1
 92
        7
 72
     1
 73
     1
 93
        4
 10
-0.0000000000000009
 20
0.3089999999999904
 42
1.0
 10
-0.1320000000000343
 20
0.3089999999999904
 42
0.0
 10
-0.1320000000000343
 20
0.1285000000000238
 42
1.0
 10
-0.0000000000000009
 20
0.1285000000000238
 42
0.0
 97
        1
330
4B3044
 75
     0
 76
     1
 52
90.0
 41
0.25
 77
     0
 78
     1
 53
135.0
 43
8.193344402733156
 44
-8.046421739217223
 45
-0.0220970869120796
 46
-0.0220970869120796
 79
     0
 47
0.0013387605417888
 98
        1
 10
-0.0624891598898119
 20
0.2248641427243712
1001
ACAD
1010
0.0
1020
0.0
1030
0.0
  0
LWPOLYLINE
  5
4B3044
102
{ACAD_REACTORS
330
4B3043
102
}
330
4B3042
100
AcDbEntity
  8
THIN
100
AcDbPolyline
 90
        4
 70
     1
 43
0.0
 10
-0.1320000000000343
 20
0.3089999999999904
 10
-0.1320000000000343
 20
0.1285000000000238
 42
0.9999999999999998
 10
-0.0000000000000009
 20
0.1285000000000238
 10
-0.0000000000000009
 20
0.3089999999999904
 42
0.9999999999999998
  0
ENDBLK
  5
4B3048
330
4B3042
100
AcDbEntity
  8
0
100
AcDbBlockEnd
  0
ENDSEC
  0
SECTION
  2
ENTITIES
  0
INSERT
  5
4B1E5F
330
4B1AC8
100
AcDbEntity
  8
DIM
100
AcDbBlockReference
 66
     1
  2
ASDTNUM
 10
0.0
 20
0.0
 30
0.0
1001
MTVPROFILELINK
1002
{
1000
#BlockRef=533e4a92-0xa7cf-11d7-A5DD-005004E2D0E9|
1002
}
1005
0
  0
ATTRIB
  5
4B1E60
330
4B1E5F
100
AcDbEntity
  8
THIN
100
AcDbText
 10
1.645491964163355
 20
0.7077964671298738
 30
0.0
 40
0.18
  1
6/06
 51
10.0
  7
ROMANS
100
AcDbAttribute
280
     0
  2
REV:
 70
     0
280
     0
  0
ATTRIB
  5
4B1E61
330
4B1E5F
100
AcDbEntity
  8
THIN
100
AcDbText
 10
14.18958977281909
 20
0.6570000000000001
 30
0.0
 40
0.25
  1
285
 51
10.0
  7
ROMANS
100
AcDbAttribute
280
     0
  2
AS#
 70
     0
280
     0
  0
SEQEND
  5
4B1E62
330
4B1E5F
100
AcDbEntity
  8
DIM
  0
MTEXT
  5
4B1E63
330
4B1AC8
100
AcDbEntity
  8
DIM
100
AcDbMText
 10
9.930067036122729
 20
18.95361820351289
 30
0.0
 40
0.3
 41
6.184
 46
0.0
 71
     5
 72
     5
  1
Harvey Building Products Replacement Designer Shape \PHalf Round\P{\H0.8333x;(1/2 Scale)}
  7
TAHOMA
 73
     1
 44
1.0
  0
LINE
  5
4B1E64
330
4B1AC8
100
AcDbEntity
  8
CYAN
100
AcDbLine
 10
8.478401312315355
 20
3.860709354199127
 30
0.0
 11
5.72917787070947
 21
3.860709354199072
 31
0.0
  0
LINE
  5
4B1E65
330
4B1AC8
100
AcDbEntity
  8
CYAN
100
AcDbLine
 10
8.463899980977515
 20
3.985709354199099
 30
0.0
 11
5.729177870709469
 21
3.985709354199071
 31
0.0
  0
LINE
  5
4B1E66
330
4B1AC8
100
AcDbEntity
  8
CYAN
100
AcDbLine
 10
8.469982247513172
 20
4.610709354199099
 30
0.0
 11
5.72917787070947
 21
4.610709354199099
 31
0.0
  0
LINE
  5
4B1E67
330
4B1AC8
100
AcDbEntity
  8
CYAN
100
AcDbLine
 10
8.454632885102881
 20
4.735709354199099
 30
0.0
 11
5.72917787070947
 21
4.735709354199099
 31
0.0
  0
LINE
  5
4B1E7A
330
4B1AC8
100
AcDbEntity
  8
CYAN
100
AcDbLine
 10
3.63324605093262
 20
14.42730420898187
 30
0.0
 11
3.633246050932652
 21
10.27948531292291
 31
0.0
  0
LINE
  5
4B1E7B
330
4B1AC8
100
AcDbEntity
  8
CYAN
100
AcDbLine
 10
3.75824605093262
 20
14.41280287764397
 30
0.0
 11
3.758246050932652
 21
10.27948531292291
 31
0.0
  0
DIMENSION
  5
4B1E7D
330
4B1AC8
100
AcDbEntity
  8
DIM
100
AcDbDimension
280
     0
  2
*D1
 10
3.011363055201519
 20
6.158709354199102
 30
0.0
 11
3.011363055201519
 21
4.53370935419911
 31
0.0
 70
   160
 71
     5
 42
3.249999999999988
 73
     0
 74
     0
 75
     0
  3
STANDARD
100
AcDbAlignedDimension
 13
4.52542787070953
 23
2.908709354199114
 33
0.0
 14
4.52542787070953
 24
6.158709354199102
 34
0.0
 50
90.0
100
AcDbRotatedDimension
1001
ACAD
1000
DSTYLE
1002
{
1070
    40
1040
4.0
1070
    41
1040
0.045
1070
    42
1040
0.05
1070
    43
1040
0.3799999999999999
1070
    44
1040
0.05
1070
    45
1040
0.001
1070
   140
1040
0.045
1070
   147
1040
0.045
1070
   174
1070
     1
1070
   179
1070
     2
1070
   272
1070
     3
1070
   276
1070
     2
1070
   277
1070
     4
1070
   279
1070
     2
1002
}
  0
DIMENSION
  5
4B1E7E
330
4B1AC8
100
AcDbEntity
  8
DIM
100
AcDbDimension
280
     0
  2
*D2
 10
4.710246050932654
 20
7.766691352359259
 30
0.0
 11
3.085246050932641
 21
7.766691352359259
 31
0.0
 70
    32
 71
     5
 42
3.250000000000025
 73
     0
 74
     0
 75
     0
  3
STANDARD
100
AcDbAlignedDimension
 13
1.460246050932628
 23
9.244485312922915
 33
0.0
 14
4.710246050932654
 24
9.243485312922864
 34
0.0
100
AcDbRotatedDimension
1001
ACAD
1000
DSTYLE
1002
{
1070
    40
1040
4.0
1070
    41
1040
0.045
1070
    42
1040
0.05
1070
    43
1040
0.3799999999999999
1070
    44
1040
0.05
1070
    45
1040
0.001
1070
   140
1040
0.045
1070
   147
1040
0.045
1070
   174
1070
     1
1070
   179
1070
     2
1070
   276
1070
     2
1070
   277
1070
     4
1070
   279
1070
     2
1002
}
  0
DIMENSION
  5
4B1E8D
330
4B1AC8
100
AcDbEntity
  8
DIM
100
AcDbDimension
280
     0
  2
*D3
 10
4.510427870709529
 20
2.181262260305729
 30
0.0
 11
5.377669890423367
 21
2.181262260305729
 31
0.0
 70
    32
 71
     5
 42
1.734484039427676
 73
     0
 74
     0
 75
     0
  3
STANDARD
100
AcDbAlignedDimension
 13
6.244911910137205
 23
3.842191236981891
 33
0.0
 14
4.510427870709529
 24
2.923709354199115
 34
0.0
100
AcDbRotatedDimension
1001
ACAD
1000
DSTYLE
1002
{
1070
    40
1040
4.0
1070
    41
1040
0.045
1070
    42
1040
0.05
1070
    43
1040
0.3799999999999999
1070
    44
1040
0.05
1070
    45
1040
0.001
1070
   140
1040
0.045
1070
   147
1040
0.045
1070
   174
1070
     1
1070
   179
1070
     2
1070
   272
1070
     3
1070
   276
1070
     2
1070
   277
1070
     4
1070
   279
1070
     2
1002
}
  0
LINE
  5
4B1EA6
330
4B1AC8
100
AcDbEntity
  8
DEFPOINTS
100
AcDbLine
 10
6.132427870709539
 20
4.837687932220958
 30
0.0
 11
6.132427870709539
 21
4.837709354199105
 31
0.0
  0
LINE
  5
4B1EAC
330
4B1AC8
100
AcDbEntity
  8
CYAN
100
AcDbLine
 10
3.758246050932623
 20
14.48688557317652
 30
0.0
 11
3.758246050932651
 21
18.40448531292292
 31
0.0
  0
LINE
  5
4B1EAD
330
4B1AC8
100
AcDbEntity
  8
CYAN
100
AcDbLine
 10
3.633246050932638
 20
14.50138690451437
 30
0.0
 11
3.633246050932652
 21
18.40448531292292
 31
0.0
  0
LINE
  5
4B1EAE
330
4B1AC8
100
AcDbEntity
  8
CYAN
100
AcDbLine
 10
3.008246050932638
 20
14.49528824718734
 30
0.0
 11
3.008246050932637
 21
18.40448531292291
 31
0.0
  0
LINE
  5
4B1EAF
330
4B1AC8
100
AcDbEntity
  8
CYAN
100
AcDbLine
 10
2.883246050932638
 20
14.5106376095976
 30
0.0
 11
2.883246050932637
 21
18.40448531292291
 31
0.0
  0
LINE
  5
4B1EB4
330
4B1AC8
100
AcDbEntity
  8
10
100
AcDbLine
 10
2.884318653733858
 20
10.92000479671731
 30
0.0
 11
2.883335150157146
 21
10.91935085799629
 31
0.0
  0
LINE
  5
4B1ECC
330
4B1AC8
100
AcDbEntity
  8
10
100
AcDbLine
 10
2.884318653733857
 20
18.10146582912847
 30
0.0
 11
2.883335150157146
 21
18.10211976784948
 31
0.0
  0
DIMENSION
  5
4B1EEA
330
4B1AC8
100
AcDbEntity
  8
DIM
100
AcDbDimension
280
     0
  2
*D4
 10
13.58513156523631
 20
6.158709354199108
 30
0.0
 11
13.58513156523631
 21
4.533709354199097
 31
0.0
 70
    32
 71
     5
 42
3.250000000000025
 73
     0
 74
     0
 75
     0
  3
STANDARD
100
AcDbAlignedDimension
 13
12.4964278707095
 23
2.908709354199082
 33
0.0
 14
12.49542787070945
 24
6.158709354199108
 34
0.0
 50
90.0
100
AcDbRotatedDimension
1001
ACAD
1000
DSTYLE
1002
{
1070
    40
1040
4.0
1070
    41
1040
0.045
1070
    42
1040
0.05
1070
    43
1040
0.3799999999999999
1070
    44
1040
0.05
1070
    45
1040
0.001
1070
   140
1040
0.045
1070
   147
1040
0.045
1070
   174
1070
     1
1070
   179
1070
     2
1070
   272
1070
     3
1070
   276
1070
     2
1070
   277
1070
     4
1070
   279
1070
     2
1002
}
  0
LINE
  5
4B1EF1
330
4B1AC8
100
AcDbEntity
  8
CYAN
100
AcDbLine
 10
8.552819191467534
 20
3.860709354199127
 30
0.0
 11
11.29167787070945
 21
3.860709354199072
 31
0.0
  0
LINE
  5
4B1EFC
330
4B1AC8
100
AcDbEntity
  8
CYAN
100
AcDbLine
 10
8.538317860129637
 20
3.985709354199127
 30
0.0
 11
11.29167787070945
 21
3.985709354199072
 31
0.0
  0
LINE
  5
4B1F0B
330
4B1AC8
100
AcDbEntity
  8
DEFPOINTS
100
AcDbLine
 10
10.88842787070944
 20
4.837666510242812
 30
0.0
 11
10.88842787070944
 21
4.837687932220958
 31
0.0
  0
CIRCLE
  5
4B2558
330
4B1AC8
100
AcDbEntity
  8
DIM
100
AcDbCircle
 10
4.550800095118638
 20
17.47950294437554
 30
0.0
 40
0.27
  0
TEXT
  5
4B2559
330
4B1AC8
100
AcDbEntity
  8
DIM
100
AcDbText
 10
4.524014380832924
 20
17.36700294437554
 30
0.0
 40
0.225
  1
1
 51
10.0
  7
SIMPLEX
 72
     1
 11
4.550800095118638
 21
17.47950294437554
 31
0.0
100
AcDbText
 73
     2
  0
CIRCLE
  5
4B258F
330
4B1AC8
100
AcDbEntity
  8
DIM
100
AcDbCircle
 10
4.382869224838742
 20
11.50025694384235
 30
0.0
 40
0.27
  0
TEXT
  5
4B2590
330
4B1AC8
100
AcDbEntity
  8
DIM
100
AcDbText
 10
4.307869224838742
 20
11.38775694384235
 30
0.0
 40
0.225
  1
2
 51
10.0
  7
SIMPLEX
 72
     1
 11
4.382869224838742
 21
11.50025694384235
 31
0.0
100
AcDbText
 73
     2
  0
CIRCLE
  5
4B2591
330
4B1AC8
100
AcDbEntity
  8
DIM
100
AcDbCircle
 10
5.986240799427408
 20
5.668975663658841
 30
0.0
 40
0.27
  0
TEXT
  5
4B2592
330
4B1AC8
100
AcDbEntity
  8
DIM
100
AcDbText
 10
5.901626810990116
 20
5.548975663658841
 30
0.0
 40
0.24
  1
3
 51
10.0
  7
SIMPLEX
 72
     1
 11
5.981626810990116
 21
5.668975663658841
 31
0.0
100
AcDbText
 73
     2
  0
DIMENSION
  5
4B28EA
330
4B1AC8
100
AcDbEntity
  8
DIM
100
AcDbDimension
280
     0
  2
*D5
 10
0.2298758705697423
 20
9.229485312922914
 30
0.0
 11
0.2298758705697408
 21
10.11419812002958
 31
0.0
 70
    32
 71
     5
 42
1.769425614213337
 73
     0
 74
     0
 75
     0
  3
STANDARD
100
AcDbAlignedDimension
 13
2.86708778831831
 23
10.99891092713625
 33
0.0
 14
1.475246050932629
 24
9.229485312922914
 34
0.0
 50
90.0
100
AcDbRotatedDimension
1001
ACAD
1000
DSTYLE
1002
{
1070
    40
1040
4.0
1070
    41
1040
0.045
1070
    42
1040
0.05
1070
    43
1040
0.3799999999999999
1070
    44
1040
0.05
1070
    45
1040
0.001
1070
   140
1040
0.045
1070
   147
1040
0.045
1070
   174
1070
     1
1070
   179
1070
     2
1070
   276
1070
     2
1070
   277
1070
     4
1070
   279
1070
     2
1002
}
  0
CIRCLE
  5
4B296E
330
4B1AC8
100
AcDbEntity
  8
DIM
100
AcDbCircle
 10
2.482246050932608
 20
10.24029713054045
 30
0.0
 40
0.025
  0
LINE
  5
4B2971
330
4B1AC8
100
AcDbEntity
  8
THIN
100
AcDbLine
 10
2.387246050932611
 20
10.34048531292294
 30
0.0
 11
2.554246050932618
 21
10.34048531292294
 31
0.0
  0
LINE
  5
4B2973
330
4B1AC8
100
AcDbEntity
  8
vent
100
AcDbLine
 10
2.488246050932612
 20
10.36348531292294
 30
0.0
 11
2.511246050932611
 21
10.34348531292294
 31
0.0
  0
LINE
  5
4B2974
330
4B1AC8
100
AcDbEntity
  8
vent
100
AcDbLine
 10
2.534246050932611
 20
10.34048531292294
 30
0.0
 11
2.534246050932611
 21
10.34348531292294
 31
0.0
  0
LINE
  5
4B2975
330
4B1AC8
100
AcDbEntity
  8
vent
100
AcDbLine
 10
2.511246050932611
 20
10.34348531292294
 30
0.0
 11
2.511246050932611
 21
10.36348531292294
 31
0.0
  0
LINE
  5
4B2976
330
4B1AC8
100
AcDbEntity
  8
vent
100
AcDbLine
 10
2.511246050932611
 20
10.36348531292294
 30
0.0
 11
2.534246050932611
 21
10.34348531292294
 31
0.0
  0
LINE
  5
4B2977
330
4B1AC8
100
AcDbEntity
  8
vent
100
AcDbLine
 10
2.488246050932612
 20
10.34348531292294
 30
0.0
 11
2.488246050932612
 21
10.36348531292294
 31
0.0
  0
LINE
  5
4B2978
330
4B1AC8
100
AcDbEntity
  8
vent
100
AcDbLine
 10
2.465246050932612
 20
10.36348531292294
 30
0.0
 11
2.488246050932612
 21
10.34348531292294
 31
0.0
  0
LINE
  5
4B2979
330
4B1AC8
100
AcDbEntity
  8
vent
100
AcDbLine
 10
2.465246050932612
 20
10.34048531292294
 30
0.0
 11
2.465246050932612
 21
10.36348531292294
 31
0.0
  0
LINE
  5
4B297A
330
4B1AC8
100
AcDbEntity
  8
vent
100
AcDbLine
 10
2.482246050932611
 20
10.19548531292294
 30
0.0
 11
2.521103193789758
 21
10.19548531292294
 31
0.0
  0
LINE
  5
4B297B
330
4B1AC8
100
AcDbEntity
  8
vent
100
AcDbLine
 10
2.482246050932618
 20
10.11162455342927
 30
0.0
 11
2.482246050932608
 21
10.19548531292294
 31
0.0
  0
ARC
  5
4B2994
330
4B1AC8
100
AcDbEntity
  8
XTHIN
100
AcDbCircle
 10
10.38187470709366
 20
10.82344225520556
 30
0.0
 40
3.889502785999999
100
AcDbArc
 50
1.627939680465616
 51
178.3720603195343
  0
ARC
  5
4B2995
330
4B1AC8
100
AcDbEntity
  8
XTHIN
100
AcDbCircle
 10
10.38187470709366
 20
10.82344225520556
 30
0.0
 40
3.837446522
100
AcDbArc
 50
2.427764336318676
 51
177.5903609979064
  0
ARC
  5
4B2996
330
4B1AC8
100
AcDbEntity
  8
XTHIN
100
AcDbCircle
 10
10.38187470709366
 20
10.82344225520556
 30
0.0
 40
3.698617181999999
100
AcDbArc
 50
4.673944181939904
 51
175.3260558180601
  0
ARC
  5
4B2997
330
4B1AC8
100
AcDbEntity
  8
XTHIN
100
AcDbCircle
 10
10.38187470709366
 20
10.82344225520556
 30
0.0
 40
3.675599998
100
AcDbArc
 50
5.063381755664202
 51
174.9366182443358
  0
ARC
  5
4B2998
330
4B1AC8
100
AcDbEntity
  8
XTHIN
100
AcDbCircle
 10
10.38187470709366
 20
10.82344225520556
 30
0.0
 40
3.646116982000001
100
AcDbArc
 50
5.569753533494465
 51
174.4302464665055
  0
LINE
  5
4B2999
330
4B1AC8
100
AcDbEntity
  8
XTHIN
100
AcDbLine
 10
6.695557106018029
 20
11.12482507320556
 30
0.0
 11
14.06819230816927
 21
11.12482507320556
 31
0.0
  0
LINE
  5
4B299A
330
4B1AC8
100
AcDbEntity
  8
XTHIN
100
AcDbLine
 10
6.72061809439905
 20
11.14784225720556
 30
0.0
 11
14.04313131978827
 21
11.14784225720556
 31
0.0
  0
LINE
  5
4B299B
330
4B1AC8
100
AcDbEntity
  8
XTHIN
100
AcDbLine
 10
6.752971862431103
 20
11.17732527320556
 30
0.0
 11
14.0107775517562
 21
11.17732527320556
 31
0.0
  0
LINE
  5
4B299C
330
4B1AC8
100
AcDbEntity
  8
XTHIN
100
AcDbLine
 10
6.547872597548071
 20
10.98599573320556
 30
0.0
 11
14.21587681663925
 21
10.98599573320556
 31
0.0
  0
LINE
  5
4B299D
330
4B1AC8
100
AcDbEntity
  8
XTHIN
100
AcDbLine
 10
6.493941800265147
 20
10.93393946920556
 30
0.0
 11
14.26980761392215
 21
10.93393946920556
 31
0.0
  0
ARC
  5
4B299F
330
4B1AC8
100
AcDbEntity
  8
XTHIN
100
AcDbCircle
 10
7.032274707093648
 20
11.01524225520556
 30
0.0
 40
0.0310000000000002
100
AcDbArc
 50
90.0
 51
270.0
  0
LINE
  5
4B29A0
330
4B1AC8
100
AcDbEntity
  8
DIM
100
AcDbLine
 10
6.340048450536741
 20
12.10391794525787
 30
0.0
 11
7.791249055379154
 21
12.10391794525786
 31
0.0
  0
TEXT
  5
4B29A1
330
4B1AC8
100
AcDbEntity
  8
DIM
100
AcDbText
 10
5.995048450536738
 20
11.99141794525786
 30
0.0
 40
0.225
  1
3
 51
10.0
  7
SIMPLEX
 72
     1
 11
6.070048450536738
 21
12.10391794525787
 31
0.0
100
AcDbText
 73
     2
  0
LINE
  5
4B29A2
330
4B1AC8
100
AcDbEntity
  8
XTHIN
100
AcDbLine
 10
6.381877524922714
 20
10.82819016258956
 30
0.0
 11
6.753084577273419
 21
11.17847921123694
 31
0.0
  0
LINE
  5
4B29A3
330
4B1AC8
100
AcDbEntity
  8
XTHIN
100
AcDbLine
 10
7.032274707093648
 20
11.04624225520555
 30
0.0
 11
7.231474707093653
 21
11.04624225520555
 31
0.0
  0
LINE
  5
4B29A4
330
4B1AC8
100
AcDbEntity
  8
XTHIN
100
AcDbLine
 10
7.041874707093654
 20
11.01424225520558
 30
0.0
 11
7.221874707093675
 21
11.01424225520558
 31
0.0
  0
LINE
  5
4B29A5
330
4B1AC8
100
AcDbEntity
  8
XTHIN
100
AcDbLine
 10
7.041874707093654
 20
11.01824225520558
 30
0.0
 11
7.221874707093675
 21
11.01824225520558
 31
0.0
  0
LINE
  5
4B29A6
330
4B1AC8
100
AcDbEntity
  8
XTHIN
100
AcDbLine
 10
7.041874707093654
 20
11.02584225520558
 30
0.0
 11
7.221874707093675
 21
11.02584225520558
 31
0.0
  0
LINE
  5
4B29A7
330
4B1AC8
100
AcDbEntity
  8
XTHIN
100
AcDbLine
 10
7.041874707093654
 20
11.03224225520556
 30
0.0
 11
7.221874707093675
 21
11.03224225520556
 31
0.0
  0
LINE
  5
4B29A8
330
4B1AC8
100
AcDbEntity
  8
XTHIN
100
AcDbLine
 10
7.041874707093654
 20
10.99184225520556
 30
0.0
 11
7.221874707093675
 21
10.99184225520556
 31
0.0
  0
LINE
  5
4B29A9
330
4B1AC8
100
AcDbEntity
  8
XTHIN
100
AcDbLine
 10
7.032274707093648
 20
10.98424225520556
 30
0.0
 11
7.231474707093653
 21
10.98424225520556
 31
0.0
  0
ARC
  5
4B29AA
330
4B1AC8
100
AcDbEntity
  8
XTHIN
100
AcDbCircle
 10
7.131874707093643
 20
10.99184225520556
 30
0.0
 40
0.01
100
AcDbArc
 50
0.000000000000007
 51
180.0
  0
LINE
  5
4B29AB
330
4B1AC8
100
AcDbEntity
  8
XTHIN
100
AcDbLine
 10
7.041874707093654
 20
11.03224225520556
 30
0.0
 11
7.041874707093654
 21
10.99184225520556
 31
0.0
  0
LINE
  5
4B29AC
330
4B1AC8
100
AcDbEntity
  8
XTHIN
100
AcDbLine
 10
7.221874707093675
 20
11.03224225520556
 30
0.0
 11
7.221874707093675
 21
10.99184225520556
 31
0.0
  0
ARC
  5
4B29AD
330
4B1AC8
100
AcDbEntity
  8
XTHIN
100
AcDbCircle
 10
7.231474707093653
 20
11.01524225520556
 30
0.0
 40
0.0310000000000002
100
AcDbArc
 50
270.0
 51
89.99999999999351
  0
LINE
  5
4B29AE
330
4B1AC8
100
AcDbEntity
  8
DIM
100
AcDbLine
 10
9.098533840001266
 20
11.38988706751456
 30
0.0
 11
9.098533840001266
 21
9.938686462672139
 31
0.0
  0
LINE
  5
4B29AF
330
4B1AC8
100
AcDbEntity
  8
XTHIN
100
AcDbLine
 10
13.73147470709367
 20
10.98424225520556
 30
0.0
 11
13.53227470709365
 21
10.98424225520556
 31
0.0
  0
LINE
  5
4B29B0
330
4B1AC8
100
AcDbEntity
  8
XTHIN
100
AcDbLine
 10
13.73147470709367
 20
11.04624225520555
 30
0.0
 11
13.53227470709365
 21
11.04624225520555
 31
0.0
  0
LINE
  5
4B29B1
330
4B1AC8
100
AcDbEntity
  8
XTHIN
100
AcDbLine
 10
13.72187470709363
 20
10.99184225520556
 30
0.0
 11
13.54187470709362
 21
10.99184225520556
 31
0.0
  0
LINE
  5
4B29B2
330
4B1AC8
100
AcDbEntity
  8
XTHIN
100
AcDbLine
 10
13.72187470709363
 20
11.03224225520556
 30
0.0
 11
13.54187470709362
 21
11.03224225520556
 31
0.0
  0
LINE
  5
4B29B3
330
4B1AC8
100
AcDbEntity
  8
XTHIN
100
AcDbLine
 10
13.72187470709363
 20
11.02584225520558
 30
0.0
 11
13.54187470709362
 21
11.02584225520558
 31
0.0
  0
LINE
  5
4B29B4
330
4B1AC8
100
AcDbEntity
  8
XTHIN
100
AcDbLine
 10
13.72187470709363
 20
11.01824225520558
 30
0.0
 11
13.54187470709362
 21
11.01824225520558
 31
0.0
  0
LINE
  5
4B29B5
330
4B1AC8
100
AcDbEntity
  8
XTHIN
100
AcDbLine
 10
13.72187470709363
 20
11.01424225520558
 30
0.0
 11
13.54187470709362
 21
11.01424225520558
 31
0.0
  0
CIRCLE
  5
4B29B6
330
4B1AC8
100
AcDbEntity
  8
DIM
100
AcDbCircle
 10
9.098533840001266
 20
11.65988706751456
 30
0.0
 40
0.27
  0
TEXT
  5
4B29B7
330
4B1AC8
100
AcDbEntity
  8
DIM
100
AcDbText
 10
9.023533840001267
 20
11.54738706751456
 30
0.0
 40
0.225
  1
2
 51
10.0
  7
SIMPLEX
 72
     1
 11
9.098533840001266
 21
11.65988706751456
 31
0.0
100
AcDbText
 73
     2
  0
CIRCLE
  5
4B29B8
330
4B1AC8
100
AcDbEntity
  8
DIM
100
AcDbCircle
 10
9.098533840001266
 20
15.36164843589893
 30
0.0
 40
0.27
  0
LINE
  5
4B29B9
330
4B1AC8
100
AcDbEntity
  8
DIM
100
AcDbLine
 10
9.098533840001266
 20
15.09164843589893
 30
0.0
 11
9.098533840001266
 21
13.64044783105651
 31
0.0
  0
TEXT
  5
4B29BA
330
4B1AC8
100
AcDbEntity
  8
DIM
100
AcDbText
 10
9.071748125715553
 20
15.24914843589893
 30
0.0
 40
0.225
  1
1
 51
10.0
  7
SIMPLEX
 72
     1
 11
9.098533840001266
 21
15.36164843589893
 31
0.0
100
AcDbText
 73
     2
  0
ARC
  5
4B29BB
330
4B1AC8
100
AcDbEntity
  8
XTHIN
100
AcDbCircle
 10
13.53227470709365
 20
11.01524225520556
 30
0.0
 40
0.0310000000000002
100
AcDbArc
 50
90.00000000000651
 51
270.0
  0
LINE
  5
4B29BC
330
4B1AC8
100
AcDbEntity
  8
XTHIN
100
AcDbLine
 10
13.54187470709362
 20
11.03224225520556
 30
0.0
 11
13.54187470709362
 21
10.99184225520556
 31
0.0
  0
ARC
  5
4B29BD
330
4B1AC8
100
AcDbEntity
  8
XTHIN
100
AcDbCircle
 10
13.63187470709366
 20
10.99184225520556
 30
0.0
 40
0.01
100
AcDbArc
 50
0.0
 51
180.0
  0
LINE
  5
4B29BE
330
4B1AC8
100
AcDbEntity
  8
XTHIN
100
AcDbLine
 10
14.3818718892646
 20
10.82819016258956
 30
0.0
 11
14.01066483691389
 21
11.17847921123694
 31
0.0
  0
ARC
  5
4B29BF
330
4B1AC8
100
AcDbEntity
  8
XTHIN
100
AcDbCircle
 10
13.73147470709367
 20
11.01524225520556
 30
0.0
 40
0.0310000000000002
100
AcDbArc
 50
270.0
 51
90.0
  0
LINE
  5
4B29C0
330
4B1AC8
100
AcDbEntity
  8
XTHIN
100
AcDbLine
 10
13.72187470709363
 20
11.03224225520556
 30
0.0
 11
13.72187470709363
 21
10.99184225520556
 31
0.0
  0
CIRCLE
  5
4B29C1
330
4B1AC8
100
AcDbEntity
  8
DIM
100
AcDbCircle
 10
6.070048450536738
 20
12.10391794525787
 30
0.0
 40
0.27
  0
LINE
  5
4B29C2
330
4B1AC8
100
AcDbEntity
  8
XTHIN
100
AcDbLine
 10
6.381874707093658
 20
10.82344225520556
 30
0.0
 11
14.38187470709365
 21
10.82344225520556
 31
0.0
  0
ARC
  5
4B29C3
330
4B1AC8
100
AcDbEntity
  8
XTHIN
100
AcDbCircle
 10
10.38187470709366
 20
10.82344225520556
 30
0.0
 40
4.0
100
AcDbArc
 50
0.0000000000000102
 51
180.0
  0
LINE
  5
4B29C4
330
4B1AC8
100
AcDbEntity
  8
XTHIN
100
AcDbLine
 10
6.381874707093658
 20
10.86284225520556
 30
0.0
 11
6.38206875680057
 21
10.86284225520556
 31
0.0
  0
LINE
  5
4B29C5
330
4B1AC8
100
AcDbEntity
  8
XTHIN
100
AcDbLine
 10
6.381874707093658
 20
10.88644225520556
 30
0.0
 11
6.382370862864974
 21
10.88644225520556
 31
0.0
  0
LINE
  5
4B29C6
330
4B1AC8
100
AcDbEntity
  8
XTHIN
100
AcDbLine
 10
6.421470687299716
 20
10.86284225520556
 30
0.0
 11
14.3422787268876
 21
10.86284225520556
 31
0.0
  0
LINE
  5
4B29C7
330
4B1AC8
100
AcDbEntity
  8
XTHIN
100
AcDbLine
 10
6.445378803374211
 20
10.88644225520556
 30
0.0
 11
14.3183706108131
 21
10.88644225520556
 31
0.0
  0
LINE
  5
4B29C8
330
4B1AC8
100
AcDbEntity
  8
XTHIN
100
AcDbLine
 10
14.38137855132234
 20
10.88644225520556
 30
0.0
 11
14.38187470709365
 21
10.88644225520556
 31
0.0
  0
LINE
  5
4B29C9
330
4B1AC8
100
AcDbEntity
  8
XTHIN
100
AcDbLine
 10
14.38168065738675
 20
10.86284225520556
 30
0.0
 11
14.38187470709365
 21
10.86284225520556
 31
0.0
  0
ARC
  5
4B29CA
330
4B1AC8
100
AcDbEntity
  8
XTHIN
100
AcDbCircle
 10
10.38187470709366
 20
10.82344225520556
 30
0.0
 40
3.936999999999999
100
AcDbArc
 50
0.9168880307987645
 51
179.0831119692012
  0
ARC
  5
4B29CB
330
4B1AC8
100
AcDbEntity
  8
XTHIN
100
AcDbCircle
 10
10.38187470709366
 20
10.82344225520556
 30
0.0
 40
3.9606
100
AcDbArc
 50
0.5699871101185141
 51
179.4300128898815
  0
LWPOLYLINE
  5
4B2CAA
330
4B1AC8
100
AcDbEntity
  8
10
100
AcDbPolyline
 90
       12
 70
     1
 43
0.0
 10
4.466676259798051
 20
18.98148531292287
 10
4.597246050932596
 20
18.98148531292287
 42
0.4142135623730951
 10
4.612246050932596
 20
18.99648531292287
 10
4.612246050932596
 20
19.20248531292288
 42
0.4142135623730429
 10
4.597246050932596
 20
19.21748531292287
 10
4.412246050932606
 20
19.21748531292287
 42
0.4142135623730951
 10
4.397246050932605
 20
19.20248531292287
 10
4.397246050932606
 20
19.09448531292287
 42
0.4142135623731211
 10
4.412246050932608
 20
19.07948531292287
 10
4.43667625979805
 20
19.07948531292287
 42
-0.4142135623731123
 10
4.451676259798051
 20
19.06448531292287
 10
4.45167625979805
 20
18.99648531292287
 42
0.4142135623730951
  0
LWPOLYLINE
  5
4B2CAC
330
4B1AC8
100
AcDbEntity
  8
10
100
AcDbPolyline
 90
       12
 70
     1
 43
0.0
 10
3.030677299375828
 20
18.9136387924375
 42
0.3401424000459106
 10
3.045175722743755
 20
18.90248531292287
 10
3.672246050932598
 20
18.90248531292288
 42
0.4142135623730602
 10
3.687246050932601
 20
18.91748531292287
 10
3.687246050932603
 20
19.61648531292287
 42
0.4142135623730951
 10
3.672246050932602
 20
19.63148531292288
 10
2.796246050932587
 20
19.63148531292288
 42
0.4142135623730951
 10
2.781246050932586
 20
19.61648531292287
 10
2.781246050932586
 20
19.01548531292288
 42
0.4142135623730951
 10
2.796246050932587
 20
19.00048531292287
 10
2.996097048811578
 20
19.00048531292287
 42
-0.3401424000458801
 10
3.010595472179504
 20
18.98933183340824
  0
LWPOLYLINE
  5
4B2CAD
330
4B1AC8
100
AcDbEntity
  8
10
100
AcDbPolyline
 90
        8
 70
     1
 43
0.0
 10
4.302246050932605
 20
19.07948531292287
 42
0.4142135623730864
 10
4.317246050932606
 20
19.09448531292287
 10
4.317246050932605
 20
19.61648531292287
 42
0.4142135623730951
 10
4.302246050932605
 20
19.63148531292288
 10
3.782246050932601
 20
19.63148531292287
 42
0.4142135623731297
 10
3.767246050932602
 20
19.61648531292287
 10
3.767246050932607
 20
19.09448531292287
 42
0.4142135623730863
 10
3.782246050932607
 20
19.07948531292287
  0
LWPOLYLINE
  5
4B2CAE
330
4B1AC8
100
AcDbEntity
  8
10
100
AcDbPolyline
 90
       11
 70
     1
 43
0.0
 10
2.496397295927981
 20
18.98248531292287
 10
2.686246050932585
 20
18.98248531292287
 42
0.4142135623730779
 10
2.701246050932585
 20
18.99748531292287
 10
2.701246050932585
 20
19.61648531292287
 42
0.4142135623731123
 10
2.686246050932584
 20
19.63148531292288
 10
1.86824605093261
 20
19.63148531292288
 42
0.4142135623730951
 10
1.853246050932609
 20
19.61648531292287
 10
1.853246050932598
 20
19.17514825079732
 42
0.339454258863389
 10
1.864363765256061
 20
19.16065936340298
 10
2.474128336609132
 20
18.99727343893582
 42
-0.2018976107513635
 10
2.483321673430278
 20
18.99013493223217
 42
0.2710276003794345
  0
LWPOLYLINE
  5
4B2CB1
330
4B1AC8
100
AcDbEntity
  8
DIM
100
AcDbPolyline
 90
        4
 70
     0
 43
0.0
 10
3.939167899799227
 20
14.46589671176315
 10
3.218419863652966
 20
14.54951116042924
 10
3.335205477645471
 20
14.45513929731482
 10
2.786085094108881
 20
14.52256847950492
  0
LWPOLYLINE
  5
4B2CB2
330
4B1AC8
100
AcDbEntity
  8
DIM
100
AcDbPolyline
 90
        4
 70
     0
 43
0.0
 10
3.941908071758658
 20
14.39149612709855
 10
3.392837181133214
 20
14.45519419840201
 10
3.509622795125748
 20
14.3608223352876
 10
2.788874758979486
 20
14.44932651779385
  0
LWPOLYLINE
  5
4B2CB7
330
4B1AC8
100
AcDbEntity
  8
10
100
AcDbPolyline
 90
        8
 70
     1
 43
0.0
 10
3.782246050932619
 20
9.879485312922913
 42
0.4142135623730863
 10
3.767246050932619
 20
9.864485312922912
 10
3.767246050932612
 20
9.342485312922914
 42
0.414213562373095
 10
3.782246050932613
 20
9.327485312922917
 10
4.302246050932617
 20
9.327485312922913
 42
0.4142135623730951
 10
4.317246050932618
 20
9.342485312922914
 10
4.317246050932618
 20
9.864485312922912
 42
0.4142135623730864
 10
4.302246050932618
 20
9.879485312922913
  0
LWPOLYLINE
  5
4B2CB8
330
4B1AC8
100
AcDbEntity
  8
10
100
AcDbPolyline
 90
       12
 70
     1
 43
0.0
 10
3.010595472179517
 20
9.969638792437546
 42
-0.34014240004588
 10
2.996097048811591
 20
9.958485312922913
 10
2.796246050932599
 20
9.958485312922913
 42
0.4142135623730951
 10
2.781246050932598
 20
9.943485312922913
 10
2.781246050932598
 20
9.342485312922914
 42
0.4142135623730951
 10
2.796246050932599
 20
9.327485312922913
 10
3.672246050932614
 20
9.327485312922913
 42
0.4142135623730951
 10
3.687246050932615
 20
9.342485312922914
 10
3.687246050932611
 20
10.04148531292291
 42
0.4142135623730951
 10
3.672246050932611
 20
10.05648531292291
 10
3.045175722743767
 20
10.05648531292291
 42
0.3401424000458789
 10
3.030677299375841
 20
10.04533183340829
  0
LWPOLYLINE
  5
4B2CB9
330
4B1AC8
100
AcDbEntity
  8
10
100
AcDbPolyline
 90
       12
 70
     1
 43
0.0
 10
4.466676259798063
 20
9.977485312922915
 10
4.597246050932608
 20
9.977485312922915
 42
-0.4142135623730951
 10
4.612246050932609
 20
9.962485312922915
 10
4.612246050932609
 20
9.756485312922912
 42
-0.4142135623730427
 10
4.597246050932608
 20
9.741485312922915
 10
4.412246050932618
 20
9.741485312922915
 42
-0.4142135623730951
 10
4.397246050932618
 20
9.756485312922915
 10
4.397246050932618
 20
9.864485312922916
 42
-0.4142135623731211
 10
4.41224605093262
 20
9.879485312922916
 10
4.436676259798062
 20
9.879485312922913
 42
0.4142135623731122
 10
4.451676259798063
 20
9.894485312922913
 10
4.451676259798063
 20
9.962485312922915
 42
-0.4142135623730951
  0
LWPOLYLINE
  5
4B2CBB
330
4B1AC8
100
AcDbEntity
  8
CYAN
100
AcDbPolyline
 90
        2
 70
     0
 43
0.0
 10
2.883246050932638
 20
14.43773820450338
 10
2.883246050932638
 20
10.27948531292291
  0
LWPOLYLINE
  5
4B2CBD
330
4B1AC8
100
AcDbEntity
  8
CYAN
100
AcDbPolyline
 90
        2
 70
     0
 43
0.0
 10
3.008246050932638
 20
14.42238884209309
 10
3.008246050932638
 20
10.27948531292291
  0
LWPOLYLINE
  5
4B2CBE
330
4B1AC8
100
AcDbEntity
  8
DIM
100
AcDbPolyline
 90
        4
 70
     1
 43
0.0
 10
2.4522460509326
 20
10.27548531292294
 10
2.452246050932603
 20
10.24048531292293
 42
0.9999999999999701
 10
2.512246050932605
 20
10.24048531292294
 10
2.512246050932602
 20
10.27548531292294
  0
LWPOLYLINE
  5
4B2CBF
330
4B1AC8
100
AcDbEntity
  8
vent
100
AcDbPolyline
 90
        4
 70
     0
 43
0.0
 10
2.387246050932616
 20
10.35948531292294
 10
2.349246050932616
 20
10.35948531292294
 10
2.349246050932616
 20
10.05148531292294
 10
2.387246050932616
 20
10.05148531292294
  0
LWPOLYLINE
  5
4B2CC0
330
4B1AC8
100
AcDbEntity
  8
10
100
AcDbPolyline
 90
       63
 70
     0
 43
0.0
 10
3.942746050932613
 20
10.15448531292291
 42
-0.9999999999999998
 10
3.942746050932613
 20
10.07548531292291
 10
3.800246050932618
 20
10.07548531292291
 42
0.4142135623730778
 10
3.785246050932618
 20
10.06048531292291
 10
3.785246050932614
 20
9.992485312922916
 42
0.4142135623730951
 10
3.800246050932614
 20
9.977485312922915
 10
4.33840831060563
 20
9.977485312922915
 42
0.4931454260313214
 10
4.352897197999966
 20
9.996367598599452
 10
4.336757163538277
 20
10.05660302724638
 42
-0.4931454260313216
 10
4.351246050932613
 20
10.07548531292291
 10
4.650246050932611
 20
10.07548531292291
 42
-0.4142135623731125
 10
4.71024605093261
 20
10.01548531292291
 10
4.710246050932608
 20
9.559485312922916
 42
-0.4142135623730951
 10
4.695246050932607
 20
9.544485312922915
 10
4.627246050932613
 20
9.544485312922915
 42
-0.4142135623730951
 10
4.612246050932612
 20
9.559485312922916
 10
4.612246050932612
 20
9.628485312922915
 42
0.4142135623730777
 10
4.597246050932612
 20
9.643485312922916
 10
4.430246050932628
 20
9.643485312922916
 42
0.4142135623730951
 10
4.415246050932627
 20
9.628485312922915
 10
4.415246050932613
 20
9.342485312922914
 42
0.4142135623730431
 10
4.430246050932614
 20
9.327485312922917
 10
4.597246050932615
 20
9.327485312922913
 42
0.4142135623730951
 10
4.612246050932616
 20
9.342485312922914
 10
4.612246050932612
 20
9.411485312922916
 42
-0.4142135623730951
 10
4.627246050932613
 20
9.426485312922913
 10
4.695246050932611
 20
9.426485312922913
 42
-0.4142135623730951
 10
4.710246050932611
 20
9.411485312922916
 10
4.710246050932615
 20
9.244485312922915
 42
-0.4142135623730779
 10
4.695246050932614
 20
9.229485312922914
 10
1.475246050932629
 20
9.229485312922914
 42
-0.4142135623730951
 10
1.460246050932628
 20
9.244485312922915
 10
1.460246050932624
 20
9.411485312922916
 42
-0.4142135623730951
 10
1.475246050932625
 20
9.426485312922917
 10
1.543246050932619
 20
9.426485312922913
 42
-0.4142135623730776
 10
1.558246050932619
 20
9.411485312922916
 10
1.558246050932627
 20
9.342485312922914
 42
0.4142135623730389
 10
1.573246050932628
 20
9.327485312922917
 10
1.740246050932622
 20
9.327485312922913
 42
0.4142135623730951
 10
1.755246050932623
 20
9.342485312922914
 10
1.755246050932617
 20
9.74952487841729
 42
0.4931454260313072
 10
1.736363765256079
 20
9.764013765811625
 10
1.569363765256083
 20
9.71926625067563
 42
0.3394542588633609
 10
1.558246050932622
 20
9.704777363281294
 10
1.55824605093262
 20
9.559485312922916
 42
-0.4142135623730951
 10
1.543246050932619
 20
9.544485312922915
 10
1.475246050932618
 20
9.544485312922915
 42
-0.4142135623730561
 10
1.460246050932616
 20
9.559485312922916
 10
1.460246050932613
 20
9.745445693644175
 42
-0.3394542588633795
 10
1.504716908226462
 20
9.803401243221522
 10
2.376128336609138
 20
10.03689523173191
 42
0.3394542588633531
 10
2.387246050932599
 20
10.05138411912624
 10
2.387246050932647
 20
10.69987371182633
 42
-0.339454258863352
 10
2.431716908226494
 20
10.75782926140366
 10
2.781246050932623
 20
10.85148531292292
 10
2.781246050932623
 20
10.75002824724274
 10
2.751246050932629
 20
10.7419897714698
 10
2.75124605093259
 20
10.07148531292291
 42
0.4142135623730951
 10
2.76624605093259
 20
10.05648531292291
 10
2.920706713966505
 20
10.05648531292291
 42
0.340142400045885
 10
2.935205137334431
 20
10.06763879243754
 10
2.955286964530754
 20
10.14333183340828
 42
-0.3401424000458789
 10
2.969785387898681
 20
10.15448531292291
  0
LWPOLYLINE
  5
4B2CC1
330
4B1AC8
100
AcDbEntity
  8
10
100
AcDbPolyline
 90
       11
 70
     1
 43
0.0
 10
2.496397295927994
 20
9.976485312922918
 10
2.686246050932598
 20
9.976485312922918
 42
-0.4142135623730777
 10
2.701246050932597
 20
9.961485312922917
 10
2.701246050932597
 20
9.342485312922914
 42
-0.4142135623730427
 10
2.686246050932597
 20
9.327485312922917
 10
1.868246050932622
 20
9.327485312922913
 42
-0.4142135623730951
 10
1.853246050932622
 20
9.342485312922914
 10
1.853246050932611
 20
9.783822375048472
 42
-0.339454258863389
 10
1.864363765256074
 20
9.798311262442808
 10
2.474128336609144
 20
9.961697186909972
 42
0.2018976107513824
 10
2.48332167343029
 20
9.96883569361362
 42
-0.2710276003794345
  0
LWPOLYLINE
  5
4B2CC2
330
4B1AC8
100
AcDbEntity
  8
10
100
AcDbPolyline
 90
       10
 70
     0
 43
0.0
 10
2.485246050932621
 20
10.34048531292294
 10
2.485246050932638
 20
10.65920538146343
 42
-0.339454258863365
 10
2.496363765256099
 20
10.67369426885777
 10
2.634363765256098
 20
10.71067125741327
 42
-0.493145426031325
 10
2.653246050932636
 20
10.69618237001894
 10
2.653246050932598
 20
10.07148531292293
 42
-0.4142135623730951
 10
2.638246050932598
 20
10.05648531292293
 10
2.500246050932607
 20
10.05648531292293
 42
-0.4142135623730951
 10
2.485246050932606
 20
10.07148531292293
 10
2.485246050932608
 20
10.11352328760648
  0
LWPOLYLINE
  5
4B2CC3
330
4B1AC8
100
AcDbEntity
  8
vent
100
AcDbPolyline
 90
        5
 70
     0
 43
0.0
 10
2.387246050932616
 20
10.07048531292294
 10
2.417246050932617
 20
10.07048531292294
 10
2.496246050932614
 20
10.12048531292294
 10
2.554246050932618
 20
10.29548531292294
 10
2.554246050932618
 20
10.34048531292294
  0
LWPOLYLINE
  5
4B2CC4
330
4B1AC8
100
AcDbEntity
  8
10
100
AcDbPolyline
 90
       11
 70
     1
 43
0.0
 10
11.76342787070944
 20
5.122558109203741
 10
11.76342787070944
 20
4.932709354199137
 42
0.4142135623730776
 10
11.77842787070944
 20
4.917709354199137
 10
12.39742787070945
 20
4.917709354199138
 42
0.4142135623730779
 10
12.41242787070945
 20
4.932709354199139
 10
12.41242787070945
 20
5.750709354199114
 42
0.4142135623730951
 10
12.39742787070945
 20
5.765709354199114
 10
11.95609080858389
 20
5.765709354199125
 42
0.3394542588633969
 10
11.94160192118955
 20
5.754591639875662
 10
11.77821599672239
 20
5.144827068522592
 42
-0.2018976107513711
 10
11.77107749001874
 20
5.135633731701445
 42
0.271027600379411
  0
LWPOLYLINE
  5
4B2CC7
330
4B1AC8
100
AcDbEntity
  8
CYAN
100
AcDbPolyline
 90
        2
 70
     0
 43
0.0
 10
8.527883864608128
 20
4.735709354199099
 10
11.29167787070945
 20
4.735709354199099
  0
LWPOLYLINE
  5
4B2CC8
330
4B1AC8
100
AcDbEntity
  8
CYAN
100
AcDbPolyline
 90
        2
 70
     0
 43
0.0
 10
8.543233227018419
 20
4.610709354199099
 10
11.29167787070945
 20
4.610709354199099
  0
LWPOLYLINE
  5
4B2CC9
330
4B1AC8
100
AcDbEntity
  8
10
100
AcDbPolyline
 90
        8
 70
     1
 43
0.0
 10
11.66842787070943
 20
4.965709354199137
 42
0.4142135623730951
 10
11.68342787070943
 20
4.980709354199137
 10
11.68342787070943
 20
5.118709354199128
 42
0.4142135623730951
 10
11.66842787070943
 20
5.133709354199129
 10
11.08070780216892
 20
5.133709354199097
 42
0.339454258863365
 10
11.06621891477459
 20
5.122591639875635
 10
11.02924192621909
 20
4.984591639875637
 42
0.4931454260313162
 10
11.04373081361342
 20
4.965709354199099
  0
LWPOLYLINE
  5
4B2CCA
330
4B1AC8
100
AcDbEntity
  8
10
100
AcDbPolyline
 90
       12
 70
     1
 43
0.0
 10
11.76242787070944
 20
3.152279145333673
 10
11.76242787070944
 20
3.021709354199127
 42
0.4142135623730951
 10
11.77742787070944
 20
3.006709354199126
 10
11.98342787070945
 20
3.006709354199126
 42
0.4142135623730779
 10
11.99842787070945
 20
3.021709354199127
 10
11.99842787070944
 20
3.206709354199117
 42
0.4142135623730951
 10
11.98342787070944
 20
3.221709354199117
 10
11.87542787070944
 20
3.221709354199117
 42
0.4142135623731298
 10
11.86042787070944
 20
3.206709354199115
 10
11.86042787070945
 20
3.182279145333674
 42
-0.4142135623731037
 10
11.84542787070945
 20
3.167279145333673
 10
11.77742787070944
 20
3.167279145333673
 42
0.4142135623730951
  0
LWPOLYLINE
  5
4B2CCB
330
4B1AC8
100
AcDbEntity
  8
10
100
AcDbPolyline
 90
        8
 70
     1
 43
0.0
 10
11.86042787070945
 20
3.316709354199118
 42
0.4142135623730951
 10
11.87542787070945
 20
3.301709354199117
 10
12.39742787070945
 20
3.301709354199117
 42
0.4142135623730951
 10
12.41242787070945
 20
3.316709354199118
 10
12.41242787070944
 20
3.836709354199123
 42
0.4142135623730951
 10
12.39742787070945
 20
3.851709354199123
 10
11.87542787070945
 20
3.851709354199116
 42
0.4142135623730951
 10
11.86042787070945
 20
3.836709354199116
  0
LWPOLYLINE
  5
4B2CCD
330
4B1AC8
100
AcDbEntity
  8
10
100
AcDbPolyline
 90
       63
 70
     1
 43
0.0
 10
11.68342787070944
 20
4.852709354199146
 10
11.68342787070944
 20
4.69824869116523
 42
-0.3401424000458748
 10
11.67227439119481
 20
4.683750267797304
 10
11.59658135022408
 20
4.663668440600981
 42
0.3401424000458832
 10
11.58542787070945
 20
4.649170017233054
 10
11.58542787070945
 20
3.676209354199122
 42
0.9999999999999998
 10
11.66442787070945
 20
3.676209354199122
 10
11.66442787070945
 20
3.818709354199117
 42
-0.4142135623730432
 10
11.67942787070945
 20
3.833709354199118
 10
11.74742787070944
 20
3.833709354199121
 42
-0.4142135623731297
 10
11.76242787070944
 20
3.818709354199122
 10
11.76242787070944
 20
3.280547094526105
 42
-0.4931454260313217
 10
11.74354558503291
 20
3.266058207131769
 10
11.68331015638598
 20
3.282198241593458
 42
0.4931454260313216
 10
11.66442787070945
 20
3.267709354199122
 10
11.66442787070945
 20
2.968709354199124
 42
0.41421356237311
 10
11.72442787070945
 20
2.908709354199126
 10
12.18042787070944
 20
2.908709354199127
 42
0.4142135623730951
 10
12.19542787070944
 20
2.923709354199128
 10
12.19542787070944
 20
2.991709354199122
 42
0.4142135623730951
 10
12.18042787070944
 20
3.006709354199123
 10
12.11142787070945
 20
3.006709354199123
 42
-0.4142135623730776
 10
12.09642787070944
 20
3.021709354199123
 10
12.09642787070944
 20
3.188709354199107
 42
-0.4142135623730951
 10
12.11142787070945
 20
3.203709354199108
 10
12.39742787070945
 20
3.203709354199122
 42
-0.4142135623730779
 10
12.41242787070945
 20
3.188709354199121
 10
12.41242787070945
 20
3.02170935419912
 42
-0.4142135623730951
 10
12.39742787070945
 20
3.006709354199119
 10
12.32842787070944
 20
3.006709354199123
 42
0.4142135623730951
 10
12.31342787070945
 20
2.991709354199122
 10
12.31342787070945
 20
2.923709354199124
 42
0.4142135623730951
 10
12.32842787070944
 20
2.908709354199124
 10
12.49542787070945
 20
2.90870935419912
 42
0.4142135623730431
 10
12.51042787070944
 20
2.923709354199121
 10
12.51042787070945
 20
6.143709354199107
 42
0.4142135623730951
 10
12.49542787070945
 20
6.158709354199108
 10
12.32842787070944
 20
6.158709354199111
 42
0.4142135623730951
 10
12.31342787070944
 20
6.143709354199111
 10
12.31342787070945
 20
6.075709354199116
 42
0.4142135623730777
 10
12.32842787070944
 20
6.060709354199117
 10
12.39742787070945
 20
6.060709354199109
 42
-0.4142135623730431
 10
12.41242787070944
 20
6.045709354199108
 10
12.41242787070945
 20
5.878709354199114
 42
-0.4142135623730951
 10
12.39742787070945
 20
5.863709354199113
 10
11.99038830521507
 20
5.863709354199118
 42
-0.4931454260313162
 10
11.97589941782073
 20
5.882591639875657
 10
12.02064693295673
 20
6.049591639875653
 42
-0.339454258863365
 10
12.03513582035107
 20
6.060709354199114
 10
12.18042787070944
 20
6.060709354199116
 42
0.4142135623730951
 10
12.19542787070944
 20
6.075709354199116
 10
12.19542787070944
 20
6.143709354199118
 42
0.4142135623730431
 10
12.18042787070944
 20
6.158709354199119
 10
11.99446748998818
 20
6.158709354199122
 42
0.3394542588633793
 10
11.93651194041084
 20
6.114238496905273
 10
11.70301795190045
 20
5.242827068522598
 42
-0.3394542588633491
 10
11.68852906450611
 20
5.231709354199137
 10
11.04003947180603
 20
5.231709354199089
 42
0.33945425886335
 10
10.9820839222287
 20
5.187238496905242
 10
10.88842787070944
 20
4.837709354199112
 10
10.98988493638962
 20
4.837709354199112
 10
10.99792341216256
 20
4.867709354199106
 10
11.66842787070944
 20
4.867709354199145
 42
-0.4142135623731123
  0
LWPOLYLINE
  5
4B2CCE
330
4B1AC8
100
AcDbEntity
  8
DIM
100
AcDbPolyline
 90
        4
 70
     0
 43
0.0
 10
8.574125942012955
 20
3.677047333373093
 10
8.510427870709492
 20
4.226118223998537
 10
8.604799733823909
 20
4.109332610006004
 10
8.516295551317654
 20
4.830080646152237
  0
LWPOLYLINE
  5
4B2CCF
330
4B1AC8
100
AcDbEntity
  8
DIM
100
AcDbPolyline
 90
        4
 70
     0
 43
0.0
 10
8.499670456261156
 20
3.679787505332524
 10
8.416056007595074
 20
4.400535541478757
 10
8.510427870709492
 20
4.28374992748628
 10
8.442998688519395
 20
4.832870311022856
  0
LWPOLYLINE
  5
4B2CD0
330
4B1AC8
100
AcDbEntity
  8
10
100
AcDbPolyline
 90
       12
 70
     1
 43
0.0
 10
11.69458135022407
 20
4.588278105755894
 42
0.3401424000458748
 10
11.68342787070944
 20
4.573779682387969
 10
11.68342787070945
 20
3.946709354199124
 42
0.4142135623730951
 10
11.69842787070944
 20
3.931709354199123
 10
12.39742787070945
 20
3.93170935419912
 42
0.4142135623730951
 10
12.41242787070945
 20
3.94670935419912
 10
12.41242787070945
 20
4.822709354199136
 42
0.4142135623730951
 10
12.39742787070945
 20
4.837709354199136
 10
11.79642787070945
 20
4.837709354199136
 42
0.4142135623730951
 10
11.78142787070945
 20
4.822709354199136
 10
11.78142787070945
 20
4.622858356320144
 42
-0.3401424000458698
 10
11.77027439119481
 20
4.608359932952219
  0
LWPOLYLINE
  5
4B2CD2
330
4B1AC8
100
AcDbEntity
  8
10
100
AcDbPolyline
 90
        8
 70
     1
 43
0.0
 10
5.977124927805554
 20
4.96570935419909
 42
0.493145426031311
 10
5.99161381519989
 20
4.984591639875631
 10
5.954636826644388
 20
5.122591639875629
 42
0.339454258863365
 10
5.940147939250052
 20
5.133709354199091
 10
5.352427870709546
 20
5.133709354199122
 42
0.4142135623730951
 10
5.337427870709546
 20
5.118709354199122
 10
5.337427870709546
 20
4.980709354199131
 42
0.4142135623730951
 10
5.352427870709546
 20
4.96570935419913
  0
LWPOLYLINE
  5
4B2CD5
330
4B1AC8
100
AcDbEntity
  8
10
100
AcDbPolyline
 90
       11
 70
     1
 43
0.0
 10
5.257427870709533
 20
5.122558109203735
 10
5.257427870709532
 20
4.932709354199131
 42
-0.4142135623730776
 10
5.242427870709532
 20
4.917709354199133
 10
4.623427870709528
 20
4.917709354199133
 42
-0.4142135623730603
 10
4.608427870709531
 20
4.932709354199134
 10
4.608427870709529
 20
5.750709354199108
 42
-0.4142135623730951
 10
4.623427870709529
 20
5.765709354199109
 10
5.064764932835088
 20
5.765709354199119
 42
-0.3394542588633687
 10
5.079253820229424
 20
5.754591639875656
 10
5.242639744696588
 20
5.144827068522586
 42
0.2018976107513879
 10
5.249778251400235
 20
5.135633731701439
 42
-0.2710276003794167
  0
LWPOLYLINE
  5
4B2CD6
330
4B1AC8
100
AcDbEntity
  8
10
100
AcDbPolyline
 90
       12
 70
     1
 43
0.0
 10
5.25842787070953
 20
3.152279145333666
 10
5.25842787070953
 20
3.021709354199121
 42
-0.4142135623730951
 10
5.243427870709529
 20
3.00670935419912
 10
5.037427870709526
 20
3.00670935419912
 42
-0.414213562373069
 10
5.022427870709529
 20
3.021709354199121
 10
5.022427870709529
 20
3.206709354199111
 42
-0.4142135623730951
 10
5.03742787070953
 20
3.221709354199111
 10
5.14542787070953
 20
3.221709354199111
 42
-0.4142135623731297
 10
5.160427870709531
 20
3.206709354199109
 10
5.160427870709527
 20
3.182279145333668
 42
0.4142135623731209
 10
5.175427870709528
 20
3.167279145333667
 10
5.243427870709529
 20
3.167279145333667
 42
-0.4142135623730951
  0
LWPOLYLINE
  5
4B2CD8
330
4B1AC8
100
AcDbEntity
  8
10
100
AcDbPolyline
 90
        8
 70
     1
 43
0.0
 10
5.160427870709528
 20
3.836709354199109
 42
0.4142135623730951
 10
5.145427870709528
 20
3.85170935419911
 10
4.623427870709529
 20
3.851709354199117
 42
0.4142135623730951
 10
4.608427870709532
 20
3.836709354199117
 10
4.608427870709528
 20
3.316709354199112
 42
0.4142135623730863
 10
4.623427870709528
 20
3.301709354199112
 10
5.145427870709527
 20
3.301709354199111
 42
0.4142135623730951
 10
5.160427870709527
 20
3.316709354199112
  0
LWPOLYLINE
  5
4B2CD9
330
4B1AC8
100
AcDbEntity
  8
10
100
AcDbPolyline
 90
       63
 70
     1
 43
0.0
 10
5.337427870709531
 20
4.85270935419914
 10
5.337427870709531
 20
4.698248691165224
 42
0.3401424000458905
 10
5.34858135022416
 20
4.683750267797298
 10
5.424274391194897
 20
4.663668440600975
 42
-0.3401424000458795
 10
5.435427870709526
 20
4.649170017233048
 10
5.43542787070953
 20
3.676209354199116
 42
-0.9999999999999998
 10
5.35642787070953
 20
3.676209354199116
 10
5.35642787070953
 20
3.818709354199111
 42
0.4142135623730604
 10
5.341427870709529
 20
3.833709354199111
 10
5.273427870709531
 20
3.833709354199115
 42
0.4142135623731297
 10
5.258427870709531
 20
3.818709354199116
 10
5.25842787070953
 20
3.280547094526099
 42
0.4931454260313216
 10
5.277310156386066
 20
3.266058207131763
 10
5.337545585032993
 20
3.282198241593452
 42
-0.4931454260313217
 10
5.356427870709529
 20
3.267709354199116
 10
5.356427870709529
 20
2.968709354199118
 42
-0.414213562373106
 10
5.296427870709527
 20
2.908709354199119
 10
4.840427870709531
 20
2.908709354199121
 42
-0.4142135623731038
 10
4.82542787070953
 20
2.923709354199122
 10
4.82542787070953
 20
2.991709354199116
 42
-0.4142135623731039
 10
4.840427870709531
 20
3.006709354199117
 10
4.90942787070953
 20
3.006709354199117
 42
0.4142135623730693
 10
4.92442787070953
 20
3.021709354199118
 10
4.92442787070953
 20
3.188709354199101
 42
0.4142135623730951
 10
4.90942787070953
 20
3.203709354199102
 10
4.623427870709528
 20
3.203709354199116
 42
0.4142135623730689
 10
4.608427870709531
 20
3.188709354199116
 10
4.608427870709528
 20
3.021709354199114
 42
0.4142135623730951
 10
4.623427870709528
 20
3.006709354199113
 10
4.692427870709531
 20
3.006709354199117
 42
-0.4142135623731039
 10
4.707427870709528
 20
2.991709354199116
 10
4.707427870709528
 20
2.923709354199118
 42
-0.4142135623731039
 10
4.692427870709531
 20
2.908709354199118
 10
4.525427870709529
 20
2.908709354199114
 42
-0.414213562373052
 10
4.510427870709529
 20
2.923709354199115
 10
4.51042787070953
 20
6.143709354199102
 42
-0.4142135623730951
 10
4.52542787070953
 20
6.158709354199102
 10
4.692427870709532
 20
6.158709354199106
 42
-0.4142135623730951
 10
4.707427870709532
 20
6.143709354199105
 10
4.707427870709529
 20
6.075709354199111
 42
-0.4142135623730605
 10
4.692427870709532
 20
6.060709354199111
 10
4.623427870709529
 20
6.060709354199103
 42
0.4142135623730605
 10
4.608427870709532
 20
6.045709354199103
 10
4.608427870709529
 20
5.878709354199108
 42
0.4142135623730951
 10
4.623427870709529
 20
5.863709354199108
 10
5.030467436203905
 20
5.863709354199112
 42
0.4931454260312985
 10
5.044956323598242
 20
5.88259163987565
 10
5.000208808462246
 20
6.049591639875647
 42
0.339454258863365
 10
4.98571992106791
 20
6.060709354199108
 10
4.840427870709532
 20
6.06070935419911
 42
-0.4142135623730951
 10
4.825427870709531
 20
6.07570935419911
 10
4.825427870709531
 20
6.143709354199112
 42
-0.4142135623730605
 10
4.840427870709532
 20
6.158709354199114
 10
5.02638825143079
 20
6.158709354199116
 42
-0.3394542588633794
 10
5.084343801008137
 20
6.114238496905267
 10
5.317837789518526
 20
5.242827068522592
 42
0.339454258863349
 10
5.332326676912862
 20
5.23170935419913
 10
5.980816269612943
 20
5.231709354199082
 42
-0.339454258863354
 10
6.038771819190279
 20
5.187238496905235
 10
6.13242787070954
 20
4.837709354199105
 10
6.030970805029354
 20
4.837709354199105
 10
6.022932329256419
 20
4.867709354199099
 10
5.352427870709531
 20
4.867709354199138
 42
0.4142135623731124
  0
LWPOLYLINE
  5
4B2CDA
330
4B1AC8
100
AcDbEntity
  8
10
100
AcDbPolyline
 90
       12
 70
     1
 43
0.0
 10
5.250581350224161
 20
4.608359932952213
 42
-0.3401424000458697
 10
5.239427870709528
 20
4.622858356320138
 10
5.239427870709528
 20
4.82270935419913
 42
0.4142135623730951
 10
5.224427870709527
 20
4.83770935419913
 10
4.623427870709528
 20
4.837709354199131
 42
0.4142135623730951
 10
4.608427870709528
 20
4.822709354199131
 10
4.608427870709528
 20
3.946709354199115
 42
0.4142135623730951
 10
4.623427870709528
 20
3.931709354199114
 10
5.32242787070953
 20
3.931709354199117
 42
0.4142135623730951
 10
5.337427870709527
 20
3.946709354199118
 10
5.337427870709531
 20
4.573779682387963
 42
0.3401424000458624
 10
5.326274391194901
 20
4.588278105755888
  0
LWPOLYLINE
  5
4B2CDC
330
4B1AC8
100
AcDbEntity
  8
10
100
AcDbPolyline
 90
       54
 70
     0
 43
0.0
 10
4.3512460509326
 20
18.88348531292287
 10
4.650246050932598
 20
18.88348531292287
 42
0.4142135623731125
 10
4.710246050932598
 20
18.94348531292288
 10
4.710246050932595
 20
19.39948531292287
 42
0.4142135623730951
 10
4.695246050932595
 20
19.41448531292287
 10
4.6272460509326
 20
19.41448531292287
 42
0.4142135623730951
 10
4.6122460509326
 20
19.39948531292287
 10
4.6122460509326
 20
19.33048531292287
 42
-0.4142135623730779
 10
4.597246050932599
 20
19.31548531292287
 10
4.430246050932615
 20
19.31548531292287
 42
-0.4142135623730951
 10
4.415246050932615
 20
19.33048531292287
 10
4.415246050932601
 20
19.61648531292287
 42
-0.4142135623731124
 10
4.430246050932601
 20
19.63148531292287
 10
4.597246050932603
 20
19.63148531292288
 42
-0.4142135623730951
 10
4.612246050932603
 20
19.61648531292287
 10
4.6122460509326
 20
19.54748531292287
 42
0.4142135623731297
 10
4.6272460509326
 20
19.53248531292287
 10
4.695246050932598
 20
19.53248531292287
 42
0.4142135623731297
 10
4.710246050932599
 20
19.54748531292287
 10
4.710246050932602
 20
19.71448531292287
 42
0.4142135623730777
 10
4.695246050932602
 20
19.72948531292287
 10
1.475246050932616
 20
19.72948531292287
 42
0.4142135623730951
 10
1.460246050932616
 20
19.71448531292287
 10
1.460246050932612
 20
19.54748531292287
 42
0.4142135623730951
 10
1.475246050932613
 20
19.53248531292287
 10
1.543246050932607
 20
19.53248531292287
 42
0.4142135623731122
 10
1.558246050932607
 20
19.54748531292287
 10
1.558246050932615
 20
19.61648531292287
 42
-0.4142135623730387
 10
1.573246050932615
 20
19.63148531292287
 10
1.74024605093261
 20
19.63148531292288
 42
-0.4142135623730951
 10
1.75524605093261
 20
19.61648531292287
 10
1.755246050932605
 20
19.2094457474285
 42
-0.4931454260313074
 10
1.736363765256067
 20
19.19495686003416
 10
1.569363765256071
 20
19.23970437517016
 42
-0.339454258863361
 10
1.558246050932609
 20
19.25419326256449
 10
1.558246050932607
 20
19.39948531292287
 42
0.4142135623730951
 10
1.543246050932607
 20
19.41448531292287
 10
1.475246050932605
 20
19.41448531292287
 42
0.4142135623730214
 10
1.460246050932603
 20
19.39948531292287
 10
1.4602460509326
 20
19.21352493220161
 42
0.3394542588633731
 10
1.504716908226449
 20
19.15556938262427
 10
2.376128336609125
 20
18.92207539411388
 42
-0.3394542588633531
 10
2.387246050932587
 20
18.90758650671954
 10
2.387246050932635
 20
18.25909691401946
 42
0.339454258863358
 10
2.431716908226482
 20
18.20114136444212
 10
2.781246050932611
 20
18.10748531292286
 10
2.781246050932611
 20
18.20894237860305
 10
2.751246050932617
 20
18.21698085437598
 10
2.751246050932578
 20
18.88748531292287
 42
-0.4142135623730951
 10
2.766246050932577
 20
18.90248531292287
 10
2.920706713966493
 20
18.90248531292287
 42
-0.340142400045917
 10
2.935205137334418
 20
18.89133183340824
 10
2.955286964530742
 20
18.81563879243751
 42
0.3401424000458468
 10
2.969785387898668
 20
18.80448531292288
  0
LWPOLYLINE
  5
4B2CDD
330
4B1AC8
100
AcDbEntity
  8
10
100
AcDbPolyline
 90
        2
 70
     0
 43
0.0
 10
3.9427460509326
 20
18.80448531292287
 42
0.9999999999999998
 10
3.9427460509326
 20
18.88348531292287
  0
LWPOLYLINE
  5
4B2CDE
330
4B1AC8
100
AcDbEntity
  8
10
100
AcDbPolyline
 90
        8
 70
     0
 43
0.0
 10
4.336757163538265
 20
18.90236759859941
 10
4.352897197999951
 20
18.96260302724634
 42
0.4931454260313571
 10
4.338408310605617
 20
18.98148531292287
 10
3.800246050932601
 20
18.98148531292288
 42
0.4142135623731642
 10
3.785246050932602
 20
18.96648531292287
 10
3.785246050932602
 20
18.89848531292287
 42
0.4142135623730087
 10
3.800246050932606
 20
18.88348531292287
 10
3.942746050932587
 20
18.88348531292292
  0
LWPOLYLINE
  5
4B2CE5
330
4B1AC8
100
AcDbEntity
  8
10
100
AcDbPolyline
 90
        8
 70
     1
 43
0.0
 10
2.653246050932586
 20
18.88748531292286
 42
0.4142135623730951
 10
2.638246050932585
 20
18.90248531292286
 10
2.500246050932594
 20
18.90248531292286
 42
0.4142135623730951
 10
2.485246050932594
 20
18.88748531292286
 10
2.485246050932626
 20
18.29976524438235
 42
0.339454258863365
 10
2.496363765256087
 20
18.28527635698802
 10
2.634363765256085
 20
18.24829936843251
 42
0.493145426031325
 10
2.653246050932624
 20
18.26278825582685
  0
LWPOLYLINE
  5
4B2CE6
330
4B1AC8
100
AcDbEntity
  8
10
100
AcDbPolyline
 90
        2
 70
     0
 43
0.0
 10
4.336757163538295
 20
18.90236759859944
 42
0.4931454260313043
 10
4.351246050932631
 20
18.88348531292293
  0
LINE
  5
4B2F5D
330
4B1AC8
100
AcDbEntity
  8
CYAN
100
AcDbLine
 10
11.29167787070945
 20
3.86070935419907
 30
0.0
 11
11.29167787070945
 21
3.98570935419907
 31
0.0
  0
LINE
  5
4B2F65
330
4B1AC8
100
AcDbEntity
  8
CYAN
100
AcDbLine
 10
11.29167787070945
 20
4.610709354199099
 30
0.0
 11
11.29167787070945
 21
4.735709354199099
 31
0.0
  0
LINE
  5
4B2F6B
330
4B1AC8
100
AcDbEntity
  8
CYAN
100
AcDbLine
 10
5.72917787070947
 20
3.86070935419907
 30
0.0
 11
5.72917787070947
 21
3.98570935419907
 31
0.0
  0
LINE
  5
4B2F71
330
4B1AC8
100
AcDbEntity
  8
CYAN
100
AcDbLine
 10
5.72917787070947
 20
4.735709354199099
 30
0.0
 11
5.72917787070947
 21
4.610709354199099
 31
0.0
  0
INSERT
  5
4B2F7E
330
4B1AC8
100
AcDbEntity
  8
XTHIN
100
AcDbBlockReference
  2
Reinforced Bytyl Spacer
 10
5.729177870709432
 20
4.610709354199111
 30
0.0
1001
MTVPROFILELINK
1002
{
1000
#BlockRef=d0c91547-0x648b-40a0-8917-520E90AC1397|
1002
}
1005
AA
  0
INSERT
  5
4B2F82
330
4B1AC8
100
AcDbEntity
  8
XTHIN
100
AcDbBlockReference
  2
Reinforced Bytyl Spacer
 10
11.29167787070949
 20
4.61070935419911
 30
0.0
 41
-1.0
1001
MTVPROFILELINK
1002
{
1000
#BlockRef=d0c91547-0x648b-40a0-8917-520E90AC1397| 
1002
}
1005
0
  0
INSERT
  5
4B2F8F
330
4B1AC8
100
AcDbEntity
  8
XTHIN
100
AcDbBlockReference
  2
Glazing Bead
 10
11.46042787070947
 20
3.860709354199148
 30
0.0
 50
90.0
1001
MTVPROFILELINK
1002
{
1000
#BlockRef=4a90ce4c-0x1a18-4316-AD76-5410FD1A5A0E|
1002
}
1005
AA
  0
INSERT
  5
4B2F91
330
4B1AC8
100
AcDbEntity
  8
XTHIN
100
AcDbBlockReference
  2
Glazing Bead
 10
5.560427870709506
 20
3.860709354199142
 30
0.0
 41
-1.0
 50
270.0
1001
MTVPROFILELINK
1002
{
1000
#BlockRef=4a90ce4c-0x1a18-4316-AD76-5410FD1A5A0E| 
1002
}
1005
0
  0
INSERT
  5
4B2F92
330
4B1AC8
100
AcDbEntity
  8
XTHIN
100
AcDbBlockReference
  2
Glazing Bead
 10
3.758246050932574
 20
18.67948531292294
 30
0.0
 50
180.0
1001
MTVPROFILELINK
1002
{
1000
#BlockRef=4a90ce4c-0x1a18-4316-AD76-5410FD1A5A0E| 
1002
}
1005
0
  0
INSERT
  5
4B2F93
330
4B1AC8
100
AcDbEntity
  8
XTHIN
100
AcDbBlockReference
  2
Glazing Bead
 10
3.758246050932587
 20
10.27948531292289
 30
0.0
 41
-1.0
1001
MTVPROFILELINK
1002
{
1000
#BlockRef=4a90ce4c-0x1a18-4316-AD76-5410FD1A5A0E| 
1002
}
1005
0
  0
INSERT
  5
4B2FE1
330
4B1AC8
100
AcDbEntity
  8
XTHIN
100
AcDbBlockReference
  2
Weather Seal
 10
10.98988493638962
 20
4.837709354199112
 30
0.0
1001
MTVPROFILELINK
1002
{
1000
#BlockRef=ba94e7a6-0xd86b-46dd-AA0C-75BA8098A0E8|
1002
}
1005
AA
  0
INSERT
  5
4B2FE3
330
4B1AC8
100
AcDbEntity
  8
XTHIN
100
AcDbBlockReference
  2
Weather Seal
 10
6.030970805029349
 20
4.837687932220958
 30
0.0
 41
-1.0
1001
MTVPROFILELINK
1002
{
1000
#BlockRef=ba94e7a6-0xd86b-46dd-AA0C-75BA8098A0E8| 
1002
}
1005
0
  0
INSERT
  5
4B2FF1
330
4B1AC8
100
AcDbEntity
  8
XTHIN
100
AcDbBlockReference
  2
Silicon Horizontal Small
 10
5.72917787070947
 20
4.735709354199099
 30
0.0
1001
MTVPROFILELINK
1002
{
1000
#BlockRef=ee6c50f-0xdf41-4016-8F4F-CEF3CD2D7E2F|
1002
}
1005
AA
  0
INSERT
  5
4B2FFD
330
4B1AC8
100
AcDbEntity
  8
XTHIN
100
AcDbBlockReference
  2
Silicon Horizontal Small
 10
11.29167787070945
 20
4.735709354199099
 30
0.0
 41
-1.0
1001
MTVPROFILELINK
1002
{
1000
#BlockRef=ee6c50f-0xdf41-4016-8F4F-CEF3CD2D7E2F| 
1002
}
1005
0
  0
LINE
  5
4B300A
330
4B1AC8
100
AcDbEntity
  8
CYAN
100
AcDbLine
 10
3.758246050932652
 20
10.27948531292291
 30
0.0
 11
3.633246050932652
 21
10.27948531292291
 31
0.0
  0
LINE
  5
4B3010
330
4B1AC8
100
AcDbEntity
  8
CYAN
100
AcDbLine
 10
2.883246050932638
 20
10.27948531292291
 30
0.0
 11
3.008246050932638
 21
10.27948531292291
 31
0.0
  0
LINE
  5
4B3016
330
4B1AC8
100
AcDbEntity
  8
CYAN
100
AcDbLine
 10
2.883246050932637
 20
18.40448531292291
 30
0.0
 11
3.008246050932637
 21
18.40448531292291
 31
0.0
  0
LINE
  5
4B301C
330
4B1AC8
100
AcDbEntity
  8
CYAN
100
AcDbLine
 10
3.758246050932652
 20
18.40448531292291
 30
0.0
 11
3.633246050932652
 21
18.40448531292291
 31
0.0
  0
INSERT
  5
4B302E
330
4B1AC8
100
AcDbEntity
  8
XTHIN
100
AcDbBlockReference
  2
Reinforced Bytyl Spacer
 10
3.008246050932639
 20
10.27948531292291
 30
0.0
 50
90.0
1001
MTVPROFILELINK
1002
{
1000
#BlockRef=d0c91547-0x648b-40a0-8917-520E90AC1397| 
1002
}
1005
0
  0
INSERT
  5
4B302F
330
4B1AC8
100
AcDbEntity
  8
XTHIN
100
AcDbBlockReference
  2
Reinforced Bytyl Spacer
 10
3.008246050932623
 20
18.40448531292295
 30
0.0
 41
-1.0
 50
90.0
1001
MTVPROFILELINK
1002
{
1000
#BlockRef=d0c91547-0x648b-40a0-8917-520E90AC1397| 
1002
}
1005
0
  0
INSERT
  5
4B3031
330
4B1AC8
100
AcDbEntity
  8
XTHIN
100
AcDbBlockReference
  2
Weather Seal
 10
2.781246050932611
 20
18.20894237860305
 30
0.0
 50
90.0
1001
MTVPROFILELINK
1002
{
1000
#BlockRef=ba94e7a6-0xd86b-46dd-AA0C-75BA8098A0E8| 
1002
}
1005
0
  0
INSERT
  5
4B3032
330
4B1AC8
100
AcDbEntity
  8
XTHIN
100
AcDbBlockReference
  2
Weather Seal
 10
2.781246050932623
 20
10.75002824724273
 30
0.0
 41
-1.0
 50
90.0
1001
MTVPROFILELINK
1002
{
1000
#BlockRef=ba94e7a6-0xd86b-46dd-AA0C-75BA8098A0E8| 
1002
}
1005
0
  0
INSERT
  5
4B303D
330
4B1AC8
100
AcDbEntity
  8
XTHIN
100
AcDbBlockReference
  2
Silicon Small Vertical Top
 10
2.883246050932637
 20
18.40448531292291
 30
0.0
 41
-1.0
1001
MTVPROFILELINK
1002
{
1000
#BlockRef=744bc776-0xfc52-4f37-A866-777C9605EC66|
1002
}
1005
AA
  0
INSERT
  5
4B304B
330
4B1AC8
100
AcDbEntity
  8
XTHIN
100
AcDbBlockReference
  2
Silicon Vertical Bottom
 10
2.883246050932638
 20
10.27948531292291
 30
0.0
1001
MTVPROFILELINK
1002
{
1000
#BlockRef=9b32de5e-0x9b07-4747-BD9F-FBE1DCD4B630|
1002
}
1005
AA
  0
LWPOLYLINE
  5
4B30A9
330
4B1AC8
100
AcDbEntity
  8
THIN
100
AcDbPolyline
 90
        4
 70
     1
 43
0.0
 10
5.43542787070953
 20
3.815209354199119
 10
5.560427870709528
 20
3.815209354199119
 10
5.560427870709528
 20
4.815209354199119
 10
5.43542787070953
 20
4.815209354199119
1001
GENIUS_GENREC_14
1002
{
1000
PYDIR
1011
5.43542787070953
1021
4.815209354199119
1031
0.0
1002
}
1002
{
1000
PXDIR
1011
5.560427870709528
1021
3.815209354199119
1031
0.0
1002
}
1002
{
1000
PORI
1011
5.43542787070953
1021
3.815209354199119
1031
0.0
1002
}
1002
{
1000
PINS
1011
5.43542787070953
1021
3.815209354199119
1031
0.0
1002
}
1002
{
1000
PINS2
1011
5.560427870709528
1021
4.815209354199119
1031
0.0
1002
}
1002
{
1000
C
1070
     1
1002
}
1001
GENIUS_GENODEF_13
1002
{
1000
HIER
1070
     0
1002
}
1002
{
1000
MANEDIT
1070
     0
1002
}
1002
{
1000
NOSEL
1070
     0
1002
}
1002
{
1000
BEHIND
1070
     0
1002
}
1002
{
1000
OTHER
1070
     0
1002
}
1002
{
1000
REACTOR
1002
}
1001
GENIUS_GENOBJ-N-REC_13
1002
{
1000
OWNER
1000
GEN
1002
}
  0
LWPOLYLINE
  5
4B30C1
330
4B1AC8
100
AcDbEntity
  8
THIN
100
AcDbPolyline
 90
        4
 70
     1
 43
0.0
 10
11.46042787070945
 20
3.815209354199119
 10
11.58542787070945
 20
3.815209354199119
 10
11.58542787070945
 20
4.815209354199119
 10
11.46042787070945
 20
4.815209354199119
1001
GENIUS_GENREC_14
1002
{
1000
PYDIR
1011
11.46042787070945
1021
4.815209354199119
1031
0.0
1002
}
1002
{
1000
PXDIR
1011
11.58542787070945
1021
3.815209354199119
1031
0.0
1002
}
1002
{
1000
PORI
1011
11.46042787070945
1021
3.815209354199119
1031
0.0
1002
}
1002
{
1000
PINS
1011
11.46042787070945
1021
3.815209354199119
1031
0.0
1002
}
1002
{
1000
PINS2
1011
11.58542787070945
1021
4.815209354199119
1031
0.0
1002
}
1002
{
1000
C
1070
     1
1002
}
1001
GENIUS_GENODEF_13
1002
{
1000
HIER
1070
     0
1002
}
1002
{
1000
MANEDIT
1070
     0
1002
}
1002
{
1000
NOSEL
1070
     0
1002
}
1002
{
1000
BEHIND
1070
     0
1002
}
1002
{
1000
OTHER
1070
     0
1002
}
1002
{
1000
REACTOR
1002
}
1001
GENIUS_GENOBJ-N-REC_13
1002
{
1000
OWNER
1000
GEN
1002
}
  0
LWPOLYLINE
  5
4B30C3
330
4B1AC8
100
AcDbEntity
  8
THIN
100
AcDbPolyline
 90
        4
 70
     1
 43
0.0
 10
3.803746050932604
 20
10.15448531292291
 10
3.803746050932604
 20
10.27948531292291
 10
2.803746050932604
 20
10.27948531292291
 10
2.803746050932604
 20
10.15448531292291
1001
GENIUS_GENREC_14
1002
{
1000
PYDIR
1011
2.803746050932604
1021
10.15448531292291
1031
0.0
1002
}
1002
{
1000
PXDIR
1011
3.803746050932604
1021
10.27948531292291
1031
0.0
1002
}
1002
{
1000
PORI
1011
3.803746050932604
1021
10.15448531292291
1031
0.0
1002
}
1002
{
1000
PINS
1011
3.803746050932604
1021
10.15448531292291
1031
0.0
1002
}
1002
{
1000
PINS2
1011
2.803746050932604
1021
10.27948531292291
1031
0.0
1002
}
1002
{
1000
C
1070
     1
1002
}
1001
GENIUS_GENODEF_13
1002
{
1000
HIER
1070
     0
1002
}
1002
{
1000
MANEDIT
1070
     0
1002
}
1002
{
1000
NOSEL
1070
     0
1002
}
1002
{
1000
BEHIND
1070
     0
1002
}
1002
{
1000
OTHER
1070
     0
1002
}
1002
{
1000
REACTOR
1002
}
1001
GENIUS_GENOBJ-N-REC_13
1002
{
1000
OWNER
1000
GEN
1002
}
  0
LWPOLYLINE
  5
4B30D8
330
4B1AC8
100
AcDbEntity
  8
THIN
100
AcDbPolyline
 90
        4
 70
     1
 43
0.0
 10
3.803746050932597
 20
18.67948531292292
 10
3.803746050932597
 20
18.80448531292292
 10
2.803746050932597
 20
18.80448531292292
 10
2.803746050932597
 20
18.67948531292292
1001
GENIUS_GENREC_14
1002
{
1000
PYDIR
1011
2.803746050932597
1021
18.67948531292292
1031
0.0
1002
}
1002
{
1000
PXDIR
1011
3.803746050932597
1021
18.80448531292292
1031
0.0
1002
}
1002
{
1000
PORI
1011
3.803746050932597
1021
18.67948531292292
1031
0.0
1002
}
1002
{
1000
PINS
1011
3.803746050932597
1021
18.67948531292292
1031
0.0
1002
}
1002
{
1000
PINS2
1011
2.803746050932597
1021
18.80448531292292
1031
0.0
1002
}
1002
{
1000
C
1070
     1
1002
}
1001
GENIUS_GENODEF_13
1002
{
1000
HIER
1070
     0
1002
}
1002
{
1000
MANEDIT
1070
     0
1002
}
1002
{
1000
NOSEL
1070
     0
1002
}
1002
{
1000
BEHIND
1070
     0
1002
}
1002
{
1000
OTHER
1070
     0
1002
}
1002
{
1000
REACTOR
1002
}
1001
GENIUS_GENOBJ-N-REC_13
1002
{
1000
OWNER
1000
GEN
1002
}
  0
ENDSEC
  0
SECTION
  2
OBJECTS
  0
DICTIONARY
  5
4B1ABC
330
0
100
AcDbDictionary
281
     1
  3
ACAD_CIP_PREVIOUS_PRODUCT_INFO
350
4B315F
  3
ACAD_COLOR
350
4B2E97
  3
ACAD_DETAILVIEWSTYLE
350
4B3155
  3
ACAD_GROUP
350
4B1ABD
  3
ACAD_IMAGE_DICT
350
4B1D3D
  3
ACAD_LAYOUT
350
4B1D14
  3
ACAD_MATERIAL
350
4B2E96
  3
ACAD_MLEADERSTYLE
350
4B3151
  3
ACAD_MLINESTYLE
350
4B1ABE
  3
ACAD_PLOTSETTINGS
350
4B1D15
  3
ACAD_PLOTSTYLENAME
350
4B1D12
  3
ACAD_SCALELIST
350
4B313F
  3
ACAD_SECTIONVIEWSTYLE
350
4B3153
  3
ACAD_TABLESTYLE
350
4B2E98
  3
ACAD_VISUALSTYLE
350
4B3126
  3
AcAmCatalogState
350
4B2EFC
  3
ACDB_RECOMPOSE_DATA
350
4B318F
  3
AcDbVariableDictionary
350
4B293E
  3
ACDMSYSVARMGR
350
4B2EB7
  3
ACGREF_MASTER
350
4B2EB1
  3
ACGREFACAD_MASTER
350
4B2EDA
  3
AcmDictionary
350
4B2EFA
  3
ACME_BOM_MANAGER_NAME
350
4B2EAB
  3
ACME_COMMAND_HISTORY
350
4B2EA8
  3
ACME_SCOPE_NAME
350
4B2EA7
  3
ACMESTATEMGR
350
4B2EB0
  3
AcmeSysVarManager
350
4B2EA9
  3
AcmSystemVariableManager
350
4B2EDF
  3
AD_APPL
350
4B2EE7
  3
ADSYSVARMGR
350
4B2EE6
  3
AmdtNamedDwgMgr
350
4B2ED5
  3
AMG
350
4B2EA0
  3
AMGSNAPSETTINGS
350
4B2F4D
  3
AMI_MASTER
350
4B2EDD
  3
AUTOCAD_ASSEMBLIES_PROJECT
350
4B2EEF
  3
Designer_Assemblies_SysVars
350
4B2EEA
  3
GREFAM_MODULE
350
4B2EDE
  3
MTV_XATTACH
350
4B2F80
  0
DICTIONARY
  5
4B1D8E
330
4B1AB2
100
AcDbDictionary
280
     1
281
     1
  3
ACAD_LAYERSTATES
360
4B1D8F
  0
DICTIONARY
  5
4B3163
330
4B1ABF
100
AcDbDictionary
280
     1
281
     1
  3
ADSK_XREC_LAYER_RECONCILED
360
4B3164
  0
DICTIONARY
  5
4B3165
330
4B1AE0
100
AcDbDictionary
280
     1
281
     1
  3
ADSK_XREC_LAYER_RECONCILED
360
4B3166
  0
DICTIONARY
  5
4B3167
330
4B1AE2
100
AcDbDictionary
280
     1
281
     1
  3
ADSK_XREC_LAYER_RECONCILED
360
4B3168
  0
DICTIONARY
  5
4B3169
330
4B1AE3
100
AcDbDictionary
280
     1
281
     1
  3
ADSK_XREC_LAYER_RECONCILED
360
4B316A
  0
DICTIONARY
  5
4B316B
330
4B1D8A
100
AcDbDictionary
280
     1
281
     1
  3
ADSK_XREC_LAYER_RECONCILED
360
4B316C
  0
DICTIONARY
  5
4B316D
330
4B248D
100
AcDbDictionary
280
     1
281
     1
  3
ADSK_XREC_LAYER_RECONCILED
360
4B316E
  0
DICTIONARY
  5
4B316F
330
4B295A
100
AcDbDictionary
280
     1
281
     1
  3
ADSK_XREC_LAYER_RECONCILED
360
4B3170
  0
DICTIONARY
  5
4B3171
330
4B2FE7
100
AcDbDictionary
280
     1
281
     1
  3
ADSK_XREC_LAYER_RECONCILED
360
4B3172
  0
DICTIONARY
  5
4B2F5E
330
4B1AC8
100
AcDbDictionary
280
     1
281
     1
  3
ACAD_SORTENTS
360
4B2F5F
  0
DICTIONARY
  5
4B2F8A
330
4B2F86
100
AcDbDictionary
280
     1
281
     1
  3
ACAD_SORTENTS
360
4B2F8B
  0
DICTIONARY
  5
4B2FDC
330
4B2FDA
100
AcDbDictionary
280
     1
281
     1
  3
ACAD_SORTENTS
360
4B2FDD
  0
DICTIONARY
  5
4B2FEC
330
4B2FE9
100
AcDbDictionary
280
     1
281
     1
  3
ACAD_SORTENTS
360
4B2FED
  0
DICTIONARY
  5
4B3038
330
4B3035
100
AcDbDictionary
280
     1
281
     1
  3
ACAD_SORTENTS
360
4B3039
  0
DICTIONARY
  5
4B3045
330
4B3042
100
AcDbDictionary
280
     1
281
     1
  3
ACAD_SORTENTS
360
4B3046
  0
XRECORD
  5
4B315F
102
{ACAD_REACTORS
330
4B1ABC
102
}
330
4B1ABC
100
AcDbXrecord
280
     1
300
ACDLT
300
2019
300

  0
DICTIONARY
  5
4B2E97
102
{ACAD_REACTORS
330
4B1ABC
102
}
330
4B1ABC
100
AcDbDictionary
281
     1
  0
DICTIONARY
  5
4B3155
102
{ACAD_REACTORS
330
4B1ABC
102
}
330
4B1ABC
100
AcDbDictionary
281
     1
  3
Imperial24
350
4B3156
  0
DICTIONARY
  5
4B1ABD
102
{ACAD_REACTORS
330
4B1ABC
102
}
330
4B1ABC
100
AcDbDictionary
281
     1
  0
DICTIONARY
  5
4B1D3D
102
{ACAD_REACTORS
330
4B1ABC
102
}
330
4B1ABC
100
AcDbDictionary
281
     1
  0
DICTIONARY
  5
4B1D14
102
{ACAD_REACTORS
330
4B1ABC
102
}
330
4B1ABC
100
AcDbDictionary
281
     1
  3
Layout1
350
4B1D17
  3
Model
350
4B1D16
  0
DICTIONARY
  5
4B2E96
102
{ACAD_REACTORS
330
4B1ABC
102
}
330
4B1ABC
100
AcDbDictionary
281
     1
  3
ByBlock
350
4B3116
  3
ByLayer
350
4B310E
  3
Global
350
4B311E
  0
DICTIONARY
  5
4B3151
102
{ACAD_REACTORS
330
4B1ABC
102
}
330
4B1ABC
100
AcDbDictionary
281
     1
  3
Standard
350
4B3152
  0
DICTIONARY
  5
4B1ABE
102
{ACAD_REACTORS
330
4B1ABC
102
}
330
4B1ABC
100
AcDbDictionary
281
     1
  3
STANDARD
350
4B1ACB
  0
DICTIONARY
  5
4B1D15
102
{ACAD_REACTORS
330
4B1ABC
102
}
330
4B1ABC
100
AcDbDictionary
281
     1
  3
A_size_1_to_1
350
4B1D2C
  3
B_size_1_to_1
350
4B1D2E
  0
ACDBDICTIONARYWDFLT
  5
4B1D12
102
{ACAD_REACTORS
330
4B1ABC
102
}
330
4B1ABC
100
AcDbDictionary
281
     1
  3
Normal
350
4B1D13
100
AcDbDictionaryWithDefault
340
4B1D13
  0
DICTIONARY
  5
4B313F
102
{ACAD_REACTORS
330
4B1ABC
102
}
330
4B1ABC
100
AcDbDictionary
281
     1
  3
A0
350
4B3140
  3
A1
350
4B3141
  3
A2
350
4B3142
  3
A3
350
4B3143
  3
A4
350
4B3144
  3
A5
350
4B3145
  3
A6
350
4B3146
  3
A7
350
4B3147
  3
A8
350
4B3148
  3
A9
350
4B3149
  3
B0
350
4B314A
  3
B1
350
4B314B
  3
B2
350
4B314C
  3
B3
350
4B314D
  3
B4
350
4B314E
  3
B5
350
4B314F
  3
B6
350
4B3150
  0
DICTIONARY
  5
4B3153
102
{ACAD_REACTORS
330
4B1ABC
102
}
330
4B1ABC
100
AcDbDictionary
281
     1
  3
Imperial24
350
4B3154
  0
DICTIONARY
  5
4B2E98
102
{ACAD_REACTORS
330
4B1ABC
102
}
330
4B1ABC
100
AcDbDictionary
281
     1
  3
Standard
350
4B2E99
  0
DICTIONARY
  5
4B3126
102
{ACAD_REACTORS
330
4B1ABC
102
}
330
4B1ABC
100
AcDbDictionary
281
     1
  3
2dWireframe
350
4B312C
  3
Basic
350
4B312B
  3
Brighten
350
4B3132
  3
ColorChange
350
4B3136
  3
Conceptual
350
4B312F
  3
Dim
350
4B3131
  3
EdgeColorOff
350
4B313E
  3
Facepattern
350
4B3135
  3
Flat
350
4B3127
  3
FlatWithEdges
350
4B3128
  3
Gouraud
350
4B3129
  3
GouraudWithEdges
350
4B312A
  3
Hidden
350
4B312E
  3
JitterOff
350
4B313C
  3
Linepattern
350
4B3134
  3
OverhangOff
350
4B313D
  3
Realistic
350
4B3130
  3
Shaded
350
4B313B
  3
Shaded with edges
350
4B313A
  3
Shades of Gray
350
4B3137
  3
Sketchy
350
4B3138
  3
Thicken
350
4B3133
  3
Wireframe
350
4B312D
  3
X-Ray
350
4B3139
  0
ACAD_PROXY_OBJECT
  5
4B2EFC
102
{ACAD_REACTORS
330
4B1ABC
102
}
330
4B1ABC
100
AcDbProxyObject
 90
      499
 91
      549
 71
    25
 97
       77
 70
     0
161
               544
310
3FFFFFFFE00A02814029BA19D2E283937B3B930B6902334B632B9AE32A1B430B733B2AE2BB7B935B9B830B1B2AE20A9991C1A902F96AF9819989C9B9818181AAF98C00AA00
 94
        0
  0
XRECORD
  5
4B318F
102
{ACAD_REACTORS
330
4B1ABC
102
}
330
4B1ABC
100
AcDbXrecord
280
     1
 90
        1
330
4B1E7D
330
4B1E7E
330
4B1E8D
330
4B1EEA
330
4B28EA
330
4B2E99
  0
DICTIONARY
  5
4B293E
102
{ACAD_REACTORS
330
4B1ABC
102
}
330
4B1ABC
100
AcDbDictionary
281
     1
  3
CANNOSCALE
350
4B3180
  3
CMLEADERSTYLE
350
4B317C
  3
CTABLESTYLE
350
4B2F84
  3
CVIEWDETAILSTYLE
350
4B317D
  3
CVIEWSECTIONSTYLE
350
4B317E
  3
LAYEREVAL
350
4B3182
  3
LAYERNOTIFY
350
4B3183
  3
LIGHTINGUNITS
350
4B3181
  3
MSLTSCALE
350
4B317F
  3
SORTENTS
350
4B293F
  0
ACAD_PROXY_OBJECT
  5
4B2EB7
102
{ACAD_REACTORS
330
4B1ABC
102
}
330
4B1ABC
100
AcDbProxyObject
 90
      499
 91
      510
 71
    25
 97
       77
 70
     0
161
               240
310
4C51A47A0000000000000000000000000000000000000000000000000000AC
330
4B2EB8
330
4B2EB9
330
4B2EBA
330
4B2EBB
330
4B2EBC
330
4B2EBD
330
4B2EBE
330
4B2EBF
330
4B2EC0
330
4B2EC1
330
4B2EC2
330
4B2EC3
330
4B2EC4
330
4B2EC5
330
4B2EC6
330
4B2EC7
330
4B2EC8
330
4B2EC9
330
4B2ECA
330
4B2ECB
330
4B2ECC
330
4B2ECD
330
4B2ECE
330
4B2ECF
330
4B2ED0
330
4B2ED1
 94
        0
  0
ACAD_PROXY_OBJECT
  5
4B2EB1
102
{ACAD_REACTORS
330
4B1ABC
102
}
330
4B1ABC
100
AcDbProxyObject
 90
      499
 91
      518
 71
    25
 97
       77
 70
     0
161
                34
310
040000428C
 94
        0
  0
ACAD_PROXY_OBJECT
  5
4B2EDA
102
{ACAD_REACTORS
330
4B1ABC
102
}
330
4B1ABC
100
AcDbProxyObject
 90
      499
 91
      527
 71
    25
 97
       77
 70
     0
161
               114
310
04000041C08000000000000000000C
 94
        0
  0
DICTIONARY
  5
4B2EFA
102
{ACAD_REACTORS
330
4B1ABC
102
}
330
4B1ABC
100
AcDbDictionary
281
     1
  3
AcmBOMDATA
350
4B2EFB
  3
AcmStdDictionary
350
4B2F05
  3
AMDTSECTSYM_ARROWCOLOR
350
4B2F23
  0
ACAD_PROXY_OBJECT
  5
4B2EAB
102
{ACAD_REACTORS
330
4B1ABC
102
}
330
4B1ABC
100
AcDbProxyObject
 90
      499
 91
      512
 71
    25
 97
       77
 70
     0
161
                50
310
0001004040000C
330
0
330
0
330
4B2EAC
 94
        0
  0
ACAD_PROXY_OBJECT
  5
4B2EA8
102
{ACAD_REACTORS
330
4B1ABC
102
}
330
4B1ABC
100
AcDbProxyObject
 90
      499
 91
      509
 71
    25
 97
       77
 70
     0
161
              4158
310
47805054552415345805045A4F4F4D805055153415645404052E4D5347202D205050413A2020206465736B746F702E6172782046696C6556657273696F6E3A2031302E322E302E35014110D3D41650101461354D1C80B4810DBDB5B585B990810D05390D1531311510B805044D4F56458050653454C45435480506524F5441
310
544580506524F5441544580505455241534580504554E444F80505584C494E4580504554E444F805064F464653455440405184D5347202D20436F6D6D616E642043414E43454C4C45442E01411353D591601411353D5916014151549054D16014110D3D4166014151549054D16014115539113E01415613125391601411553
310
9113E014193D19194D15510101461354D1C80B4810DBDB5B585B990810D05390D1531311510B805044D4F5645805054552415345805045A4F4F4D805055153415645404052E4D5347202D205050413A2020206465736B746F702E6172782046696C6556657273696F6E3A2031302E322E302E35014390535115149154D1551
310
1109353D1102014213880B4815539113C05084E202D20554E444F0142135153955313D051102014213880B481693D3D3405184D5347202D20436F6D6D616E642043414E43454C4C45442E014154155491D16014150D313D4D1501014B9354D1C80B481414104E88080819195CDADD1BDC0B985C9E08119A5B1955995C9CDA5
310
BDB8E880C4C0B8C8B8C0B8D4
 94
        0
  0
ACAD_PROXY_OBJECT
  5
4B2EA7
102
{ACAD_REACTORS
330
4B1ABC
102
}
330
4B1ABC
100
AcDbProxyObject
 90
      499
 91
      508
 71
    25
 97
       77
 70
     0
161
               546
310
0A0000480080000000000000000012F4CE0000000000000000000000000000000000000000000000000000000000000000000000000000000000000000000000AAA406AA8C
360
4B2EAA
360
4B2EAC
360
4B2EB2
360
4B2EB3
360
4B2EB4
360
4B2EB5
360
4B2EB8
360
4B2EB9
360
4B2EBA
360
4B2EBB
360
4B2EBC
360
4B2EBD
360
4B2EBE
360
4B2EBF
360
4B2EC0
360
4B2EC1
360
4B2EC2
360
4B2EC3
360
4B2EC4
360
4B2EC5
360
4B2EC6
360
4B2EC7
360
4B2EC8
360
4B2EC9
360
4B2ECA
360
4B2ECB
360
4B2ECC
360
4B2ECD
360
4B2ECE
360
4B2ECF
360
4B2ED0
360
4B2ED1
360
4B2EE0
360
4B2EE2
360
4B2EE3
360
4B2EE4
360
4B2EE5
360
4B2EEB
360
4B2EEC
360
4B2EED
360
4B2EEE
360
4B2EF3
360
4B2EF4
360
4B2EF5
360
4B2EF6
360
4B2EF7
360
4B2EF8
 94
        0
  0
ACAD_PROXY_OBJECT
  5
4B2EB0
102
{ACAD_REACTORS
330
4B1ABC
102
}
330
4B1ABC
100
AcDbProxyObject
 90
      499
 91
      517
 71
    25
 97
       77
 70
     0
161
                50
310
0A000042A4128C
 94
        0
  0
ACAD_PROXY_OBJECT
  5
4B2EA9
102
{ACAD_REACTORS
330
4B1ABC
102
}
330
4B1ABC
100
AcDbProxyObject
 90
      499
 91
      510
 71
    25
 97
       77
 70
     0
161
                32
310
90140A0067
330
4B2EAA
 94
        0
  0
ACAD_PROXY_OBJECT
  5
4B2EDF
102
{ACAD_REACTORS
330
4B1ABC
102
}
330
4B1ABC
100
AcDbProxyObject
 90
      499
 91
      510
 71
    25
 97
       77
 70
     0
161
                32
310
90140A008C
330
4B2EE0
 94
        0
  0
ACAD_PROXY_OBJECT
  5
4B2EE7
102
{ACAD_REACTORS
330
4B1ABC
102
}
330
4B1ABC
100
AcDbProxyObject
 90
      499
 91
      538
 71
    25
 97
       77
 70
     0
161
                42
310
00090000404C
330
4B2EE2
 94
        0
  0
ACAD_PROXY_OBJECT
  5
4B2EE6
102
{ACAD_REACTORS
330
4B1ABC
102
}
330
4B1ABC
100
AcDbProxyObject
 90
      499
 91
      510
 71
    25
 97
       77
 70
     0
161
                 8
310
AA9F
 94
        0
  0
ACAD_PROXY_OBJECT
  5
4B2ED5
102
{ACAD_REACTORS
330
4B1ABC
102
}
330
4B1ABC
100
AcDbProxyObject
 90
      499
 91
      524
 71
    25
 97
       77
 70
     0
161
                42
310
000100005E8C
330
4B2EB2
 94
        0
  0
DICTIONARY
  5
4B2EA0
102
{ACAD_REACTORS
330
4B1ABC
102
}
330
4B1ABC
100
AcDbDictionary
281
     1
  3
AcMgSettings
350
4B2EA1
  3
AMGLAYCFG
350
4B2F07
  0
DICTIONARY
  5
4B2F4D
102
{ACAD_REACTORS
330
4B1ABC
102
}
330
4B1ABC
100
AcDbDictionary
281
     1
  3
DIMENSION
350
4B2F52
  3
FEA
350
4B2F51
  3
HATCH (1)
350
4B2F4E
  3
HATCH (2)
350
4B2F4F
  3
SIMPLE WELD
350
4B2F53
  3
SYMBOLS
350
4B2F50
  0
ACAD_PROXY_OBJECT
  5
4B2EDD
102
{ACAD_REACTORS
330
4B1ABC
102
}
330
4B1ABC
100
AcDbProxyObject
 90
      499
 91
      530
 71
    25
 97
       77
 70
     0
161
                34
310
050000428C
 94
        0
  0
ACAD_PROXY_OBJECT
  5
4B2EEF
102
{ACAD_REACTORS
330
4B1ABC
102
}
330
4B1ABC
100
AcDbProxyObject
 90
      499
 91
      541
 71
    25
 97
       77
 70
     0
161
                98
310
0A00004FC0000000000000000C
330
4B2EF6
330
0
330
4B2EF7
330
0
330
0
330
0
330
0
330
0
 94
        0
  0
ACAD_PROXY_OBJECT
  5
4B2EEA
102
{ACAD_REACTORS
330
4B1ABC
102
}
330
4B1ABC
100
AcDbProxyObject
 90
      499
 91
      510
 71
    25
 97
       77
 70
     0
161
                56
310
90441600000000F5
330
4B2EEB
330
4B2EEC
330
4B2EED
330
4B2EEE
 94
        0
  0
ACAD_PROXY_OBJECT
  5
4B2EDE
102
{ACAD_REACTORS
330
4B1ABC
102
}
330
4B1ABC
100
AcDbProxyObject
 90
      499
 91
      531
 71
    25
 97
       77
 70
     0
161
                 8
310
0552
 94
        0
  0
DICTIONARY
  5
4B2F80
102
{ACAD_REACTORS
330
4B1ABC
102
}
330
4B1ABC
100
AcDbDictionary
281
     1
  3
4a90ce4c-0x1a18-4316-AD76-5410FD1A5A0E
350
4B2F90
  3
744bc776-0xfc52-4f37-A866-777C9605EC66
350
4B303E
  3
9b32de5e-0x9b07-4747-BD9F-FBE1DCD4B630
350
4B304C
  3
ba94e7a6-0xd86b-46dd-AA0C-75BA8098A0E8
350
4B2FE2
  3
d0c91547-0x648b-40a0-8917-520E90AC1397
350
4B2F81
  3
ee6c50f-0xdf41-4016-8F4F-CEF3CD2D7E2F
350
4B2FF2
  0
DICTIONARY
  5
4B1D8F
102
{ACAD_REACTORS
330
4B1D8E
102
}
330
4B1D8E
100
AcDbDictionary
281
     1
  0
XRECORD
  5
4B3164
102
{ACAD_REACTORS
330
4B3163
102
}
330
4B3163
100
AcDbXrecord
280
     1
290
     1
  0
XRECORD
  5
4B3166
102
{ACAD_REACTORS
330
4B3165
102
}
330
4B3165
100
AcDbXrecord
280
     1
290
     1
  0
XRECORD
  5
4B3168
102
{ACAD_REACTORS
330
4B3167
102
}
330
4B3167
100
AcDbXrecord
280
     1
290
     1
  0
XRECORD
  5
4B316A
102
{ACAD_REACTORS
330
4B3169
102
}
330
4B3169
100
AcDbXrecord
280
     1
290
     1
  0
XRECORD
  5
4B316C
102
{ACAD_REACTORS
330
4B316B
102
}
330
4B316B
100
AcDbXrecord
280
     1
290
     1
  0
XRECORD
  5
4B316E
102
{ACAD_REACTORS
330
4B316D
102
}
330
4B316D
100
AcDbXrecord
280
     1
290
     1
  0
XRECORD
  5
4B3170
102
{ACAD_REACTORS
330
4B316F
102
}
330
4B316F
100
AcDbXrecord
280
     1
290
     1
  0
XRECORD
  5
4B3172
102
{ACAD_REACTORS
330
4B3171
102
}
330
4B3171
100
AcDbXrecord
280
     1
290
     1
  0
SORTENTSTABLE
  5
4B2F5F
102
{ACAD_REACTORS
330
4B2F5E
102
}
330
4B2F5E
100
AcDbSortentsTable
330
4B1AC8
331
4B1E8D
  5
4B1EA2
331
4B1EA6
  5
4B1EAD
331
4B1EAC
  5
4B1EAE
331
4B1EAD
  5
4B1EAF
331
4B1EAE
  5
4B1EB4
331
4B1EAF
  5
4B1ECC
331
4B1EB4
  5
4B1ECF
331
4B1ECC
  5
4B1ED0
331
4B1EEA
  5
4B1F11
331
4B1EF1
  5
4B2559
331
4B1EFC
  5
4B2590
331
4B1F0B
  5
4B2591
331
4B2558
  5
4B28EA
331
4B2559
  5
4B296E
331
4B258F
  5
4B2971
331
4B2590
  5
4B2973
331
4B2591
  5
4B2974
331
4B2592
  5
4B2975
331
4B28EA
  5
4B2976
331
4B296E
  5
4B2977
331
4B2971
  5
4B2978
331
4B2973
  5
4B2979
331
4B2974
  5
4B297A
331
4B2975
  5
4B297B
331
4B2976
  5
4B2994
331
4B2977
  5
4B2995
331
4B2978
  5
4B2996
331
4B2979
  5
4B2997
331
4B297A
  5
4B2998
331
4B297B
  5
4B2999
331
4B2994
  5
4B299A
331
4B2995
  5
4B299B
331
4B2996
  5
4B299C
331
4B2997
  5
4B299D
331
4B2998
  5
4B299F
331
4B2999
  5
4B29A0
331
4B299A
  5
4B29A1
331
4B299B
  5
4B29A2
331
4B299C
  5
4B29A3
331
4B299D
  5
4B29A4
331
4B299F
  5
4B29A5
331
4B29A0
  5
4B29A6
331
4B29A1
  5
4B29A7
331
4B29A2
  5
4B29A8
331
4B29A3
  5
4B29A9
331
4B29A4
  5
4B29AA
331
4B29A5
  5
4B29AB
331
4B29A6
  5
4B29AC
331
4B29A7
  5
4B29AD
331
4B29A8
  5
4B29AE
331
4B29A9
  5
4B29AF
331
4B29AA
  5
4B29B0
331
4B29AB
  5
4B29B1
331
4B29AC
  5
4B29B2
331
4B29AD
  5
4B29B3
331
4B29AE
  5
4B29B4
331
4B29AF
  5
4B29B5
331
4B29B0
  5
4B29B6
331
4B29B1
  5
4B29B7
331
4B29B2
  5
4B29B8
331
4B29B3
  5
4B29B9
331
4B29B4
  5
4B29BA
331
4B29B5
  5
4B29BB
331
4B29B6
  5
4B29BC
331
4B29B7
  5
4B29BD
331
4B29B8
  5
4B29BE
331
4B29B9
  5
4B29BF
331
4B29BA
  5
4B29C0
331
4B29BB
  5
4B29C1
331
4B29BC
  5
4B29C2
331
4B29BD
  5
4B29C3
331
4B29BE
  5
4B29C4
331
4B29BF
  5
4B29C5
331
4B29C0
  5
4B29C6
331
4B29C1
  5
4B29C7
331
4B29C2
  5
4B29C8
331
4B29C3
  5
4B29C9
331
4B29C4
  5
4B29CA
331
4B29C5
  5
4B29CB
331
4B29C6
  5
4B2CAA
331
4B29C7
  5
4B2CAB
331
4B29C8
  5
4B2CAC
331
4B29C9
  5
4B2CAD
331
4B29CA
  5
4B2CAE
331
4B29CB
  5
4B2CB1
331
4B2CAA
  5
4B2CB2
331
4B2CAC
  5
4B2CB7
331
4B2CAD
  5
4B2CB8
331
4B2CAE
  5
4B2CB9
331
4B2CB1
  5
4B2CBB
331
4B2CB2
  5
4B2CBD
331
4B2CB7
  5
4B2CBF
331
4B2CB8
  5
4B2CC0
331
4B2CB9
  5
4B2CC1
331
4B2CBB
  5
4B2CC2
331
4B2CBD
  5
4B2CC3
331
4B2CBE
  5
4B2CC4
331
4B2CBF
  5
4B2CC7
331
4B2CC0
  5
4B2CC8
331
4B2CC1
  5
4B2CC9
331
4B2CC2
  5
4B2CCA
331
4B2CC3
  5
4B2CCB
331
4B2CC4
  5
4B2CCD
331
4B2CC7
  5
4B2CCE
331
4B2CC8
  5
4B2CCF
331
4B2CC9
  5
4B2CD0
331
4B2CCA
  5
4B2CD1
331
4B2CCB
  5
4B2CD2
331
4B2CCD
  5
4B2CD5
331
4B2CCE
  5
4B2CD6
331
4B2CCF
  5
4B2CD8
331
4B2CD0
  5
4B2CD9
331
4B2CD2
  5
4B2CDB
331
4B2CD5
  5
4B2CDC
331
4B2CD6
  5
4B2CDD
331
4B2CD8
  5
4B2CDE
331
4B2CD9
  5
4B2CE5
331
4B2CDA
  5
4B2CE6
331
4B2CDC
  5
4B2F65
331
4B2CDD
  5
4B2F6B
331
4B2CDE
  5
4B2F71
331
4B2CE5
  5
4B2F7E
331
4B2CE6
  5
4B2F82
331
4B2F5D
  5
4B2558
331
4B2F65
  5
4B2592
331
4B2F6B
  5
4B1E8D
331
4B2F71
  5
4B1EAC
331
4B2F7E
  5
4B2F8F
331
4B2F82
  5
4B2F91
331
4B2F8F
  5
4B2F92
331
4B2F91
  5
4B2F93
331
4B2F92
  5
4B2FE1
331
4B2F93
  5
4B2FE3
331
4B2FE1
  5
4B2FF1
331
4B2FE3
  5
4B2FFD
331
4B2FF1
  5
4B2FFF
331
4B2FFD
  5
4B3000
331
4B300A
  5
4B301C
331
4B3016
  5
4B1EEF
331
4B301C
  5
4B1F0B
  0
SORTENTSTABLE
  5
4B2F8B
102
{ACAD_REACTORS
330
4B2F8A
102
}
330
4B2F8A
100
AcDbSortentsTable
330
4B2F86
  0
SORTENTSTABLE
  5
4B2FDD
102
{ACAD_REACTORS
330
4B2FDC
102
}
330
4B2FDC
100
AcDbSortentsTable
330
4B2FDA
  0
SORTENTSTABLE
  5
4B2FED
102
{ACAD_REACTORS
330
4B2FEC
102
}
330
4B2FEC
100
AcDbSortentsTable
330
4B2FE9
  0
SORTENTSTABLE
  5
4B3039
102
{ACAD_REACTORS
330
4B3038
102
}
330
4B3038
100
AcDbSortentsTable
330
4B3035
  0
SORTENTSTABLE
  5
4B3046
102
{ACAD_REACTORS
330
4B3045
102
}
330
4B3045
100
AcDbSortentsTable
330
4B3042
  0
ACDBDETAILVIEWSTYLE
  5
4B3156
102
{ACAD_REACTORS
330
4B3155
102
}
330
4B3155
100
AcDbModelDocViewStyle
 70
     0
  3
Imperial24
290
     1
300
Imperial24
 90
        0
100
AcDbDetailViewStyle
 70
     0
 71
     0
 90
        3
 71
     1
340
4B1AC0
 62
   256
 40
0.24
340
0
 62
   256
 40
0.24
300

 40
0.36
280
     3
 71
     2
340
4B1AC4
 90
       25
 62
   256
 71
     3
340
4B1AC0
 62
   256
 40
0.24
 90
        1
 40
0.75
 90
        1
300
%<\AcVar ViewType \f "%tc1">% %<\AcVar ViewDetailId>%\PSCALE %<\AcVar ViewScale \f "%sn">%
 71
     4
340
4B1AC4
 90
       25
 62
   256
340
4B1AC4
 90
       25
 62
   256
280
     0
  0
LAYOUT
  5
4B1D17
102
{ACAD_REACTORS
330
4B1D14
102
}
330
4B1D14
100
AcDbPlotSettings
  1

  2
\\CADSERVER\Jet25 Eng
  4

  6

 40
0.0
 41
0.0
 42
0.0
 43
0.0
 44
0.0
 45
0.0
 46
0.0
 47
0.0
 48
0.0
 49
0.0
140
0.0
141
0.0
142
1.0
143
1.0
 70
   688
 72
     0
 73
     0
 74
     5
  7
Harvey Std Plot Style.ctb
 75
    16
147
1.0
 76
     0
 77
     2
 78
   300
148
0.0
149
0.0
100
AcDbLayout
  1
Layout1
 70
     1
 71
     1
 10
0.0
 20
0.0
 11
12.0
 21
9.0
 12
0.0
 22
0.0
 32
0.0
 14
1.000000000000000E+20
 24
1.000000000000000E+20
 34
1.000000000000000E+20
 15
-1.000000000000000E+20
 25
-1.000000000000000E+20
 35
-1.000000000000000E+20
146
0.0
 13
0.0
 23
0.0
 33
0.0
 16
1.0
 26
0.0
 36
0.0
 17
0.0
 27
1.0
 37
0.0
 76
     0
330
4B1AC5
  0
LAYOUT
  5
4B1D16
102
{ACAD_REACTORS
330
4B1D14
102
}
330
4B1D14
100
AcDbPlotSettings
  1

  2
LaserJet 4V.pc3
  4
ANSI_A_(8.50_x_11.00_Inches)
  6
OLE1
 40
5.027083
 41
5.027083
 42
9.345078
 43
5.111754999999999
 44
215.899994
 45
279.399994
 46
0.0
 47
0.0
 48
0.0
 49
0.0
140
0.0
141
0.0
142
1.0
143
2.0
 70
 11952
 72
     0
 73
     0
 74
     1
  7
Harvey Std Plot Style.ctb
 75
    17
147
0.5
 76
     0
 77
     2
 78
   300
148
6.184611603847701
149
-16.38576844573776
100
AcDbLayout
  1
Model
 70
     1
 71
     0
 10
0.0
 20
0.0
 11
12.0
 21
9.0
 12
0.0
 22
0.0
 32
0.0
 14
0.0
 24
0.0
 34
0.0
 15
0.0
 25
0.0
 35
0.0
146
0.0
 13
0.0
 23
0.0
 33
0.0
 16
1.0
 26
0.0
 36
0.0
 17
0.0
 27
1.0
 37
0.0
 76
     0
330
4B1AC8
331
4B310C
  0
MATERIAL
  5
4B3116
102
{ACAD_XDICTIONARY
360
4B3117
102
}
102
{ACAD_REACTORS
330
4B2E96
102
}
330
4B2E96
100
AcDbMaterial
  1
ByBlock
 72
     0
 43
0.0208333333333333
 43
0.0
 43
0.0
 43
0.0
 43
0.0
 43
0.0208333333333333
 43
0.0
 43
0.0
 43
0.0
 43
0.0
 43
1.0
 43
0.0
 43
0.0
 43
0.0
 43
0.0
 43
1.0
 77
     0
 47
0.0208333333333333
 47
0.0
 47
0.0
 47
0.0
 47
0.0
 47
0.0208333333333333
 47
0.0
 47
0.0
 47
0.0
 47
0.0
 47
1.0
 47
0.0
 47
0.0
 47
0.0
 47
0.0
 47
1.0
171
     0
 49
0.0208333333333333
 49
0.0
 49
0.0
 49
0.0
 49
0.0
 49
0.0208333333333333
 49
0.0
 49
0.0
 49
0.0
 49
0.0
 49
1.0
 49
0.0
 49
0.0
 49
0.0
 49
0.0
 49
1.0
175
     0
142
0.0208333333333333
142
0.0
142
0.0
142
0.0
142
0.0
142
0.0208333333333333
142
0.0
142
0.0
142
0.0
142
0.0
142
1.0
142
0.0
142
0.0
142
0.0
142
0.0
142
1.0
179
     0
144
0.0208333333333333
144
0.0
144
0.0
144
0.0
144
0.0
144
0.0208333333333333
144
0.0
144
0.0
144
0.0
144
0.0
144
1.0
144
0.0
144
0.0
144
0.0
144
0.0
144
1.0
147
0.0208333333333333
147
0.0
147
0.0
147
0.0
147
0.0
147
0.0208333333333333
147
0.0
147
0.0
147
0.0
147
0.0
147
1.0
147
0.0
147
0.0
147
0.0
147
0.0
147
1.0
  0
MATERIAL
  5
4B310E
102
{ACAD_XDICTIONARY
360
4B310F
102
}
102
{ACAD_REACTORS
330
4B2E96
102
}
330
4B2E96
100
AcDbMaterial
  1
ByLayer
 72
     0
 43
0.0208333333333333
 43
0.0
 43
0.0
 43
0.0
 43
0.0
 43
0.0208333333333333
 43
0.0
 43
0.0
 43
0.0
 43
0.0
 43
1.0
 43
0.0
 43
0.0
 43
0.0
 43
0.0
 43
1.0
 77
     0
 47
0.0208333333333333
 47
0.0
 47
0.0
 47
0.0
 47
0.0
 47
0.0208333333333333
 47
0.0
 47
0.0
 47
0.0
 47
0.0
 47
1.0
 47
0.0
 47
0.0
 47
0.0
 47
0.0
 47
1.0
171
     0
 49
0.0208333333333333
 49
0.0
 49
0.0
 49
0.0
 49
0.0
 49
0.0208333333333333
 49
0.0
 49
0.0
 49
0.0
 49
0.0
 49
1.0
 49
0.0
 49
0.0
 49
0.0
 49
0.0
 49
1.0
175
     0
142
0.0208333333333333
142
0.0
142
0.0
142
0.0
142
0.0
142
0.0208333333333333
142
0.0
142
0.0
142
0.0
142
0.0
142
1.0
142
0.0
142
0.0
142
0.0
142
0.0
142
1.0
179
     0
144
0.0208333333333333
144
0.0
144
0.0
144
0.0
144
0.0
144
0.0208333333333333
144
0.0
144
0.0
144
0.0
144
0.0
144
1.0
144
0.0
144
0.0
144
0.0
144
0.0
144
1.0
147
0.0208333333333333
147
0.0
147
0.0
147
0.0
147
0.0
147
0.0208333333333333
147
0.0
147
0.0
147
0.0
147
0.0
147
1.0
147
0.0
147
0.0
147
0.0
147
0.0
147
1.0
  0
MATERIAL
  5
4B311E
102
{ACAD_XDICTIONARY
360
4B311F
102
}
102
{ACAD_REACTORS
330
4B2E96
102
}
330
4B2E96
100
AcDbMaterial
  1
Global
 72
     0
 43
0.0208333333333333
 43
0.0
 43
0.0
 43
0.0
 43
0.0
 43
0.0208333333333333
 43
0.0
 43
0.0
 43
0.0
 43
0.0
 43
1.0
 43
0.0
 43
0.0
 43
0.0
 43
0.0
 43
1.0
 77
     0
 47
0.0208333333333333
 47
0.0
 47
0.0
 47
0.0
 47
0.0
 47
0.0208333333333333
 47
0.0
 47
0.0
 47
0.0
 47
0.0
 47
1.0
 47
0.0
 47
0.0
 47
0.0
 47
0.0
 47
1.0
171
     0
 49
0.0208333333333333
 49
0.0
 49
0.0
 49
0.0
 49
0.0
 49
0.0208333333333333
 49
0.0
 49
0.0
 49
0.0
 49
0.0
 49
1.0
 49
0.0
 49
0.0
 49
0.0
 49
0.0
 49
1.0
175
     0
142
0.0208333333333333
142
0.0
142
0.0
142
0.0
142
0.0
142
0.0208333333333333
142
0.0
142
0.0
142
0.0
142
0.0
142
1.0
142
0.0
142
0.0
142
0.0
142
0.0
142
1.0
179
     0
144
0.0208333333333333
144
0.0
144
0.0
144
0.0
144
0.0
144
0.0208333333333333
144
0.0
144
0.0
144
0.0
144
0.0
144
1.0
144
0.0
144
0.0
144
0.0
144
0.0
144
1.0
147
0.0208333333333333
147
0.0
147
0.0
147
0.0
147
0.0
147
0.0208333333333333
147
0.0
147
0.0
147
0.0
147
0.0
147
1.0
147
0.0
147
0.0
147
0.0
147
0.0
147
1.0
  0
MLEADERSTYLE
  5
4B3152
102
{ACAD_REACTORS
330
4B3151
102
}
330
4B3151
100
AcDbMLeaderStyle
179
     2
170
     2
171
     1
172
     0
 90
        2
 40
0.0
 41
0.0
173
     1
 91
-1056964608
340
4B1AC2
 92
       -2
290
     1
 42
0.09
291
     1
 43
0.36
  3
Standard
 44
0.18
300

342
4B1AC0
174
     1
178
     6
175
     1
176
     0
 93
-1056964608
 45
0.18
292
     0
297
     0
 46
0.18
 94
-1056964608
 47
1.0
 49
1.0
140
1.0
293
     1
141
0.0
294
     1
177
     0
142
1.0
295
     1
296
     0
143
0.125
271
     0
272
     9
273
     9
298
     1
  0
MLINESTYLE
  5
4B1ACB
102
{ACAD_REACTORS
330
4B1ABE
102
}
330
4B1ABE
100
AcDbMlineStyle
  2
STANDARD
 70
     0
  3

 62
     0
 51
90.0
 52
90.0
 71
     2
 49
0.5
 62
   256
  6
BYLAYER
 49
-0.5
 62
   256
  6
BYLAYER
  0
PLOTSETTINGS
  5
4B1D2C
102
{ACAD_REACTORS
330
4B1D15
102
}
330
4B1D15
100
AcDbPlotSettings
  1
A_size_1_to_1
  2
\\CADSERVER\Jet25 Eng
  4
Letter
  6
OLE1
 40
7.143749713897705
 41
6.720414161682128
 42
7.14373779296875
 43
5.027069091796875
 44
215.8999938964844
 45
279.3999938964844
 46
0.0
 47
0.0
 48
0.0
 49
0.0
140
0.0
141
0.0
142
1.0
143
1.0
 70
  1712
 72
     0
 73
     1
 74
     2
  7
Harvey Std Plot Style.ctb
 75
    16
147
1.0
 76
     0
 77
     2
 78
   300
148
0.0
149
0.0
  0
PLOTSETTINGS
  5
4B1D2E
102
{ACAD_REACTORS
330
4B1D15
102
}
330
4B1D15
100
AcDbPlotSettings
  1
B_size_1_to_1
  2
\\CADSERVER\Jet25 Eng
  4
Tabloid
  6
OLE1
 40
7.143749713897705
 41
5.873736858367919
 42
7.143768310546875
 43
7.14373779296875
 44
279.3999938964844
 45
431.7999877929687
 46
0.0
 47
0.0
 48
0.0
 49
0.0
140
0.0
141
0.0
142
1.0
143
1.0
 70
  1712
 72
     0
 73
     1
 74
     2
  7
Harvey Std Plot Style.ctb
 75
    16
147
1.0
 76
     0
 77
     2
 78
   300
148
0.0
149
0.0
  0
ACDBPLACEHOLDER
  5
4B1D13
102
{ACAD_REACTORS
330
4B1D12
102
}
330
4B1D12
  0
SCALE
  5
4B3140
102
{ACAD_REACTORS
330
4B313F
102
}
330
4B313F
100
AcDbScale
 70
     0
300
1:1
140
1.0
141
1.0
290
     1
  0
SCALE
  5
4B3141
102
{ACAD_REACTORS
330
4B313F
102
}
330
4B313F
100
AcDbScale
 70
     0
300
1/128" = 1'-0"
140
0.0078125
141
12.0
290
     0
  0
SCALE
  5
4B3142
102
{ACAD_REACTORS
330
4B313F
102
}
330
4B313F
100
AcDbScale
 70
     0
300
1/64" = 1'-0"
140
0.015625
141
12.0
290
     0
  0
SCALE
  5
4B3143
102
{ACAD_REACTORS
330
4B313F
102
}
330
4B313F
100
AcDbScale
 70
     0
300
1/32" = 1'-0"
140
0.03125
141
12.0
290
     0
  0
SCALE
  5
4B3144
102
{ACAD_REACTORS
330
4B313F
102
}
330
4B313F
100
AcDbScale
 70
     0
300
1/16" = 1'-0"
140
0.0625
141
12.0
290
     0
  0
SCALE
  5
4B3145
102
{ACAD_REACTORS
330
4B313F
102
}
330
4B313F
100
AcDbScale
 70
     0
300
3/32" = 1'-0"
140
0.09375
141
12.0
290
     0
  0
SCALE
  5
4B3146
102
{ACAD_REACTORS
330
4B313F
102
}
330
4B313F
100
AcDbScale
 70
     0
300
1/8" = 1'-0"
140
0.125
141
12.0
290
     0
  0
SCALE
  5
4B3147
102
{ACAD_REACTORS
330
4B313F
102
}
330
4B313F
100
AcDbScale
 70
     0
300
3/16" = 1'-0"
140
0.1875
141
12.0
290
     0
  0
SCALE
  5
4B3148
102
{ACAD_REACTORS
330
4B313F
102
}
330
4B313F
100
AcDbScale
 70
     0
300
1/4" = 1'-0"
140
0.25
141
12.0
290
     0
  0
SCALE
  5
4B3149
102
{ACAD_REACTORS
330
4B313F
102
}
330
4B313F
100
AcDbScale
 70
     0
300
3/8" = 1'-0"
140
0.375
141
12.0
290
     0
  0
SCALE
  5
4B314A
102
{ACAD_REACTORS
330
4B313F
102
}
330
4B313F
100
AcDbScale
 70
     0
300
1/2" = 1'-0"
140
0.5
141
12.0
290
     0
  0
SCALE
  5
4B314B
102
{ACAD_REACTORS
330
4B313F
102
}
330
4B313F
100
AcDbScale
 70
     0
300
3/4" = 1'-0"
140
0.75
141
12.0
290
     0
  0
SCALE
  5
4B314C
102
{ACAD_REACTORS
330
4B313F
102
}
330
4B313F
100
AcDbScale
 70
     0
300
1" = 1'-0"
140
1.0
141
12.0
290
     0
  0
SCALE
  5
4B314D
102
{ACAD_REACTORS
330
4B313F
102
}
330
4B313F
100
AcDbScale
 70
     0
300
1-1/2" = 1'-0"
140
1.5
141
12.0
290
     0
  0
SCALE
  5
4B314E
102
{ACAD_REACTORS
330
4B313F
102
}
330
4B313F
100
AcDbScale
 70
     0
300
3" = 1'-0"
140
3.0
141
12.0
290
     0
  0
SCALE
  5
4B314F
102
{ACAD_REACTORS
330
4B313F
102
}
330
4B313F
100
AcDbScale
 70
     0
300
6" = 1'-0"
140
6.0
141
12.0
290
     0
  0
SCALE
  5
4B3150
102
{ACAD_REACTORS
330
4B313F
102
}
330
4B313F
100
AcDbScale
 70
     0
300
1'-0" = 1'-0"
140
12.0
141
12.0
290
     0
  0
ACDBSECTIONVIEWSTYLE
  5
4B3154
102
{ACAD_REACTORS
330
4B3153
102
}
330
4B3153
100
AcDbModelDocViewStyle
 70
     0
  3
Imperial24
290
     1
300
Imperial24
 90
        0
100
AcDbSectionViewStyle
 70
     0
 71
     0
 90
       78
 71
     1
340
4B1AC0
 62
   256
 40
0.24
340
0
340
0
 62
   256
 40
0.24
300
I, O, Q, S, X, Z
 40
0.48
 90
        3
 40
0.18
 90
        1
 71
     2
340
4B1AC4
 90
       25
 62
   256
340
4B1AC4
 90
       50
 62
   256
 40
0.24
 40
0.0
 40
0.24
 71
     3
340
4B1AC0
 62
   256
 40
0.24
 90
        1
 40
0.75
 90
        1
300
%<\AcVar ViewType \f "%tc1">% %<\AcVar ViewSectionStartId>%-%<\AcVar ViewSectionEndId>%\PSCALE %<\AcVar ViewScale \f "%sn">%
 71
     4
 62
   256
 62
   257
300
ANSI31
 40
1.0
 90
        0
290
     0
290
     0
 90
        6
 40
0.0
 40
1.570796326794896
 40
0.2617993877991494
 40
1.308996938995747
 40
-0.2617993877991494
 40
1.832595714594046
  0
TABLESTYLE
  5
4B2E99
102
{ACAD_XDICTIONARY
360
4B318D
102
}
102
{ACAD_REACTORS
330
4B2E98
102
}
330
4B2E98
100
AcDbTableStyle
280
     0
  3
Standard
 70
     0
 71
     0
 40
0.06
 41
0.06
280
     0
281
     0
  7
STANDARD
140
0.18
170
     2
 62
     0
 63
     7
283
     0
 90
        4
 91
        0
  1

274
    -2
284
     1
 64
     0
275
    -2
285
     1
 65
     0
276
    -2
286
     1
 66
     0
277
    -2
287
     1
 67
     0
278
    -2
288
     1
 68
     0
279
    -2
289
     1
 69
     0
  7
STANDARD
140
0.25
170
     5
 62
     0
 63
     7
283
     0
 90
        4
 91
        0
  1

274
    -2
284
     1
 64
     0
275
    -2
285
     1
 65
     0
276
    -2
286
     1
 66
     0
277
    -2
287
     1
 67
     0
278
    -2
288
     1
 68
     0
279
    -2
289
     1
 69
     0
  7
STANDARD
140
0.18
170
     5
 62
     0
 63
     7
283
     0
 90
        4
 91
        0
  1

274
    -2
284
     1
 64
     0
275
    -2
285
     1
 65
     0
276
    -2
286
     1
 66
     0
277
    -2
287
     1
 67
     0
278
    -2
288
     1
 68
     0
279
    -2
289
     1
 69
     0
  0
VISUALSTYLE
  5
4B312C
102
{ACAD_REACTORS
330
4B3126
102
}
330
4B3126
100
AcDbVisualStyle
  2
2dWireframe
 70
     4
177
     3
291
     0
 70
    58
 90
        0
176
     1
 90
        2
176
     1
 90
        0
176
     1
 90
        0
176
     1
 40
0.6
176
     1
 40
30.0
176
     1
 62
     7
420
 16777215
176
     1
 90
        1
176
     1
 90
        4
176
     1
 62
     7
176
     1
 62
   257
176
     1
 90
        1
176
     1
 90
        1
176
     1
 40
1.0
176
     1
 90
        0
176
     1
 62
   257
176
     1
 40
1.0
176
     1
 90
        1
176
     1
 90
        6
176
     1
 90
        2
176
     1
 62
     7
176
     1
 90
        5
176
     1
 90
        0
176
     1
 90
        0
176
     1
290
     0
176
     1
 90
        1
176
     1
 40
0.0
176
     1
 90
        0
176
     1
290
     1
176
     1
290
     1
176
     1
290
     0
176
     1
290
     0
176
     1
290
     0
176
     1
290
     0
176
     1
290
     0
176
     1
290
     0
176
     1
290
     0
176
     1
 90
       50
176
     1
 40
0.0
176
     1
 40
1.0
176
     1
 90
        0
176
     1
 62
    18
420
        0
176
     1
 90
       50
176
     1
 90
        3
176
     1
 62
     5
420
      255
176
     1
290
     0
176
     1
 90
       50
176
     1
 90
       50
176
     1
 90
       50
176
     1
290
     0
176
     1
 90
       50
176
     1
 62
   256
176
     0
 40
1.0
176
     0
 90
        2
176
     1
  1
strokes_ogs.tif
176
     1
290
     0
176
     1
 40
1.0
176
     1
 40
1.0
176
     1
  0
VISUALSTYLE
  5
4B312B
102
{ACAD_REACTORS
330
4B3126
102
}
330
4B3126
100
AcDbVisualStyle
  2
Basic
 70
     7
177
     3
291
     1
 70
    58
 90
        1
176
     1
 90
        0
176
     1
 90
        1
176
     1
 90
        0
176
     1
 40
0.6
176
     1
 40
30.0
176
     1
 62
     7
420
 16777215
176
     1
 90
        0
176
     1
 90
        4
176
     1
 62
     7
176
     1
 62
   257
176
     1
 90
        1
176
     1
 90
        1
176
     1
 40
1.0
176
     1
 90
        8
176
     1
 62
     7
176
     1
 40
1.0
176
     1
 90
        1
176
     1
 90
        6
176
     1
 90
        2
176
     1
 62
     7
176
     1
 90
        5
176
     1
 90
        0
176
     1
 90
        0
176
     1
290
     0
176
     1
 90
        1
176
     1
 40
0.0
176
     1
 90
        0
176
     1
290
     0
176
     1
290
     1
176
     1
290
     1
176
     1
290
     0
176
     1
290
     0
176
     1
290
     0
176
     1
290
     0
176
     1
290
     0
176
     1
290
     0
176
     1
 90
       50
176
     1
 40
0.0
176
     1
 40
1.0
176
     1
 90
        0
176
     1
 62
    18
420
        0
176
     1
 90
       50
176
     1
 90
        3
176
     1
 62
     5
420
      255
176
     1
290
     0
176
     1
 90
       50
176
     1
 90
       50
176
     1
 90
       50
176
     1
290
     0
176
     1
 90
       50
176
     1
 62
   256
176
     0
 40
1.0
176
     0
 90
        2
176
     1
  1
strokes_ogs.tif
176
     1
290
     0
176
     1
 40
1.0
176
     1
 40
1.0
176
     1
  0
VISUALSTYLE
  5
4B3132
102
{ACAD_REACTORS
330
4B3126
102
}
330
4B3126
100
AcDbVisualStyle
  2
Brighten
 70
    12
177
     3
291
     1
 70
    58
 90
        2
176
     1
 90
        2
176
     1
 90
        0
176
     1
 90
        0
176
     1
 40
0.6
176
     1
 40
30.0
176
     1
 62
     7
420
 16777215
176
     1
 90
        1
176
     1
 90
        4
176
     1
 62
     7
176
     1
 62
   257
176
     1
 90
        1
176
     1
 90
        1
176
     1
 40
1.0
176
     1
 90
        8
176
     1
 62
     7
176
     1
 40
1.0
176
     1
 90
        1
176
     1
 90
        6
176
     1
 90
        2
176
     1
 62
     7
176
     1
 90
        5
176
     1
 90
        0
176
     1
 90
        0
176
     1
290
     0
176
     1
 90
        1
176
     1
 40
50.0
176
     1
 90
        0
176
     1
290
     0
176
     1
290
     1
176
     1
290
     1
176
     1
290
     0
176
     1
290
     0
176
     1
290
     0
176
     1
290
     0
176
     1
290
     0
176
     1
290
     0
176
     1
 90
       50
176
     1
 40
0.0
176
     1
 40
1.0
176
     1
 90
        0
176
     1
 62
    18
420
        0
176
     1
 90
       50
176
     1
 90
        3
176
     1
 62
     5
420
      255
176
     1
290
     0
176
     1
 90
       50
176
     1
 90
       50
176
     1
 90
       50
176
     1
290
     0
176
     1
 90
       50
176
     1
 62
   256
176
     0
 40
1.0
176
     0
 90
        2
176
     1
  1
strokes_ogs.tif
176
     1
290
     0
176
     1
 40
1.0
176
     1
 40
1.0
176
     1
  0
VISUALSTYLE
  5
4B3136
102
{ACAD_REACTORS
330
4B3126
102
}
330
4B3126
100
AcDbVisualStyle
  2
ColorChange
 70
    16
177
     3
291
     1
 70
    58
 90
        2
176
     1
 90
        2
176
     1
 90
        3
176
     1
 90
        0
176
     1
 40
0.6
176
     1
 40
30.0
176
     1
 62
     8
420
  8421504
176
     1
 90
        1
176
     1
 90
        4
176
     1
 62
     7
176
     1
 62
   257
176
     1
 90
        1
176
     1
 90
        1
176
     1
 40
1.0
176
     1
 90
        8
176
     1
 62
     8
420
  8421504
176
     1
 40
1.0
176
     1
 90
        1
176
     1
 90
        6
176
     1
 90
        2
176
     1
 62
     7
176
     1
 90
        5
176
     1
 90
        0
176
     1
 90
        0
176
     1
290
     0
176
     1
 90
        1
176
     1
 40
0.0
176
     1
 90
        0
176
     1
290
     0
176
     1
290
     1
176
     1
290
     1
176
     1
290
     0
176
     1
290
     0
176
     1
290
     0
176
     1
290
     0
176
     1
290
     0
176
     1
290
     0
176
     1
 90
       50
176
     1
 40
0.0
176
     1
 40
1.0
176
     1
 90
        0
176
     1
 62
    18
420
        0
176
     1
 90
       50
176
     1
 90
        3
176
     1
 62
     5
420
      255
176
     1
290
     0
176
     1
 90
       50
176
     1
 90
       50
176
     1
 90
       50
176
     1
290
     0
176
     1
 90
       50
176
     1
 62
   256
176
     0
 40
1.0
176
     0
 90
        2
176
     1
  1
strokes_ogs.tif
176
     1
290
     0
176
     1
 40
1.0
176
     1
 40
1.0
176
     1
  0
VISUALSTYLE
  5
4B312F
102
{ACAD_REACTORS
330
4B3126
102
}
330
4B3126
100
AcDbVisualStyle
  2
Conceptual
 70
     9
177
     3
291
     0
 70
    58
 90
        3
176
     1
 90
        2
176
     1
 90
        0
176
     1
 90
        0
176
     1
 40
0.6
176
     1
 40
30.0
176
     1
 62
     7
420
 16777215
176
     1
 90
        2
176
     1
 90
        2
176
     1
 62
     7
176
     1
 62
   257
176
     1
 90
        1
176
     1
 90
        1
176
     1
 40
179.0
176
     1
 90
        8
176
     1
 62
     7
176
     1
 40
1.0
176
     1
 90
        1
176
     1
 90
        6
176
     1
 90
        2
176
     1
 62
     7
176
     1
 90
        3
176
     1
 90
        0
176
     1
 90
        0
176
     1
290
     0
176
     1
 90
        1
176
     1
 40
0.0
176
     1
 90
        0
176
     1
290
     0
176
     1
290
     1
176
     1
290
     1
176
     1
290
     0
176
     1
290
     0
176
     1
290
     0
176
     1
290
     0
176
     1
290
     0
176
     1
290
     0
176
     1
 90
       50
176
     1
 40
0.0
176
     1
 40
1.0
176
     1
 90
        0
176
     1
 62
    18
420
        0
176
     1
 90
       50
176
     1
 90
        3
176
     1
 62
     5
420
      255
176
     1
290
     0
176
     1
 90
       50
176
     1
 90
       50
176
     1
 90
       50
176
     1
290
     0
176
     1
 90
       50
176
     1
 62
   256
176
     0
 40
1.0
176
     0
 90
        2
176
     1
  1
strokes_ogs.tif
176
     1
290
     0
176
     1
 40
1.0
176
     1
 40
1.0
176
     1
  0
VISUALSTYLE
  5
4B3131
102
{ACAD_REACTORS
330
4B3126
102
}
330
4B3126
100
AcDbVisualStyle
  2
Dim
 70
    11
177
     3
291
     1
 70
    58
 90
        2
176
     1
 90
        2
176
     1
 90
        0
176
     1
 90
        0
176
     1
 40
0.6
176
     1
 40
30.0
176
     1
 62
     7
420
 16777215
176
     1
 90
        1
176
     1
 90
        4
176
     1
 62
     7
176
     1
 62
   257
176
     1
 90
        1
176
     1
 90
        1
176
     1
 40
1.0
176
     1
 90
        8
176
     1
 62
     7
176
     1
 40
1.0
176
     1
 90
        1
176
     1
 90
        6
176
     1
 90
        2
176
     1
 62
     7
176
     1
 90
        5
176
     1
 90
        0
176
     1
 90
        0
176
     1
290
     0
176
     1
 90
        1
176
     1
 40
-50.0
176
     1
 90
        0
176
     1
290
     0
176
     1
290
     1
176
     1
290
     1
176
     1
290
     0
176
     1
290
     0
176
     1
290
     0
176
     1
290
     0
176
     1
290
     0
176
     1
290
     0
176
     1
 90
       50
176
     1
 40
0.0
176
     1
 40
1.0
176
     1
 90
        0
176
     1
 62
    18
420
        0
176
     1
 90
       50
176
     1
 90
        3
176
     1
 62
     5
420
      255
176
     1
290
     0
176
     1
 90
       50
176
     1
 90
       50
176
     1
 90
       50
176
     1
290
     0
176
     1
 90
       50
176
     1
 62
   256
176
     0
 40
1.0
176
     0
 90
        2
176
     1
  1
strokes_ogs.tif
176
     1
290
     0
176
     1
 40
1.0
176
     1
 40
1.0
176
     1
  0
VISUALSTYLE
  5
4B313E
102
{ACAD_REACTORS
330
4B3126
102
}
330
4B3126
100
AcDbVisualStyle
  2
EdgeColorOff
 70
    22
177
     3
291
     1
 70
    58
 90
        2
176
     0
 90
        2
176
     0
 90
        0
176
     0
 90
        0
176
     0
 40
0.6
176
     0
 40
30.0
176
     0
 62
     7
420
 16777215
176
     0
 90
        1
176
     0
 90
        4
176
     0
 62
     7
176
     0
 62
   257
176
     0
 90
        1
176
     0
 90
        1
176
     0
 40
1.0
176
     0
 90
        8
176
     2
 62
     7
176
     0
 40
1.0
176
     0
 90
        1
176
     0
 90
        6
176
     0
 90
        2
176
     0
 62
     7
176
     0
 90
        5
176
     0
 90
        0
176
     0
 90
        0
176
     0
290
     0
176
     0
 90
        1
176
     0
 40
0.0
176
     0
 90
        0
176
     0
290
     0
176
     0
290
     1
176
     0
290
     1
176
     0
290
     0
176
     0
290
     0
176
     0
290
     0
176
     0
290
     0
176
     0
290
     0
176
     0
290
     0
176
     0
 90
       50
176
     0
 40
0.0
176
     0
 40
1.0
176
     0
 90
        0
176
     0
 62
    18
420
        0
176
     0
 90
       50
176
     0
 90
        3
176
     0
 62
     5
420
      255
176
     0
290
     0
176
     0
 90
       50
176
     0
 90
       50
176
     0
 90
       50
176
     0
290
     0
176
     0
 90
       50
176
     0
 62
   256
176
     0
 40
1.0
176
     0
 90
        2
176
     0
  1
strokes_ogs.tif
176
     0
290
     0
176
     0
 40
1.0
176
     0
 40
1.0
176
     0
  0
VISUALSTYLE
  5
4B3135
102
{ACAD_REACTORS
330
4B3126
102
}
330
4B3126
100
AcDbVisualStyle
  2
Facepattern
 70
    15
177
     3
291
     1
 70
    58
 90
        2
176
     1
 90
        2
176
     1
 90
        0
176
     1
 90
        0
176
     1
 40
0.6
176
     1
 40
30.0
176
     1
 62
     7
420
 16777215
176
     1
 90
        1
176
     1
 90
        4
176
     1
 62
     7
176
     1
 62
   257
176
     1
 90
        1
176
     1
 90
        1
176
     1
 40
1.0
176
     1
 90
        8
176
     1
 62
     7
176
     1
 40
1.0
176
     1
 90
        1
176
     1
 90
        6
176
     1
 90
        2
176
     1
 62
     7
176
     1
 90
        5
176
     1
 90
        0
176
     1
 90
        0
176
     1
290
     0
176
     1
 90
        1
176
     1
 40
0.0
176
     1
 90
        0
176
     1
290
     0
176
     1
290
     1
176
     1
290
     1
176
     1
290
     0
176
     1
290
     0
176
     1
290
     0
176
     1
290
     0
176
     1
290
     0
176
     1
290
     0
176
     1
 90
       50
176
     1
 40
0.0
176
     1
 40
1.0
176
     1
 90
        0
176
     1
 62
    18
420
        0
176
     1
 90
       50
176
     1
 90
        3
176
     1
 62
     5
420
      255
176
     1
290
     0
176
     1
 90
       50
176
     1
 90
       50
176
     1
 90
       50
176
     1
290
     0
176
     1
 90
       50
176
     1
 62
   256
176
     0
 40
1.0
176
     0
 90
        2
176
     1
  1
strokes_ogs.tif
176
     1
290
     0
176
     1
 40
1.0
176
     1
 40
1.0
176
     1
  0
VISUALSTYLE
  5
4B3127
102
{ACAD_REACTORS
330
4B3126
102
}
330
4B3126
100
AcDbVisualStyle
  2
Flat
 70
     0
177
     3
291
     1
 70
    58
 90
        2
176
     1
 90
        1
176
     1
 90
        1
176
     1
 90
        2
176
     1
 40
0.6
176
     1
 40
30.0
176
     1
 62
     7
420
 16777215
176
     1
 90
        0
176
     1
 90
        0
176
     1
 62
     7
176
     1
 62
   257
176
     1
 90
        1
176
     1
 90
        1
176
     1
 40
1.0
176
     1
 90
        8
176
     1
 62
     7
176
     1
 40
1.0
176
     1
 90
        1
176
     1
 90
        6
176
     1
 90
        2
176
     1
 62
     7
176
     1
 90
        5
176
     1
 90
        0
176
     1
 90
        0
176
     1
290
     0
176
     1
 90
       13
176
     1
 40
0.0
176
     1
 90
        0
176
     1
290
     0
176
     1
290
     1
176
     1
290
     1
176
     1
290
     0
176
     1
290
     0
176
     1
290
     0
176
     1
290
     0
176
     1
290
     0
176
     1
290
     0
176
     1
 90
       50
176
     1
 40
0.0
176
     1
 40
1.0
176
     1
 90
        0
176
     1
 62
    18
420
        0
176
     1
 90
       50
176
     1
 90
        3
176
     1
 62
     5
420
      255
176
     1
290
     0
176
     1
 90
       50
176
     1
 90
       50
176
     1
 90
       50
176
     1
290
     0
176
     1
 90
       50
176
     1
 62
   256
176
     0
 40
1.0
176
     0
 90
        2
176
     1
  1
strokes_ogs.tif
176
     1
290
     0
176
     1
 40
1.0
176
     1
 40
1.0
176
     1
  0
VISUALSTYLE
  5
4B3128
102
{ACAD_REACTORS
330
4B3126
102
}
330
4B3126
100
AcDbVisualStyle
  2
FlatWithEdges
 70
     1
177
     3
291
     1
 70
    58
 90
        2
176
     1
 90
        1
176
     1
 90
        1
176
     1
 90
        2
176
     1
 40
0.6
176
     1
 40
30.0
176
     1
 62
     7
420
 16777215
176
     1
 90
        1
176
     1
 90
        0
176
     1
 62
     7
176
     1
 62
   257
176
     1
 90
        1
176
     1
 90
        1
176
     1
 40
1.0
176
     1
 90
        0
176
     1
 62
   257
176
     1
 40
1.0
176
     1
 90
        1
176
     1
 90
        6
176
     1
 90
        2
176
     1
 62
     7
176
     1
 90
        5
176
     1
 90
        0
176
     1
 90
        0
176
     1
290
     0
176
     1
 90
       13
176
     1
 40
0.0
176
     1
 90
        0
176
     1
290
     0
176
     1
290
     1
176
     1
290
     1
176
     1
290
     0
176
     1
290
     0
176
     1
290
     0
176
     1
290
     0
176
     1
290
     0
176
     1
290
     0
176
     1
 90
       50
176
     1
 40
0.0
176
     1
 40
1.0
176
     1
 90
        0
176
     1
 62
    18
420
        0
176
     1
 90
       50
176
     1
 90
        3
176
     1
 62
     5
420
      255
176
     1
290
     0
176
     1
 90
       50
176
     1
 90
       50
176
     1
 90
       50
176
     1
290
     0
176
     1
 90
       50
176
     1
 62
   256
176
     0
 40
1.0
176
     0
 90
        2
176
     1
  1
strokes_ogs.tif
176
     1
290
     0
176
     1
 40
1.0
176
     1
 40
1.0
176
     1
  0
VISUALSTYLE
  5
4B3129
102
{ACAD_REACTORS
330
4B3126
102
}
330
4B3126
100
AcDbVisualStyle
  2
Gouraud
 70
     2
177
     3
291
     1
 70
    58
 90
        2
176
     1
 90
        2
176
     1
 90
        1
176
     1
 90
        2
176
     1
 40
0.6
176
     1
 40
30.0
176
     1
 62
     7
420
 16777215
176
     1
 90
        0
176
     1
 90
        0
176
     1
 62
     7
176
     1
 62
   257
176
     1
 90
        1
176
     1
 90
        1
176
     1
 40
1.0
176
     1
 90
        0
176
     1
 62
     7
176
     1
 40
1.0
176
     1
 90
        1
176
     1
 90
        6
176
     1
 90
        2
176
     1
 62
     7
176
     1
 90
        5
176
     1
 90
        0
176
     1
 90
        0
176
     1
290
     0
176
     1
 90
       13
176
     1
 40
0.0
176
     1
 90
        0
176
     1
290
     0
176
     1
290
     1
176
     1
290
     1
176
     1
290
     0
176
     1
290
     0
176
     1
290
     0
176
     1
290
     0
176
     1
290
     0
176
     1
290
     0
176
     1
 90
       50
176
     1
 40
0.0
176
     1
 40
1.0
176
     1
 90
        0
176
     1
 62
    18
420
        0
176
     1
 90
       50
176
     1
 90
        3
176
     1
 62
     5
420
      255
176
     1
290
     0
176
     1
 90
       50
176
     1
 90
       50
176
     1
 90
       50
176
     1
290
     0
176
     1
 90
       50
176
     1
 62
   256
176
     0
 40
1.0
176
     0
 90
        2
176
     1
  1
strokes_ogs.tif
176
     1
290
     0
176
     1
 40
1.0
176
     1
 40
1.0
176
     1
  0
VISUALSTYLE
  5
4B312A
102
{ACAD_REACTORS
330
4B3126
102
}
330
4B3126
100
AcDbVisualStyle
  2
GouraudWithEdges
 70
     3
177
     3
291
     1
 70
    58
 90
        2
176
     1
 90
        2
176
     1
 90
        1
176
     1
 90
        2
176
     1
 40
0.6
176
     1
 40
30.0
176
     1
 62
     7
420
 16777215
176
     1
 90
        1
176
     1
 90
        0
176
     1
 62
     7
176
     1
 62
   257
176
     1
 90
        1
176
     1
 90
        1
176
     1
 40
1.0
176
     1
 90
        0
176
     1
 62
   257
176
     1
 40
1.0
176
     1
 90
        1
176
     1
 90
        6
176
     1
 90
        2
176
     1
 62
     7
176
     1
 90
        5
176
     1
 90
        0
176
     1
 90
        0
176
     1
290
     0
176
     1
 90
       13
176
     1
 40
0.0
176
     1
 90
        0
176
     1
290
     0
176
     1
290
     1
176
     1
290
     1
176
     1
290
     0
176
     1
290
     0
176
     1
290
     0
176
     1
290
     0
176
     1
290
     0
176
     1
290
     0
176
     1
 90
       50
176
     1
 40
0.0
176
     1
 40
1.0
176
     1
 90
        0
176
     1
 62
    18
420
        0
176
     1
 90
       50
176
     1
 90
        3
176
     1
 62
     5
420
      255
176
     1
290
     0
176
     1
 90
       50
176
     1
 90
       50
176
     1
 90
       50
176
     1
290
     0
176
     1
 90
       50
176
     1
 62
   256
176
     0
 40
1.0
176
     0
 90
        2
176
     1
  1
strokes_ogs.tif
176
     1
290
     0
176
     1
 40
1.0
176
     1
 40
1.0
176
     1
  0
VISUALSTYLE
  5
4B312E
102
{ACAD_REACTORS
330
4B3126
102
}
330
4B3126
100
AcDbVisualStyle
  2
Hidden
 70
     6
177
     3
291
     0
 70
    58
 90
        1
176
     1
 90
        2
176
     1
 90
        2
176
     1
 90
        0
176
     1
 40
0.6
176
     1
 40
30.0
176
     1
 62
     7
420
 16777215
176
     1
 90
        2
176
     1
 90
        2
176
     1
 62
     7
176
     1
 62
   257
176
     1
 90
        2
176
     1
 90
        1
176
     1
 40
40.0
176
     1
 90
        0
176
     1
 62
   257
176
     1
 40
1.0
176
     1
 90
        1
176
     1
 90
        6
176
     1
 90
        2
176
     1
 62
     7
176
     1
 90
        3
176
     1
 90
        0
176
     1
 90
        0
176
     1
290
     0
176
     1
 90
        1
176
     1
 40
0.0
176
     1
 90
        0
176
     1
290
     0
176
     1
290
     1
176
     1
290
     1
176
     1
290
     0
176
     1
290
     0
176
     1
290
     0
176
     1
290
     0
176
     1
290
     0
176
     1
290
     0
176
     1
 90
       50
176
     1
 40
0.0
176
     1
 40
1.0
176
     1
 90
        0
176
     1
 62
    18
420
        0
176
     1
 90
       50
176
     1
 90
        3
176
     1
 62
     5
420
      255
176
     1
290
     0
176
     1
 90
       50
176
     1
 90
       50
176
     1
 90
       50
176
     1
290
     0
176
     1
 90
       50
176
     1
 62
   256
176
     0
 40
1.0
176
     0
 90
        2
176
     1
  1
strokes_ogs.tif
176
     1
290
     0
176
     1
 40
1.0
176
     1
 40
1.0
176
     1
  0
VISUALSTYLE
  5
4B313C
102
{ACAD_REACTORS
330
4B3126
102
}
330
4B3126
100
AcDbVisualStyle
  2
JitterOff
 70
    20
177
     3
291
     1
 70
    58
 90
        2
176
     0
 90
        2
176
     0
 90
        0
176
     0
 90
        0
176
     0
 40
0.6
176
     0
 40
30.0
176
     0
 62
     7
420
 16777215
176
     0
 90
        1
176
     0
 90
        4
176
     0
 62
     7
176
     0
 62
   257
176
     0
 90
        1
176
     0
 90
        1
176
     0
 40
1.0
176
     0
 90
       10
176
     2
 62
     7
176
     0
 40
1.0
176
     0
 90
        1
176
     0
 90
        6
176
     0
 90
        2
176
     0
 62
     7
176
     0
 90
        5
176
     0
 90
        0
176
     0
 90
        0
176
     0
290
     0
176
     0
 90
        1
176
     0
 40
0.0
176
     0
 90
        0
176
     0
290
     0
176
     0
290
     1
176
     0
290
     1
176
     0
290
     0
176
     0
290
     0
176
     0
290
     0
176
     0
290
     0
176
     0
290
     0
176
     0
290
     0
176
     0
 90
       50
176
     0
 40
0.0
176
     0
 40
1.0
176
     0
 90
        0
176
     0
 62
    18
420
        0
176
     0
 90
       50
176
     0
 90
        3
176
     0
 62
     5
420
      255
176
     0
290
     0
176
     0
 90
       50
176
     0
 90
       50
176
     0
 90
       50
176
     0
290
     0
176
     0
 90
       50
176
     0
 62
   256
176
     0
 40
1.0
176
     0
 90
        2
176
     0
  1
strokes_ogs.tif
176
     0
290
     0
176
     0
 40
1.0
176
     0
 40
1.0
176
     0
  0
VISUALSTYLE
  5
4B3134
102
{ACAD_REACTORS
330
4B3126
102
}
330
4B3126
100
AcDbVisualStyle
  2
Linepattern
 70
    14
177
     3
291
     1
 70
    58
 90
        2
176
     1
 90
        2
176
     1
 90
        0
176
     1
 90
        0
176
     1
 40
0.6
176
     1
 40
30.0
176
     1
 62
     7
420
 16777215
176
     1
 90
        1
176
     1
 90
        4
176
     1
 62
     7
176
     1
 62
   257
176
     1
 90
        7
176
     1
 90
        7
176
     1
 40
1.0
176
     1
 90
        8
176
     1
 62
     7
176
     1
 40
1.0
176
     1
 90
        1
176
     1
 90
        6
176
     1
 90
        2
176
     1
 62
     7
176
     1
 90
        5
176
     1
 90
        0
176
     1
 90
        0
176
     1
290
     0
176
     1
 90
        1
176
     1
 40
0.0
176
     1
 90
        0
176
     1
290
     0
176
     1
290
     1
176
     1
290
     1
176
     1
290
     0
176
     1
290
     0
176
     1
290
     0
176
     1
290
     0
176
     1
290
     0
176
     1
290
     0
176
     1
 90
       50
176
     1
 40
0.0
176
     1
 40
1.0
176
     1
 90
        0
176
     1
 62
    18
420
        0
176
     1
 90
       50
176
     1
 90
        3
176
     1
 62
     5
420
      255
176
     1
290
     0
176
     1
 90
       50
176
     1
 90
       50
176
     1
 90
       50
176
     1
290
     0
176
     1
 90
       50
176
     1
 62
   256
176
     0
 40
1.0
176
     0
 90
        2
176
     1
  1
strokes_ogs.tif
176
     1
290
     0
176
     1
 40
1.0
176
     1
 40
1.0
176
     1
  0
VISUALSTYLE
  5
4B313D
102
{ACAD_REACTORS
330
4B3126
102
}
330
4B3126
100
AcDbVisualStyle
  2
OverhangOff
 70
    21
177
     3
291
     1
 70
    58
 90
        2
176
     0
 90
        2
176
     0
 90
        0
176
     0
 90
        0
176
     0
 40
0.6
176
     0
 40
30.0
176
     0
 62
     7
420
 16777215
176
     0
 90
        1
176
     0
 90
        4
176
     0
 62
     7
176
     0
 62
   257
176
     0
 90
        1
176
     0
 90
        1
176
     0
 40
1.0
176
     0
 90
        9
176
     2
 62
     7
176
     0
 40
1.0
176
     0
 90
        1
176
     0
 90
        6
176
     0
 90
        2
176
     0
 62
     7
176
     0
 90
        5
176
     0
 90
        0
176
     0
 90
        0
176
     0
290
     0
176
     0
 90
        1
176
     0
 40
0.0
176
     0
 90
        0
176
     0
290
     0
176
     0
290
     1
176
     0
290
     1
176
     0
290
     0
176
     0
290
     0
176
     0
290
     0
176
     0
290
     0
176
     0
290
     0
176
     0
290
     0
176
     0
 90
       50
176
     0
 40
0.0
176
     0
 40
1.0
176
     0
 90
        0
176
     0
 62
    18
420
        0
176
     0
 90
       50
176
     0
 90
        3
176
     0
 62
     5
420
      255
176
     0
290
     0
176
     0
 90
       50
176
     0
 90
       50
176
     0
 90
       50
176
     0
290
     0
176
     0
 90
       50
176
     0
 62
   256
176
     0
 40
1.0
176
     0
 90
        2
176
     0
  1
strokes_ogs.tif
176
     0
290
     0
176
     0
 40
1.0
176
     0
 40
1.0
176
     0
  0
VISUALSTYLE
  5
4B3130
102
{ACAD_REACTORS
330
4B3126
102
}
330
4B3126
100
AcDbVisualStyle
  2
Realistic
 70
     8
177
     3
291
     0
 70
    58
 90
        2
176
     1
 90
        3
176
     1
 90
        0
176
     1
 90
        2
176
     1
 40
0.6
176
     1
 40
30.0
176
     1
 62
     7
420
 16777215
176
     1
 90
        0
176
     1
 90
        0
176
     1
 62
     7
176
     1
 62
   257
176
     1
 90
        1
176
     1
 90
        1
176
     1
 40
1.0
176
     1
 90
        8
176
     1
 62
   257
176
     1
 40
1.0
176
     1
 90
        1
176
     1
 90
        6
176
     1
 90
        2
176
     1
 62
     7
176
     1
 90
        3
176
     1
 90
        0
176
     1
 90
        0
176
     1
290
     0
176
     1
 90
       13
176
     1
 40
0.0
176
     1
 90
        0
176
     1
290
     0
176
     1
290
     1
176
     1
290
     1
176
     1
290
     0
176
     1
290
     0
176
     1
290
     0
176
     1
290
     0
176
     1
290
     0
176
     1
290
     0
176
     1
 90
       50
176
     1
 40
0.0
176
     1
 40
1.0
176
     1
 90
        0
176
     1
 62
    18
420
        0
176
     1
 90
       50
176
     1
 90
        3
176
     1
 62
     5
420
      255
176
     1
290
     0
176
     1
 90
       50
176
     1
 90
       50
176
     1
 90
       50
176
     1
290
     0
176
     1
 90
       50
176
     1
 62
   256
176
     0
 40
1.0
176
     0
 90
        2
176
     1
  1
strokes_ogs.tif
176
     1
290
     0
176
     1
 40
1.0
176
     1
 40
1.0
176
     1
  0
VISUALSTYLE
  5
4B313B
102
{ACAD_REACTORS
330
4B3126
102
}
330
4B3126
100
AcDbVisualStyle
  2
Shaded
 70
    27
177
     3
291
     0
 70
    58
 90
        2
176
     1
 90
        2
176
     1
 90
        1
176
     1
 90
        2
176
     1
 40
0.6
176
     1
 40
30.0
176
     1
 62
     7
420
 16777215
176
     1
 90
        0
176
     1
 90
        4
176
     1
 62
     7
176
     1
 62
   257
176
     1
 90
        1
176
     1
 90
        1
176
     1
 40
1.0
176
     1
 90
        8
176
     1
 62
   257
176
     1
 40
1.0
176
     1
 90
        1
176
     1
 90
        6
176
     1
 90
        2
176
     1
 62
     8
420
  7895160
176
     1
 90
        3
176
     1
 90
        0
176
     1
 90
        0
176
     1
290
     0
176
     1
 90
        5
176
     1
 40
0.0
176
     1
 90
        0
176
     1
290
     0
176
     1
290
     1
176
     1
290
     1
176
     1
290
     0
176
     1
290
     0
176
     1
290
     0
176
     1
290
     0
176
     1
290
     0
176
     1
290
     0
176
     1
 90
       50
176
     1
 40
0.0
176
     1
 40
1.0
176
     1
 90
        0
176
     1
 62
    18
420
        0
176
     1
 90
       50
176
     1
 90
        3
176
     1
 62
     5
420
      255
176
     1
290
     0
176
     1
 90
       50
176
     1
 90
       50
176
     1
 90
       50
176
     1
290
     0
176
     1
 90
       50
176
     1
 62
   256
176
     0
 40
1.0
176
     0
 90
        2
176
     1
  1
strokes_ogs.tif
176
     1
290
     0
176
     1
 40
1.0
176
     1
 40
1.0
176
     1
  0
VISUALSTYLE
  5
4B313A
102
{ACAD_REACTORS
330
4B3126
102
}
330
4B3126
100
AcDbVisualStyle
  2
Shaded with edges
 70
    26
177
     3
291
     0
 70
    58
 90
        2
176
     1
 90
        2
176
     1
 90
        1
176
     1
 90
        2
176
     1
 40
0.6
176
     1
 40
30.0
176
     1
 62
     7
420
 16777215
176
     1
 90
        1
176
     1
 90
        2
176
     1
 62
     7
176
     1
 62
   257
176
     1
 90
        2
176
     1
 90
        1
176
     1
 40
1.0
176
     1
 90
        8
176
     1
 62
   257
176
     1
 40
1.0
176
     1
 90
        1
176
     1
 90
        6
176
     1
 90
        2
176
     1
 62
     7
176
     1
 90
        3
176
     1
 90
        0
176
     1
 90
        0
176
     1
290
     0
176
     1
 90
        5
176
     1
 40
0.0
176
     1
 90
        0
176
     1
290
     0
176
     1
290
     1
176
     1
290
     1
176
     1
290
     0
176
     1
290
     0
176
     1
290
     0
176
     1
290
     0
176
     1
290
     0
176
     1
290
     0
176
     1
 90
       50
176
     1
 40
0.0
176
     1
 40
1.0
176
     1
 90
        0
176
     1
 62
    18
420
        0
176
     1
 90
       50
176
     1
 90
        3
176
     1
 62
     5
420
      255
176
     1
290
     0
176
     1
 90
       50
176
     1
 90
       50
176
     1
 90
       50
176
     1
290
     0
176
     1
 90
       50
176
     1
 62
   256
176
     0
 40
1.0
176
     0
 90
        2
176
     1
  1
strokes_ogs.tif
176
     1
290
     0
176
     1
 40
1.0
176
     1
 40
1.0
176
     1
  0
VISUALSTYLE
  5
4B3137
102
{ACAD_REACTORS
330
4B3126
102
}
330
4B3126
100
AcDbVisualStyle
  2
Shades of Gray
 70
    23
177
     3
291
     0
 70
    58
 90
        2
176
     1
 90
        2
176
     1
 90
        3
176
     1
 90
        0
176
     1
 40
0.6
176
     1
 40
30.0
176
     1
 62
     7
420
 16777215
176
     1
 90
        2
176
     1
 90
        2
176
     1
 62
     7
176
     1
 62
     7
176
     1
 90
        1
176
     1
 90
        1
176
     1
 40
40.0
176
     1
 90
        8
176
     1
 62
     7
176
     1
 40
1.0
176
     1
 90
        1
176
     1
 90
        6
176
     1
 90
        2
176
     1
 62
     7
176
     1
 90
        3
176
     1
 90
        0
176
     1
 90
        0
176
     1
290
     0
176
     1
 90
        1
176
     1
 40
0.0
176
     1
 90
        0
176
     1
290
     0
176
     1
290
     1
176
     1
290
     1
176
     1
290
     0
176
     1
290
     0
176
     1
290
     0
176
     1
290
     0
176
     1
290
     0
176
     1
290
     0
176
     1
 90
       50
176
     1
 40
0.0
176
     1
 40
1.0
176
     1
 90
        0
176
     1
 62
    18
420
        0
176
     1
 90
       50
176
     1
 90
        3
176
     1
 62
     5
420
      255
176
     1
290
     0
176
     1
 90
       50
176
     1
 90
       50
176
     1
 90
       50
176
     1
290
     0
176
     1
 90
       50
176
     1
 62
   256
176
     0
 40
1.0
176
     0
 90
        2
176
     1
  1
strokes_ogs.tif
176
     1
290
     0
176
     1
 40
1.0
176
     1
 40
1.0
176
     1
  0
VISUALSTYLE
  5
4B3138
102
{ACAD_REACTORS
330
4B3126
102
}
330
4B3126
100
AcDbVisualStyle
  2
Sketchy
 70
    24
177
     3
291
     0
 70
    58
 90
        1
176
     1
 90
        2
176
     1
 90
        2
176
     1
 90
        0
176
     1
 40
0.6
176
     1
 40
30.0
176
     1
 62
     7
420
 16777215
176
     1
 90
        2
176
     1
 90
        2
176
     1
 62
     7
176
     1
 62
     7
176
     1
 90
        1
176
     1
 90
        1
176
     1
 40
40.0
176
     1
 90
       11
176
     1
 62
     7
176
     1
 40
1.0
176
     1
 90
        1
176
     1
 90
        6
176
     1
 90
        2
176
     1
 62
     7
176
     1
 90
        6
176
     1
 90
        0
176
     1
 90
        0
176
     1
290
     0
176
     1
 90
        1
176
     1
 40
0.0
176
     1
 90
        0
176
     1
290
     0
176
     1
290
     1
176
     1
290
     1
176
     1
290
     0
176
     1
290
     0
176
     1
290
     0
176
     1
290
     0
176
     1
290
     0
176
     1
290
     0
176
     1
 90
       50
176
     1
 40
0.0
176
     1
 40
1.0
176
     1
 90
        0
176
     1
 62
    18
420
        0
176
     1
 90
       50
176
     1
 90
        3
176
     1
 62
     5
420
      255
176
     1
290
     0
176
     1
 90
       50
176
     1
 90
       50
176
     1
 90
       50
176
     1
290
     0
176
     1
 90
       50
176
     1
 62
   256
176
     0
 40
1.0
176
     0
 90
        2
176
     1
  1
strokes_ogs.tif
176
     1
290
     0
176
     1
 40
1.0
176
     1
 40
1.0
176
     1
  0
VISUALSTYLE
  5
4B3133
102
{ACAD_REACTORS
330
4B3126
102
}
330
4B3126
100
AcDbVisualStyle
  2
Thicken
 70
    13
177
     3
291
     1
 70
    58
 90
        2
176
     1
 90
        2
176
     1
 90
        0
176
     1
 90
        0
176
     1
 40
0.6
176
     1
 40
30.0
176
     1
 62
     7
420
 16777215
176
     1
 90
        1
176
     1
 90
        4
176
     1
 62
     7
176
     1
 62
   257
176
     1
 90
        1
176
     1
 90
        1
176
     1
 40
1.0
176
     1
 90
       12
176
     1
 62
     7
176
     1
 40
1.0
176
     1
 90
        1
176
     1
 90
        6
176
     1
 90
        2
176
     1
 62
     7
176
     1
 90
        5
176
     1
 90
        0
176
     1
 90
        0
176
     1
290
     0
176
     1
 90
        1
176
     1
 40
0.0
176
     1
 90
        0
176
     1
290
     0
176
     1
290
     1
176
     1
290
     1
176
     1
290
     0
176
     1
290
     0
176
     1
290
     0
176
     1
290
     0
176
     1
290
     0
176
     1
290
     0
176
     1
 90
       50
176
     1
 40
0.0
176
     1
 40
1.0
176
     1
 90
        0
176
     1
 62
    18
420
        0
176
     1
 90
       50
176
     1
 90
        3
176
     1
 62
     5
420
      255
176
     1
290
     0
176
     1
 90
       50
176
     1
 90
       50
176
     1
 90
       50
176
     1
290
     0
176
     1
 90
       50
176
     1
 62
   256
176
     0
 40
1.0
176
     0
 90
        2
176
     1
  1
strokes_ogs.tif
176
     1
290
     0
176
     1
 40
1.0
176
     1
 40
1.0
176
     1
  0
VISUALSTYLE
  5
4B312D
102
{ACAD_REACTORS
330
4B3126
102
}
330
4B3126
100
AcDbVisualStyle
  2
Wireframe
 70
     5
177
     3
291
     0
 70
    58
 90
        0
176
     1
 90
        2
176
     1
 90
        0
176
     1
 90
        0
176
     1
 40
0.6
176
     1
 40
30.0
176
     1
 62
     7
420
 16777215
176
     1
 90
        1
176
     1
 90
        4
176
     1
 62
     7
176
     1
 62
   257
176
     1
 90
        1
176
     1
 90
        1
176
     1
 40
1.0
176
     1
 90
        0
176
     1
 62
   257
176
     1
 40
1.0
176
     1
 90
        1
176
     1
 90
        6
176
     1
 90
        2
176
     1
 62
     7
176
     1
 90
        3
176
     1
 90
        0
176
     1
 90
        0
176
     1
290
     0
176
     1
 90
        1
176
     1
 40
0.0
176
     1
 90
        0
176
     1
290
     0
176
     1
290
     1
176
     1
290
     1
176
     1
290
     0
176
     1
290
     0
176
     1
290
     0
176
     1
290
     0
176
     1
290
     0
176
     1
290
     0
176
     1
 90
       50
176
     1
 40
0.0
176
     1
 40
1.0
176
     1
 90
        0
176
     1
 62
    18
420
        0
176
     1
 90
       50
176
     1
 90
        3
176
     1
 62
     5
420
      255
176
     1
290
     0
176
     1
 90
       50
176
     1
 90
       50
176
     1
 90
       50
176
     1
290
     0
176
     1
 90
       50
176
     1
 62
   256
176
     0
 40
1.0
176
     0
 90
        2
176
     1
  1
strokes_ogs.tif
176
     1
290
     0
176
     1
 40
1.0
176
     1
 40
1.0
176
     1
  0
VISUALSTYLE
  5
4B3139
102
{ACAD_REACTORS
330
4B3126
102
}
330
4B3126
100
AcDbVisualStyle
  2
X-Ray
 70
    25
177
     3
291
     0
 70
    58
 90
        2
176
     1
 90
        2
176
     1
 90
        1
176
     1
 90
        1
176
     1
 40
0.5
176
     1
 40
30.0
176
     1
 62
     7
420
 16777215
176
     1
 90
        1
176
     1
 90
        0
176
     1
 62
     7
176
     1
 62
   257
176
     1
 90
        1
176
     1
 90
        1
176
     1
 40
1.0
176
     1
 90
        8
176
     1
 62
     7
176
     1
 40
1.0
176
     1
 90
        1
176
     1
 90
        6
176
     1
 90
        2
176
     1
 62
     7
176
     1
 90
        3
176
     1
 90
        0
176
     1
 90
        0
176
     1
290
     0
176
     1
 90
       13
176
     1
 40
0.0
176
     1
 90
        0
176
     1
290
     0
176
     1
290
     1
176
     1
290
     1
176
     1
290
     0
176
     1
290
     0
176
     1
290
     0
176
     1
290
     0
176
     1
290
     0
176
     1
290
     0
176
     1
 90
       50
176
     1
 40
0.0
176
     1
 40
1.0
176
     1
 90
        0
176
     1
 62
    18
420
        0
176
     1
 90
       50
176
     1
 90
        3
176
     1
 62
     5
420
      255
176
     1
290
     0
176
     1
 90
       50
176
     1
 90
       50
176
     1
 90
       50
176
     1
290
     0
176
     1
 90
       50
176
     1
 62
   256
176
     0
 40
1.0
176
     0
 90
        2
176
     1
  1
strokes_ogs.tif
176
     1
290
     0
176
     1
 40
1.0
176
     1
 40
1.0
176
     1
  0
DICTIONARYVAR
  5
4B3180
102
{ACAD_REACTORS
330
4B293E
102
}
330
4B293E
100
DictionaryVariables
280
     0
  1
1:1
  0
DICTIONARYVAR
  5
4B317C
102
{ACAD_REACTORS
330
4B293E
102
}
330
4B293E
100
DictionaryVariables
280
     0
  1
STANDARD
  0
DICTIONARYVAR
  5
4B2F84
102
{ACAD_REACTORS
330
4B293E
102
}
330
4B293E
100
DictionaryVariables
280
     0
  1
STANDARD
  0
DICTIONARYVAR
  5
4B317D
102
{ACAD_REACTORS
330
4B293E
102
}
330
4B293E
100
DictionaryVariables
280
     0
  1
Imperial24
  0
DICTIONARYVAR
  5
4B317E
102
{ACAD_REACTORS
330
4B293E
102
}
330
4B293E
100
DictionaryVariables
280
     0
  1
Imperial24
  0
DICTIONARYVAR
  5
4B3182
102
{ACAD_REACTORS
330
4B293E
102
}
330
4B293E
100
DictionaryVariables
280
     0
  1
1
  0
DICTIONARYVAR
  5
4B3183
102
{ACAD_REACTORS
330
4B293E
102
}
330
4B293E
100
DictionaryVariables
280
     0
  1
15
  0
DICTIONARYVAR
  5
4B3181
102
{ACAD_REACTORS
330
4B293E
102
}
330
4B293E
100
DictionaryVariables
280
     0
  1
0
  0
DICTIONARYVAR
  5
4B317F
102
{ACAD_REACTORS
330
4B293E
102
}
330
4B293E
100
DictionaryVariables
280
     0
  1
0
  0
DICTIONARYVAR
  5
4B293F
102
{ACAD_REACTORS
330
4B293E
102
}
330
4B293E
100
DictionaryVariables
280
     0
  1
96
  0
ACAD_PROXY_OBJECT
  5
4B2EFB
102
{ACAD_REACTORS
330
4B2EFA
102
}
330
4B2EFA
100
AcDbProxyObject
 90
      499
 91
      548
 71
    25
 97
       77
 70
     0
161
                78
310
90100057356C1D8241A8
 94
        0
  0
DICTIONARY
  5
4B2F05
102
{ACAD_REACTORS
330
4B2EFA
102
}
330
4B2EFA
100
AcDbDictionary
281
     1
  3
ANSI
350
4B2F06
  0
XRECORD
  5
4B2F23
102
{ACAD_REACTORS
330
4B2EFA
102
}
330
4B2EFA
100
AcDbXrecord
280
     1
 90
-1023410169
  0
ACAD_PROXY_OBJECT
  5
4B2EAA
330
0
100
AcDbProxyObject
 90
      499
 91
      511
 71
    25
 97
       77
 70
     0
161
               156
310
000101439050D35154D6535093D314D25691508C
330
4B2EA7
 94
        0
  0
ACAD_PROXY_OBJECT
  5
4B2EAC
330
0
100
AcDbProxyObject
 90
      499
 91
      513
 71
    25
 97
       77
 70
     0
161
                88
310
000101411093D34C402B0001
330
4B2EA7
330
0
330
0
 94
        0
  0
ACAD_PROXY_OBJECT
  5
4B2EB2
330
0
100
AcDbProxyObject
 90
      499
 91
      519
 71
    25
 97
       77
 70
     0
161
               382
310
0001014119185D194050831302E322E302E35014119185D194050831302E322E302E3540501000041905394D24CCC658
330
4B2EA7
330
4B2EB3
330
4B2EB7
 94
        0
  0
ACAD_PROXY_OBJECT
  5
4B2EB3
330
0
100
AcDbProxyObject
 90
      499
 91
      520
 71
    25
 97
       77
 70
     0
161
                48
310
000190140A00C4
330
4B2EA7
330
4B2EB4
 94
        0
  0
ACAD_PROXY_OBJECT
  5
4B2EB4
330
0
100
AcDbProxyObject
 90
      499
 91
      521
 71
    25
 97
       77
 70
     0
161
                48
310
0001AA000000E0
330
4B2EA7
330
4B1D17
330
4B2EB5
330
0
 94
        0
  0
ACAD_PROXY_OBJECT
  5
4B2EB5
330
0
100
AcDbProxyObject
 90
      499
 91
      522
 71
    25
 97
       77
 70
     0
161
                28
310
0001AAAC
330
4B2EA7
 94
        0
  0
ACAD_PROXY_OBJECT
  5
4B2EB8
330
0
100
AcDbProxyObject
 90
      499
 91
      511
 71
    25
 97
       77
 70
     0
161
               108
310
000101421053521310D05310D01C
330
4B2EA7
 94
        0
  0
ACAD_PROXY_OBJECT
  5
4B2EB9
330
0
100
AcDbProxyObject
 90
      499
 91
      511
 71
    25
 97
       77
 70
     0
161
               124
310
00010142905354915554D1511253501C
330
4B2EA7
 94
        0
  0
ACAD_PROXY_OBJECT
  5
4B2EBA
330
0
100
AcDbProxyObject
 90
      499
 91
      511
 71
    25
 97
       77
 70
     0
161
               132
310
00010143105354D150D51253D39112536C
330
4B2EA7
 94
        0
  0
ACAD_PROXY_OBJECT
  5
4B2EBB
330
0
100
AcDbProxyObject
 90
      499
 91
      511
 71
    25
 97
       77
 70
     0
161
               124
310
00010142905355941093D4911154901C
330
4B2EA7
 94
        0
  0
ACAD_PROXY_OBJECT
  5
4B2EBC
330
0
100
AcDbProxyObject
 90
      499
 91
      511
 71
    25
 97
       77
 70
     0
161
               116
310
0001014290535115D1D0D3D313D4AC
330
4B2EA7
 94
        0
  0
ACAD_PROXY_OBJECT
  5
4B2EBD
330
0
100
AcDbProxyObject
 90
      499
 91
      511
 71
    25
 97
       77
 70
     0
161
               148
310
00010143505355925155D49151949154D2101C
330
4B2EA7
 94
        0
  0
ACAD_PROXY_OBJECT
  5
4B2EBE
330
0
100
AcDbProxyObject
 90
      499
 91
      511
 71
    25
 97
       77
 70
     0
161
               172
310
00010144105350539393D51154149154D1549591501C
330
4B2EA7
 94
        0
  0
ACAD_PROXY_OBJECT
  5
4B2EBF
330
0
100
AcDbProxyObject
 90
      499
 91
      511
 71
    25
 97
       77
 70
     0
161
               172
310
00010144105350555513D11253505494905391D1501C
330
4B2EA7
 94
        0
  0
ACAD_PROXY_OBJECT
  5
4B2EC0
330
0
100
AcDbProxyObject
 90
      499
 91
      511
 71
    25
 97
       77
 70
     0
161
               124
310
00010142D0535156151491519112536C
330
4B2EA7
 94
        0
  0
ACAD_PROXY_OBJECT
  5
4B2EC1
330
0
100
AcDbProxyObject
 90
      499
 91
      511
 71
    25
 97
       77
 70
     0
161
               132
310
00010142D05355105410539393D511501C
330
4B2EA7
 94
        0
  0
ACAD_PROXY_OBJECT
  5
4B2EC2
330
0
100
AcDbProxyObject
 90
      499
 91
      511
 71
    25
 97
       77
 70
     0
161
               108
310
00010142105350555513D0D3101C
330
4B2EA7
 94
        0
  0
ACAD_PROXY_OBJECT
  5
4B2EC3
330
0
100
AcDbProxyObject
 90
      499
 91
      511
 71
    25
 97
       77
 70
     0
161
               108
310
00010142105350D311915055105C
330
4B2EA7
 94
        0
  0
ACAD_PROXY_OBJECT
  5
4B2EC4
330
0
100
AcDbProxyObject
 90
      499
 91
      511
 71
    25
 97
       77
 70
     0
161
               108
310
00010142105350D315925155D3FC
330
4B2EA7
 94
        0
  0
ACAD_PROXY_OBJECT
  5
4B2EC5
330
0
100
AcDbProxyObject
 90
      499
 91
      511
 71
    25
 97
       77
 70
     0
161
               148
310
0001014350535212511156915493D11253501C
330
4B2EA7
 94
        0
  0
ACAD_PROXY_OBJECT
  5
4B2EC6
330
0
100
AcDbProxyObject
 90
      499
 91
      511
 71
    25
 97
       77
 70
     0
161
               124
310
00010142905352105510D21254D3D01C
330
4B2EA7
 94
        0
  0
ACAD_PROXY_OBJECT
  5
4B2EC7
330
0
100
AcDbProxyObject
 90
      499
 91
      511
 71
    25
 97
       77
 70
     0
161
               148
310
00010143905354D25391D3115210551310566C
330
4B2EA7
 94
        0
  0
ACAD_PROXY_OBJECT
  5
4B2EC8
330
0
100
AcDbProxyObject
 90
      499
 91
      511
 71
    25
 97
       77
 70
     0
161
               124
310
00010142D0535115D1D193111254D42C
330
4B2EA7
 94
        0
  0
ACAD_PROXY_OBJECT
  5
4B2EC9
330
0
100
AcDbProxyObject
 90
      499
 91
      511
 71
    25
 97
       77
 70
     0
161
               100
310
00010142105350555513D213AC
330
4B2EA7
 94
        0
  0
ACAD_PROXY_OBJECT
  5
4B2ECA
330
0
100
AcDbProxyObject
 90
      499
 91
      511
 71
    25
 97
       77
 70
     0
161
               116
310
000101425053521390D3D55395101C
330
4B2EA7
 94
        0
  0
ACAD_PROXY_OBJECT
  5
4B2ECB
330
0
100
AcDbProxyObject
 90
      499
 91
      511
 71
    25
 97
       77
 70
     0
161
               108
310
0001014210535213941493D2901C
330
4B2EA7
 94
        0
  0
ACAD_PROXY_OBJECT
  5
4B2ECC
330
0
100
AcDbProxyObject
 90
      499
 91
      511
 71
    25
 97
       77
 70
     0
161
               108
310
000101421053521395165411507C
330
4B2EA7
 94
        0
  0
ACAD_PROXY_OBJECT
  5
4B2ECD
330
0
100
AcDbProxyObject
 90
      499
 91
      511
 71
    25
 97
       77
 70
     0
161
               108
310
000101421053521395925155D0FC
330
4B2EA7
 94
        0
  0
ACAD_PROXY_OBJECT
  5
4B2ECE
330
0
100
AcDbProxyObject
 90
      499
 91
      511
 71
    25
 97
       77
 70
     0
161
               140
310
00010143505354D150D51253D390D3D4166C
330
4B2EA7
 94
        0
  0
ACAD_PROXY_OBJECT
  5
4B2ECF
330
0
100
AcDbProxyObject
 90
      499
 91
      511
 71
    25
 97
       77
 70
     0
161
               108
310
00010142105350D3141493D2903C
330
4B2EA7
 94
        0
  0
ACAD_PROXY_OBJECT
  5
4B2ED0
330
0
100
AcDbProxyObject
 90
      499
 91
      523
 71
    25
 97
       77
 70
     0
161
               212
310
00010143905350555513D2105510D21493D500000000000002E40C
330
4B2EA7
 94
        0
  0
ACAD_PROXY_OBJECT
  5
4B2ED1
330
0
100
AcDbProxyObject
 90
      499
 91
      511
 71
    25
 97
       77
 70
     0
161
               156
310
00010143905350555513D2105510D2111155101C
330
4B2EA7
 94
        0
  0
ACAD_PROXY_OBJECT
  5
4B2EE0
330
0
100
AcDbProxyObject
 90
      499
 91
      532
 71
    25
 97
       77
 70
     0
161
               148
310
00010142105350D55494D51100504414E5349C
330
4B2EA7
 94
        0
  0
ACAD_PROXY_OBJECT
  5
4B2EE2
330
0
100
AcDbProxyObject
 90
      499
 91
      534
 71
    25
 97
       77
 70
     0
161
               714
310
0001000000009AA6A9AA4051E546875204A756E2031352031373A34333A3337203230303620285554432901420C4C0B8C8B8C0B8D40518576564204D61722032352030393A30333A3430203230303901420C4C0B8C8B8C0B8D4C
330
4B2EA7
330
4B2EE3
330
4B2EE4
330
4B2EE6
330
0
 94
        0
  0
ACAD_PROXY_OBJECT
  5
4B2EE3
330
0
100
AcDbProxyObject
 90
      499
 91
      535
 71
    25
 97
       77
 70
     0
161
                70
310
0001AAA80820000000
330
4B2EA7
330
4B2EE3
330
4B2EE3
 94
        0
  0
ACAD_PROXY_OBJECT
  5
4B2EE4
330
0
100
AcDbProxyObject
 90
      499
 91
      536
 71
    25
 97
       77
 70
     0
161
                48
310
000100000000D9
330
4B2EA7
330
0
330
4B2EE5
330
0
330
0
 94
        0
  0
ACAD_PROXY_OBJECT
  5
4B2EE5
330
0
100
AcDbProxyObject
 90
      499
 91
      537
 71
    25
 97
       77
 70
     0
161
                40
310
000100AAAA00
330
4B2EA7
330
0
 94
        0
  0
ACAD_PROXY_OBJECT
  5
4B2EEB
330
0
100
AcDbProxyObject
 90
      499
 91
      532
 71
    25
 97
       77
 70
     0
161
               180
310
00010143105050D3D35411119390535140504434F4D50C
330
4B2EA7
 94
        0
  0
ACAD_PROXY_OBJECT
  5
4B2EEC
330
0
100
AcDbProxyObject
 90
      499
 91
      532
 71
    25
 97
       77
 70
     0
161
               212
310
0001014390505193D311115491119390535140506466F6C646572C
330
4B2EA7
 94
        0
  0
ACAD_PROXY_OBJECT
  5
4B2EED
330
0
100
AcDbProxyObject
 90
      499
 91
      532
 71
    25
 97
       77
 70
     0
161
               180
310
00010143105050539393D111939053514050428415629C
330
4B2EA7
 94
        0
  0
ACAD_PROXY_OBJECT
  5
4B2EEE
330
0
100
AcDbProxyObject
 90
      499
 91
      532
 71
    25
 97
       77
 70
     0
161
               420
310
00010143905050D3D35415925155D31254D500520546F700A46726F6E740A52696768740A4C6566740A426F74746F6D0A41757831C
330
4B2EA7
 94
        0
  0
ACAD_PROXY_OBJECT
  5
4B2EF3
330
0
100
AcDbProxyObject
 90
      499
 91
      542
 71
    25
 97
       77
 70
     0
161
                32
310
0001000000
330
4B2EA7
340
4B2EF0
330
4B2EF5
330
4B2EF0
 94
        0
  0
ACAD_PROXY_OBJECT
  5
4B2EF4
330
0
100
AcDbProxyObject
 90
      499
 91
      543
 71
    25
 97
       77
 70
     0
161
                18
310
00018C
330
4B2EA7
 94
        0
  0
ACAD_PROXY_OBJECT
  5
4B2EF5
330
0
100
AcDbProxyObject
 90
      499
 91
      544
 71
    25
 97
       77
 70
     0
161
               346
310
000101481054CC8E0D48149154131050D15351539508111154D251D391548814D2105411505005540155000C
330
4B2EA7
330
4B2EF3
330
4B2EF4
 94
        0
  0
ACAD_PROXY_OBJECT
  5
4B2EF6
330
0
100
AcDbProxyObject
 90
      499
 91
      545
 71
    25
 97
       77
 70
     0
161
               178
310
000100AAAAAAB3345CAD7F3CEE90A458E3349332182A4C
330
4B2EA7
330
4B2EF5
 94
        0
  0
ACAD_PROXY_OBJECT
  5
4B2EF7
330
0
100
AcDbProxyObject
 90
      499
 91
      546
 71
    25
 97
       77
 70
     0
161
               108
310
000190140A000000000000AAAAAC
330
4B2EA7
330
4B2EF8
330
4B2EF8
330
4B2EF8
330
4B2EF8
330
4B2EF8
330
0
 94
        0
  0
ACAD_PROXY_OBJECT
  5
4B2EF8
330
0
100
AcDbProxyObject
 90
      499
 91
      547
 71
    25
 97
       77
 70
     0
161
                51
310
00010000AAAA8C
330
4B2EA7
330
4B2EF7
330
4B2EF5
 94
        0
  0
DICTIONARY
  5
4B2EA1
102
{ACAD_REACTORS
330
4B2EA0
102
}
330
4B2EA0
100
AcDbDictionary
281
     1
  3
DWGSETTINGS
350
4B2EA2
  3
TRANSSETTINGS
350
4B2EA3
  0
ACAD_PROXY_OBJECT
  5
4B2F07
102
{ACAD_REACTORS
330
4B2EA0
102
}
330
4B2EA0
100
AcDbProxyObject
 90
      499
 91
      555
 71
    25
 97
       77
 70
     0
161
             17992
310
41903491013041105357CC201C00030C011E442404C504414D5F3180E0000C300479109013241105357CCA01400030C011E442404CD04414D5F338060000C30043E9013441105357CD200C00030C010FA404D504414D5F358030000C30043E9013641105357CDA00800030C011EA404DD04414D5F378040000C30043E90138
310
41105357CE200400030C010FA404E504414D5F398FD0000C300904902324141505357CC4C201C00030C011EA408D10505414D5F31318030000C30043E902495041505357CC4CA01C00030C011E40A408C13905414D5F304E8070000C30047A902314E41505357CC53A03800030C011EA408C93905414D5F324E8050000C300
310
47A902334E41505357CCD3A01800030C010FA408D13905414D5F344E8030000C30043E902354E41505357CD53A00C00030C010FA408D93905414D5F364E8020000C30047A902374E41505357CDD3A01000030C010FA408E13905414D5F384E8010000C30043E902394E41505357CE53A3F400030C0241240CC9053906414D5
310
F31304E8070000C30047A90334414E41905357CC4C53A00C00030C010FA40D25413906414D5F31324E8070000C300479029044B4C494E41505357D0D3200400030C010F4264112539193D08414D5F50415245468040000C30043D0B9055241484D3541905357D093D4A01C00030C011E4264115925155D08414D5F56494557
310
538010000C30043D0B906424548494E4441905357D25395A3F400030C02436415514905253105414D5F54528030000C30043D0990348494441905357D21251201C00030C010F42640D59254D06414D5F5649538070000C3004790990650415244494D42505357D41054911253600C00030C010F42641949151911253509414
310
D5F52454644494D8040000C30043D099534110921395901398000000C0003FFFFFFFE415092139594D06424548494E448000000C0003FFFFFFFE411093D48C9055241484D358010000C30043E411093D48CD055241484D358020000C30047A411093D48D5055241484D358000000C0003FFFFFFFE4110D0530C90134800000
310
0C0003FFFFFFFE4110D0530CD01348020000C30047A4110D0530D501348070000C30047A4110D0530DD013481E0000C3004F24110D15393901378000000C0003FFFFFFFE4110D15395D01378000000C0003FFFFFFFE4110D312539044B4C494E8000000C0003FFFFFFFE4110D3D38C501308000000C0003FFFFFFFD034110D
310
3D38C901318000000C0003FFFFFFFD034110D3D38CD01328000000C0003FFFFFFFD034110D3D38D101328000000C0003FFFFFFFD034111115510501348000000C0003FFFFFFFE4111125051D01358000000C0003FFFFFFFE4111125312501358000000C0003FFFFFFFE411112535410650415244494D8000000C0003FFFFFF
310
FE411112535490652454644494D8000000C0003FFFFFFFE4111915353901388000000C0003FFFFFFFE415191535413901388030000C3003FFFFFFFE4151915354D410234418000000C0003FFFFFFFE4151915354D510234418030000C30043E415191535593901328000000C0003FFFFFFFE415191535595101328030000C3
310
0043E4112105510D01388000000C0003FFFFFFFD014112125113901338000000C0003FFFFFFFD034112125115D01338000000C0003FFFFFFFD034112131253901348000000C0003FFFFFFFD01411213D0D3901378000000C0003FFFFFFFE411213D0D5D01378000000C0003FFFFFFFE4112539193D04494E464F8000000C00
310
03FFFFFFFE4113115051101358000000C0003FFFFFFFE419397D0921395902394E8000000C0003FFFFFFFE419397D0D3D38C502304E8000000C0003FFFFFFFD03419397D0D3D38C902314E8000000C0003FFFFFFFD03419397D0D3D38CD02324E8000000C0003FFFFFFFD03419397D0D3D38D102324E8000000C0003FFFFFF
310
FD03419397D0D15393902374E8000000C0003FFFFFFFE419397D0D15395D02374E8000000C0003FFFFFFFE419397D1125312502354E8000000C0003FFFFFFFE419397D2105510D02384E8000000C0003FFFFFFFD01419397D2125113902334E8000000C0003FFFFFFFD03419397D2125115D02334E8000000C0003FFFFFFFD
310
03419397D3115051102354E8000000C0003FFFFFFFE419397D391D25410349504E8000000C0003FFFFFFFE419397D412105390334414E8000000C0003FFFFFFFE419397D510D3D3902304E8000000C0003FFFFFFFD03419397D5121312502344E8000000C0003FFFFFFFD01419397D5131153902304E8000000C0003FFFFFF
310
FD03419397D594131250332414E8000000C0003FFFFFFFE411391D25410249508000000C0003FFFFFFFE411410530C9055241484D358010000C30043E411410530CD055241484D358020000C30047A411410530D5055241484D358000000C0003FFFFFFFE411412105390234418000000C0003FFFFFFFE411413D4D3901358
310
000000C0003FFFFFFFE411490D1D3901378000000C0003FFFFFFFE411490D1D5D01378000000C0003FFFFFFFE4114D09492D01348070000C300479014114D150D5101348000000C0003FFFFFFFD014114D6508CD01358020000C30047A411354D653501358020000C30047A411510D3D3901308000000C0003FFFFFFFD0341
310
15121312501348000000C0003FFFFFFFD01411512550C9055241484D358010000C30043E411512550CD055241484D358020000C30047A411512550D5055241484D358000000C0003FFFFFFFE4115131153901308000000C0003FFFFFFFD03415514905253105545241494C8000000C0003FFFFFFFE41151493125013480000
310
00C0003FFFFFFFD01411516150C501368030000C30043E411516150C901368030000C30043E411516150CD01368000000C0003FFFFFFFE411516150D501368070000C30047A411516150DD013681E0000C3004F24115925155D04564945578000000C0003FFFFFFFE41159151121034849448000000C0003FFFFFFFD024115
310
9151159035649538000000C0003FFFFFFFD02411594131250232418000000C0003FFFFFFFE4116925690501348000000C0003FFFFFFFD01AAA3F400030C01013F90A4050F4091E40D0F4110F4151E4190F41D1E4391E4793C7F6CC
340
4B1AC4
340
4B1AC4
340
4B1AC4
340
4B2ED2
340
4B1AC4
340
4B1AC4
340
4B1AC4
340
4B2ED4
340
4B1AC4
340
4B1AC4
340
4B2ED4
340
4B2ED3
340
4B1AC4
340
4B1AC4
340
4B1AC4
340
4B1AC4
340
4B2ED2
340
4B1AC4
340
4B1AC4
340
4B1AC4
340
4B2ED4
340
4B1AC4
340
4B1AC4
340
4B2ED4
340
4B2ED3
340
4B1AC4
340
4B2F0B
340
4B1AC4
340
4B1AC4
340
4B1AC4
340
4B1AC4
340
4B1AC4
340
4B2ED2
340
4B1AC4
340
4B1AC4
340
4B1AC4
340
4B1AC3
340
4B1AC3
340
4B1AC3
340
4B1AC3
340
4B1AC3
340
4B1AC3
340
4B1AC3
340
4B1AC3
340
4B1AC3
340
4B2F11
340
4B1AC3
340
4B1AC3
340
4B1AC3
340
4B1AC3
340
4B1AC3
340
4B1AC3
340
4B1AC3
340
4B1AC3
340
4B1AC3
340
4B1AC3
340
4B1AC3
340
4B1AC3
340
4B1AC3
340
4B1AC4
340
4B1AC3
340
4B1AC3
340
4B1AC3
340
4B1AC3
340
4B2F12
340
4B1AC3
340
4B1AC3
340
4B2F11
340
4B1AC3
340
4B1AC3
340
4B1AC3
340
4B1AC3
340
4B1AC3
340
4B1AC3
340
4B1AC3
340
4B1AC3
340
4B2F11
340
4B1AC3
340
4B1AC3
340
4B1AC3
340
4B2F12
340
4B1AC3
340
4B1AC3
340
4B1AC3
340
4B1AC3
340
4B1AC3
340
4B2F12
340
4B1AC3
340
4B2ED3
340
4B1AC3
340
4B1AC3
340
4B1AC3
340
4B1AC3
340
4B1AC3
340
4B1AC3
340
4B2F11
340
4B1AC3
340
4B1AC3
340
4B1AC3
340
4B1AC3
340
4B1AC3
340
4B1AC3
340
4B2F12
340
4B1AC3
340
4B1AC3
340
4B1AC3
340
4B1AC3
340
4B1AC3
340
4B1AC3
340
4B1AC3
340
4B1AC3
340
4B1AC3
340
4B1AC3
340
4B1AC3
340
4B1AC3
340
4B1AC3
340
4B1AC3
340
4B2ED3
340
4B2F13
 94
        0
  0
ACAD_PROXY_OBJECT
  5
4B2F52
102
{ACAD_REACTORS
330
4B2F4D
102
}
330
4B2F4D
100
AcDbProxyObject
 90
      499
 91
      572
 71
    25
 97
       77
 70
     0
161
               253
310
43D1444494D454E53494F4E2C414D44545F2A5F44494D404A9012A404A9012AC
 94
        0
  0
ACAD_PROXY_OBJECT
  5
4B2F51
102
{ACAD_REACTORS
330
4B2F4D
102
}
330
4B2F4D
100
AcDbProxyObject
 90
      499
 91
      572
 71
    25
 97
       77
 70
     0
161
               181
310
43D012A42D05357D191504B505357CA9012A404A9012AC
 94
        0
  0
ACAD_PROXY_OBJECT
  5
4B2F4E
102
{ACAD_REACTORS
330
4B2F4D
102
}
330
4B2F4D
100
AcDbProxyObject
 90
      499
 91
      572
 71
    25
 97
       77
 70
     0
161
               133
310
43D054841544348404A9012A404A9012AC
 94
        0
  0
ACAD_PROXY_OBJECT
  5
4B2F4F
102
{ACAD_REACTORS
330
4B2F4D
102
}
330
4B2F4D
100
AcDbProxyObject
 90
      499
 91
      572
 71
    25
 97
       77
 70
     0
161
               549
310
43D044C494E4549CE0B0E138B0A8B4E0B0A8B4E138B105357CE0B105357CE138B0A8B505357CE0B0A8B505357CE139012A404A910494E534552542C535444504152543244C
 94
        0
  0
ACAD_PROXY_OBJECT
  5
4B2F53
102
{ACAD_REACTORS
330
4B2F4D
102
}
330
4B2F4D
100
AcDbProxyObject
 90
      499
 91
      572
 71
    25
 97
       77
 70
     0
161
               181
310
43D0341524341105357CD5012A404C906494E534552544
 94
        0
  0
ACAD_PROXY_OBJECT
  5
4B2F50
102
{ACAD_REACTORS
330
4B2F4D
102
}
330
4B2F4D
100
AcDbProxyObject
 90
      499
 91
      572
 71
    25
 97
       77
 70
     0
161
              1053
310
43D7841434D46434652414D452C41434D444154554D5441524745542C41434D444154554D49442C41434D57454C4453594D2C41434D5355524653594D2C41434D4645415449442C41434D504152545245462C41434D42414C4C4F4F4E2C414D44544544474553594D2C414D47534352455743414C435441424C45404A9012A
310
404A9012AC
 94
        0
  0
ACAD_PROXY_OBJECT
  5
4B2F90
102
{ACAD_REACTORS
330
4B2F80
102
}
330
4B2F80
100
AcDbProxyObject
 90
      499
 91
      574
 71
    25
 97
       77
 70
     0
161
               484
310
404810C476C617A696E672042656164498D184E4C18D94D18CB4C1E0C584C4E0B4D0CCC4D8B50510DCD8B4D4D0C4C11910C504D504C11602800010104C
 94
        0
  0
ACAD_PROXY_OBJECT
  5
4B303E
102
{ACAD_REACTORS
330
4B2F80
102
}
330
4B2F80
100
AcDbProxyObject
 90
      499
 91
      574
 71
    25
 97
       77
 70
     0
161
               596
310
404811A53696C69636F6E20536D616C6C20566572746963616C20546F70498DCD0D1898CDCDCD8B4C1E1998CD4C8B4D198CCDCB504E0D8D8B4DCDCDD0CE4D8C0D5150CD8DA02800010101C
 94
        0
  0
ACAD_PROXY_OBJECT
  5
4B304C
102
{ACAD_REACTORS
330
4B2F80
102
}
330
4B2F80
100
AcDbProxyObject
 90
      499
 91
      574
 71
    25
 97
       77
 70
     0
161
               572
310
404811753696C69636F6E20566572746963616C20426F74746F6D498E588CCC99194D594B4C1E0E588C0DCB4D0DCD0DCB50910E518B5190914C5110D10D108D8CCC202800010101C
 94
        0
  0
ACAD_PROXY_OBJECT
  5
4B2FE2
102
{ACAD_REACTORS
330
4B2F80
102
}
330
4B2F80
100
AcDbProxyObject
 90
      499
 91
      574
 71
    25
 97
       77
 70
     0
161
               484
310
404810C57656174686572205365616C4998984E4D194DD84D8B4C1E190E0D988B4D0D99190B50504C10CB4DCD50904E0C0E4E104C114E202800010104C
 94
        0
  0
ACAD_PROXY_OBJECT
  5
4B2F81
102
{ACAD_REACTORS
330
4B2F80
102
}
330
4B2F80
100
AcDbProxyObject
 90
      499
 91
      574
 71
    25
 97
       77
 70
     0
161
               572
310
40481175265696E666F7263656420427974796C2053706163657249990C18CE4C4D4D0DCB4C1E0D8D0E188B4D0C184C0B4E0E4C4DCB4D4C8C114E4C1050CC4CCE4DE02800010104C
 94
        0
  0
ACAD_PROXY_OBJECT
  5
4B2FF2
102
{ACAD_REACTORS
330
4B2F80
102
}
330
4B2F80
100
AcDbProxyObject
 90
      499
 91
      574
 71
    25
 97
       77
 70
     0
161
               572
310
404811853696C69636F6E20486F72697A6F6E74616C20536D616C6C4959594D98CD4C198B4C1E19198D0C4B4D0C0C4D8B4E118D118B50D1518CD0D10C910DD14C91A02800010102C
 94
        0
  0
DICTIONARY
  5
4B3117
330
4B3116
100
AcDbDictionary
280
     1
281
     1
  3
BUMPTILE
360
4B3119
  3
DIFFUSETILE
360
4B3118
  3
OPACITYTILE
360
4B311C
  3
REFLECTIONTILE
360
4B311B
  3
REFRACTIONTILE
360
4B311D
  3
SPECULARTILE
360
4B311A
  0
DICTIONARY
  5
4B310F
330
4B310E
100
AcDbDictionary
280
     1
281
     1
  3
BUMPTILE
360
4B3111
  3
DIFFUSETILE
360
4B3110
  3
OPACITYTILE
360
4B3114
  3
REFLECTIONTILE
360
4B3113
  3
REFRACTIONTILE
360
4B3115
  3
SPECULARTILE
360
4B3112
  0
DICTIONARY
  5
4B311F
330
4B311E
100
AcDbDictionary
280
     1
281
     1
  3
BUMPTILE
360
4B3121
  3
DIFFUSETILE
360
4B3120
  3
OPACITYTILE
360
4B3124
  3
REFLECTIONTILE
360
4B3123
  3
REFRACTIONTILE
360
4B3125
  3
SPECULARTILE
360
4B3122
  0
DICTIONARY
  5
4B318D
330
4B2E99
100
AcDbDictionary
280
     1
281
     1
  3
ACAD_ROUNDTRIP_2008_TABLESTYLE_CELLSTYLEMAP
360
4B318E
  0
ACAD_PROXY_OBJECT
  5
4B2F06
102
{ACAD_REACTORS
330
4B2F05
102
}
330
4B2F05
100
AcDbProxyObject
 90
      499
 91
      554
 71
    25
 97
       77
 70
     0
161
              2431
310
608B81E85EB51B8BE3F8030000C30041105394D2501640600800030C0200800030C00B81E85EB51B8BE3F48821E8720B1B6A9BAB9332A32BC3A29BA3220480A1282C6DA8C868CA6E8C88120286A0B1B6ABB2B63234B733A9BA3220480A1082C6DA92C8A6E8C88120285A0B1B6A230BA3AB6A9BA3220480A1282C6DA849E9AA
310
6E8C8812028820B6B23A2232BA30B4B629BCB6A9BA3220480A2282DAC8E8A6CAC6E8D2DEDCA6F2DAA6E8C88120288A0B6B23A21B2B73A32B92634B732A9BA3220480A2282DAC8E8A8D0E4CAC2C898D2DCCAA6E8C88120285A0B6B23A2737BA32A9BA3220480A1682C682DACE98C2F2A6E8C88120285A0B1A0B6B3A234B6A9B
310
A3220480A2282C682DACE90DED8CA86D0C2E4E8A6E8C88120286A0B1A0B6B3AA34BA3632A9BA3220480A02812027FFF9FFFE
340
4B2F14
360
4B2F15
360
4B2F16
360
4B2F17
360
4B2F18
360
4B2F19
360
4B2F1A
360
4B2F1B
360
4B2F1C
360
4B2F1D
360
4B2F1E
360
4B2F1F
360
4B2F2A
360
4B2F2B
360
4B2F4A
360
4B2F4B
340
0
340
0
340
0
340
0
 94
        0
  0
ACAD_PROXY_OBJECT
  5
4B2EA2
102
{ACAD_REACTORS
330
4B2EA1
102
}
330
4B2EA1
100
AcDbProxyObject
 90
      499
 91
      507
 71
    25
 97
       77
 70
     0
161
              2436
310
4050B44574753455454494E4753A1286829C8E82A4A482B282A106660F8686AF86C608321A2A720A723A0A849A1ABE1C983E18999AA0C868A9C889282940000000000001C07E83A1A2A72224A0A9A0A8598171ABE1897183E18971AA0E868A9C8892A6A8940000000000001807E8321A2A72622A7250000000000000701FA0
310
C868A9C9E8C8C940000000000001C07E84A1A624A720A92920ACA0A851817181A991A981818182108698929C8AA8B2A082A0AB098929C8A84A22BA3AAA9A1A0A622A50A0E9882A6A89E849482A02608426A0A5A2AB24A2ABA7E8120CA0A68682988A0C00800010652455649534941501304154D0D0531150540CC4E8C50954
310
494D455354414D504A0AAF07151DD28734141D5915494D253D3905414C4D4B8C0C1107B44574753455454494E4753454E447DC
 94
        0
  0
ACAD_PROXY_OBJECT
  5
4B2EA3
102
{ACAD_REACTORS
330
4B2EA1
102
}
330
4B2EA1
100
AcDbProxyObject
 90
      499
 91
      507
 71
    25
 97
       77
 70
     0
161
               852
310
4050D5452414E5353455454494E4753A2488A482AE929C8EA8A4829CA69882A8929E9C0C00800050D4F524947494E414C4C595F4F4E0600400008529A7AAA921A2A620A723A0A81A2A72AA12AAA0A48AA68AA4AC8A0C0080001107B44574753455454494E4753454E447DC
 94
        0
  0
XRECORD
  5
4B3119
102
{ACAD_REACTORS
330
4B3117
102
}
330
4B3117
100
AcDbXrecord
280
     1
270
     1
271
     1
  0
XRECORD
  5
4B3118
102
{ACAD_REACTORS
330
4B3117
102
}
330
4B3117
100
AcDbXrecord
280
     1
270
     1
271
     1
  0
XRECORD
  5
4B311C
102
{ACAD_REACTORS
330
4B3117
102
}
330
4B3117
100
AcDbXrecord
280
     1
270
     1
271
     1
  0
XRECORD
  5
4B311B
102
{ACAD_REACTORS
330
4B3117
102
}
330
4B3117
100
AcDbXrecord
280
     1
270
     1
271
     1
  0
XRECORD
  5
4B311D
102
{ACAD_REACTORS
330
4B3117
102
}
330
4B3117
100
AcDbXrecord
280
     1
270
     1
271
     1
  0
XRECORD
  5
4B311A
102
{ACAD_REACTORS
330
4B3117
102
}
330
4B3117
100
AcDbXrecord
280
     1
270
     1
271
     1
  0
XRECORD
  5
4B3111
102
{ACAD_REACTORS
330
4B310F
102
}
330
4B310F
100
AcDbXrecord
280
     1
270
     1
271
     1
  0
XRECORD
  5
4B3110
102
{ACAD_REACTORS
330
4B310F
102
}
330
4B310F
100
AcDbXrecord
280
     1
270
     1
271
     1
  0
XRECORD
  5
4B3114
102
{ACAD_REACTORS
330
4B310F
102
}
330
4B310F
100
AcDbXrecord
280
     1
270
     1
271
     1
  0
XRECORD
  5
4B3113
102
{ACAD_REACTORS
330
4B310F
102
}
330
4B310F
100
AcDbXrecord
280
     1
270
     1
271
     1
  0
XRECORD
  5
4B3115
102
{ACAD_REACTORS
330
4B310F
102
}
330
4B310F
100
AcDbXrecord
280
     1
270
     1
271
     1
  0
XRECORD
  5
4B3112
102
{ACAD_REACTORS
330
4B310F
102
}
330
4B310F
100
AcDbXrecord
280
     1
270
     1
271
     1
  0
XRECORD
  5
4B3121
102
{ACAD_REACTORS
330
4B311F
102
}
330
4B311F
100
AcDbXrecord
280
     1
270
     1
271
     1
  0
XRECORD
  5
4B3120
102
{ACAD_REACTORS
330
4B311F
102
}
330
4B311F
100
AcDbXrecord
280
     1
270
     1
271
     1
  0
XRECORD
  5
4B3124
102
{ACAD_REACTORS
330
4B311F
102
}
330
4B311F
100
AcDbXrecord
280
     1
270
     1
271
     1
  0
XRECORD
  5
4B3123
102
{ACAD_REACTORS
330
4B311F
102
}
330
4B311F
100
AcDbXrecord
280
     1
270
     1
271
     1
  0
XRECORD
  5
4B3125
102
{ACAD_REACTORS
330
4B311F
102
}
330
4B311F
100
AcDbXrecord
280
     1
270
     1
271
     1
  0
XRECORD
  5
4B3122
102
{ACAD_REACTORS
330
4B311F
102
}
330
4B311F
100
AcDbXrecord
280
     1
270
     1
271
     1
  0
CELLSTYLEMAP
  5
4B318E
102
{ACAD_REACTORS
330
4B318D
102
}
330
4B318D
100
AcDbCellStyleMap
 90
        3
300
CELLSTYLE
  1
TABLEFORMAT_BEGIN
 90
        5
170
     1
 91
        0
 92
    32768
 62
   257
 93
        1
300
CONTENTFORMAT
  1
CONTENTFORMAT_BEGIN
 90
        0
 91
        0
 92
        4
 93
        0
300

 40
0.0
140
1.0
 94
        5
 62
     0
340
4B1AC0
144
0.25
309
CONTENTFORMAT_END
171
     0
 94
        6
 95
        1
302
GRIDFORMAT
  1
GRIDFORMAT_BEGIN
 90
        0
 91
        1
 62
     0
 92
       -2
340
0
 93
        0
 40
0.045
309
GRIDFORMAT_END
 95
        2
302
GRIDFORMAT
  1
GRIDFORMAT_BEGIN
 90
        0
 91
        1
 62
     0
 92
       -2
340
0
 93
        0
 40
0.045
309
GRIDFORMAT_END
 95
        4
302
GRIDFORMAT
  1
GRIDFORMAT_BEGIN
 90
        0
 91
        1
 62
     0
 92
       -2
340
0
 93
        0
 40
0.045
309
GRIDFORMAT_END
 95
        8
302
GRIDFORMAT
  1
GRIDFORMAT_BEGIN
 90
        0
 91
        1
 62
     0
 92
       -2
340
0
 93
        0
 40
0.045
309
GRIDFORMAT_END
 95
       16
302
GRIDFORMAT
  1
GRIDFORMAT_BEGIN
 90
        0
 91
        1
 62
     0
 92
       -2
340
0
 93
        0
 40
0.045
309
GRIDFORMAT_END
 95
       32
302
GRIDFORMAT
  1
GRIDFORMAT_BEGIN
 90
        0
 91
        1
 62
     0
 92
       -2
340
0
 93
        0
 40
0.045
309
GRIDFORMAT_END
309
TABLEFORMAT_END
  1
CELLSTYLE_BEGIN
 90
        1
 91
        1
300
_TITLE
309
CELLSTYLE_END
300
CELLSTYLE
  1
TABLEFORMAT_BEGIN
 90
        5
170
     1
 91
        0
 92
        0
 62
   257
 93
        1
300
CONTENTFORMAT
  1
CONTENTFORMAT_BEGIN
 90
        0
 91
        0
 92
        4
 93
        0
300

 40
0.0
140
1.0
 94
        5
 62
     0
340
4B1AC0
144
0.18
309
CONTENTFORMAT_END
171
     0
 94
        6
 95
        1
302
GRIDFORMAT
  1
GRIDFORMAT_BEGIN
 90
        0
 91
        1
 62
     0
 92
       -2
340
0
 93
        0
 40
0.045
309
GRIDFORMAT_END
 95
        2
302
GRIDFORMAT
  1
GRIDFORMAT_BEGIN
 90
        0
 91
        1
 62
     0
 92
       -2
340
0
 93
        0
 40
0.045
309
GRIDFORMAT_END
 95
        4
302
GRIDFORMAT
  1
GRIDFORMAT_BEGIN
 90
        0
 91
        1
 62
     0
 92
       -2
340
0
 93
        0
 40
0.045
309
GRIDFORMAT_END
 95
        8
302
GRIDFORMAT
  1
GRIDFORMAT_BEGIN
 90
        0
 91
        1
 62
     0
 92
       -2
340
0
 93
        0
 40
0.045
309
GRIDFORMAT_END
 95
       16
302
GRIDFORMAT
  1
GRIDFORMAT_BEGIN
 90
        0
 91
        1
 62
     0
 92
       -2
340
0
 93
        0
 40
0.045
309
GRIDFORMAT_END
 95
       32
302
GRIDFORMAT
  1
GRIDFORMAT_BEGIN
 90
        0
 91
        1
 62
     0
 92
       -2
340
0
 93
        0
 40
0.045
309
GRIDFORMAT_END
309
TABLEFORMAT_END
  1
CELLSTYLE_BEGIN
 90
        2
 91
        1
300
_HEADER
309
CELLSTYLE_END
300
CELLSTYLE
  1
TABLEFORMAT_BEGIN
 90
        5
170
     1
 91
        0
 92
        0
 62
   257
 93
        1
300
CONTENTFORMAT
  1
CONTENTFORMAT_BEGIN
 90
        0
 91
        0
 92
        4
 93
        0
300

 40
0.0
140
1.0
 94
        2
 62
     0
340
4B1AC0
144
0.18
309
CONTENTFORMAT_END
171
     0
 94
        6
 95
        1
302
GRIDFORMAT
  1
GRIDFORMAT_BEGIN
 90
        0
 91
        1
 62
     0
 92
       -2
340
0
 93
        0
 40
0.045
309
GRIDFORMAT_END
 95
        2
302
GRIDFORMAT
  1
GRIDFORMAT_BEGIN
 90
        0
 91
        1
 62
     0
 92
       -2
340
0
 93
        0
 40
0.045
309
GRIDFORMAT_END
 95
        4
302
GRIDFORMAT
  1
GRIDFORMAT_BEGIN
 90
        0
 91
        1
 62
     0
 92
       -2
340
0
 93
        0
 40
0.045
309
GRIDFORMAT_END
 95
        8
302
GRIDFORMAT
  1
GRIDFORMAT_BEGIN
 90
        0
 91
        1
 62
     0
 92
       -2
340
0
 93
        0
 40
0.045
309
GRIDFORMAT_END
 95
       16
302
GRIDFORMAT
  1
GRIDFORMAT_BEGIN
 90
        0
 91
        1
 62
     0
 92
       -2
340
0
 93
        0
 40
0.045
309
GRIDFORMAT_END
 95
       32
302
GRIDFORMAT
  1
GRIDFORMAT_BEGIN
 90
        0
 91
        1
 62
     0
 92
       -2
340
0
 93
        0
 40
0.045
309
GRIDFORMAT_END
309
TABLEFORMAT_END
  1
CELLSTYLE_BEGIN
 90
        3
 91
        2
300
_DATA
309
CELLSTYLE_END
  0
ACAD_PROXY_OBJECT
  5
4B2F15
330
4B2F06
100
AcDbProxyObject
 90
      499
 91
      556
 71
    25
 97
       77
 70
     0
161
                96
310
60820E80A0280A0280A0280800
 94
        0
  0
ACAD_PROXY_OBJECT
  5
4B2F16
330
4B2F06
100
AcDbProxyObject
 90
      499
 91
      557
 71
    25
 97
       77
 70
     0
161
               332
310
6090E405014050140501405014050140501405014250140501405014050140501200000000000000040C
340
4B2F20
 94
        0
  0
ACAD_PROXY_OBJECT
  5
4B2F17
330
4B2F06
100
AcDbProxyObject
 90
      499
 91
      558
 71
    25
 97
       77
 70
     0
161
               403
310
608C199999999999E99F91F405014050140501405014050140501405014050140501405014050140501405014050140501404C
340
0
 94
        0
  0
ACAD_PROXY_OBJECT
  5
4B2F18
330
4B2F06
100
AcDbProxyObject
 90
      499
 91
      559
 71
    25
 97
       77
 70
     0
161
                10
310
608C
 94
        0
  0
ACAD_PROXY_OBJECT
  5
4B2F19
330
4B2F06
100
AcDbProxyObject
 90
      499
 91
      560
 71
    25
 97
       77
 70
     0
161
               257
310
60A290EA22A7D90F49F9353333333333727F44D4CCCCCCCCCDC9FC01000061804C
340
4B2F21
340
4B2F22
 94
        0
  0
ACAD_PROXY_OBJECT
  5
4B2F1A
330
4B2F06
100
AcDbProxyObject
 90
      499
 91
      561
 71
    25
 97
       77
 70
     0
161
             13595
310
6090E41125511535014112551153501405014069011309A4F2590CB64FD3347454E545241434F2C454E552C302C4954454D2C47454E54524154582C25732C2847454E4D53472067656E647767203232322940690120281A8AA2CA0281A8AA2CA028120280A03202261349E4B2196C9FA648E8A9CA8A482869E588A9CAA5860
310
58A2A8B2588E8A9CA8A482A8B0584AE658508E8A9C9AA68E40CECADCC8EECE406464665280D202405044E414D45405044E414D454051C40640A8B95C2E97CBE502404CD1D15395149050D3CB1153954B0C0B139053514B11D15395149055160B095CCB0A11D1539354D1C819D95B991DD9C80C8C8D8A50192C3D4946284953
310
424C414E4B28504152543A4E414D45292C424C4F434B3A4E414D452C504152543A4E414D452940480A0A888AA686A480A16888AA686A492A0A8929E9C80A3A80C81D10782C06030180C809D23A2A72A2920A1A79622A72A9618162222A9A1A924A82A24A7A71623A2A72A2920AA2C1612B9961423A2A726A9A39033B2B7323
310
BB39019189B94A024809014214D51053911054911014214D510539110549110147501904A383BFDFEFF5FBFCFD3747454E545241434F2C454E552C302C5354414E444152442C47454E54524154582C25732C2847454E4D53472067656E64776720323138294049012028426A0AA22A924A0A62028426A0AA22A924A0A62028
310
EA0320B41396D838E9017D9FA6E8E8A9CA8A482869E588A9CAA5860589A82A88AA4928298588E8A9CA8A482A8B0584AE658508E8A9C9AA68E40CECADCC8EECE406464625280D202405044E4F5445405044E4F54454051D40641A8B95C2E97CBE5F23F4CD1D15395149050D3CB1153954B0C0B1393D5114B11D153951490551
310
60B095CCB0A11D1539354D1C819D95B991DD9C80C8C8D4A501A40480A0CAC8A9C889EA480A0CAC8A9C889EA480A3A80C83D172B85D2F97CBE47E9AA3A2A72A2920A1A79622A72A9618162B22A72227A91623A2A72A2920AA2C1612B9961423A2A726A9A39033B2B7323BB39019191A14A0348090141911154D0D48C9014351
310
1154D0D49254151253D3880C90147501908A20F0580C0603019013B47454E545241434F2C454E552C302C4445534352495054494F4E20322C47454E54524154582C25732C2847454E4D53472067656E6477672033362940490120284A9AA20A72220A922192028529AA20A72220A92210192028EA0321347077FBFDFEBF7F9
310
FA728E8A9CA8A482869E588A9CAA586058A6A8829C8882A4884064588E8A9CA8A482A8B0584AE658508E8A9C9AA68E40CECADCC8EECE4064646052809202405094D4154455249414C324050A4D4154455249414C20324051D40642A8272DB071D202FB3F4E11D15395149050D3CB1153954B0C0B1350551154925053080C8B
310
11D15395149055160B095CCB0A11D1539354D1C819D95B991DD9C80D0C0A501240480A089A82A6A680A089A82A6A680A3A80A0485A0681172B85D2F97CBE47E9923A2A72A2920A1A79622A72A96181626A0A9A99623A2A72A2920AA2C1612B9961423A2A726A9A39033B2B7323BB3901A1914A024809014154149250D15014
310
154149250D1501475014090C409022E570BA5F2F97C8FD3347454E545241434F2C454E552C302C50524943452C47454E54524154582C25732C2847454E4D53472067656E6477672034332940490120281A224A6A0285A6A2A0A9AAA922A6A2A72A2028EA028121A81A047DC2910F05877A1FA728E8A9CA8A482869E588A9CA
310
A5860589A8A82A6AAA48A9A8A9CA8588E8A9CA8A482A8B0584AE658508E8A9C9AA68E40CECADCC8EECE406868528092024050E441022E07A17AD46E338FE07800030C0001018ACD56AB55AADF63F2B355AAD56AB7D8FD073D3C4954454D3E405018ACD56AB55AADF63F2B355AAD56AB7D8FD073D3C4954454D3E40501890C7
310
E3F1783CEE3F2431F8FC5E0F3B8FD073D3C4954454D3E40501890C7E3F1783CEE3F2431F8FC5E0F3B8FD073D3C4954454D3E405029012B355AAD56AB7D8FCACD56AB55AADF63F41CF4F125511534F901418F4F1455164F9014062B355AAD56AB7D8FCACD56AB55AADF63F41CF4F125511534F9014061309A4F2590CBA4FC4C
310
2693C96432E93F41CF4F125511534F901901002B355AAD56AB7D8FCACD56AB55AADF63FA2000000000000008204018000618048220681A048120280C882148448820348520348452028521485214814000000000000F0BF0000000000003C2FD018020000C3008070000C3000EF7D3E365DBA88FC3BDF4F8D976EA23F2E07A
310
17AD46E2F8FF20341A405024150741A4069703D0BD6A3717C7F0040001860100400018601002000186002026280A03202C
340
0
340
0
 94
        0
  0
ACAD_PROXY_OBJECT
  5
4B2F1B
330
4B2F06
100
AcDbProxyObject
 90
      499
 91
      562
 71
    25
 97
       77
 70
     0
161
               994
310
6080B81E85EB51B8CE3F4BCF511155105253080F11115510525317D3105091530F971414D0D05311480F11115510525317D05094D4D0D053114F92341C9A9999999999B93F26A666666666724FC000000000000E03F4000000000000004000000000000005100000000000000244081E0000C3002E07A17AD46E338FCC
340
4B2ED3
340
4B2F14
 94
        0
  0
ACAD_PROXY_OBJECT
  5
4B2F1C
330
4B2F06
100
AcDbProxyObject
 90
      499
 91
      563
 71
    25
 97
       77
 70
     0
161
               823
310
608031703D0BD6A3719C7E999EA9A2A1AA24A7A7101E29A2A1AA24A7A72FA620A122A62FA324A929AA1F169E29A2A1AA24A7A72FA620A122A62FA620A9AA1F1353333333333B27E3FFFE01C00030C008840F000061801353333333333B27F1703D0BD6A3719C7E
340
4B2ED3
340
4B2F14
 94
        0
  0
ACAD_PROXY_OBJECT
  5
4B2F1D
330
4B2F06
100
AcDbProxyObject
 90
      499
 91
      564
 71
    25
 97
       77
 70
     0
161
               280
310
6082B8716D9CEF7C33F0A5723F0BD4A2F0FC295C8FC2F528BC3FA199999999999F99FC00
 94
        0
  0
ACAD_PROXY_OBJECT
  5
4B2F1E
330
4B2F06
100
AcDbProxyObject
 90
      499
 91
      565
 71
    25
 97
       77
 70
     0
161
                14
310
60A4
340
0
 94
        0
  0
ACAD_PROXY_OBJECT
  5
4B2F1F
330
4B2F06
100
AcDbProxyObject
 90
      499
 91
      566
 71
    25
 97
       77
 70
     0
161
              7408
310
609084050BA4050AA405024050A54656D706C617465203140405013D3C696628657175616C28486F6C653A7461707065642C223022292C22252563222C486F6C653A6E6F6D696E616C2022202220696628657175616C28486F6C653A756E6974732C223122292C2278222C222D222920222022293E3C696628657175616C28
310
486F6C653A7461707065642C223022292C486F6C653A6469612C486F6C653A706974636864657363293E207B5C46414D4744543B787D203C696628657175616C28486F6C653A7465726D696E6174696F6E2C223022292C486F6C653A64657074682C225448525522293E5C507B5C46414D4744543B767D2525633C486F6C65
310
3A63746469613E207B5C46414D4744543B787D203C486F6C653A637464657074683E406901405034050A54656D706C6174652031405FE3D3C696628657175616C28486F6C653A7461707065642C223022292C22252563222C486F6C653A6E6F6D696E616C2022202220696628657175616C28486F6C653A756E6974732C223
310
122292C2278222C222D222920222022293E3C696628657175616C28486F6C653A7461707065642C223022292C486F6C653A6469612C486F6C653A706974636864657363293E207B5C46414D4744543B787D203C696628657175616C28486F6C653A7465726D696E6174696F6E2C223022292C486F6C653A64657074682C225
310
448525522293E5C507B5C46414D4744543B777D2525633C486F6C653A63746469613E2058203C486F6C653A6374616E676C653E252564406901405014050A54656D706C6174652031405CF3D3C696628657175616C28486F6C653A7461707065642C223022292C22252563222C486F6C653A6E6F6D696E616C202220222069
310
6628657175616C28486F6C653A756E6974732C223122292C2278222C222D222920222022293E3C696628657175616C28486F6C653A7461707065642C223022292C486F6C653A6469612C486F6C653A706974636864657363293E5C507B5C46414D4744543B787D203C696628657175616C28486F6C653A7465726D696E6174
310
696F6E2C223022292C486F6C653A64657074682C225448525522293E4069014051E40D0A54656D706C6174652032405173D3C535444503A444553433E203C535444503A5354443E40690A54656D706C61746520314050C3D3C535444503A444553433E40690A54656D706C61746520334050B3D3C535444503A5354443E406
310
90340515AAAC145C0F42F5A8DC5F1F9703D0BD6A3717C7F8020000C3008030000C3004410306
360
4B2F28
330
4B2F28
360
4B2F29
330
4B2F29
360
4B2F27
330
4B2F27
360
4B2F25
360
4B2F24
360
4B2F26
330
4B2F25
330
4B2F24
330
4B2F26
 94
        0
  0
ACAD_PROXY_OBJECT
  5
4B2F2A
330
4B2F06
100
AcDbProxyObject
 90
      499
 91
      568
 71
    25
 97
       77
 70
     0
161
                26
310
60902A8C
340
4B2F07
 94
        0
  0
ACAD_PROXY_OBJECT
  5
4B2F2B
330
4B2F06
100
AcDbProxyObject
 90
      499
 91
      569
 71
    25
 97
       77
 70
     0
161
               258
310
60902000000000000380FC000000000000E03F408F0F9023C3E40DB18CCCFFFF8C
340
4B2F2C
340
0
340
0
340
4B2F35
340
4B2F38
340
0
340
4B2F3D
340
4B2F40
340
4B2F47
340
0
 94
        0
  0
ACAD_PROXY_OBJECT
  5
4B2F4A
330
4B2F06
100
AcDbProxyObject
 90
      499
 91
      570
 71
    25
 97
       77
 70
     0
161
             17510
310
6091F023FFFFFFFD010300002E07A17AD46E2F8FE00800030C01010300002E07A17AD46E2F8FE00800030C0005134C495354204F4620434F4F5244494E41544553015091D15395149050D3CB1153954B0C0B131254D50813D18810D3D3D491125390551154CB11D15395149055160B095CCB0A11D1539354D1C819D95B991A
310
5B5E880CCC0A78000C000000000000000000000000000000007B14AE47E17AA43F2E07A17AD46E2F8FE00800030C007B14AE47E17AA43F2E07A17AD46E2F8FE00800030C020143CF4F111959985D5B1D151A5D1B194F8050A484F4C45205441424C45014E51D15395149050D3CB1153954B0C0B1213D3114815105093114B1
310
1D15395149055160B095CCB0A11D1539354D1C819D95B991A5B5E880CCC4A78000C000000000000000000000000000000007B14AE47E17AA43F2E07A17AD46E2F8FE00800030C007B14AE47E17AA43F2E07A17AD46E2F8FE00800030C020143CF4F111959985D5B1D151A5D1B194F90E4410F4450240D04415074310143912
310
44D154151241D144310D4400005064F524947494E014D11D15395149050D3CB1153954B0C0B13D49251D2538B11D15395149055160B095CCB0A11D1539354D1C819D95B991A5B5E880C4A400040410008850000A0C9EA4928E929C029A23A2A72A2920A1A79622A72A96181627A924A3A4A71623A2A72A2920AA2C1612B996
310
1423A2A726A9A39033B2B73234B6BD101894800080820010FA0001411213D3114053247454E545241434F2C454E552C302C484F4C452C47454E54524154582C25732C2847454E4D53472067656E64696D7A20322901538F4F12518A1254D093105392CA121BDB19525D195B4A4B13DC9A59DA5B8B08121BDB19525D195B4A4
310
F8F12518A1254D093105392CA121BDB19525D195B4A4B08888B08121BDB19525B99195E0A4F80404100088D0000A02B00297A3A2A72A2920A1A79622A72A9618162C1623A2A72A2920AA2C1612B9961423A2A726A9A39033B2B73234B6BD1019948000808000102A000140564052F47454E545241434F2C454E552C302C592
310
C47454E54524154582C25732C2847454E4D53472067656E64696D7A20342900010100002074000280A900A5E8E8A9CA8A482869E588A9CAA586058A4588E8A9CA8A482A8B0584AE658508E8A9C9AA68E40CECADCC8D2DAF4406C52000202000041280005187B5C4653594D424F4C7C42307C49307C43327C50303B4A7D0151
310
91D15395149050D3CB1153954B0C0B1ED71194D6535093D31F108C1F124C1F10CC9F140C0ED29F4B11D15395149055160B095CCB0A11D1539354D1C819D95B991A5B5E880DCA40004040C0082D0000A064A4A860298A3A2A72A2920A1A79622A72A9618161292A19623A2A72A2920AA2C1612B9961423A2A726A9A39033B2B
310
73234B6BD101C148000808080107A000142D11154D0D49254151253D38053A47454E545241434F2C454E552C302C4445534352495054494F4E2C47454E54524154582C25732C2847454E4D53472067656E64696D7A203230290001000400219400028224AA22A680A668E8A9CA8A482869E588A9CAA58605892A88A9A588E8
310
A9CA8A482A8B0584AE658508E8A9C9AA68E40CECADCC8D2DAF4406268520002020A014068000505494E444558014D11D15395149050D3CB1153954B0C0B12539111560B11D15395149055160B095CCB0A11D1539354D1C819D95B991A5B5E880C4D4A400040414028750000A08909E988A0299A3A2A72A2920A1A79622A72A
310
9618162427A6229623A2A72A2920AA2C1612B9961423A2A726A9A39033B2B73234B6BD10189B148000808200112A0001429213D3114812539111560053947454E545241434F2C454E552C302C484F4C4520494E4445582C47454E54524154582C25732C2847454E4D53472067656E64696D7A2031372900010105002274000
310
284AAA9A2A91024AA22A680A708E8A9CA8A482869E588A9CAA586058AAA68AA44092A88A9A588E8A9CA8A482A8B0584AE658508E8A9C9AA68E40CECADCC8D2DAF4406464520002020A004568000503515459014C91D15395149050D3CB1153954B0C0B1455164B11D15395149055160B095CCB0A11D1539354D1C819D95B99
310
1A5B5E880C4E4A400040418008A50000A10A6A8829C8882A488029BA3A2A72A2920A1A79622A72A96181629AA20A72220A9221623A2A72A2920AA2C1612B9961423A2A726A9A39033B2B73234B6BD10191894800080020010DA440019FFFFFFFE004D4CCCCCCCCCF49FCFFFFFFFF0326A6666666667A4FE7FFFFFFF8093533
310
33333333D27F3FFFFFFFC049A9999999999E93F9FFFFFFFE044D4CCCCCCCCCF49FCFFFFFFFF0226A6666666667A4FE7FFFFFFF81B3FFFFFFFC0C00000000000000409FFFFFFFE004D4CCCCCCCCCEC9FCFFFFFFFF0026A6666666667A4FE7FFFFFFF801353333333333D27F3FFFFFFFC009A9999999999E93F9FFFFFFFE004D
310
4CCCCCCCCCF49FCFFFFFFFF032E07A17AD46E378FE7FFFFFFF818CECCCCCCCCCC0C813FFFFFFFD100067FFFFFFF801353333333333D27F3FFFFFFFC0C9A9999999999E93F9FFFFFFFE064D4CCCCCCCCCF49FCFFFFFFFF0326A6666666667A4FE7FFFFFFF819353333333333D27F3FFFFFFFC0C9A9999999999E93F9FFFFFFF
310
E06CFFFFFFFF03000000000000001027FFFFFFF801353333333333B27F3FFFFFFFC009A9999999999E93F9FFFFFFFE064D4CCCCCCCCCF49FCFFFFFFFF0026A6666666667A4FE7FFFFFFF801353333333333D27F3FFFFFFFC0CB81E85EB51B8DE3F9FFFFFFFE0633B33333333303204FFFFFFFF4111000000043C0000011200
310
000044C0000010441C0004011200000040C000401020001003FFFFFFFD0240400054E3D3C4946284953424C414E4B28486F6C654974656D292C4F726967696E2C20486F6C654974656D293E3C4946284953424C414E4B28486F6C654974656D292C22222C20486F6C65496E646578293E4111000000043C000001120000004
310
4C0000010300004111000000043C00000112000000454000000FFFFFFFF8
340
0
340
0
340
0
340
0
340
4B2F14
340
4B2F14
 94
        0
  0
ACAD_PROXY_OBJECT
  5
4B2F4B
330
4B2F06
100
AcDbProxyObject
 90
      499
 91
      571
 71
    25
 97
       77
 70
     0
161
              5542
310
6099741105394D2506414E53495F4342905394D257D512551554D15414E53495F54525F5265766973696F6E6C697374614191143202831372E307832322E30696E63682941905394D257D0D1146202832382E307834302E30696E63682941905394D257D191142202831312E307831372E30696E63682941905394D257D091
310
144202832322E307833342E30696E63682941905394D257D111145202833342E307834342E30696E63682941905394D257D1510412028382E357831312E30696E63682941905394D257D0505439554C8151A5D1B1948109B1BD8DAD0A414E53495F544954555344D05B9CDA48151A5D1B1948109B1BD8DAC81110D0C414E53
310
495F5449544C45444344905B9CDA48151A5D1B1948109B1BD8DAC81050B414E53495F5449544C454144D05B9CDA48151A5D1B1948109B1BD8DAC81050D0C414E53495F5449544C45414344905B9CDA48151A5D1B1948109B1BD8DAC81110B414E53495F5449544C4544421125265766973696F6E6C69737420415F42525F45
310
505394D257D09497D4995D9A5CDA5BDB9B1A5CDD185125265766973696F6E6C69737420415F54525F45505394D257D51497D4995D9A5CDA5BDB9B1A5CDD185125265766973696F6E6C69737420445F42525F45505394D257D09497D4995D9A5CDA5BDB9B1A5CDD191125265766973696F6E6C69737420445F54525F4550539
310
4D257D51497D4995D9A5CDA5BDB9B1A5CDD191125265766973696F6E6C69737420415F424C5F45505394D257D09317D4995D9A5CDA5BDB9B1A5CDD185125265766973696F6E6C69737420415F544C5F45505394D257D51317D4995D9A5CDA5BDB9B1A5CDD185125265766973696F6E6C69737420445F424C5F45505394D257
310
D09317D4995D9A5CDA5BDB9B1A5CDD191125265766973696F6E6C69737420445F544C5F45505394D257D51317D4995D9A5CDA5BDB9B1A5CDD190
 94
        0
  0
ACAD_PROXY_OBJECT
  5
4B2F28
330
0
100
AcDbProxyObject
 90
      499
 91
      567
 71
    25
 97
       77
 70
     0
161
              2224
310
60A014295195B5C1B185D19480C40405013D3C696628657175616C28486F6C653A7461707065642C223022292C22252563222C486F6C653A6E6F6D696E616C2022202220696628657175616C28486F6C653A756E6974732C223122292C2278222C222D222920222022293E3C696628657175616C28486F6C653A7461707065
310
642C223022292C486F6C653A6469612C486F6C653A706974636864657363293E207B5C46414D4744543B787D203C696628657175616C28486F6C653A7465726D696E6174696F6E2C223022292C486F6C653A64657074682C225448525522293E5C507B5C46414D4744543B767D2525633C486F6C653A63746469613E207B5C
310
46414D4744543B787D203C486F6C653A637464657074683E6F
 94
        0
  0
ACAD_PROXY_OBJECT
  5
4B2F29
330
0
100
AcDbProxyObject
 90
      499
 91
      567
 71
    25
 97
       77
 70
     0
161
              2160
310
60A014295195B5C1B185D19480C405FE3D3C696628657175616C28486F6C653A7461707065642C223022292C22252563222C486F6C653A6E6F6D696E616C2022202220696628657175616C28486F6C653A756E6974732C223122292C2278222C222D222920222022293E3C696628657175616C28486F6C653A746170706564
310
2C223022292C486F6C653A6469612C486F6C653A706974636864657363293E207B5C46414D4744543B787D203C696628657175616C28486F6C653A7465726D696E6174696F6E2C223022292C486F6C653A64657074682C225448525522293E5C507B5C46414D4744543B777D2525633C486F6C653A63746469613E2058203C
310
486F6C653A6374616E676C653E25256477
 94
        0
  0
ACAD_PROXY_OBJECT
  5
4B2F27
330
0
100
AcDbProxyObject
 90
      499
 91
      567
 71
    25
 97
       77
 70
     0
161
              1784
310
60A014295195B5C1B185D19480C405CF3D3C696628657175616C28486F6C653A7461707065642C223022292C22252563222C486F6C653A6E6F6D696E616C2022202220696628657175616C28486F6C653A756E6974732C223122292C2278222C222D222920222022293E3C696628657175616C28486F6C653A746170706564
310
2C223022292C486F6C653A6469612C486F6C653A706974636864657363293E5C507B5C46414D4744543B787D203C696628657175616C28486F6C653A7465726D696E6174696F6E2C223022292C486F6C653A64657074682C225448525522293E00
 94
        0
  0
ACAD_PROXY_OBJECT
  5
4B2F25
330
0
100
AcDbProxyObject
 90
      499
 91
      567
 71
    25
 97
       77
 70
     0
161
               312
310
60A014295195B5C1B185D19480C805173D3C535444503A444553433E203C535444503A5354443E54
 94
        0
  0
ACAD_PROXY_OBJECT
  5
4B2F24
330
0
100
AcDbProxyObject
 90
      499
 91
      567
 71
    25
 97
       77
 70
     0
161
               224
310
60A014295195B5C1B185D19480C4050C3D3C535444503A444553433E00
 94
        0
  0
ACAD_PROXY_OBJECT
  5
4B2F26
330
0
100
AcDbProxyObject
 90
      499
 91
      567
 71
    25
 97
       77
 70
     0
161
               216
310
60A014295195B5C1B185D19480CC050B3D3C535444503A5354443E00
 94
        0
  0
ENDSEC
  0
SECTION
  2
ACDSDATA
 70
     2
 71
     8
  0
ACDSSCHEMA
 90
        0
  1
AcDb_Thumbnail_Schema
  2
AcDbDs::ID
280
    10
 91
        8
  2
Thumbnail_Data
280
    15
 91
        0
101
ACDSRECORD
 95
        0
 90
        1
  2
AcDbDs::TreatedAsObjectData
280
     1
291
     1
101
ACDSRECORD
 95
        0
 90
        2
  2
AcDbDs::Legacy
280
     1
291
     1
101
ACDSRECORD
  1
AcDbDs::ID
 90
        3
  2
AcDs:Indexable
280
     1
291
     1
101
ACDSRECORD
  1
AcDbDs::ID
 90
        4
  2
AcDbDs::HandleAttribute
280
     7
282
     1
  0
ACDSSCHEMA
 90
        1
  1
AcDbDs::TreatedAsObjectDataSchema
  2
AcDbDs::TreatedAsObjectData
280
     1
 91
        0
  0
ACDSSCHEMA
 90
        2
  1
AcDbDs::LegacySchema
  2
AcDbDs::Legacy
280
     1
 91
        0
  0
ACDSSCHEMA
 90
        3
  1
AcDbDs::IndexedPropertySchema
  2
AcDs:Indexable
280
     1
 91
        0
  0
ACDSSCHEMA
 90
        4
  1
AcDbDs::HandleAttributeSchema
  2
AcDbDs::HandleAttribute
280
     7
 91
        1
284
     1
  0
ACDSRECORD
 90
        0
  2
AcDbDs::ID
280
    10
320
4B1D16
  2
Thumbnail_Data
280
    15
 94
     1471
310
89504E470D0A1A0A0000000D49484452000001000000006F08030000003479EE6F00000300504C5445212830FFFFFF2128300000000000000000000000000000000000000000000000000000330000660000990000CC0000FF0033000033330033660033990033CC0033FF0066000066330066660066990066CC0066FF0099
310
000099330099660099990099CC0099FF00CC0000CC3300CC6600CC9900CCCC00CCFF00FF0000FF3300FF6600FF9900FFCC00FFFF3300003300333300663300993300CC3300FF3333003333333333663333993333CC3333FF3366003366333366663366993366CC3366FF3399003399333399663399993399CC3399FF33CC00
310
33CC3333CC6633CC9933CCCC33CCFF33FF0033FF3333FF6633FF9933FFCC33FFFF6600006600336600666600996600CC6600FF6633006633336633666633996633CC6633FF6666006666336666666666996666CC6666FF6699006699336699666699996699CC6699FF66CC0066CC3366CC6666CC9966CCCC66CCFF66FF0066
310
FF3366FF6666FF9966FFCC66FFFF9900009900339900669900999900CC9900FF9933009933339933669933999933CC9933FF9966009966339966669966999966CC9966FF9999009999339999669999999999CC9999FF99CC0099CC3399CC6699CC9999CCCC99CCFF99FF0099FF3399FF6699FF9999FFCC99FFFFCC0000CC00
310
33CC0066CC0099CC00CCCC00FFCC3300CC3333CC3366CC3399CC33CCCC33FFCC6600CC6633CC6666CC6699CC66CCCC66FFCC9900CC9933CC9966CC9999CC99CCCC99FFCCCC00CCCC33CCCC66CCCC99CCCCCCCCCCFFCCFF00CCFF33CCFF66CCFF99CCFFCCCCFFFFFF0000FF0033FF0066FF0099FF00CCFF00FFFF3300FF3333
310
FF3366FF3399FF33CCFF33FFFF6600FF6633FF6666FF6699FF66CCFF66FFFF9900FF9933FF9966FF9999FF99CCFF99FFFFCC00FFCC33FFCC66FFCC99FFCCCCFFCCFFFFFF00FFFF33FFFF66FFFF99FFFFCCFFFFFF0000000D0D0D1A1A1A2828283535354343435050505D5D5D6B6B6B787878868686939393A1A1A1AEAEAEBB
310
BBBBC9C9C9D6D6D6E4E4E4F1F1F1FFFFFF0000000000000000000000000000000000000000000000000000000000002E4550F10000027A4944415478DAED9B4B72C4200C44390937E0FED7D246FB8C3DF6003620259554C5ADEEAA64128F37FD90C43F258AA2288AA2288AA2FE503A13823919281C80FD63FFE7FD80005CEE
310
41181C317F0018A4003A8024F73A100BC0BD143A3A03B88EAE712F8900E2017065404320256402310124CB3CBAA494D7EFB2B7734C021F009011FE1D00E12320AA08800008800008800008800056D2E000B067098C0002200007805C0507C0B1DA977BC14580012067CDC008AC14D8FC6AF58C87C000B0BBD5C1B32000DE56
310
7588250080D3A72660020B004B933004E6000C8B2804A60072320CBEBECED000CC06C608811980EC0290610198090093043300AEC64508813B806D62E00A008C10180150CDCE13210021304801BD1AD31000746A6C110A40003A97F90200B9080C23E0D2B00A5C044436F3329AEC55DD56849EBC3CD41F793E8F8CCBCABFA5
310
A711E803607450320E00719D1506DB1768DD68D3FC410068B708AEA235022406806E845BFDAF6F4C24444973532814006DEA9F716D0E530D80141D80757314D37F33060C096051D894000880000880008201D86606E7E4201880F332A8225F0C75A580C64C018AA2288ABA487EF5B5670D888E251297FF4D3863276D7D3923
310
E07C131380EDAA02801A131F8BE4765CD78D343800FB8F230080015885E0B397840C608EA0D94C430460EE10DCDEC09840EBE1A37157AAB4F9BBDC113DBD23D4E6BC404D81320350BA14D0F4FCA1D07B49EC5A032E6FDC92A00240488241117402C0ED05BA14D0690A80F602E55204B5F75FE07A817E28FC9EE91929803B12
310
3CCCE96A250018C0479A8CA120680AFC0000422FD8AF0889DDB002B622D485822BB251CF120D760B6329388063A77CAF6BFF3EB7BF00594520F5DD50227F0000000049454E44AE426082
  0
ENDSEC
  0
EOF
