  0
SECTION
  2
HEADER
  9
$ACADVER
  1
AC1032
  9
$ACADMAINTVER
 90
       55
  9
$DWGCODEPAGE
  3
ANSI_1252
  9
$LASTSAVEDBY
  1
Administrator
  9
$REQUIREDVERSIONS
160
                 0
  9
$INSBASE
 10
0.0
 20
0.0
 30
0.0
  9
$EXTMIN
 10
7.507495732478972
 20
4.850267244930536
 30
0.0
  9
$EXTMAX
 10
29.50749573247898
 20
21.85026724493055
 30
0.0
  9
$LIMMIN
 10
0.0
 20
0.0
  9
$LIMMAX
 10
17.0
 20
22.0
  9
$ORTHOMODE
 70
     0
  9
$REGENMODE
 70
     1
  9
$FILLMODE
 70
     1
  9
$QTEXTMODE
 70
     0
  9
$MIRRTEXT
 70
     0
  9
$LTSCALE
 40
0.2
  9
$ATTMODE
 70
     1
  9
$TEXTSIZE
 40
0.09
  9
$TRACEWID
 40
0.05
  9
$TEXTSTYLE
  7
SIMPLEX
  9
$CLAYER
  8
XTHIN
  9
$CELTYPE
  6
BYLAYER
  9
$CECOLOR
 62
   256
  9
$CELTSCALE
 40
1.0
  9
$DISPSILH
 70
     0
  9
$DIMSCALE
 40
2.0
  9
$DIMASZ
 40
0.125
  9
$DIMEXO
 40
0.045
  9
$DIMDLI
 40
0.38
  9
$DIMRND
 40
0.0
  9
$DIMDLE
 40
0.0
  9
$DIMEXE
 40
0.08
  9
$DIMTP
 40
0.0
  9
$DIMTM
 40
0.0
  9
$DIMTXT
 40
0.08
  9
$DIMCEN
 40
-0.09
  9
$DIMTSZ
 40
0.0
  9
$DIMTOL
 70
     0
  9
$DIMLIM
 70
     0
  9
$DIMTIH
 70
     1
  9
$DIMTOH
 70
     1
  9
$DIMSE1
 70
     0
  9
$DIMSE2
 70
     0
  9
$DIMTAD
 70
     0
  9
$DIMZIN
 70
     0
  9
$DIMBLK
  1

  9
$DIMASO
 70
     1
  9
$DIMSHO
 70
     1
  9
$DIMPOST
  1
"
  9
$DIMAPOST
  1

  9
$DIMALT
 70
     0
  9
$DIMALTD
 70
     2
  9
$DIMALTF
 40
25.4
  9
$DIMLFAC
 40
1.0
  9
$DIMTOFL
 70
     0
  9
$DIMTVP
 40
0.0
  9
$DIMTIX
 70
     0
  9
$DIMSOXD
 70
     0
  9
$DIMSAH
 70
     0
  9
$DIMBLK1
  1

  9
$DIMBLK2
  1

  9
$DIMSTYLE
  2
ASWhite
  9
$DIMCLRD
 70
     7
  9
$DIMCLRE
 70
     7
  9
$DIMCLRT
 70
   256
  9
$DIMTFAC
 40
0.4444440000000001
  9
$DIMGAP
 40
0.09
  9
$DIMJUST
 70
     0
  9
$DIMSD1
 70
     0
  9
$DIMSD2
 70
     0
  9
$DIMTOLJ
 70
     1
  9
$DIMTZIN
 70
     0
  9
$DIMALTZ
 70
     0
  9
$DIMALTTZ
 70
     0
  9
$DIMUPT
 70
     0
  9
$DIMDEC
 70
     4
  9
$DIMTDEC
 70
     4
  9
$DIMALTU
 70
     2
  9
$DIMALTTD
 70
     2
  9
$DIMTXSTY
  7
ROMANS
  9
$DIMAUNIT
 70
     0
  9
$DIMADEC
 70
     0
  9
$DIMALTRND
 40
0.0
  9
$DIMAZIN
 70
     0
  9
$DIMDSEP
 70
    46
  9
$DIMATFIT
 70
     1
  9
$DIMFRAC
 70
     2
  9
$DIMLDRBLK
  1

  9
$DIMLUNIT
 70
     5
  9
$DIMLWD
 70
    -2
  9
$DIMLWE
 70
    -2
  9
$DIMTMOVE
 70
     0
  9
$DIMFXL
 40
1.0
  9
$DIMFXLON
 70
     0
  9
$DIMJOGANG
 40
0.7853981633974483
  9
$DIMTFILL
 70
     0
  9
$DIMTFILLCLR
 70
     0
  9
$DIMARCSYM
 70
     1
  9
$DIMLTYPE
  6

  9
$DIMLTEX1
  6

  9
$DIMLTEX2
  6

  9
$DIMTXTDIRECTION
 70
     0
  9
$LUNITS
 70
     2
  9
$LUPREC
 70
     6
  9
$SKETCHINC
 40
0.1
  9
$FILLETRAD
 40
0.015
  9
$AUNITS
 70
     0
  9
$AUPREC
 70
     2
  9
$MENU
  1
TB
  9
$ELEVATION
 40
0.0
  9
$PELEVATION
 40
0.0
  9
$THICKNESS
 40
0.0
  9
$LIMCHECK
 70
     0
  9
$CHAMFERA
 40
0.0
  9
$CHAMFERB
 40
0.0
  9
$CHAMFERC
 40
0.0
  9
$CHAMFERD
 40
0.0
  9
$SKPOLY
 70
     0
  9
$TDCREATE
 40
2448930.660717593
  9
$TDUCREATE
 40
2448930.869059028
  9
$TDUPDATE
 40
2459264.528611111
  9
$TDUUPDATE
 40
2459264.736944445
  9
$TDINDWG
 40
2.3600145949
  9
$TDUSRTIMER
 40
2.3600145949
  9
$USRTIMER
 70
     1
  9
$ANGBASE
 50
0.0
  9
$ANGDIR
 70
     0
  9
$PDMODE
 70
     0
  9
$PDSIZE
 40
0.0
  9
$PLINEWID
 40
0.0
  9
$SPLFRAME
 70
     0
  9
$SPLINETYPE
 70
     6
  9
$SPLINESEGS
 70
     8
  9
$HANDSEED
  5
B56A7A5C3AE6392E
  9
$SURFTAB1
 70
     6
  9
$SURFTAB2
 70
     6
  9
$SURFTYPE
 70
     6
  9
$SURFU
 70
     6
  9
$SURFV
 70
     6
  9
$UCSBASE
  2

  9
$UCSNAME
  2

  9
$UCSORG
 10
0.0
 20
0.0
 30
0.0
  9
$UCSXDIR
 10
1.0
 20
0.0
 30
0.0
  9
$UCSYDIR
 10
0.0
 20
1.0
 30
0.0
  9
$UCSORTHOREF
  2

  9
$UCSORTHOVIEW
 70
     0
  9
$UCSORGTOP
 10
0.0
 20
0.0
 30
0.0
  9
$UCSORGBOTTOM
 10
0.0
 20
0.0
 30
0.0
  9
$UCSORGLEFT
 10
0.0
 20
0.0
 30
0.0
  9
$UCSORGRIGHT
 10
0.0
 20
0.0
 30
0.0
  9
$UCSORGFRONT
 10
0.0
 20
0.0
 30
0.0
  9
$UCSORGBACK
 10
0.0
 20
0.0
 30
0.0
  9
$PUCSBASE
  2

  9
$PUCSNAME
  2

  9
$PUCSORG
 10
0.0
 20
0.0
 30
0.0
  9
$PUCSXDIR
 10
1.0
 20
0.0
 30
0.0
  9
$PUCSYDIR
 10
0.0
 20
1.0
 30
0.0
  9
$PUCSORTHOREF
  2

  9
$PUCSORTHOVIEW
 70
     0
  9
$PUCSORGTOP
 10
0.0
 20
0.0
 30
0.0
  9
$PUCSORGBOTTOM
 10
0.0
 20
0.0
 30
0.0
  9
$PUCSORGLEFT
 10
0.0
 20
0.0
 30
0.0
  9
$PUCSORGRIGHT
 10
0.0
 20
0.0
 30
0.0
  9
$PUCSORGFRONT
 10
0.0
 20
0.0
 30
0.0
  9
$PUCSORGBACK
 10
0.0
 20
0.0
 30
0.0
  9
$USERI1
 70
     0
  9
$USERI2
 70
     0
  9
$USERI3
 70
     0
  9
$USERI4
 70
     0
  9
$USERI5
 70
     0
  9
$USERR1
 40
0.0
  9
$USERR2
 40
0.0
  9
$USERR3
 40
0.0
  9
$USERR4
 40
0.0
  9
$USERR5
 40
0.0
  9
$WORLDVIEW
 70
     1
  9
$SHADEDGE
 70
     3
  9
$SHADEDIF
 70
    70
  9
$TILEMODE
 70
     1
  9
$MAXACTVP
 70
    16
  9
$PINSBASE
 10
0.0
 20
0.0
 30
0.0
  9
$PLIMCHECK
 70
     0
  9
$PEXTMIN
 10
1.000000000000000E+20
 20
1.000000000000000E+20
 30
1.000000000000000E+20
  9
$PEXTMAX
 10
-1.000000000000000E+20
 20
-1.000000000000000E+20
 30
-1.000000000000000E+20
  9
$PLIMMIN
 10
0.0
 20
0.0
  9
$PLIMMAX
 10
12.0
 20
9.0
  9
$UNITMODE
 70
     0
  9
$VISRETAIN
 70
     0
  9
$PLINEGEN
 70
     0
  9
$PSLTSCALE
 70
     0
  9
$TREEDEPTH
 70
  3020
  9
$CMLSTYLE
  2
STANDARD
  9
$CMLJUST
 70
     0
  9
$CMLSCALE
 40
1.0
  9
$PROXYGRAPHICS
 70
     1
  9
$MEASUREMENT
 70
     0
  9
$CELWEIGHT
370
    -1
  9
$ENDCAPS
280
     0
  9
$JOINSTYLE
280
     0
  9
$LWDISPLAY
290
     0
  9
$INSUNITS
 70
     0
  9
$HYPERLINKBASE
  1

  9
$STYLESHEET
  1
Harvey Std Plot Style.ctb
  9
$XEDIT
290
     1
  9
$CEPSNTYPE
380
     0
  9
$PSTYLEMODE
290
     1
  9
$FINGERPRINTGUID
  2
{14C335CD-AE60-11D4-8F22-005004E2E84A}
  9
$VERSIONGUID
  2
{FDD4CB1C-A61F-41FE-8355-02639B8AD2F6}
  9
$EXTNAMES
290
     1
  9
$PSVPSCALE
 40
0.0
  9
$OLESTARTUP
290
     0
  9
$SORTENTS
280
   127
  9
$INDEXCTL
280
     0
  9
$HIDETEXT
280
     0
  9
$XCLIPFRAME
280
     0
  9
$HALOGAP
280
     0
  9
$OBSCOLOR
 70
   257
  9
$OBSLTYPE
280
     0
  9
$INTERSECTIONDISPLAY
280
     0
  9
$INTERSECTIONCOLOR
 70
   257
  9
$DIMASSOC
280
     1
  9
$PROJECTNAME
  1

  9
$CAMERADISPLAY
290
     0
  9
$LENSLENGTH
 40
50.0
  9
$CAMERAHEIGHT
 40
0.0
  9
$STEPSPERSEC
 40
2.0
  9
$STEPSIZE
 40
6.0
  9
$3DDWFPREC
 40
2.0
  9
$PSOLWIDTH
 40
0.25
  9
$PSOLHEIGHT
 40
4.0
  9
$LOFTANG1
 40
1.570796326794896
  9
$LOFTANG2
 40
1.570796326794896
  9
$LOFTMAG1
 40
0.0
  9
$LOFTMAG2
 40
0.0
  9
$LOFTPARAM
 70
     7
  9
$LOFTNORMALS
280
     1
  9
$LATITUDE
 40
37.795
  9
$LONGITUDE
 40
-122.394
  9
$NORTHDIRECTION
 40
0.0
  9
$TIMEZONE
 70
 -8000
  9
$LIGHTGLYPHDISPLAY
280
     1
  9
$TILEMODELIGHTSYNCH
280
     1
  9
$CMATERIAL
347
B56A7A5C3AE62F7B
  9
$SOLIDHIST
280
     0
  9
$SHOWHIST
280
     1
  9
$DWFFRAME
280
     2
  9
$DGNFRAME
280
     0
  9
$REALWORLDSCALE
290
     1
  9
$INTERFERECOLOR
 62
     1
  9
$INTERFEREOBJVS
345
B56A7A5C3AE62F9D
  9
$INTERFEREVPVS
346
B56A7A5C3AE62F9A
  9
$CSHADOW
280
     0
  9
$SHADOWPLANELOCATION
 40
0.0
  0
ENDSEC
  0
SECTION
  2
CLASSES
  0
CLASS
  1
DICTIONARYVAR
  2
AcDbDictionaryVar
  3
ObjectDBX Classes
 90
        0
 91
       13
280
     0
281
     0
  0
CLASS
  1
LWPOLYLINE
  2
AcDbPolyline
  3
ObjectDBX Classes
 90
        0
 91
       55
280
     0
281
     1
  0
CLASS
  1
ACDBDICTIONARYWDFLT
  2
AcDbDictionaryWithDefault
  3
ObjectDBX Classes
 90
        0
 91
        1
280
     0
281
     0
  0
CLASS
  1
ACDBPLACEHOLDER
  2
AcDbPlaceHolder
  3
ObjectDBX Classes
 90
        0
 91
        1
280
     0
281
     0
  0
CLASS
  1
LAYOUT
  2
AcDbLayout
  3
ObjectDBX Classes
 90
        0
 91
        2
280
     0
281
     0
  0
CLASS
  1
MTV_DERIVED_OBJECT
  2
CMtvAcDerivedObject
  3
MTV_ADME_ARX
 90
     1023
 91
        2
280
     0
281
     0
  0
CLASS
  1
ACME_DOCUMENT
  2
AcMeDbDoc
  3
AcMeServices
 90
        0
 91
        0
280
     0
281
     0
  0
CLASS
  1
AMGSETTINGSOBJ
  2
AmgSettingsObj
  3
"AcadM|Product Description: AutoCAD Mechanical 2000|Company: Autodesk"
 90
        0
 91
        5
280
     0
281
     0
  0
CLASS
  1
ACMESCOPE
  2
AcMeScope
  3
AcMeServices
 90
        0
 91
        2
280
     0
281
     0
  0
CLASS
  1
ACMECOMMANDHISTORY
  2
AcMeCommandHistory
  3
AcMeServices
 90
        0
 91
        2
280
     0
281
     0
  0
CLASS
  1
ACIMSYSVARMAN
  2
AcImSysVarManager
  3
AcMeServices
 90
        0
 91
        6
280
     0
281
     0
  0
CLASS
  1
ACIMINTSYSVAR
  2
AcImIntSysVar
  3
AcMeServices
 90
        0
 91
       27
280
     0
281
     0
  0
CLASS
  1
ACMEDRAWINGMAN
  2
AcMeDrawingMan
  3
AcMeServices
 90
        0
 91
        2
280
     0
281
     0
  0
CLASS
  1
ACMEVIEW
  2
AcMeView
  3
AcMeServices
 90
        0
 91
        2
280
     0
281
     0
  0
CLASS
  1
ACDBENTITYCACHE
  2
AcMeEntityCache
  3
AcMeServices
 90
        0
 91
        0
280
     0
281
     0
  0
CLASS
  1
GSMANAGER
  2
AcMeGSManager
  3
AcMeServices
 90
        0
 91
        0
280
     0
281
     0
  0
CLASS
  1
AMDTINTERNALREACTOR
  2
AmdtInternalReactor
  3
AcMeServices
 90
        0
 91
        0
280
     0
281
     0
  0
CLASS
  1
ACMESTATEMGR
  2
AcMeStateMgr
  3
AcMeServices
 90
        0
 91
        2
280
     0
281
     0
  0
CLASS
  1
ACGREFMASTER
  2
AcGrefMaster
  3
AcAttribServices
 90
        0
 91
        2
280
     0
281
     0
  0
CLASS
  1
AM_DRAWING_MGR
  2
AcDmDwgMgr
  3
AcMechDwgViewMgmt
 90
        0
 91
        2
280
     0
281
     0
  0
CLASS
  1
AM_DWG_DOCUMENT
  2
AcDmDwgDocument
  3
AcMechDwgViewMgmt
 90
        0
 91
        2
280
     0
281
     0
  0
CLASS
  1
AM_DWG_SHEET
  2
AcDmSheet
  3
AcMechDwgViewMgmt
 90
        0
 91
        2
280
     0
281
     0
  0
CLASS
  1
AM_VIEWDIMPARMAP
  2
AcDmViewDimParMap
  3
AcMechDwgViewMgmt
 90
        0
 91
        2
280
     0
281
     0
  0
CLASS
  1
ACIMREALSYSVAR
  2
AcImRealSysVar
  3
AcMeServices
 90
        0
 91
        2
280
     0
281
     0
  0
CLASS
  1
AM_DWGMGR_NAME
  2
AcDmDwgMgrName
  3
AcMechDwgViewMgmt
 90
        0
 91
        2
280
     0
281
     0
  0
CLASS
  1
ACME_DATABASE
  2
AcMeDbDatabase
  3
AcMeServices
 90
        0
 91
        0
280
     0
281
     0
  0
CLASS
  1
ACRFINSADJUSTERMGR
  2
AcRfInsAdjusterMgr
  3
AcMeServices
 90
        0
 91
        0
280
     0
281
     0
  0
CLASS
  1
ACGREFACADMASTER
  2
AcGrefacadMaster
  3
AcGrefServices
 90
        0
 91
        2
280
     0
281
     0
  0
CLASS
  1
AMDTMENUSTATEMGR
  2
AmdtMenuStateMgr
  3
McadcomServices
 90
        0
 91
        0
280
     0
281
     0
  0
CLASS
  1
AMDTMCOMMENUSTATE
  2
AmdtMcomMenuState
  3
McadcomServices
 90
        0
 91
        0
280
     0
281
     0
  0
CLASS
  1
AMIMASTER
  2
AmiMaster
  3
AmiServices
 90
        0
 91
        2
280
     0
281
     0
  0
CLASS
  1
MAPIAMMOUDLE
  2
MApiAmModule
  3
MApiAmServices
 90
        0
 91
        2
280
     0
281
     0
  0
CLASS
  1
AMDTADMENUSTATE
  2
AmdtAdMenuState
  3
DesignerServices
 90
        0
 91
        0
280
     0
281
     0
  0
CLASS
  1
ADAPPL
  2
AcAdAppl
  3
DesignerServices
 90
        0
 91
        2
280
     0
281
     0
  0
CLASS
  1
DEPMGR
  2
AcAdDepMgr
  3
DesignerServices
 90
        0
 91
        2
280
     0
281
     0
  0
CLASS
  1
PARAMMGR
  2
AcAdParamMgr
  3
DesignerServices
 90
        0
 91
        2
280
     0
281
     0
  0
CLASS
  1
PARAMSCOPE
  2
AcAdParamScope
  3
DesignerServices
 90
        0
 91
        2
280
     0
281
     0
  0
CLASS
  1
NAMEDAPPL
  2
AcAdNamedAppl
  3
DesignerServices
 90
        0
 91
        2
280
     0
281
     0
  0
CLASS
  1
AMDTDMMENUSTATE
  2
AmdtDmMenuState
  3
AcMechDwgViewMgmt
 90
        0
 91
        0
280
     0
281
     0
  0
CLASS
  1
AMDTAMMENUSTATE
  2
AmdtAmMenuState
  3
DesignerAssemblies
 90
        0
 91
        0
280
     0
281
     0
  0
CLASS
  1
ACIMSTRSYSVAR
  2
AcImStrSysVar
  3
AcMeServices
 90
        0
 91
        6
280
     0
281
     0
  0
CLASS
  1
ACAMPROJECT
  2
AcAmProject
  3
DesignerAssemblies
 90
        0
 91
        2
280
     0
281
     0
  0
CLASS
  1
ACAMGRCOMPDEF
  2
AcAmGrCompDef
  3
DesignerAssemblies
 90
        0
 91
        2
280
     0
281
     0
  0
CLASS
  1
ACCMCONTEXT
  2
AcCmContext
  3
DesignerAssemblies
 90
        0
 91
        2
280
     0
281
     0
  0
CLASS
  1
ACAMCOMPDEF
  2
AcAmCompDef
  3
DesignerAssemblies
 90
        0
 91
        2
280
     0
281
     0
  0
CLASS
  1
ACAMCOMPDEFMGR
  2
AcAmCompDefMgr
  3
DesignerAssemblies
 90
        0
 91
        2
280
     0
281
     0
  0
CLASS
  1
AMCONTEXTMGR
  2
AcAmContextMgr
  3
DesignerAssemblies
 90
        0
 91
        2
280
     0
281
     0
  0
CLASS
  1
ACAMCONTEXTMODELER
  2
AcAmContextModeler
  3
DesignerAssemblies
 90
        0
 91
        2
280
     0
281
     0
  0
CLASS
  1
ACMDATADICTIONARY
  2
AcmDataDictionary
  3
"AcmSymBB|Product Description: AutoCAD Mechanical 2004 DX|Company: Autodesk"
 90
        0
 91
        2
280
     0
281
     0
  0
CLASS
  1
CATALOGSTATE
  2
AcAmCatalogState
  3
DesignerAssemblies
 90
        0
 91
        2
280
     0
281
     0
  0
CLASS
  1
ACAMGRCOMPDEFSET
  2
AcAmGrCompDefSet
  3
DesignerAssemblies
 90
        0
 91
        0
280
     0
281
     0
  0
CLASS
  1
AMDTBROWSERDBTAB
  2
AmdtBrowserDbTab
  3
McadcomServices
 90
        0
 91
        0
280
     0
281
     0
  0
CLASS
  1
CBROWSERAPPOBJECT
  2
CBrowserAppObject
  3
McadcomServices
 90
        0
 91
        0
280
     0
281
     0
  0
CLASS
  1
DM_PLACEHOLDER
  2
AcDmSelsetPlaceholder
  3
AcMechDwgViewMgmt
 90
        0
 91
        0
280
     0
281
     0
  0
CLASS
  1
ACMSTANDARDANSI
  2
AcmStandardANSI
  3
"Amdt_StdImp|Product Description: AutoCAD Mechanical 2004 DX|Company: Autodesk"
 90
        0
 91
        2
280
     0
281
     0
  0
CLASS
  1
AMGOBJPROPCFG
  2
AmgObjPropCfg
  3
"AmgLay|Product Description: AutoCAD Mechanical 2000|Company: Autodesk"
 90
        1
 91
        2
280
     0
281
     0
  0
CLASS
  1
ACMSURFSTANDARDANSI
  2
AcmSurfTextStdANSI
  3
"Amdt_StdImp|Product Description: AutoCAD Mechanical 2004 DX|Company: Autodesk"
 90
        0
 91
        2
280
     0
281
     0
  0
CLASS
  1
ACMFCFSTANDARDANSI
  2
AcmFCFStdANSI
  3
"Amdt_StdImp|Product Description: AutoCAD Mechanical 2004 DX|Company: Autodesk"
 90
        0
 91
        2
280
     0
281
     0
  0
CLASS
  1
ACMWELDSTANDARDANSI
  2
AcmWeldingStdANSI
  3
"Amdt_StdImp|Product Description: AutoCAD Mechanical 2004 DX|Company: Autodesk"
 90
        0
 91
        2
280
     0
281
     0
  0
CLASS
  1
ACMIDSTANDARDANSI
  2
AcmIdStdANSI
  3
"Amdt_StdImp|Product Description: AutoCAD Mechanical 2004 DX|Company: Autodesk"
 90
        0
 91
        2
280
     0
281
     0
  0
CLASS
  1
ACMDATUMSTANDARDANSI
  2
AcmDatumStdANSI
  3
"Amdt_StdImp|Product Description: AutoCAD Mechanical 2004 DX|Company: Autodesk"
 90
        0
 91
        2
280
     0
281
     0
  0
CLASS
  1
ACMBOMSTANDARDANSI
  2
AcmBOMStdANSI
  3
"Amdt_StdImp|Product Description: AutoCAD Mechanical 2004 DX|Company: Autodesk"
 90
        0
 91
        2
280
     0
281
     0
  0
CLASS
  1
ACMDETAILSTANDARDANSI
  2
AmdtDetailSymStdANSI
  3
"Amdt_StdImp|Product Description: AutoCAD Mechanical 2004 DX|Company: Autodesk"
 90
        0
 91
        2
280
     0
281
     0
  0
CLASS
  1
ACMSECTIONSTANDARDANSI
  2
AmdtSectionSymStdANSI
  3
"Amdt_StdImp|Product Description: AutoCAD Mechanical 2004 DX|Company: Autodesk"
 90
        0
 91
        2
280
     0
281
     0
  0
CLASS
  1
ACMCENTERLINESTANDARDANSI
  2
AmdtCenterLineStdANSI
  3
"Amdt_StdImp|Product Description: AutoCAD Mechanical 2004 DX|Company: Autodesk"
 90
        0
 91
        2
280
     0
281
     0
  0
CLASS
  1
ACMTHREADLINESTANDARDANSI
  2
AmdtThreadLineStdANSI
  3
"Amdt_StdImp|Product Description: AutoCAD Mechanical 2004 DX|Company: Autodesk"
 90
        0
 91
        2
280
     0
281
     0
  0
CLASS
  1
ACMNOTESTANDARDANSI
  2
AmdtNoteStdANSI
  3
"Amdt_StdImp|Product Description: AutoCAD Mechanical 2004 DX|Company: Autodesk"
 90
        0
 91
        2
280
     0
281
     0
  0
CLASS
  1
AMDTNOTETEMPLATEDB
  2
AmdtNoteTemplateDB
  3
AMDT_STDIMP_MODULE_NAME
 90
        0
 91
        5
280
     0
281
     0
  0
CLASS
  1
ACAMGLAYSTD
  2
AcAmgLayStd
  3
"AcAmgLayStd|Product Description: AutoCAD Mechanical 2000|Company: Autodesk"
 90
        0
 91
        2
280
     0
281
     0
  0
CLASS
  1
ACAMGDIMSTD
  2
AcAmgDimStd
  3
"AcAmgDimStd|Product Description: AutoCAD Mechanical 2000|Company: Autodesk"
 90
        0
 91
        2
280
     0
281
     0
  0
CLASS
  1
ACAMGHOLECHARTSTDANSI
  2
AcAmgHoleChartStdANSI
  3
ACMSYMBB_MODULE_NAME
 90
        0
 91
        2
280
     0
281
     0
  0
CLASS
  1
ACAMGTITLESTD
  2
AcAmgTitleStd
  3
"TITLEAPP"
 90
        0
 91
        2
280
     0
281
     0
  0
CLASS
  1
ACAMGFILTERDAT
  2
AcAmgFilterDat
  3
"AcadM|Product Description: AutoCAD Mechanical 2000|Company: Autodesk"
 90
        0
 91
        0
280
     0
281
     0
  0
CLASS
  1
LAYER_INDEX
  2
AcDbLayerIndex
  3
ObjectDBX Classes
 90
        0
 91
        0
280
     0
281
     0
  0
CLASS
  1
IDBUFFER
  2
AcDbIdBuffer
  3
ObjectDBX Classes
 90
        0
 91
        0
280
     0
281
     0
  0
CLASS
  1
ACRFATTGENMGR
  2
AcRfAttGeneralMgr
  3
AcAttribServices
 90
        0
 91
        0
280
     0
281
     0
  0
CLASS
  1
SORTENTSTABLE
  2
AcDbSortentsTable
  3
ObjectDBX Classes
 90
        0
 91
        8
280
     0
281
     0
  0
CLASS
  1
TABLESTYLE
  2
AcDbTableStyle
  3
ObjectDBX Classes
 90
     4095
 91
        1
280
     0
281
     0
  0
CLASS
  1
ACMDATAENTRYBLOCK
  2
AcmDataEntryBlock
  3
"AcmSymBB|Product Description: AutoCAD Mechanical 2004 DX|Company: Autodesk"
 90
        0
 91
        0
280
     0
281
     0
  0
CLASS
  1
MATERIAL
  2
AcDbMaterial
  3
ObjectDBX Classes
 90
     1153
 91
        3
280
     0
281
     0
  0
CLASS
  1
VISUALSTYLE
  2
AcDbVisualStyle
  3
ObjectDBX Classes
 90
     4095
 91
       24
280
     0
281
     0
  0
CLASS
  1
SCALE
  2
AcDbScale
  3
ObjectDBX Classes
 90
     1153
 91
       17
280
     0
281
     0
  0
CLASS
  1
MLEADERSTYLE
  2
AcDbMLeaderStyle
  3
ACDB_MLEADERSTYLE_CLASS
 90
     4095
 91
        1
280
     0
281
     0
  0
CLASS
  1
ACDBSECTIONVIEWSTYLE
  2
AcDbSectionViewStyle
  3
ObjectDBX Classes
 90
     1025
 91
        1
280
     0
281
     0
  0
CLASS
  1
ACDBDETAILVIEWSTYLE
  2
AcDbDetailViewStyle
  3
ObjectDBX Classes
 90
     1025
 91
        1
280
     0
281
     0
  0
CLASS
  1
CELLSTYLEMAP
  2
AcDbCellStyleMap
  3
ObjectDBX Classes
 90
     1152
 91
        1
280
     0
281
     0
  0
ENDSEC
  0
SECTION
  2
TABLES
  0
TABLE
  2
VPORT
  5
B56A7A5C3AE5E788
102
{ACAD_XDICTIONARY
360
B56A7A5C3AE62FF4
102
}
330
0
100
AcDbSymbolTable
 70
     1
  0
VPORT
  5
B56A7A5C3AE62F79
330
B56A7A5C3AE5E788
100
AcDbSymbolTableRecord
100
AcDbViewportTableRecord
  2
*Active
 70
     0
 10
0.0
 20
0.0
 11
1.0
 21
1.0
 12
20.03566791520313
 22
13.35069280298275
 13
0.0
 23
0.0
 14
1.0
 24
1.0
 15
0.0
 25
0.0
 16
0.0
 26
0.0
 36
1.0
 17
0.0
 27
0.0
 37
0.0
 40
16.54099532762196
 41
2.292712066905615
 42
50.0
 43
0.0
 44
0.0
 50
0.0
 51
0.0
 71
     0
 72
 20000
 73
     1
 74
     1
 75
     0
 76
     0
 77
     0
 78
     0
281
     0
 65
     0
110
0.0
120
0.0
130
0.0
111
1.0
121
0.0
131
0.0
112
0.0
122
1.0
132
0.0
 79
     0
146
0.0
348
B56A7A5C3AE62F99
 60
     3
 61
     5
292
     1
282
     1
141
0.0
142
0.0
 63
   250
421
  3355443
1001
ACAD_NAV_VCDISPLAY
1070
     3
  0
ENDTAB
  0
TABLE
  2
LTYPE
  5
B56A7A5C3AE5E785
330
0
100
AcDbSymbolTable
 70
    10
  0
LTYPE
  5
B56A7A5C3AE5E791
330
B56A7A5C3AE5E785
100
AcDbSymbolTableRecord
100
AcDbLinetypeTableRecord
  2
BYBLOCK
 70
     0
  3

 72
    65
 73
     0
 40
0.0
  0
LTYPE
  5
B56A7A5C3AE5E792
330
B56A7A5C3AE5E785
100
AcDbSymbolTableRecord
100
AcDbLinetypeTableRecord
  2
BYLAYER
 70
     0
  3

 72
    65
 73
     0
 40
0.0
  0
LTYPE
  5
B56A7A5C3AE5E793
330
B56A7A5C3AE5E785
100
AcDbSymbolTableRecord
100
AcDbLinetypeTableRecord
  2
CONTINUOUS
 70
     0
  3
Solid line
 72
    65
 73
     0
 40
0.0
  0
LTYPE
  5
B56A7A5C3AE6044A
330
B56A7A5C3AE5E785
100
AcDbSymbolTableRecord
100
AcDbLinetypeTableRecord
  2
HIDDEN
 70
     0
  3
Hidden __ __ __ __ __ __ __ __ __ __ __ __ __ _
 72
    65
 73
     2
 40
0.375
 49
0.25
 74
     0
 49
-0.125
 74
     0
  0
LTYPE
  5
B56A7A5C3AE6044B
330
B56A7A5C3AE5E785
100
AcDbSymbolTableRecord
100
AcDbLinetypeTableRecord
  2
PHANTOM2
 70
     0
  3
Phantom (.5x) ___ _ _ ___ _ _ ___ _ _ ___ _ _
 72
    65
 73
     6
 40
1.25
 49
0.625
 74
     0
 49
-0.125
 74
     0
 49
0.125
 74
     0
 49
-0.125
 74
     0
 49
0.125
 74
     0
 49
-0.125
 74
     0
  0
LTYPE
  5
B56A7A5C3AE6044C
330
B56A7A5C3AE5E785
100
AcDbSymbolTableRecord
100
AcDbLinetypeTableRecord
  2
CENTER
 70
     0
  3
Center ____ _ ____ _ ____ _ ____ _ ____ _ ____
 72
    65
 73
     4
 40
2.0
 49
1.25
 74
     0
 49
-0.25
 74
     0
 49
0.25
 74
     0
 49
-0.25
 74
     0
  0
LTYPE
  5
B56A7A5C3AE60496
330
B56A7A5C3AE5E785
100
AcDbSymbolTableRecord
100
AcDbLinetypeTableRecord
  2
Amconstr
 70
     0
  3
_______________________
 72
    65
 73
     2
 40
9999.0
 49
9999.0
 74
     0
 49
0.0
 74
     0
  0
LTYPE
  5
B56A7A5C3AE6049C
330
B56A7A5C3AE5E785
100
AcDbSymbolTableRecord
100
AcDbLinetypeTableRecord
  2
CENTER2
 70
     0
  3
Center (.5x) ___ _ ___ _ ___ _ ___ _ ___ _ ___
 72
    65
 73
     4
 40
1.125
 49
0.75
 74
     0
 49
-0.125
 74
     0
 49
0.125
 74
     0
 49
-0.125
 74
     0
  0
LTYPE
  5
B56A7A5C3AE6049D
330
B56A7A5C3AE5E785
100
AcDbSymbolTableRecord
100
AcDbLinetypeTableRecord
  2
HIDDEN2
 70
     0
  3
Hidden (.5x) _ _ _ _ _ _ _ _ _ _ _ _ _ _ _ _ _
 72
    65
 73
     2
 40
0.1875
 49
0.125
 74
     0
 49
-0.0625
 74
     0
  0
LTYPE
  5
B56A7A5C3AE6049E
330
B56A7A5C3AE5E785
100
AcDbSymbolTableRecord
100
AcDbLinetypeTableRecord
  2
Amzigzag2
 70
     0
  3
/\/-/\/-/\/-/\/-/\/-/\/
 72
    65
 73
     2
 40
0.4401
 49
0.0001
 74
     4
 75
   135
340
B56A7A5C3AE6049A
 46
0.0016
 50
0.0
 44
0.0
 45
0.0
 49
-0.4400000000000001
 74
     0
  0
LTYPE
  5
B56A7A5C3AE604AC
330
B56A7A5C3AE5E785
100
AcDbSymbolTableRecord
100
AcDbLinetypeTableRecord
  2
ACANSTGB
 70
     0
  3
__ . . __ . .
 72
    65
 73
     6
 40
0.35433070866
 49
0.15748031496
 74
     0
 49
-0.03937007874
 74
     0
 49
0.03937007874
 74
     0
 49
-0.03937007874
 74
     0
 49
0.03937007874
 74
     0
 49
-0.03937007874
 74
     0
  0
LTYPE
  5
B56A7A5C3AE604AD
330
B56A7A5C3AE5E785
100
AcDbSymbolTableRecord
100
AcDbLinetypeTableRecord
  2
ACANSTGL
 70
     0
  3
_ _ _ _ _
 72
    65
 73
     2
 40
0.11811023622
 49
0.07874015748
 74
     0
 49
-0.03937007874
 74
     0
  0
ENDTAB
  0
TABLE
  2
LAYER
  5
B56A7A5C3AE5E782
102
{ACAD_XDICTIONARY
360
B56A7A5C3AE60395
102
}
330
0
100
AcDbSymbolTable
 70
    10
  0
LAYER
  5
B56A7A5C3AE5E78E
102
{ACAD_XDICTIONARY
360
B56A7A5C3AE62FCD
102
}
330
B56A7A5C3AE5E782
100
AcDbSymbolTableRecord
100
AcDbLayerTableRecord
  2
0
 70
     0
 62
     7
  6
CONTINUOUS
370
    -3
390
B56A7A5C3AE5FA72
347
B56A7A5C3AE62F8B
348
0
  0
LAYER
  5
B56A7A5C3AE5E7CB
102
{ACAD_XDICTIONARY
360
B56A7A5C3AE62FCF
102
}
330
B56A7A5C3AE5E782
100
AcDbSymbolTableRecord
100
AcDbLayerTableRecord
  2
CYAN
 70
     0
 62
     4
  6
CONTINUOUS
370
    -3
390
B56A7A5C3AE5FA72
347
B56A7A5C3AE62F8B
348
0
  0
LAYER
  5
B56A7A5C3AE5E7CC
102
{ACAD_XDICTIONARY
360
B56A7A5C3AE62FD1
102
}
330
B56A7A5C3AE5E782
100
AcDbSymbolTableRecord
100
AcDbLayerTableRecord
  2
THIN
 70
     0
 62
     9
  6
CONTINUOUS
370
    -3
390
B56A7A5C3AE5FA72
347
B56A7A5C3AE62F8B
348
0
  0
LAYER
  5
B56A7A5C3AE5E7CE
102
{ACAD_XDICTIONARY
360
B56A7A5C3AE62FD3
102
}
330
B56A7A5C3AE5E782
100
AcDbSymbolTableRecord
100
AcDbLayerTableRecord
  2
DIM
 70
     0
 62
     7
  6
CONTINUOUS
370
    -3
390
B56A7A5C3AE5FA72
347
B56A7A5C3AE62F8B
348
0
  0
LAYER
  5
B56A7A5C3AE5E7D6
102
{ACAD_XDICTIONARY
360
B56A7A5C3AE62FD5
102
}
330
B56A7A5C3AE5E782
100
AcDbSymbolTableRecord
100
AcDbLayerTableRecord
  2
XTHIN
 70
     0
 62
   112
  6
CONTINUOUS
370
    -3
390
B56A7A5C3AE5FA72
347
B56A7A5C3AE62F8B
348
0
  0
LAYER
  5
B56A7A5C3AE5EA54
330
B56A7A5C3AE5E782
100
AcDbSymbolTableRecord
100
AcDbLayerTableRecord
  2
DEFPOINTS
 70
     0
 62
     7
  6
CONTINUOUS
290
     0
370
    -3
390
B56A7A5C3AE5FA72
347
B56A7A5C3AE62F8B
348
0
  0
LAYER
  5
B56A7A5C3AE5FCA1
102
{ACAD_XDICTIONARY
360
B56A7A5C3AE62FD7
102
}
330
B56A7A5C3AE5E782
100
AcDbSymbolTableRecord
100
AcDbLayerTableRecord
  2
vent
 70
     0
 62
     7
  6
CONTINUOUS
370
    -3
390
B56A7A5C3AE5FA72
347
B56A7A5C3AE62F8B
348
0
  0
LAYER
  5
B56A7A5C3AE60393
102
{ACAD_XDICTIONARY
360
B56A7A5C3AE62FD9
102
}
330
B56A7A5C3AE5E782
100
AcDbSymbolTableRecord
100
AcDbLayerTableRecord
  2
paper
 70
     0
 62
     6
  6
CONTINUOUS
290
     0
370
    -3
390
B56A7A5C3AE5FA72
347
B56A7A5C3AE62F8B
348
0
  0
LAYER
  5
B56A7A5C3AE62C56
102
{ACAD_XDICTIONARY
360
B56A7A5C3AE62FDB
102
}
330
B56A7A5C3AE5E782
100
AcDbSymbolTableRecord
100
AcDbLayerTableRecord
  2
10
 70
     0
 62
     9
  6
CONTINUOUS
370
    -3
390
B56A7A5C3AE5FA72
347
B56A7A5C3AE62F8B
348
0
  0
LAYER
  5
B56A7A5C3AE62C57
102
{ACAD_XDICTIONARY
360
B56A7A5C3AE62FDD
102
}
330
B56A7A5C3AE5E782
100
AcDbSymbolTableRecord
100
AcDbLayerTableRecord
  2
IG
 70
     0
 62
     4
  6
CONTINUOUS
370
    -3
390
B56A7A5C3AE5FA72
347
B56A7A5C3AE62F8B
348
0
1001
AcAecLayerStandard
1000

1000

  0
ENDTAB
  0
TABLE
  2
STYLE
  5
B56A7A5C3AE5E783
330
0
100
AcDbSymbolTable
 70
     7
  0
STYLE
  5
B56A7A5C3AE5E78F
330
B56A7A5C3AE5E783
100
AcDbSymbolTableRecord
100
AcDbTextStyleTableRecord
  2
STANDARD
 70
     0
 40
0.0
 41
1.0
 50
0.0
 71
     0
 42
0.05
  3
txt
  4

  0
STYLE
  5
B56A7A5C3AE5E7AB
330
B56A7A5C3AE5E783
100
AcDbSymbolTableRecord
100
AcDbTextStyleTableRecord
  2
SIMPLEX
 70
     0
 40
0.0
 41
1.0
 50
10.0
 71
     0
 42
0.09
  3
SIMPLEX
  4

  0
STYLE
  5
B56A7A5C3AE5E7B7
330
B56A7A5C3AE5E783
100
AcDbSymbolTableRecord
100
AcDbTextStyleTableRecord
  2
ROMANS
 70
     0
 40
0.0
 41
1.0
 50
10.0
 71
     0
 42
0.18
  3
romans
  4

  0
STYLE
  5
B56A7A5C3AE60256
330
B56A7A5C3AE5E783
100
AcDbSymbolTableRecord
100
AcDbTextStyleTableRecord
  2
TAHOMA
 70
     0
 40
0.0
 41
1.0
 50
0.0
 71
     0
 42
0.045
  3
TAHOMA.TTF
  4

1001
ACAD
1000
Tahoma
1071
       34
  0
STYLE
  5
B56A7A5C3AE6049A
330
B56A7A5C3AE5E783
100
AcDbSymbolTableRecord
100
AcDbTextStyleTableRecord
  2

 70
     1
 40
0.0
 41
1.0
 50
0.0
 71
     0
 42
0.09
  3
ltypeshp.shx
  4

  0
STYLE
  5
B56A7A5C3AE6049F
330
B56A7A5C3AE5E783
100
AcDbSymbolTableRecord
100
AcDbTextStyleTableRecord
  2
ACANSTS
 70
     0
 40
1.0
 41
1.0
 50
0.0
 71
     0
 42
0.09
  3
romans.shx
  4

  0
STYLE
  5
B56A7A5C3AE604AB
330
B56A7A5C3AE5E783
100
AcDbSymbolTableRecord
100
AcDbTextStyleTableRecord
  2
ACANSGDT
 70
     0
 40
0.0
 41
1.0
 50
0.0
 71
     0
 42
0.09
  3
amgdtans.shx
  4

  0
ENDTAB
  0
TABLE
  2
VIEW
  5
B56A7A5C3AE5E786
330
0
100
AcDbSymbolTable
 70
     4
  0
VIEW
  5
B56A7A5C3AE5E7C0
330
B56A7A5C3AE5E786
100
AcDbSymbolTableRecord
100
AcDbViewTableRecord
  2
X
 70
     0
 40
4.883763142233683
 10
4.003678815158994
 20
2.516881571116841
 41
1.0
 11
0.0
 21
0.0
 31
1.0
 12
0.0
 22
0.0
 32
0.0
 42
50.0
 43
0.0
 44
0.0
 50
0.0
 71
     0
281
     0
 72
     0
 73
     0
348
B56A7A5C3AE62F99
  0
VIEW
  5
B56A7A5C3AE5E7C1
330
B56A7A5C3AE5E786
100
AcDbSymbolTableRecord
100
AcDbViewTableRecord
  2
A
 70
     0
 40
5.086925965388944
 10
4.01425529195963
 20
2.577963992275071
 41
1.0
 11
0.0
 21
0.0
 31
1.0
 12
0.0
 22
0.0
 32
0.0
 42
50.0
 43
0.0
 44
0.0
 50
0.0
 71
     0
281
     0
 72
     0
 73
     0
348
B56A7A5C3AE62F99
  0
VIEW
  5
B56A7A5C3AE5E7C2
330
B56A7A5C3AE5E786
100
AcDbSymbolTableRecord
100
AcDbViewTableRecord
  2
B
 70
     0
 40
5.334674714956404
 10
4.099999999999999
 20
2.667337357478202
 41
1.0
 11
0.0
 21
0.0
 31
1.0
 12
0.0
 22
0.0
 32
0.0
 42
50.0
 43
0.0
 44
0.0
 50
0.0
 71
     0
281
     0
 72
     0
 73
     0
348
B56A7A5C3AE62F99
  0
VIEW
  5
B56A7A5C3AE5E7C3
330
B56A7A5C3AE5E786
100
AcDbSymbolTableRecord
100
AcDbViewTableRecord
  2
C
 70
     0
 40
5.334674714956404
 10
4.099999999999999
 20
2.667337357478202
 41
1.0
 11
0.0
 21
0.0
 31
1.0
 12
0.0
 22
0.0
 32
0.0
 42
50.0
 43
0.0
 44
0.0
 50
0.0
 71
     0
281
     0
 72
     0
 73
     0
348
B56A7A5C3AE62F99
  0
ENDTAB
  0
TABLE
  2
UCS
  5
B56A7A5C3AE5E787
330
0
100
AcDbSymbolTable
 70
     0
  0
ENDTAB
  0
TABLE
  2
APPID
  5
B56A7A5C3AE5E789
330
0
100
AcDbSymbolTable
 70
    32
  0
APPID
  5
B56A7A5C3AE5E790
330
B56A7A5C3AE5E789
100
AcDbSymbolTableRecord
100
AcDbRegAppTableRecord
  2
ACAD
 70
     0
  0
APPID
  5
B56A7A5C3AE5E7C6
330
B56A7A5C3AE5E789
100
AcDbSymbolTableRecord
100
AcDbRegAppTableRecord
  2
TB_S_MPD
 70
     0
  0
APPID
  5
B56A7A5C3AE5FB64
330
B56A7A5C3AE5E789
100
AcDbSymbolTableRecord
100
AcDbRegAppTableRecord
  2
AME_SOL
 70
     0
  0
APPID
  5
B56A7A5C3AE6025D
330
B56A7A5C3AE5E789
100
AcDbSymbolTableRecord
100
AcDbRegAppTableRecord
  2
MTVPROFILELINK
 70
     0
  0
APPID
  5
B56A7A5C3AE6025E
330
B56A7A5C3AE5E789
100
AcDbSymbolTableRecord
100
AcDbRegAppTableRecord
  2
ADMEPROFILELINK
 70
     0
  0
APPID
  5
B56A7A5C3AE6036F
330
B56A7A5C3AE5E789
100
AcDbSymbolTableRecord
100
AcDbRegAppTableRecord
  2
RAK
 70
     0
  0
APPID
  5
B56A7A5C3AE60430
330
B56A7A5C3AE5E789
100
AcDbSymbolTableRecord
100
AcDbRegAppTableRecord
  2
MCAD_NO_VIS
 70
     0
  0
APPID
  5
B56A7A5C3AE60431
330
B56A7A5C3AE5E789
100
AcDbSymbolTableRecord
100
AcDbRegAppTableRecord
  2
ACAD_TEMP_GRAPHIC
 70
     0
  0
APPID
  5
B56A7A5C3AE60461
330
B56A7A5C3AE5E789
100
AcDbSymbolTableRecord
100
AcDbRegAppTableRecord
  2
AD_DRAW
 70
     0
  0
APPID
  5
B56A7A5C3AE60464
330
B56A7A5C3AE5E789
100
AcDbSymbolTableRecord
100
AcDbRegAppTableRecord
  2
ACATTRIBSERVICES
 70
     0
  0
APPID
  5
B56A7A5C3AE60482
330
B56A7A5C3AE5E789
100
AcDbSymbolTableRecord
100
AcDbRegAppTableRecord
  2
DESIGNERASSEMBLIES
 70
     0
  0
APPID
  5
B56A7A5C3AE60488
330
B56A7A5C3AE5E789
100
AcDbSymbolTableRecord
100
AcDbRegAppTableRecord
  2
ACADM_DIM_EDIT
 70
     0
  0
APPID
  5
B56A7A5C3AE60489
330
B56A7A5C3AE5E789
100
AcDbSymbolTableRecord
100
AcDbRegAppTableRecord
  2
AMDT_DM_ADJ
 70
     0
  0
APPID
  5
B56A7A5C3AE6090F
330
B56A7A5C3AE5E789
100
AcDbSymbolTableRecord
100
AcDbRegAppTableRecord
  2
DCO15
 70
     0
  0
APPID
  5
B56A7A5C3AE60980
330
B56A7A5C3AE5E789
100
AcDbSymbolTableRecord
100
AcDbRegAppTableRecord
  2
ACAD_DSTYLE_DIMARC_LENGTH_SYMBOL
 70
     0
  0
APPID
  5
B56A7A5C3AE60981
330
B56A7A5C3AE5E789
100
AcDbSymbolTableRecord
100
AcDbRegAppTableRecord
  2
ACAD_DSTYLE_DIMJOGGED_JOGANGLE_SYMBOL
 70
     0
  0
APPID
  5
B56A7A5C3AE609C4
330
B56A7A5C3AE5E789
100
AcDbSymbolTableRecord
100
AcDbRegAppTableRecord
  2
ACAD_EXEMPT_FROM_CAD_STANDARDS
 70
     0
  0
APPID
  5
B56A7A5C3AE60A98
330
B56A7A5C3AE5E789
100
AcDbSymbolTableRecord
100
AcDbRegAppTableRecord
  2
AcAecLayerStandard
 70
     0
  0
APPID
  5
B56A7A5C3AE60D67
330
B56A7A5C3AE5E789
100
AcDbSymbolTableRecord
100
AcDbRegAppTableRecord
  2
ACDBBLOCKREPETAG
 70
     0
  0
APPID
  5
B56A7A5C3AE60D68
330
B56A7A5C3AE5E789
100
AcDbSymbolTableRecord
100
AcDbRegAppTableRecord
  2
AcDbDynamicBlockGUID
 70
     0
  0
APPID
  5
B56A7A5C3AE6147F
330
B56A7A5C3AE5E789
100
AcDbSymbolTableRecord
100
AcDbRegAppTableRecord
  2
GENIUS_GENREC_14
 70
     0
  0
APPID
  5
B56A7A5C3AE61480
330
B56A7A5C3AE5E789
100
AcDbSymbolTableRecord
100
AcDbRegAppTableRecord
  2
GENIUS_GENOBJ-N-REC_13
 70
     0
  0
APPID
  5
B56A7A5C3AE61481
330
B56A7A5C3AE5E789
100
AcDbSymbolTableRecord
100
AcDbRegAppTableRecord
  2
GENIUS_GENODEF_13
 70
     0
  0
APPID
  5
B56A7A5C3AE6172A
330
B56A7A5C3AE5E789
100
AcDbSymbolTableRecord
100
AcDbRegAppTableRecord
  2
ACAD_PSEXT
 70
     0
  0
APPID
  5
B56A7A5C3AE61860
330
B56A7A5C3AE5E789
100
AcDbSymbolTableRecord
100
AcDbRegAppTableRecord
  2
GENIUS_GENDTOL_13
 70
     0
  0
APPID
  5
B56A7A5C3AE61B21
330
B56A7A5C3AE5E789
100
AcDbSymbolTableRecord
100
AcDbRegAppTableRecord
  2
ACAD_DSTYLE_DIMEXT_LENGTH
 70
     0
  0
APPID
  5
B56A7A5C3AE61B22
330
B56A7A5C3AE5E789
100
AcDbSymbolTableRecord
100
AcDbRegAppTableRecord
  2
ACAD_DSTYLE_DIMEXT_ENABLED
 70
     0
  0
APPID
  5
B56A7A5C3AE62FE6
330
B56A7A5C3AE5E789
100
AcDbSymbolTableRecord
100
AcDbRegAppTableRecord
  2
ACAD_NAV_VCDISPLAY
 70
     0
  0
APPID
  5
B56A7A5C3AE63035
330
B56A7A5C3AE5E789
100
AcDbSymbolTableRecord
100
AcDbRegAppTableRecord
  2
ACAD_MLEADERVER
 70
     0
  0
APPID
  5
B56A7A5C3AE63254
330
B56A7A5C3AE5E789
100
AcDbSymbolTableRecord
100
AcDbRegAppTableRecord
  2
ACAD_DSTYLE_DIMJAG
 70
     0
  0
APPID
  5
B56A7A5C3AE63255
330
B56A7A5C3AE5E789
100
AcDbSymbolTableRecord
100
AcDbRegAppTableRecord
  2
ACAD_DSTYLE_DIMBREAK
 70
     0
  0
APPID
  5
B56A7A5C3AE63256
330
B56A7A5C3AE5E789
100
AcDbSymbolTableRecord
100
AcDbRegAppTableRecord
  2
ACAD_DSTYLE_DIMTALN
 70
     0
  0
ENDTAB
  0
TABLE
  2
DIMSTYLE
  5
B56A7A5C3AE5E78A
330
0
100
AcDbSymbolTable
 70
     7
100
AcDbDimStyleTable
 71
     1
340
B56A7A5C3AE6089A
  0
DIMSTYLE
105
B56A7A5C3AE604B4
330
B56A7A5C3AE5E78A
100
AcDbSymbolTableRecord
100
AcDbDimStyleTableRecord
  2
AM_ANSI
 70
     0
  4
mm
 41
0.1
 42
0.05
 43
0.5
 44
0.1
 47
0.1
 48
0.1
 78
     7
 79
     2
 90
     1
140
0.12
141
0.0
146
0.71
147
0.06
176
   256
177
   256
178
     2
274
     4
284
     7
340
B56A7A5C3AE5E78F
371
    -1
372
    -1
1001
ACAD_DSTYLE_DIMJOGGED_JOGANGLE_SYMBOL
1070
   384
1040
0.7853981633974483
  0
DIMSTYLE
105
B56A7A5C3AE604B5
330
B56A7A5C3AE5E78A
100
AcDbSymbolTableRecord
100
AcDbDimStyleTableRecord
  2
AM_ANSI$3
 70
     0
  4
mm
 41
0.1
 42
0.05
 43
0.5
 44
0.1
 47
0.1
 48
0.1
 78
     7
 79
     2
 90
     1
140
0.12
141
0.0
146
0.71
147
0.06
176
   256
177
   256
178
     2
274
     4
284
     7
288
     1
289
     0
340
B56A7A5C3AE5E78F
371
    -1
372
    -1
1001
ACAD_DSTYLE_DIMJOGGED_JOGANGLE_SYMBOL
1070
   384
1040
0.7853981633974483
  0
DIMSTYLE
105
B56A7A5C3AE604B6
330
B56A7A5C3AE5E78A
100
AcDbSymbolTableRecord
100
AcDbDimStyleTableRecord
  2
AM_ANSI$4
 70
     0
  4
mm
 41
0.1
 42
0.05
 43
0.5
 44
0.1
 47
0.1
 48
0.1
 78
     7
 79
     2
 90
     1
140
0.12
141
0.0
146
0.71
147
0.06
176
   256
177
   256
178
     2
274
     4
284
     7
288
     1
289
     0
340
B56A7A5C3AE5E78F
371
    -1
372
    -1
1001
ACAD_DSTYLE_DIMJOGGED_JOGANGLE_SYMBOL
1070
   384
1040
0.7853981633974483
  0
DIMSTYLE
105
B56A7A5C3AE604B7
330
B56A7A5C3AE5E78A
100
AcDbSymbolTableRecord
100
AcDbDimStyleTableRecord
  2
AM_ANSI$7
 70
     0
  4
mm
 41
0.1
 42
0.05
 43
0.5
 44
0.1
 47
0.1
 48
0.1
 78
     7
 79
     2
 90
     1
140
0.24
141
0.0
146
0.71
147
0.06
176
   256
177
   256
178
     2
274
     4
284
     7
340
B56A7A5C3AE5E78F
371
    -1
372
    -1
1001
ACAD_DSTYLE_DIMJOGGED_JOGANGLE_SYMBOL
1070
   384
1040
0.7853981633974483
  0
DIMSTYLE
105
B56A7A5C3AE604B8
330
B56A7A5C3AE5E78A
100
AcDbSymbolTableRecord
100
AcDbDimStyleTableRecord
  2
AM_ANSI$SF
 70
     0
  4
mm
 41
0.1
 42
0.05
 43
0.5
 44
0.1
 47
0.1
 48
0.1
 75
     1
 76
     1
 78
     7
 79
     2
 90
     1
140
0.12
141
0.0
146
0.71
147
0.06
176
   256
177
   256
178
     2
274
     4
284
     7
340
B56A7A5C3AE5E78F
371
    -1
372
    -1
1001
ACAD_DSTYLE_DIMJOGGED_JOGANGLE_SYMBOL
1070
   384
1040
0.7853981633974483
  0
DIMSTYLE
105
B56A7A5C3AE604BD
330
B56A7A5C3AE5E78A
100
AcDbSymbolTableRecord
100
AcDbDimStyleTableRecord
  2
AM_ANSI$SH
 70
     0
  4
mm
 41
0.1
 42
0.05
 43
0.5
 44
0.1
 47
0.1
 48
0.1
 75
     1
 76
     1
 78
     7
 79
     2
 90
     1
140
0.12
141
0.0
146
0.71
147
0.06
173
     1
176
   256
177
   256
178
     2
274
     4
284
     7
340
B56A7A5C3AE5E78F
343
B56A7A5C3AE604B9
371
    -1
372
    -1
1001
ACAD_DSTYLE_DIMJOGGED_JOGANGLE_SYMBOL
1070
   384
1040
0.7853981633974483
  0
DIMSTYLE
105
B56A7A5C3AE6089A
102
{ACAD_REACTORS
330
B56A7A5C3AE637C6
330
B56A7A5C3AE637C9
330
B56A7A5C3AE637CA
330
B56A7A5C3AE637CB
330
B56A7A5C3AE637CC
330
B56A7A5C3AE637CD
330
B56A7A5C3AE637CE
330
B56A7A5C3AE637CF
330
B56A7A5C3AE637D0
102
}
330
B56A7A5C3AE5E78A
100
AcDbSymbolTableRecord
100
AcDbDimStyleTableRecord
  2
ASWhite
 70
     0
  3
"
 40
2.0
 41
0.125
 42
0.045
 44
0.08
140
0.08
141
-0.09
146
0.4444440000000001
176
     7
177
     7
178
   256
276
     2
277
     5
289
     1
340
B56A7A5C3AE5E7B7
  0
ENDTAB
  0
TABLE
  2
BLOCK_RECORD
  5
B56A7A5C3AE5E781
330
0
100
AcDbSymbolTable
 70
    23
  0
BLOCK_RECORD
  5
B56A7A5C3AE5E797
102
{ACAD_XDICTIONARY
360
B56A7A5C3AE604DE
102
}
330
B56A7A5C3AE5E781
100
AcDbSymbolTableRecord
100
AcDbBlockTableRecord
  2
*MODEL_SPACE
340
B56A7A5C3AE5FA75
 70
     0
280
     1
281
     0
  0
BLOCK_RECORD
  5
B56A7A5C3AE5E794
330
B56A7A5C3AE5E781
100
AcDbSymbolTableRecord
100
AcDbBlockTableRecord
  2
*PAPER_SPACE
340
B56A7A5C3AE5FA76
 70
     0
280
     1
281
     0
  0
BLOCK_RECORD
  5
B56A7A5C3AE5E79C
330
B56A7A5C3AE5E781
100
AcDbSymbolTableRecord
100
AcDbBlockTableRecord
  2
ACAD1
340
0
102
{BLKREFS
331
2C6FD
331
2CDE3
331
2D39D
102
}
 70
     0
280
     1
281
     0
  0
BLOCK_RECORD
  5
B56A7A5C3AE60397
330
B56A7A5C3AE5E781
100
AcDbSymbolTableRecord
100
AcDbBlockTableRecord
  2
AS extents block
340
0
102
{BLKREFS
331
B56A7A5C3AE6039B
102
}
 70
     0
280
     1
281
     0
  0
BLOCK_RECORD
  5
B56A7A5C3AE604B9
330
B56A7A5C3AE5E781
100
AcDbSymbolTableRecord
100
AcDbBlockTableRecord
  2
GENAXEH
340
0
 70
     0
280
     1
281
     0
  0
BLOCK_RECORD
  5
B56A7A5C3AE60702
330
B56A7A5C3AE5E781
100
AcDbSymbolTableRecord
100
AcDbBlockTableRecord
  2
*U3
340
0
 70
     0
280
     1
281
     0
  0
BLOCK_RECORD
  5
B56A7A5C3AE6298E
330
B56A7A5C3AE5E781
100
AcDbSymbolTableRecord
100
AcDbBlockTableRecord
  2
Architechural Drawing Foot-Note
340
0
310
2800000020000000200000000100080000000000000400000000000000000000000000000000000000000000000080000080000000808000800000008000800080800000C0C0C000C0DCC000F0CAA6000020400000206000002080000020A0000020C0000020E00000400000004020000040400000406000004080000040A0
310
000040C0000040E00000600000006020000060400000606000006080000060A0000060C0000060E00000800000008020000080400000806000008080000080A0000080C0000080E00000A0000000A0200000A0400000A0600000A0800000A0A00000A0C00000A0E00000C0000000C0200000C0400000C0600000C0800000C0
310
A00000C0C00000C0E00000E0000000E0200000E0400000E0600000E0800000E0A00000E0C00000E0E00040000000400020004000400040006000400080004000A0004000C0004000E00040200000402020004020400040206000402080004020A0004020C0004020E000404000004040200040404000404060004040800040
310
40A0004040C0004040E00040600000406020004060400040606000406080004060A0004060C0004060E00040800000408020004080400040806000408080004080A0004080C0004080E00040A0000040A0200040A0400040A0600040A0800040A0A00040A0C00040A0E00040C0000040C0200040C0400040C0600040C08000
310
40C0A00040C0C00040C0E00040E0000040E0200040E0400040E0600040E0800040E0A00040E0C00040E0E00080000000800020008000400080006000800080008000A0008000C0008000E00080200000802020008020400080206000802080008020A0008020C0008020E00080400000804020008040400080406000804080
310
008040A0008040C0008040E00080600000806020008060400080606000806080008060A0008060C0008060E00080800000808020008080400080806000808080008080A0008080C0008080E00080A0000080A0200080A0400080A0600080A0800080A0A00080A0C00080A0E00080C0000080C0200080C0400080C0600080C0
310
800080C0A00080C0C00080C0E00080E0000080E0200080E0400080E0600080E0800080E0A00080E0C00080E0E000C0000000C0002000C0004000C0006000C0008000C000A000C000C000C000E000C0200000C0202000C0204000C0206000C0208000C020A000C020C000C020E000C0400000C0402000C0404000C0406000C0
310
408000C040A000C040C000C040E000C0600000C0602000C0604000C0606000C0608000C060A000C060C000C060E000C0800000C0802000C0804000C0806000C0808000C080A000C080C000C080E000C0A00000C0A02000C0A04000C0A06000C0A08000C0A0A000C0A0C000C0A0E000C0C00000C0C02000C0C04000C0C06000
310
C0C08000C0C0A000F0FBFF00A4A0A000808080000000FF0000FF000000FFFF00FF000000FF00FF00FFFF0000FFFFFF0000000000000000000000000000000000000000000000000000000000000000000000000000000000000000000000000000000000000000000000000000000000000000000000000000000000000000
310
00000000000000000000000000000000000000000000000000000000000000000000000000000000000000000000000000000000000000000000000000000000000000000000000000000000000000000000000000000000000000000000000000000000000000000000000000000000000000000000000000000000000000
310
00000000000000000000000000000000000000000000000000000000000000000000000000000000000000000000000000000000000000000000000000000000000000000000000000000000000000000000000000000000000000000000000000000000000000000000000000000000000000000000000000000000000000
310
00000000000000000000000000000000000000000000000000000000000000000000000000000000000000000000000000000000000000000000000000000000000000000000000000000000000000000000000000000000000000000000000000000000000000000000000000000000000000000000000000000000000000
310
00000000000000000000000000000000000000000007070700000000000000000000000000000000000000000000000007070700000707070000000000000000000000000000000000000000000000000707070000000000000000000000000000000000000000000000000000000000000000000000000000000000000000
310
00000000000000000000000000000000000000000000000000000000000000000000000000000000000000000000000000000000000000000000000000000000000000000000000000000000000000000000000000000000000000000000000000000000000000000000000000000000000000000000000000000000000000
310
00000000000000000000000000000000000000000000000000000000000000000000000000000000000000000000000000000000000000000000000000000000000000000000000000000000000000000000000000000000000000000000000000000000000000000000000000000000000000000000000000000000000000
310
00000000000000000000000000000000000000000000000000000000000000000000000000000000000000000000000000000000000000000000000000000000000000000000000000000000000000000000000000000000000000000000000000000000000000000000000000000000000000000000000000000000000000
310
0000000000000000000000000000000000000000000000000000000000000000000000000000000000000000000000000000000000000000
102
{BLKREFS
331
B56A7A5C3AE637DA
102
}
 70
     0
280
     1
281
     0
  0
BLOCK_RECORD
  5
B56A7A5C3AE62B7F
102
{ACAD_XDICTIONARY
360
B56A7A5C3AE62B80
102
}
330
B56A7A5C3AE5E781
100
AcDbSymbolTableRecord
100
AcDbBlockTableRecord
  2
A$C3D1746A9
340
0
102
{BLKREFS
331
B56A7A5C3AE637DE
331
B56A7A5C3AE637E1
331
B56A7A5C3AE637E3
331
B56A7A5C3AE637E4
102
}
 70
     1
280
     1
281
     0
  0
BLOCK_RECORD
  5
B56A7A5C3AE62BCF
102
{ACAD_XDICTIONARY
360
B56A7A5C3AE62BD0
102
}
330
B56A7A5C3AE5E781
100
AcDbSymbolTableRecord
100
AcDbBlockTableRecord
  2
678_IG_Break
340
0
102
{BLKREFS
331
B56A7A5C3AE637DF
331
B56A7A5C3AE637E5
102
}
 70
     0
280
     1
281
     0
  0
BLOCK_RECORD
  5
B56A7A5C3AE62BD6
102
{ACAD_XDICTIONARY
360
B56A7A5C3AE62BD7
102
}
330
B56A7A5C3AE5E781
100
AcDbSymbolTableRecord
100
AcDbBlockTableRecord
  2
A$C390C7DD8
340
0
102
{BLKREFS
331
B56A7A5C3AE637E0
331
B56A7A5C3AE637E2
102
}
 70
     1
280
     1
281
     0
  0
BLOCK_RECORD
  5
B56A7A5C3AE62BFB
102
{ACAD_XDICTIONARY
360
B56A7A5C3AE62BFC
102
}
330
B56A7A5C3AE5E781
100
AcDbSymbolTableRecord
100
AcDbBlockTableRecord
  2
A$C07E67A71
340
0
102
{BLKREFS
331
B56A7A5C3AE638DE
331
B56A7A5C3AE638DF
331
B56A7A5C3AE638E0
331
B56A7A5C3AE638E1
102
}
 70
     0
280
     1
281
     0
  0
BLOCK_RECORD
  5
B56A7A5C3AE62D6B
102
{ACAD_XDICTIONARY
360
B56A7A5C3AE62D8C
102
}
330
B56A7A5C3AE5E781
100
AcDbSymbolTableRecord
100
AcDbBlockTableRecord
  2
A$C232861D4
340
0
102
{BLKREFS
331
B56A7A5C3AE637E6
331
B56A7A5C3AE637E7
102
}
 70
     0
280
     1
281
     0
  0
BLOCK_RECORD
  5
B56A7A5C3AE62E2D
102
{ACAD_XDICTIONARY
360
B56A7A5C3AE62E3A
102
}
330
B56A7A5C3AE5E781
100
AcDbSymbolTableRecord
100
AcDbBlockTableRecord
  2
A$C2E0304CA
340
0
102
{BLKREFS
331
B56A7A5C3AE637E8
331
B56A7A5C3AE637E9
331
B56A7A5C3AE637EA
331
B56A7A5C3AE637EB
102
}
 70
     0
280
     1
281
     0
  0
BLOCK_RECORD
  5
B56A7A5C3AE63098
102
{ACAD_XDICTIONARY
360
B56A7A5C3AE63099
102
}
330
B56A7A5C3AE5E781
100
AcDbSymbolTableRecord
100
AcDbBlockTableRecord
  2
B4823 small offset flat casing
340
0
102
{BLKREFS
331
B56A7A5C3AE637EC
331
B56A7A5C3AE637ED
331
B56A7A5C3AE637EE
331
B56A7A5C3AE637EF
102
}
 70
     1
280
     1
281
     0
  0
BLOCK_RECORD
  5
B56A7A5C3AE633BC
102
{ACAD_XDICTIONARY
360
B56A7A5C3AE633F9
102
}
330
B56A7A5C3AE5E781
100
AcDbSymbolTableRecord
100
AcDbBlockTableRecord
  2
PW Flat Casing 4-sides
340
0
102
{BLKREFS
331
B56A7A5C3AE637F0
102
}
 70
     1
280
     1
281
     0
  0
BLOCK_RECORD
  5
B56A7A5C3AE635C5
330
B56A7A5C3AE5E781
100
AcDbSymbolTableRecord
100
AcDbBlockTableRecord
  2
WEEP COVER
340
0
102
{BLKREFS
331
B56A7A5C3AE6380D
102
}
 70
     0
280
     1
281
     0
  0
BLOCK_RECORD
  5
B56A7A5C3AE6380E
330
B56A7A5C3AE5E781
100
AcDbSymbolTableRecord
100
AcDbBlockTableRecord
  2
*D14
340
0
 70
     0
280
     1
281
     0
  0
BLOCK_RECORD
  5
B56A7A5C3AE6381B
330
B56A7A5C3AE5E781
100
AcDbSymbolTableRecord
100
AcDbBlockTableRecord
  2
*D15
340
0
 70
     0
280
     1
281
     0
  0
BLOCK_RECORD
  5
B56A7A5C3AE63828
330
B56A7A5C3AE5E781
100
AcDbSymbolTableRecord
100
AcDbBlockTableRecord
  2
*D16
340
0
 70
     0
280
     1
281
     0
  0
BLOCK_RECORD
  5
B56A7A5C3AE63835
330
B56A7A5C3AE5E781
100
AcDbSymbolTableRecord
100
AcDbBlockTableRecord
  2
*D17
340
0
 70
     0
280
     1
281
     0
  0
BLOCK_RECORD
  5
B56A7A5C3AE63842
330
B56A7A5C3AE5E781
100
AcDbSymbolTableRecord
100
AcDbBlockTableRecord
  2
*D18
340
0
 70
     0
280
     1
281
     0
  0
BLOCK_RECORD
  5
B56A7A5C3AE6384F
330
B56A7A5C3AE5E781
100
AcDbSymbolTableRecord
100
AcDbBlockTableRecord
  2
*D19
340
0
 70
     0
280
     1
281
     0
  0
BLOCK_RECORD
  5
B56A7A5C3AE6385C
330
B56A7A5C3AE5E781
100
AcDbSymbolTableRecord
100
AcDbBlockTableRecord
  2
*D20
340
0
 70
     0
280
     1
281
     0
  0
BLOCK_RECORD
  5
B56A7A5C3AE63869
330
B56A7A5C3AE5E781
100
AcDbSymbolTableRecord
100
AcDbBlockTableRecord
  2
*D21
340
0
 70
     0
280
     1
281
     0
  0
BLOCK_RECORD
  5
B56A7A5C3AE63876
330
B56A7A5C3AE5E781
100
AcDbSymbolTableRecord
100
AcDbBlockTableRecord
  2
*D22
340
0
 70
     0
280
     1
281
     0
  0
ENDTAB
  0
ENDSEC
  0
SECTION
  2
BLOCKS
  0
BLOCK
  5
B56A7A5C3AE5E7DA
330
B56A7A5C3AE5E797
100
AcDbEntity
  8
0
100
AcDbBlockBegin
  2
*MODEL_SPACE
 70
     0
 10
0.0
 20
0.0
 30
0.0
  3
*MODEL_SPACE
  1

  0
ENDBLK
  5
B56A7A5C3AE5E7DB
330
B56A7A5C3AE5E797
100
AcDbEntity
  8
0
100
AcDbBlockEnd
  0
BLOCK
  5
B56A7A5C3AE5E7D8
330
B56A7A5C3AE5E794
100
AcDbEntity
 67
     1
  8
0
100
AcDbBlockBegin
  2
*PAPER_SPACE
 70
     0
 10
0.0
 20
0.0
 30
0.0
  3
*PAPER_SPACE
  1

  0
ENDBLK
  5
B56A7A5C3AE5E7D9
330
B56A7A5C3AE5E794
100
AcDbEntity
 67
     1
  8
0
100
AcDbBlockEnd
  0
BLOCK
  5
3F51
330
B56A7A5C3AE5E79C
100
AcDbEntity
  8
0
100
AcDbBlockBegin
  2
ACAD1
 70
     0
 10
0.0
 20
0.0
 30
0.0
  3
ACAD1
  1

  0
ENDBLK
  5
3F52
330
B56A7A5C3AE5E79C
100
AcDbEntity
  8
0
100
AcDbBlockEnd
  0
BLOCK
  5
B56A7A5C3AE60399
330
B56A7A5C3AE60397
100
AcDbEntity
  8
0
100
AcDbBlockBegin
  2
AS extents block
 70
     0
 10
0.0
 20
0.0
 30
0.0
  3
AS extents block
  1

  0
LWPOLYLINE
  5
B56A7A5C3AE60398
330
B56A7A5C3AE60397
100
AcDbEntity
  8
paper
100
AcDbPolyline
 90
        4
 70
     1
 43
0.0
 10
0.0
 20
0.0
 10
17.0
 20
0.0
 10
17.0
 20
22.0
 10
0.0
 20
22.0
  0
ENDBLK
  5
B56A7A5C3AE6039A
330
B56A7A5C3AE60397
100
AcDbEntity
  8
0
100
AcDbBlockEnd
  0
BLOCK
  5
B56A7A5C3AE604BB
330
B56A7A5C3AE604B9
100
AcDbEntity
  8
0
100
AcDbBlockBegin
  2
GENAXEH
 70
     0
 10
0.0
 20
0.0
 30
0.0
  3
GENAXEH
  1

  0
LINE
  5
B56A7A5C3AE604BA
330
B56A7A5C3AE604B9
100
AcDbEntity
  8
0
100
AcDbLine
 10
-1.0
 20
0.0
 30
0.0
 11
1.0
 21
0.0
 31
0.0
  0
ENDBLK
  5
B56A7A5C3AE604BC
330
B56A7A5C3AE604B9
100
AcDbEntity
  8
0
100
AcDbBlockEnd
  0
BLOCK
  5
B56A7A5C3AE60703
330
B56A7A5C3AE60702
100
AcDbEntity
  8
0
100
AcDbBlockBegin
  2
*U3
 70
     1
 10
0.0
 20
0.0
 30
0.0
  3
*U3
  1

  0
ENDBLK
  5
B56A7A5C3AE60704
330
B56A7A5C3AE60702
100
AcDbEntity
  8
0
100
AcDbBlockEnd
  0
BLOCK
  5
B56A7A5C3AE6298F
330
B56A7A5C3AE6298E
100
AcDbEntity
  8
0
100
AcDbBlockBegin
  2
Architechural Drawing Foot-Note
 70
     2
 10
0.0
 20
0.0
 30
0.0
  3
Architechural Drawing Foot-Note
  1

  0
TEXT
  5
B56A7A5C3AE62990
330
B56A7A5C3AE6298E
100
AcDbEntity
  8
THIN
100
AcDbText
 10
18.71092516298727
 20
-0.049759177693705
 30
0.0
 40
0.25
  1
AS
 51
10.0
  7
ROMANS
100
AcDbText
  0
TEXT
  5
B56A7A5C3AE62991
330
B56A7A5C3AE6298E
100
AcDbEntity
  8
THIN
100
AcDbText
 10
0.0035721549327779
 20
0.0030192385173553
 30
0.0
 40
0.18
  1
REV.
 51
10.0
  7
ROMANS
100
AcDbText
  0
ATTDEF
  5
B56A7A5C3AE62992
330
B56A7A5C3AE6298E
100
AcDbEntity
  8
THIN
100
AcDbText
 10
0.7499129237565754
 20
0.0009678407370854
 30
0.0
 40
0.18
  1

 51
10.0
  7
ROMANS
100
AcDbAttributeDefinition
280
     0
  3
Revision date:
  2
REV:
 70
     0
280
     0
  0
ATTDEF
  5
B56A7A5C3AE62993
330
B56A7A5C3AE6298E
100
AcDbEntity
  8
THIN
100
AcDbText
 10
19.31837409338454
 20
-0.0498286263927881
 30
0.0
 40
0.25
  1

 51
10.0
  7
ROMANS
100
AcDbAttributeDefinition
280
     0
  3
AS Drawing Num.:
  2
AS#
 70
     0
280
     0
  0
ENDBLK
  5
B56A7A5C3AE62994
330
B56A7A5C3AE6298E
100
AcDbEntity
  8
0
100
AcDbBlockEnd
  0
BLOCK
  5
B56A7A5C3AE62B82
330
B56A7A5C3AE62B7F
100
AcDbEntity
  8
0
100
AcDbBlockBegin
  2
A$C3D1746A9
 70
     0
 10
0.0
 20
0.0
 30
0.0
  3
A$C3D1746A9
  1

  0
LINE
  5
B56A7A5C3AE62B83
330
B56A7A5C3AE62B7F
100
AcDbEntity
  8
0
100
AcDbLine
 10
1.036090258358317
 20
0.0954679980433575
 30
0.0
 11
1.036090258358317
 21
0.2755779528247739
 31
0.0
  0
LINE
  5
B56A7A5C3AE62B84
330
B56A7A5C3AE62B7F
100
AcDbEntity
  8
0
100
AcDbLine
 10
0.9760902583583153
 20
0.0300000038833268
 30
0.0
 11
0.9760902583583144
 21
0.2677039731074426
 31
0.0
  0
ARC
  5
B56A7A5C3AE62B85
330
B56A7A5C3AE62B7F
100
AcDbEntity
  8
0
100
AcDbCircle
 10
1.006090258358316
 20
0.0300000038833268
 30
0.0
 40
0.03
100
AcDbArc
 50
180.0
 51
269.9999999999479
  0
ARC
  5
B56A7A5C3AE62B86
330
B56A7A5C3AE62B7F
100
AcDbEntity
  8
0
100
AcDbCircle
 10
0.0150000071147183
 20
0.2204679980434712
 30
0.0
 40
0.0149999999999864
100
AcDbArc
 50
180.0
 51
270.0
  0
LINE
  5
B56A7A5C3AE62B87
330
B56A7A5C3AE62B7F
100
AcDbEntity
  8
0
100
AcDbLine
 10
0.0150000071147183
 20
0.2054679980434848
 30
0.0
 11
0.0776241095785295
 21
0.2054679980434422
 31
0.0
  0
LINE
  5
B56A7A5C3AE62B88
330
B56A7A5C3AE62B7F
100
AcDbEntity
  8
0
100
AcDbLine
 10
0.2030000071147491
 20
0.2000673402412012
 30
0.0
 11
0.203000007114678
 21
0.1250451504592647
 31
0.0
  0
ARC
  5
B56A7A5C3AE62B89
330
B56A7A5C3AE62B7F
100
AcDbEntity
  8
0
100
AcDbCircle
 10
0.1880000071146774
 20
0.1250451504592789
 30
0.0
 40
0.015
100
AcDbArc
 50
300.0000000000012
 51
359.9999999999505
  0
LINE
  5
B56A7A5C3AE62B8A
330
B56A7A5C3AE62B7F
100
AcDbEntity
  8
0
100
AcDbLine
 10
0.2630000071148082
 20
0.2079413199585716
 30
0.0
 11
0.2630000071145666
 21
0.0300000038831563
 31
0.0
  0
ARC
  5
B56A7A5C3AE62B8B
330
B56A7A5C3AE62B7F
100
AcDbEntity
  8
0
100
AcDbCircle
 10
0.2780000071147874
 20
0.2079413199585502
 30
0.0
 40
0.015
100
AcDbArc
 50
95.0
 51
179.999999999922
  0
ARC
  5
B56A7A5C3AE62B8C
330
B56A7A5C3AE62B7F
100
AcDbEntity
  8
0
100
AcDbCircle
 10
0.2330000071145655
 20
0.0300000038832131
 30
0.0
 40
0.03
100
AcDbArc
 50
270.0
 51
359.9999999999023
  0
LINE
  5
B56A7A5C3AE62B8D
330
B56A7A5C3AE62B7F
100
AcDbEntity
  8
0
100
AcDbLine
 10
0.0000000071148456
 20
0.6705259996309963
 30
0.0
 11
0.0000000071147319
 21
0.2204679980434712
 31
0.0
  0
ARC
  5
B56A7A5C3AE62B8E
330
B56A7A5C3AE62B7F
100
AcDbEntity
  8
0
100
AcDbCircle
 10
0.0150000071148462
 20
0.6705259996309927
 30
0.0
 40
0.015
100
AcDbArc
 50
95.0
 51
179.9999999999855
  0
LINE
  5
B56A7A5C3AE62B8F
330
B56A7A5C3AE62B7F
100
AcDbEntity
  8
0
100
AcDbLine
 10
0.0600000071147626
 20
0.6155461291899372
 30
0.0
 11
0.0600000071147626
 21
0.2804679980434734
 31
0.0
  0
ARC
  5
B56A7A5C3AE62B90
330
B56A7A5C3AE62B7F
100
AcDbEntity
  8
0
100
AcDbCircle
 10
0.0750000071147632
 20
0.6155461291899372
 30
0.0
 40
0.015
100
AcDbArc
 50
95.0
 51
180.0
  0
LINE
  5
B56A7A5C3AE62B91
330
B56A7A5C3AE62B7F
100
AcDbEntity
  8
0
100
AcDbLine
 10
1.436000007114817
 20
0.3518004251052602
 30
0.0
 11
1.436000007114801
 21
0.397065165886735
 31
0.0
  0
ARC
  5
B56A7A5C3AE62B92
330
B56A7A5C3AE62B7F
100
AcDbEntity
  8
0
100
AcDbCircle
 10
1.406000007114826
 20
0.3518004251052496
 30
0.0
 40
0.03
100
AcDbArc
 50
274.9999999999998
 51
0.0000000000223911
  0
LINE
  5
B56A7A5C3AE62B93
330
B56A7A5C3AE62B7F
100
AcDbEntity
  8
0
100
AcDbLine
 10
1.4510000071148
 20
0.412065165886741
 30
0.0
 11
1.451000007114782
 21
0.412065165886741
 31
0.0
  0
LINE
  5
B56A7A5C3AE62B94
330
B56A7A5C3AE62B7F
100
AcDbEntity
  8
0
100
AcDbLine
 10
1.451000007114782
 20
0.412065165886741
 30
0.0
 11
1.451000007114782
 21
0.4890651658867391
 31
0.0
  0
LINE
  5
B56A7A5C3AE62B95
330
B56A7A5C3AE62B7F
100
AcDbEntity
  8
0
100
AcDbLine
 10
1.451000007114782
 20
0.4890651658867391
 30
0.0
 11
1.451000007114795
 21
0.4890651658867391
 31
0.0
  0
LINE
  5
B56A7A5C3AE62B96
330
B56A7A5C3AE62B7F
100
AcDbEntity
  8
0
100
AcDbLine
 10
1.436000007114795
 20
0.5040651658867397
 30
0.0
 11
1.436000007114795
 21
0.725676967856284
 31
0.0
  0
LINE
  5
B56A7A5C3AE62B97
330
B56A7A5C3AE62B7F
100
AcDbEntity
  8
0
100
AcDbLine
 10
1.376000007114821
 20
0.3930353279360297
 30
0.0
 11
1.376000007114821
 21
0.7280565504842827
 31
0.0
  0
LINE
  5
B56A7A5C3AE62B98
330
B56A7A5C3AE62B7F
100
AcDbEntity
  8
0
100
AcDbLine
 10
1.449552802566003
 20
0.740606991265306
 30
0.0
 11
1.466000007114768
 21
0.7422012599804866
 31
0.0
  0
LINE
  5
B56A7A5C3AE62B99
330
B56A7A5C3AE62B7F
100
AcDbEntity
  8
0
100
AcDbLine
 10
1.466000007114768
 20
0.7422012599804866
 30
0.0
 11
1.466000007114768
 21
0.8125293479702513
 31
0.0
  0
LINE
  5
B56A7A5C3AE62B9A
330
B56A7A5C3AE62B7F
100
AcDbEntity
  8
0
100
AcDbLine
 10
0.17088966422045
 20
0.0810233354481156
 30
0.0
 11
0.2061118329324465
 21
0.0157529951576798
 31
0.0
  0
ARC
  5
B56A7A5C3AE62B9B
330
B56A7A5C3AE62B7F
100
AcDbEntity
  8
0
100
AcDbCircle
 10
0.1840902583583173
 20
0.0881468398109497
 30
0.0
 40
0.015
100
AcDbArc
 50
120.0000000000004
 51
208.3528581751032
  0
ARC
  5
B56A7A5C3AE62B9C
330
B56A7A5C3AE62B7F
100
AcDbEntity
  8
0
100
AcDbCircle
 10
0.2325130212082733
 20
0.0300000038833268
 30
0.0
 40
0.030000000000072
100
AcDbArc
 50
208.3528581749867
 51
269.9999999998372
  0
LINE
  5
B56A7A5C3AE62B9D
330
B56A7A5C3AE62B7F
100
AcDbEntity
  8
0
100
AcDbLine
 10
0.2325130212081881
 20
0.0000000038832404
 30
0.0
 11
0.2330000071145655
 21
0.0000000038832404
 31
0.0
  0
LINE
  5
B56A7A5C3AE62B9E
330
B56A7A5C3AE62B7F
100
AcDbEntity
  8
0
100
AcDbLine
 10
1.006090258358244
 20
0.0000000038833541
 30
0.0
 11
1.056292294306616
 21
0.0000000038832333
 31
0.0
  0
ARC
  5
B56A7A5C3AE62B9F
330
B56A7A5C3AE62B7F
100
AcDbEntity
  8
0
100
AcDbCircle
 10
1.056292294306651
 20
0.0150000038832268
 30
0.0
 40
0.0149999999999864
100
AcDbArc
 50
270.0000000001091
 51
330.0000000002665
  0
LINE
  5
B56A7A5C3AE62BA0
330
B56A7A5C3AE62B7F
100
AcDbEntity
  8
0
100
AcDbLine
 10
1.069282675363447
 20
0.0075000038832904
 30
0.0
 11
1.102750512396161
 21
0.065467998043367
 31
0.0
  0
LINE
  5
B56A7A5C3AE62BA1
330
B56A7A5C3AE62B7F
100
AcDbEntity
  8
0
100
AcDbLine
 10
1.094090258358318
 20
0.0804679980433676
 30
0.0
 11
1.051090258358273
 21
0.0804679980433711
 31
0.0
  0
ARC
  5
B56A7A5C3AE62BA2
330
B56A7A5C3AE62B7F
100
AcDbEntity
  8
0
100
AcDbCircle
 10
1.051090258358275
 20
0.0954679980433575
 30
0.0
 40
0.0149999999999864
100
AcDbArc
 50
180.0
 51
270.0
  0
LINE
  5
B56A7A5C3AE62BA3
330
B56A7A5C3AE62B7F
100
AcDbEntity
  8
0
100
AcDbLine
 10
1.466000007114768
 20
0.8125293479702513
 30
0.0
 11
0.0136926709736294
 21
0.6854689201023696
 31
0.0
  0
LINE
  5
B56A7A5C3AE62BA4
330
B56A7A5C3AE62B7F
100
AcDbEntity
  8
0
100
AcDbLine
 10
1.359692670973604
 20
0.7429994709556596
 30
0.0
 11
0.0736926709735464
 21
0.6304890496613141
 31
0.0
  0
ARC
  5
B56A7A5C3AE62BA5
330
B56A7A5C3AE62B7F
100
AcDbEntity
  8
0
100
AcDbCircle
 10
1.361000007114821
 20
0.7280565504842827
 30
0.0
 40
0.015
100
AcDbArc
 50
359.9999999999996
 51
95.0
  0
ARC
  5
B56A7A5C3AE62BA6
330
B56A7A5C3AE62B7F
100
AcDbEntity
  8
0
100
AcDbCircle
 10
1.361000007114821
 20
0.3930353279360297
 30
0.0
 40
0.015
100
AcDbArc
 50
275.0
 51
359.9999999999996
  0
LINE
  5
B56A7A5C3AE62BA7
330
B56A7A5C3AE62B7F
100
AcDbEntity
  8
0
100
AcDbLine
 10
1.408614679397256
 20
0.3219145841624993
 30
0.0
 11
1.049782922217102
 21
0.290520873296149
 31
0.0
  0
LINE
  5
B56A7A5C3AE62BA8
330
B56A7A5C3AE62B7F
100
AcDbEntity
  8
0
100
AcDbLine
 10
0.9597829222170997
 20
0.2826468935788178
 30
0.0
 11
0.7452029818928274
 21
0.2638735813803787
 31
0.0
  0
LINE
  5
B56A7A5C3AE62BA9
330
B56A7A5C3AE62B7F
100
AcDbEntity
  8
0
100
AcDbLine
 10
0.6805969526863507
 20
0.2582212862293858
 30
0.0
 11
0.558416476000625
 21
0.2475318796151917
 31
0.0
  0
LINE
  5
B56A7A5C3AE62BAA
330
B56A7A5C3AE62B7F
100
AcDbEntity
  8
0
100
AcDbLine
 10
0.4938104467941385
 20
0.241879584464197
 30
0.0
 11
0.2766926709735706
 21
0.2228842404299272
 31
0.0
  0
LINE
  5
B56A7A5C3AE62BAB
330
B56A7A5C3AE62B7F
100
AcDbEntity
  8
0
100
AcDbLine
 10
0.1955000071146777
 20
0.112054769402512
 30
0.0
 11
0.176590258358317
 21
0.1011372208677166
 31
0.0
  0
ARC
  5
B56A7A5C3AE62BAC
330
B56A7A5C3AE62B7F
100
AcDbEntity
  8
THIN
100
AcDbCircle
 10
0.0600000071147626
 20
0.3654679980435134
 30
0.0
 40
0.015
100
AcDbArc
 50
270.0
 51
90.0
  0
ARC
  5
B56A7A5C3AE62BAD
330
B56A7A5C3AE62B7F
100
AcDbEntity
  8
0
100
AcDbCircle
 10
0.075000007114749
 20
0.2804679980434734
 30
0.0
 40
0.015
100
AcDbArc
 50
180.0
 51
279.9829890886446
  0
LINE
  5
B56A7A5C3AE62BAE
330
B56A7A5C3AE62B7F
100
AcDbEntity
  8
0
100
AcDbLine
 10
0.1866926709735317
 20
0.2150102607125923
 30
0.0
 11
0.077624109578565
 21
0.2054679980434457
 31
0.0
  0
ARC
  5
B56A7A5C3AE62BAF
330
B56A7A5C3AE62B7F
100
AcDbEntity
  8
0
100
AcDbCircle
 10
0.1880000071147485
 20
0.2000673402412154
 30
0.0
 40
0.015
100
AcDbArc
 50
359.9999999999467
 51
95.000000000003
  0
ARC
  5
B56A7A5C3AE62BB0
330
B56A7A5C3AE62B7F
100
AcDbEntity
  8
0
100
AcDbCircle
 10
1.451000007114796
 20
0.725676967856284
 30
0.0
 40
0.015
100
AcDbArc
 50
95.53652635735373
 51
180.0
  0
LINE
  5
B56A7A5C3AE62BB1
330
B56A7A5C3AE62B7F
100
AcDbEntity
  8
0
100
AcDbLine
 10
1.362307343256035
 20
0.3780924074646599
 30
0.0
 11
0.0776003438766786
 21
0.2656951090665487
 31
0.0
  0
ARC
  5
B56A7A5C3AE62BB2
330
B56A7A5C3AE62B7F
100
AcDbEntity
  8
0
100
AcDbCircle
 10
0.5256776826836438
 20
0.2496867055301539
 30
0.0
 40
0.015
100
AcDbArc
 50
50.00000000000021
 51
140.0000000000001
  0
ARC
  5
B56A7A5C3AE62BB3
330
B56A7A5C3AE62B7F
100
AcDbEntity
  8
0
100
AcDbCircle
 10
1.094090258358317
 20
0.0704679980433678
 30
0.0
 40
0.01
100
AcDbArc
 50
329.9999999999917
 51
89.99999999999582
  0
LINE
  5
B56A7A5C3AE62BB4
330
B56A7A5C3AE62B7F
100
AcDbEntity
  8
0
100
AcDbLine
 10
0.5353194968289392
 20
0.2611773721769346
 30
0.0
 11
0.5474673257141119
 21
0.2509841334397826
 31
0.0
  0
LINE
  5
B56A7A5C3AE62BB5
330
B56A7A5C3AE62B7F
100
AcDbEntity
  8
0
100
AcDbLine
 10
0.5141870160368632
 20
0.2593285196754493
 30
0.0
 11
0.5039937772997086
 21
0.2471806907902749
 31
0.0
  0
ARC
  5
B56A7A5C3AE62BB6
330
B56A7A5C3AE62B7F
100
AcDbEntity
  8
0
100
AcDbCircle
 10
0.5571091398594099
 20
0.2624748000865669
 30
0.0
 40
0.015
100
AcDbArc
 50
230.0000000000001
 51
275.0000000000001
  0
ARC
  5
B56A7A5C3AE62BB7
330
B56A7A5C3AE62B7F
100
AcDbEntity
  8
0
100
AcDbCircle
 10
0.4925031106529234
 20
0.2568225049355721
 30
0.0
 40
0.015
100
AcDbArc
 50
275.000000000002
 51
320.0000000000001
  0
ARC
  5
B56A7A5C3AE62BB8
330
B56A7A5C3AE62B7F
100
AcDbEntity
  8
0
100
AcDbCircle
 10
0.7438956457516124
 20
0.2788165018517539
 30
0.0
 40
0.015
100
AcDbArc
 50
230.0000000000001
 51
275.0000000000001
  0
ARC
  5
B56A7A5C3AE62BB9
330
B56A7A5C3AE62B7F
100
AcDbEntity
  8
0
100
AcDbCircle
 10
0.7124641885758463
 20
0.2660284072953409
 30
0.0
 40
0.015
100
AcDbArc
 50
50.00000000000021
 51
140.0000000000001
  0
LINE
  5
B56A7A5C3AE62BBA
330
B56A7A5C3AE62B7F
100
AcDbEntity
  8
0
100
AcDbLine
 10
0.7221060027211417
 20
0.2775190739421234
 30
0.0
 11
0.7342538316063143
 21
0.2673258352049697
 31
0.0
  0
LINE
  5
B56A7A5C3AE62BBB
330
B56A7A5C3AE62B7F
100
AcDbEntity
  8
0
100
AcDbLine
 10
0.7009735219290656
 20
0.2756702214406363
 30
0.0
 11
0.690780283191911
 21
0.2635223925554619
 31
0.0
  0
ARC
  5
B56A7A5C3AE62BBC
330
B56A7A5C3AE62B7F
100
AcDbEntity
  8
0
100
AcDbCircle
 10
0.6792896165451259
 20
0.2731642067007591
 30
0.0
 40
0.015
100
AcDbArc
 50
275.000000000002
 51
320.0000000000001
  0
ARC
  5
B56A7A5C3AE62BBD
330
B56A7A5C3AE62B7F
100
AcDbEntity
  8
0
100
AcDbCircle
 10
1.051090258358317
 20
0.2755779528247739
 30
0.0
 40
0.015
100
AcDbArc
 50
94.99999999999976
 51
180.0
  0
ARC
  5
B56A7A5C3AE62BBE
330
B56A7A5C3AE62B7F
100
AcDbEntity
  8
0
100
AcDbCircle
 10
0.9610902583583147
 20
0.2677039731074426
 30
0.0
 40
0.015
100
AcDbArc
 50
0.0
 51
94.99999999999918
  0
ARC
  5
B56A7A5C3AE62BBF
330
B56A7A5C3AE62B7F
100
AcDbEntity
  8
0
100
AcDbCircle
 10
1.4510000071148
 20
0.3970651658867403
 30
0.0
 40
0.015
100
AcDbArc
 50
90.0
 51
180.0000000000203
  0
ARC
  5
B56A7A5C3AE62BC0
330
B56A7A5C3AE62B7F
100
AcDbEntity
  8
0
100
AcDbCircle
 10
1.451000007114795
 20
0.5040651658867397
 30
0.0
 40
0.015
100
AcDbArc
 50
180.0
 51
270.0
  0
LINE
  5
B56A7A5C3AE62BC1
330
B56A7A5C3AE62B7F
100
AcDbEntity
  8
10
100
AcDbLine
 10
1.466000007114768
 20
0.8125293479702513
 30
0.0
 11
1.466000007114768
 21
0.7422012599804866
 31
0.0
  0
LINE
  5
B56A7A5C3AE62BC2
330
B56A7A5C3AE62B7F
100
AcDbEntity
  8
THIN
100
AcDbLine
 10
1.529515019919586
 20
0.9925293479700707
 30
0.0
 11
1.538250007114816
 21
0.9925293479700698
 31
0.0
  0
ARC
  5
B56A7A5C3AE62BC3
330
B56A7A5C3AE62B7F
100
AcDbEntity
  8
THIN
100
AcDbCircle
 10
1.466000007114766
 20
0.8297419051554593
 30
0.0
 40
0.0875406451749728
100
AcDbArc
 50
269.9999999999995
 51
355.3298099980876
  0
LINE
  5
B56A7A5C3AE62BC4
330
B56A7A5C3AE62B7F
100
AcDbEntity
  8
THIN
100
AcDbLine
 10
1.553250007114816
 20
0.8226143489373844
 30
0.0
 11
1.553250007114815
 21
0.9775293479700701
 31
0.0
  0
LINE
  5
B56A7A5C3AE62BC5
330
B56A7A5C3AE62B7F
100
AcDbEntity
  8
THIN
100
AcDbLine
 10
1.515109653721485
 20
0.9817109056581365
 30
0.0
 11
1.466000007114767
 21
0.8125293479702477
 31
0.0
  0
ARC
  5
B56A7A5C3AE62BC6
330
B56A7A5C3AE62B7F
100
AcDbEntity
  8
THIN
100
AcDbCircle
 10
1.529515019919586
 20
0.977529347970071
 30
0.0
 40
0.015
100
AcDbArc
 50
90.0
 51
163.8131612393066
  0
ARC
  5
B56A7A5C3AE62BC7
330
B56A7A5C3AE62B7F
100
AcDbEntity
  8
THIN
100
AcDbCircle
 10
1.538250007114815
 20
0.9775293479700701
 30
0.0
 40
0.015
100
AcDbArc
 50
0.0
 51
89.99999999999786
  0
ARC
  5
B56A7A5C3AE62BC8
330
B56A7A5C3AE62B7F
100
AcDbEntity
  8
THIN
100
AcDbCircle
 10
1.38985612200776
 20
0.5727250703361433
 30
0.0
 40
0.1719016567217188
100
AcDbArc
 50
290.835804720752
 51
341.8985582683166
  0
LINE
  5
B56A7A5C3AE62BC9
330
B56A7A5C3AE62B7F
100
AcDbEntity
  8
THIN
100
AcDbLine
 10
1.526352513643371
 20
0.5916498518474747
 30
0.0
 11
1.538250007114815
 21
0.591649851847472
 31
0.0
  0
LINE
  5
B56A7A5C3AE62BCA
330
B56A7A5C3AE62B7F
100
AcDbEntity
  8
THIN
100
AcDbLine
 10
1.553250007114815
 20
0.5193151658867424
 30
0.0
 11
1.553250007114815
 21
0.5766498518474723
 31
0.0
  0
LINE
  5
B56A7A5C3AE62BCB
330
B56A7A5C3AE62B7F
100
AcDbEntity
  8
THIN
100
AcDbLine
 10
1.451000007114795
 20
0.4890651658867391
 30
0.0
 11
1.513807802616641
 21
0.5848736116479456
 31
0.0
  0
ARC
  5
B56A7A5C3AE62BCC
330
B56A7A5C3AE62B7F
100
AcDbEntity
  8
THIN
100
AcDbCircle
 10
1.538250007114815
 20
0.5766498518474723
 30
0.0
 40
0.015
100
AcDbArc
 50
0.0
 51
90.0
  0
ARC
  5
B56A7A5C3AE62BCD
330
B56A7A5C3AE62B7F
100
AcDbEntity
  8
THIN
100
AcDbCircle
 10
1.526352513643371
 20
0.576649851847475
 30
0.0
 40
0.015
100
AcDbArc
 50
89.99999999999969
 51
146.752916936114
  0
ENDBLK
  5
B56A7A5C3AE62BCE
330
B56A7A5C3AE62B7F
100
AcDbEntity
  8
0
100
AcDbBlockEnd
  0
BLOCK
  5
B56A7A5C3AE62BD2
330
B56A7A5C3AE62BCF
100
AcDbEntity
  8
0
100
AcDbBlockBegin
  2
678_IG_Break
 70
     0
 10
0.0
 20
0.0
 30
0.0
  3
678_IG_Break
  1

  0
LWPOLYLINE
  5
B56A7A5C3AE62BD3
330
B56A7A5C3AE62BCF
100
AcDbEntity
  8
0
100
AcDbPolyline
 90
        6
 70
     0
 43
0.0
 10
0.0500000000000007
 20
-0.0767
 10
0.0500000000000007
 20
0.2881351420558313
 10
0.0018282800224156
 20
0.3193498844730935
 10
0.165109850895913
 20
0.375212812484478
 10
0.0500000000000007
 20
0.4498027243057273
 10
0.0500000000000007
 20
0.7546682587300627
  0
LWPOLYLINE
  5
B56A7A5C3AE62BD4
330
B56A7A5C3AE62BCF
100
AcDbEntity
  8
0
100
AcDbPolyline
 90
        6
 70
     0
 43
0.0
 10
0.0
 20
-0.0767
 10
-0.0000000000000009
 20
0.2609550277182933
 10
-0.1117189654277082
 20
0.333347683213504
 10
0.0515626054457945
 20
0.3892106112248903
 10
0.0
 20
0.4226226099681901
 10
0.0
 20
0.7546682587300627
  0
ENDBLK
  5
B56A7A5C3AE62BD5
330
B56A7A5C3AE62BCF
100
AcDbEntity
  8
0
100
AcDbBlockEnd
  0
BLOCK
  5
B56A7A5C3AE62BD9
330
B56A7A5C3AE62BD6
100
AcDbEntity
  8
0
100
AcDbBlockBegin
  2
A$C390C7DD8
 70
     0
 10
0.0
 20
0.0
 30
0.0
  3
A$C390C7DD8
  1

  0
LINE
  5
B56A7A5C3AE62BDA
330
B56A7A5C3AE62BD6
100
AcDbEntity
  8
IG
100
AcDbLine
 10
0.5617499925197383
 20
0.1775000260650863
 30
0.0
 11
0.5617499925196814
 21
0.3975000260650567
 31
0.0
  0
LINE
  5
B56A7A5C3AE62BDB
330
B56A7A5C3AE62BD6
100
AcDbEntity
  8
IG
100
AcDbLine
 10
0.1602499925197307
 20
0.1475000260650567
 30
0.0
 11
0.521749992519661
 21
0.1475000260650567
 31
0.0
  0
LINE
  5
B56A7A5C3AE62BDC
330
B56A7A5C3AE62BD6
100
AcDbEntity
  8
IG
100
AcDbLine
 10
0.2102499925197705
 20
0.1975000260650681
 30
0.0
 11
0.4717499925195927
 21
0.1975000260650681
 31
0.0
  0
ARC
  5
B56A7A5C3AE62BDD
330
B56A7A5C3AE62BD6
100
AcDbEntity
  8
IG
100
AcDbCircle
 10
0.1602499925197307
 20
0.1775000260650295
 30
0.0
 40
0.03
100
AcDbArc
 50
180.0
 51
270.0000000000049
  0
ARC
  5
B56A7A5C3AE62BDE
330
B56A7A5C3AE62BD6
100
AcDbEntity
  8
IG
100
AcDbCircle
 10
0.1602499925197307
 20
0.1775000260650295
 30
0.0
 40
0.04
100
AcDbArc
 50
180.0
 51
270.0000000000049
  0
LINE
  5
B56A7A5C3AE62BDF
330
B56A7A5C3AE62BD6
100
AcDbEntity
  8
IG
100
AcDbLine
 10
0.5517499925196905
 20
0.1775000260650863
 30
0.0
 11
0.5517499925196905
 21
0.3975000260650567
 31
0.0
  0
ARC
  5
B56A7A5C3AE62BE0
330
B56A7A5C3AE62BD6
100
AcDbEntity
  8
IG
100
AcDbCircle
 10
0.521749992519661
 20
0.1775000260650863
 30
0.0
 40
0.03
100
AcDbArc
 50
270.0000000000049
 51
0.0
  0
ARC
  5
B56A7A5C3AE62BE1
330
B56A7A5C3AE62BD6
100
AcDbEntity
  8
IG
100
AcDbCircle
 10
0.521749992519661
 20
0.1775000260650863
 30
0.0
 40
0.04
100
AcDbArc
 50
270.0000000000049
 51
0.0
  0
LINE
  5
B56A7A5C3AE62BE2
330
B56A7A5C3AE62BD6
100
AcDbEntity
  8
IG
100
AcDbLine
 10
0.5217499925197178
 20
0.4275000260650863
 30
0.0
 11
0.4837499925197069
 21
0.4275000260650863
 31
0.0
  0
ARC
  5
B56A7A5C3AE62BE3
330
B56A7A5C3AE62BD6
100
AcDbEntity
  8
IG
100
AcDbCircle
 10
0.5217499925197178
 20
0.3975000260650567
 30
0.0
 40
0.03
100
AcDbArc
 50
359.9999999999933
 51
90.0
  0
ARC
  5
B56A7A5C3AE62BE4
330
B56A7A5C3AE62BD6
100
AcDbEntity
  8
IG
100
AcDbCircle
 10
0.5217499925197178
 20
0.3975000260650567
 30
0.0
 40
0.04
100
AcDbArc
 50
359.9999999999933
 51
90.0
  0
LINE
  5
B56A7A5C3AE62BE5
330
B56A7A5C3AE62BD6
100
AcDbEntity
  8
IG
100
AcDbLine
 10
0.4837499925197069
 20
0.4275000260650863
 30
0.0
 11
0.4837499925197069
 21
0.4375000260650772
 31
0.0
  0
LINE
  5
B56A7A5C3AE62BE6
330
B56A7A5C3AE62BD6
100
AcDbEntity
  8
IG
100
AcDbLine
 10
0.4837499925197069
 20
0.4375000260650772
 30
0.0
 11
0.5217499925197178
 21
0.4375000260650772
 31
0.0
  0
LINE
  5
B56A7A5C3AE62BE7
330
B56A7A5C3AE62BD6
100
AcDbEntity
  8
IG
100
AcDbLine
 10
0.521749992519661
 20
0.1375000260650658
 30
0.0
 11
0.1602499925197307
 21
0.1375000260650658
 31
0.0
  0
LINE
  5
B56A7A5C3AE62BE8
330
B56A7A5C3AE62BD6
100
AcDbEntity
  8
IG
100
AcDbLine
 10
0.5929999925197098
 20
0.1025000260650408
 30
0.0
 11
0.0889999925197103
 21
0.1025000260650977
 31
0.0
  0
LINE
  5
B56A7A5C3AE62BE9
330
B56A7A5C3AE62BD6
100
AcDbEntity
  8
IG
100
AcDbLine
 10
0.5929999925197098
 20
0.3755000260650654
 30
0.0
 11
0.5617499925196814
 21
0.3755000260650654
 31
0.0
  0
LINE
  5
B56A7A5C3AE62BEA
330
B56A7A5C3AE62BD6
100
AcDbEntity
  8
IG
100
AcDbLine
 10
0.1202499925197102
 20
0.3755000260650654
 30
0.0
 11
0.0889999925196818
 21
0.3755000260651222
 31
0.0
  0
LINE
  5
B56A7A5C3AE62BEB
330
B56A7A5C3AE62BD6
100
AcDbEntity
  8
IG
100
AcDbLine
 10
0.130249992519758
 20
0.1775000260650295
 30
0.0
 11
0.1302499925197011
 21
0.3975000260650567
 31
0.0
  0
LINE
  5
B56A7A5C3AE62BEC
330
B56A7A5C3AE62BD6
100
AcDbEntity
  8
IG
100
AcDbLine
 10
0.1602499925197307
 20
0.4275000260650863
 30
0.0
 11
0.1982499925197416
 21
0.4275000260650863
 31
0.0
  0
ARC
  5
B56A7A5C3AE62BED
330
B56A7A5C3AE62BD6
100
AcDbEntity
  8
IG
100
AcDbCircle
 10
0.1602499925197307
 20
0.3975000260650567
 30
0.0
 40
0.03
100
AcDbArc
 50
90.0
 51
180.0
  0
ARC
  5
B56A7A5C3AE62BEE
330
B56A7A5C3AE62BD6
100
AcDbEntity
  8
IG
100
AcDbCircle
 10
0.1602499925197307
 20
0.3975000260650567
 30
0.0
 40
0.04
100
AcDbArc
 50
90.0
 51
180.0
  0
LINE
  5
B56A7A5C3AE62BEF
330
B56A7A5C3AE62BD6
100
AcDbEntity
  8
IG
100
AcDbLine
 10
0.1982499925197416
 20
0.4275000260650863
 30
0.0
 11
0.1982499925197416
 21
0.4375000260650772
 31
0.0
  0
LINE
  5
B56A7A5C3AE62BF0
330
B56A7A5C3AE62BD6
100
AcDbEntity
  8
IG
100
AcDbLine
 10
0.1982499925197416
 20
0.4375000260650772
 30
0.0
 11
0.1602499925197307
 21
0.4375000260650772
 31
0.0
  0
LINE
  5
B56A7A5C3AE62BF1
330
B56A7A5C3AE62BD6
100
AcDbEntity
  8
IG
100
AcDbLine
 10
0.1202499925197102
 20
0.3975000260650567
 30
0.0
 11
0.1202499925197102
 21
0.1775000260650295
 31
0.0
  0
LINE
  5
B56A7A5C3AE62BF2
330
B56A7A5C3AE62BD6
100
AcDbEntity
  8
IG
100
AcDbLine
 10
0.0889999925197103
 20
0.0000000260650772
 30
0.0
 11
-0.0000000074802866
 21
0.0000000260650239
 31
0.0
  0
LINE
  5
B56A7A5C3AE62BF3
330
B56A7A5C3AE62BD6
100
AcDbEntity
  8
IG
100
AcDbLine
 10
0.0889999925197103
 20
0.0000000260650772
 30
0.0
 11
0.0889999925197049
 21
2.100000026065075
 31
0.0
  0
LINE
  5
B56A7A5C3AE62BF4
330
B56A7A5C3AE62BD6
100
AcDbEntity
  8
IG
100
AcDbLine
 10
-0.0000000074802866
 20
0.0000000260650239
 30
0.0
 11
-0.0000000074802973
 21
2.100000026065075
 31
0.0
  0
LINE
  5
B56A7A5C3AE62BF5
330
B56A7A5C3AE62BD6
100
AcDbEntity
  8
IG
100
AcDbLine
 10
0.5929999925197098
 20
0.0000000260650772
 30
0.0
 11
0.5929999925197045
 21
2.100000026065075
 31
0.0
  0
LINE
  5
B56A7A5C3AE62BF6
330
B56A7A5C3AE62BD6
100
AcDbEntity
  8
IG
100
AcDbLine
 10
0.6819999925197103
 20
0.0000000260650239
 30
0.0
 11
0.6819999925196996
 21
2.100000026065075
 31
0.0
  0
LINE
  5
B56A7A5C3AE62BF7
330
B56A7A5C3AE62BD6
100
AcDbEntity
  8
IG
100
AcDbLine
 10
0.6819999925197103
 20
0.0000000260650239
 30
0.0
 11
0.5929999925197098
 21
0.0000000260650772
 31
0.0
  0
LINE
  5
B56A7A5C3AE62BF8
330
B56A7A5C3AE62BD6
100
AcDbEntity
  8
IG
100
AcDbLine
 10
0.1602499925197307
 20
0.1475000260649999
 30
0.0
 11
0.2102499925197421
 21
0.1975000260650113
 31
0.0
  0
LINE
  5
B56A7A5C3AE62BF9
330
B56A7A5C3AE62BD6
100
AcDbEntity
  8
IG
100
AcDbLine
 10
0.521749992519661
 20
0.1475000260649999
 30
0.0
 11
0.4717499925195927
 21
0.1975000260650681
 31
0.0
  0
ENDBLK
  5
B56A7A5C3AE62BFA
330
B56A7A5C3AE62BD6
100
AcDbEntity
  8
0
100
AcDbBlockEnd
  0
BLOCK
  5
B56A7A5C3AE62BFD
330
B56A7A5C3AE62BFB
100
AcDbEntity
  8
0
100
AcDbBlockBegin
  2
A$C07E67A71
 70
     0
 10
0.0
 20
0.0
 30
0.0
  3
A$C07E67A71
  1

  0
LWPOLYLINE
  5
B56A7A5C3AE62BFE
330
B56A7A5C3AE62BFB
100
AcDbEntity
  8
0
100
AcDbPolyline
 90
       11
 70
     1
 43
0.0
 10
2.674999975720355
 20
0.4600000127869599
 10
2.674999975720394
 20
1.36000001278705
 42
0.4142135623733725
 10
2.659999975720394
 20
1.375000012787065
 10
1.579999975720324
 20
1.375000012787037
 42
0.414213562373095
 10
1.564999975720324
 20
1.360000012787022
 10
1.564999975720306
 20
0.7050000127869503
 10
1.554999975720301
 20
0.6950000127869452
 10
1.564999975720303
 20
0.6850000127869471
 10
1.564999975720295
 20
0.4600000127869599
 42
0.4142135623730951
 10
1.579999975720296
 20
0.4450000127869452
 10
2.659999975720355
 20
0.4450000127869452
 42
0.4142135623730951
  0
LWPOLYLINE
  5
B56A7A5C3AE62BFF
330
B56A7A5C3AE62BFB
100
AcDbEntity
  8
0
100
AcDbPolyline
 90
        8
 70
     1
 43
0.0
 10
2.674999975720973
 20
2.242000012786917
 42
0.4142135623735064
 10
2.659999975720976
 20
2.257000012786939
 10
1.329999972645728
 20
2.257000012787013
 42
0.4142135623731115
 10
1.314999972645727
 20
2.242000012787013
 10
1.314999972645727
 20
1.46000001278703
 42
0.4142135623731034
 10
1.329999972645724
 20
1.44500001278703
 10
2.659999975719836
 20
1.445000012787065
 42
0.4142135623726621
 10
2.674999975719837
 20
1.460000012787045
  0
LWPOLYLINE
  5
B56A7A5C3AE62C00
330
B56A7A5C3AE62BFB
100
AcDbEntity
  8
0
100
AcDbPolyline
 90
        8
 70
     1
 43
0.0
 10
1.744999979958693
 20
2.357000009418346
 42
0.4142135623731053
 10
1.774999979958694
 20
2.327000009418345
 10
2.644999975721143
 20
2.327000009418345
 42
0.4142135623726702
 10
2.67499997572114
 20
2.357000009418303
 10
2.674999975722313
 20
3.165000012786737
 42
0.4142135623734072
 10
2.659999975722312
 20
3.180000012786752
 10
1.759999979958722
 20
3.180000012786823
 42
0.4142135623730951
 10
1.744999979958722
 20
3.165000012786823
  0
LWPOLYLINE
  5
B56A7A5C3AE62C01
330
B56A7A5C3AE62BFB
100
AcDbEntity
  8
0
100
AcDbPolyline
 90
       12
 70
     1
 43
0.0
 10
3.407821155027191
 20
3.167086680347171
 42
0.3739024998105999
 10
3.39296700346969
 20
3.180000012786951
 10
2.759999975720416
 20
3.180000012786951
 42
0.4142135623730951
 10
2.744999975720416
 20
3.165000012786936
 10
2.744999975720416
 20
2.491000012786958
 42
0.4142135623730914
 10
2.759999975720416
 20
2.476000012786943
 10
3.330999975720429
 20
2.476000012786943
 42
-0.4142135623730882
 10
3.345999975720429
 20
2.461000012786943
 10
3.345999975720429
 20
2.403000012786936
 42
0.4142135623730673
 10
3.36099997572043
 20
2.388000012786921
 10
3.500010524248706
 20
2.388000012786921
 42
0.4557073739044392
 10
3.514864675806206
 20
2.405086680347142
  0
LWPOLYLINE
  5
B56A7A5C3AE62C02
330
B56A7A5C3AE62BFB
100
AcDbEntity
  8
0
100
AcDbPolyline
 90
        8
 70
     1
 43
0.0
 10
1.910999977470082
 20
0.0850000127869954
 42
0.4142135623733724
 10
1.925999977470082
 20
0.0700000127869949
 10
2.659999975720337
 20
0.0700000127869664
 42
0.4142135623729563
 10
2.674999975720337
 20
0.0850000127869812
 10
2.674999975720352
 20
0.360000012786859
 42
0.4142135623730982
 10
2.659999975720351
 20
0.3750000127868596
 10
1.92599997747016
 20
0.3750000127869022
 42
0.4142135623730199
 10
1.91099997747016
 20
0.3600000127869016
  0
ARC
  5
B56A7A5C3AE62C03
330
B56A7A5C3AE62BFB
100
AcDbEntity
  8
THIN
100
AcDbCircle
 10
1.175050202830283
 20
-1.863736129829652
 30
0.0
 40
4.723717336067839
100
AcDbArc
 50
60.95851270408576
 51
62.28400690046668
  0
ARC
  5
B56A7A5C3AE62C04
330
B56A7A5C3AE62BFB
100
AcDbEntity
  8
THIN
100
AcDbCircle
 10
3.430644006168452
 20
2.372212643055892
 30
0.0
 40
0.1396004865700478
100
AcDbArc
 50
202.8513276909916
 51
258.8440650691952
  0
LINE
  5
B56A7A5C3AE62C05
330
B56A7A5C3AE62BFB
100
AcDbEntity
  8
THIN
100
AcDbLine
 10
3.403634123525174
 20
2.235250012786938
 30
0.0
 11
3.46838412352517
 21
2.235250012786938
 31
0.0
  0
ARC
  5
B56A7A5C3AE62C06
330
B56A7A5C3AE62BFB
100
AcDbEntity
  8
THIN
100
AcDbCircle
 10
3.461384123525172
 20
2.252670754044375
 30
0.0
 40
0.015
100
AcDbArc
 50
0.0
 51
63.21082961165689
  0
ARC
  5
B56A7A5C3AE62C07
330
B56A7A5C3AE62BFB
100
AcDbEntity
  8
THIN
100
AcDbCircle
 10
3.46838412352517
 20
2.243250012786935
 30
0.0
 40
0.008
100
AcDbArc
 50
270.0
 51
0.0
  0
LINE
  5
B56A7A5C3AE62C08
330
B56A7A5C3AE62BFB
100
AcDbEntity
  8
THIN
100
AcDbLine
 10
3.476384123525173
 20
2.243250012786937
 30
0.0
 11
3.476384123525173
 21
2.252670754044377
 31
0.0
  0
ARC
  5
B56A7A5C3AE62C09
330
B56A7A5C3AE62BFB
100
AcDbEntity
  8
THIN
100
AcDbCircle
 10
3.641503471942825
 20
2.360628313394386
 30
0.0
 40
0.1313997174047795
100
AcDbArc
 50
213.5543659585671
 51
252.5874514515686
  0
LINE
  5
B56A7A5C3AE62C0A
330
B56A7A5C3AE62BFB
100
AcDbEntity
  8
THIN
100
AcDbLine
 10
3.602182135866287
 20
2.235250012786934
 30
0.0
 11
3.744867957019815
 21
2.235250012786934
 31
0.0
  0
ARC
  5
B56A7A5C3AE62C0B
330
B56A7A5C3AE62BFB
100
AcDbEntity
  8
THIN
100
AcDbCircle
 10
3.743577215707813
 20
2.241668664215183
 30
0.0
 40
0.0065408081600329
100
AcDbArc
 50
281.3812578790139
 51
4.424746734940653
  0
LINE
  5
B56A7A5C3AE62C0C
330
B56A7A5C3AE62BFB
100
AcDbEntity
  8
THIN
100
AcDbLine
 10
3.750098529141917
 20
2.242173285340918
 30
0.0
 11
3.749767488352082
 21
2.245949621499127
 31
0.0
  0
ARC
  5
B56A7A5C3AE62C0D
330
B56A7A5C3AE62BFB
100
AcDbEntity
  8
THIN
100
AcDbCircle
 10
3.736217520223116
 20
2.240728276516469
 30
0.0
 40
0.0145211597237933
100
AcDbArc
 50
21.0736704358289
 51
78.98784372200037
  0
LINE
  5
B56A7A5C3AE62C0E
330
B56A7A5C3AE62BFB
100
AcDbEntity
  8
THIN
100
AcDbLine
 10
3.738991312366296
 20
2.254982053449982
 30
0.0
 11
3.601999975720415
 21
2.288000012786927
 31
0.0
  0
LINE
  5
B56A7A5C3AE62C0F
330
B56A7A5C3AE62BFB
100
AcDbEntity
  8
0
100
AcDbLine
 10
3.601999975720415
 20
2.288000012786927
 30
0.0
 11
3.52999997572042
 21
2.288000012786927
 31
0.0
  0
ARC
  5
B56A7A5C3AE62C10
330
B56A7A5C3AE62BFB
100
AcDbEntity
  8
0
100
AcDbCircle
 10
3.529999975720419
 20
2.296000012786922
 30
0.0
 40
0.0079999999999947
100
AcDbArc
 50
179.9999999999936
 51
270.0000000000064
  0
LINE
  5
B56A7A5C3AE62C11
330
B56A7A5C3AE62BFB
100
AcDbEntity
  8
0
100
AcDbLine
 10
3.521999975720424
 20
2.296000012786922
 30
0.0
 11
3.521999975720421
 21
2.310000012786947
 31
0.0
  0
ARC
  5
B56A7A5C3AE62C12
330
B56A7A5C3AE62BFB
100
AcDbEntity
  8
0
100
AcDbCircle
 10
3.513999975720421
 20
2.310000012786943
 30
0.0
 40
0.0079999999999991
100
AcDbArc
 50
0.0000000000254444
 51
90.0
  0
LINE
  5
B56A7A5C3AE62C13
330
B56A7A5C3AE62BFB
100
AcDbEntity
  8
0
100
AcDbLine
 10
3.513999975720421
 20
2.318000012786942
 30
0.0
 11
3.290999975720422
 21
2.318000012786942
 31
0.0
  0
ARC
  5
B56A7A5C3AE62C14
330
B56A7A5C3AE62BFB
100
AcDbEntity
  8
0
100
AcDbCircle
 10
3.290999975720408
 20
2.333000012786929
 30
0.0
 40
0.0149999999999864
100
AcDbArc
 50
180.0
 51
270.0000000000542
  0
LINE
  5
B56A7A5C3AE62C15
330
B56A7A5C3AE62BFB
100
AcDbEntity
  8
0
100
AcDbLine
 10
3.275999975720422
 20
2.333000012786929
 30
0.0
 11
3.275999975720393
 21
2.391000012786935
 31
0.0
  0
ARC
  5
B56A7A5C3AE62C16
330
B56A7A5C3AE62BFB
100
AcDbEntity
  8
0
100
AcDbCircle
 10
3.260999975720393
 20
2.39100001278695
 30
0.0
 40
0.0150000000000006
100
AcDbArc
 50
359.9999999999456
 51
89.99999999989144
  0
LINE
  5
B56A7A5C3AE62C17
330
B56A7A5C3AE62BFB
100
AcDbEntity
  8
0
100
AcDbLine
 10
3.260999975720421
 20
2.40600001278695
 30
0.0
 11
2.759999975720416
 21
2.406000012786922
 31
0.0
  0
ARC
  5
B56A7A5C3AE62C18
330
B56A7A5C3AE62BFB
100
AcDbEntity
  8
0
100
AcDbCircle
 10
2.759999975720402
 20
2.391000012786935
 30
0.0
 40
0.0149999999999864
100
AcDbArc
 50
89.99999999994573
 51
180.0
  0
LINE
  5
B56A7A5C3AE62C19
330
B56A7A5C3AE62BFB
100
AcDbEntity
  8
0
100
AcDbLine
 10
2.744999975720416
 20
2.391000012786935
 30
0.0
 11
2.744999975720402
 21
1.265000012786931
 31
0.0
  0
ARC
  5
B56A7A5C3AE62C1A
330
B56A7A5C3AE62BFB
100
AcDbEntity
  8
0
100
AcDbCircle
 10
2.759999975720402
 20
1.265000012786945
 30
0.0
 40
0.0150000000000006
100
AcDbArc
 50
180.0000000000542
 51
270.0000000000542
  0
LINE
  5
B56A7A5C3AE62C1B
330
B56A7A5C3AE62BFB
100
AcDbEntity
  8
0
100
AcDbLine
 10
2.759999975720416
 20
1.250000012786944
 30
0.0
 11
2.979999975720415
 21
1.250000012786944
 31
0.0
  0
ARC
  5
B56A7A5C3AE62C1C
330
B56A7A5C3AE62BFB
100
AcDbEntity
  8
0
100
AcDbCircle
 10
2.979999975720408
 20
1.23500001278693
 30
0.0
 40
0.0150000000000148
100
AcDbArc
 50
0.0
 51
89.99999999997285
  0
LINE
  5
B56A7A5C3AE62C1D
330
B56A7A5C3AE62BFB
100
AcDbEntity
  8
0
100
AcDbLine
 10
2.994999975720423
 20
1.23500001278693
 30
0.0
 11
2.994999975720416
 21
1.133303775804851
 31
0.0
  0
ARC
  5
B56A7A5C3AE62C1E
330
B56A7A5C3AE62BFB
100
AcDbEntity
  8
0
100
AcDbCircle
 10
2.979999975720407
 20
1.133303775804836
 30
0.0
 40
0.0150000000000086
100
AcDbArc
 50
296.3814114870009
 51
0.0000000000576062
  0
LINE
  5
B56A7A5C3AE62C1F
330
B56A7A5C3AE62BFB
100
AcDbEntity
  8
0
100
AcDbLine
 10
2.986665144110622
 20
1.11986593630846
 30
0.0
 11
2.881554732195168
 21
1.067731171998449
 31
0.0
  0
ARC
  5
B56A7A5C3AE62C20
330
B56A7A5C3AE62BFB
100
AcDbEntity
  8
0
100
AcDbCircle
 10
2.877999975720397
 20
1.074898019729833
 30
0.0
 40
0.0079999999999849
100
AcDbArc
 50
179.9999999998982
 51
296.3814114869837
  0
LINE
  5
B56A7A5C3AE62C21
330
B56A7A5C3AE62BFB
100
AcDbEntity
  8
0
100
AcDbLine
 10
2.869999975720412
 20
1.074898019729847
 30
0.0
 11
2.86999997572043
 21
1.165000012786936
 31
0.0
  0
ARC
  5
B56A7A5C3AE62C22
330
B56A7A5C3AE62BFB
100
AcDbEntity
  8
0
100
AcDbCircle
 10
2.854999975720415
 20
1.165000012786936
 30
0.0
 40
0.0150000000000148
100
AcDbArc
 50
0.0
 51
90.0
  0
LINE
  5
B56A7A5C3AE62C23
330
B56A7A5C3AE62BFB
100
AcDbEntity
  8
0
100
AcDbLine
 10
2.854999975720415
 20
1.180000012786951
 30
0.0
 11
2.759999975720416
 21
1.180000012786923
 31
0.0
  0
ARC
  5
B56A7A5C3AE62C24
330
B56A7A5C3AE62BFB
100
AcDbEntity
  8
0
100
AcDbCircle
 10
2.759999975720402
 20
1.165000012786936
 30
0.0
 40
0.0149999999999864
100
AcDbArc
 50
89.99999999994573
 51
180.0
  0
LINE
  5
B56A7A5C3AE62C25
330
B56A7A5C3AE62BFB
100
AcDbEntity
  8
0
100
AcDbLine
 10
2.744999975720416
 20
1.165000012786936
 30
0.0
 11
2.744999975720402
 21
0.0850000127869386
 31
0.0
  0
ARC
  5
B56A7A5C3AE62C26
330
B56A7A5C3AE62BFB
100
AcDbEntity
  8
0
100
AcDbCircle
 10
2.759999975720402
 20
0.0850000127869244
 30
0.0
 40
0.0150000000000006
100
AcDbArc
 50
179.9999999999456
 51
270.0
  0
LINE
  5
B56A7A5C3AE62C27
330
B56A7A5C3AE62BFB
100
AcDbEntity
  8
0
100
AcDbLine
 10
2.759999975720402
 20
0.0700000127869238
 30
0.0
 11
2.827418018124516
 21
0.070000012786938
 31
0.0
  0
ARC
  5
B56A7A5C3AE62C28
330
B56A7A5C3AE62BFB
100
AcDbEntity
  8
0
100
AcDbCircle
 10
2.827418018124523
 20
0.0850000127869386
 30
0.0
 40
0.0150000000000006
100
AcDbArc
 50
269.9999999999729
 51
330.5886158075997
  0
LINE
  5
B56A7A5C3AE62C29
330
B56A7A5C3AE62BFB
100
AcDbEntity
  8
0
100
AcDbLine
 10
2.840484761956302
 20
0.0776338600845641
 30
0.0
 11
2.908288813165894
 21
0.1979107812551781
 31
0.0
  0
ARC
  5
B56A7A5C3AE62C2A
330
B56A7A5C3AE62BFB
100
AcDbEntity
  8
0
100
AcDbCircle
 10
2.916999975720413
 20
0.1930000127869427
 30
0.0
 40
0.0099999999999936
100
AcDbArc
 50
32.69692557360506
 51
150.5886158076707
  0
LINE
  5
B56A7A5C3AE62C2B
330
B56A7A5C3AE62BFB
100
AcDbEntity
  8
0
100
AcDbLine
 10
2.92541537341456
 20
0.1984019644388191
 30
0.0
 11
2.992623072261649
 21
0.0937028574577603
 31
0.0
  0
ARC
  5
B56A7A5C3AE62C2C
330
B56A7A5C3AE62BFB
100
AcDbEntity
  8
0
100
AcDbCircle
 10
2.9799999757204
 20
0.0855999299799422
 30
0.0
 40
0.0150000000000157
100
AcDbArc
 50
359.9999999999355
 51
32.69692557356248
  0
LINE
  5
B56A7A5C3AE62C2D
330
B56A7A5C3AE62BFB
100
AcDbEntity
  8
0
100
AcDbLine
 10
2.994999975720416
 20
0.0855999299799244
 30
0.0
 11
2.994999975720402
 21
0.0150000127869454
 31
0.0
  0
ARC
  5
B56A7A5C3AE62C2E
330
B56A7A5C3AE62BFB
100
AcDbEntity
  8
0
100
AcDbCircle
 10
2.979999975720401
 20
0.0150000127869312
 30
0.0
 40
0.0150000000000006
100
AcDbArc
 50
270.0
 51
0.0000000000543493
  0
LINE
  5
B56A7A5C3AE62C2F
330
B56A7A5C3AE62BFB
100
AcDbEntity
  8
0
100
AcDbLine
 10
2.979999975720401
 20
0.0000000127869306
 30
0.0
 11
1.850960671931828
 21
0.0000000127869875
 31
0.0
  0
ARC
  5
B56A7A5C3AE62C30
330
B56A7A5C3AE62BFB
100
AcDbEntity
  8
0
100
AcDbCircle
 10
1.850960671931828
 20
0.0150000127869881
 30
0.0
 40
0.0150000000000006
100
AcDbArc
 50
212.273426142232
 51
269.9999999999983
  0
LINE
  5
B56A7A5C3AE62C31
330
B56A7A5C3AE62BFB
100
AcDbEntity
  8
0
100
AcDbLine
 10
1.838278028297507
 20
0.0069906089112415
 30
0.0
 11
1.806235899115447
 21
0.0577283307199288
 31
0.0
  0
ARC
  5
B56A7A5C3AE62C32
330
B56A7A5C3AE62BFB
100
AcDbEntity
  8
0
100
AcDbCircle
 10
1.812999975720413
 20
0.0620000127869886
 30
0.0
 40
0.0079999999999925
100
AcDbArc
 50
89.99999999989503
 51
212.2734261422171
  0
LINE
  5
B56A7A5C3AE62C33
330
B56A7A5C3AE62BFB
100
AcDbEntity
  8
0
100
AcDbLine
 10
1.812999975720428
 20
0.0700000127869807
 30
0.0
 11
1.825999977470138
 21
0.0700000127870091
 31
0.0
  0
ARC
  5
B56A7A5C3AE62C34
330
B56A7A5C3AE62BFB
100
AcDbEntity
  8
0
100
AcDbCircle
 10
1.82599997747013
 20
0.0850000127870097
 30
0.0
 40
0.0150000000000006
100
AcDbArc
 50
270.0000000000271
 51
0.0
  0
LINE
  5
B56A7A5C3AE62C35
330
B56A7A5C3AE62BFB
100
AcDbEntity
  8
0
100
AcDbLine
 10
1.840999977470131
 20
0.0850000127870097
 30
0.0
 11
1.840999977470131
 21
0.3600000127869158
 31
0.0
  0
ARC
  5
B56A7A5C3AE62C36
330
B56A7A5C3AE62BFB
100
AcDbEntity
  8
0
100
AcDbCircle
 10
1.82599997747013
 20
0.3600000127869158
 30
0.0
 40
0.0150000000000006
100
AcDbArc
 50
0.0
 51
90.0
  0
LINE
  5
B56A7A5C3AE62C37
330
B56A7A5C3AE62BFB
100
AcDbEntity
  8
0
100
AcDbLine
 10
1.82599997747013
 20
0.3750000127869164
 30
0.0
 11
1.324999975720457
 21
0.3750000127869448
 31
0.0
  0
ARC
  5
B56A7A5C3AE62C38
330
B56A7A5C3AE62BFB
100
AcDbEntity
  8
0
100
AcDbCircle
 10
1.324999975720457
 20
0.3600000127869585
 30
0.0
 40
0.0149999999999864
100
AcDbArc
 50
90.0
 51
180.0000000000542
  0
LINE
  5
B56A7A5C3AE62C39
330
B56A7A5C3AE62BFB
100
AcDbEntity
  8
0
100
AcDbLine
 10
1.30999997572047
 20
0.3600000127869443
 30
0.0
 11
1.309999975720399
 21
0.0325000127869721
 31
0.0
  0
ARC
  5
B56A7A5C3AE62C3A
330
B56A7A5C3AE62BFB
100
AcDbEntity
  8
0
100
AcDbCircle
 10
1.277499975720386
 20
0.0325000127869721
 30
0.0
 40
0.0325000000000131
100
AcDbArc
 50
180.0
 51
0.0
  0
LINE
  5
B56A7A5C3AE62C3B
330
B56A7A5C3AE62BFB
100
AcDbEntity
  8
0
100
AcDbLine
 10
1.244999975720373
 20
0.0325000127869721
 30
0.0
 11
1.244999975720402
 21
0.4300000127869517
 31
0.0
  0
ARC
  5
B56A7A5C3AE62C3C
330
B56A7A5C3AE62BFB
100
AcDbEntity
  8
0
100
AcDbCircle
 10
1.259999975720416
 20
0.4300000127869517
 30
0.0
 40
0.0150000000000148
100
AcDbArc
 50
90.00000000005426
 51
180.0
  0
LINE
  5
B56A7A5C3AE62C3D
330
B56A7A5C3AE62BFB
100
AcDbEntity
  8
0
100
AcDbLine
 10
1.259999975720402
 20
0.4450000127869665
 30
0.0
 11
1.479999975720401
 21
0.4450000127869523
 31
0.0
  0
ARC
  5
B56A7A5C3AE62C3E
330
B56A7A5C3AE62BFB
100
AcDbEntity
  8
0
100
AcDbCircle
 10
1.479999975720402
 20
0.4600000127869386
 30
0.0
 40
0.0149999999999864
100
AcDbArc
 50
269.9999999999983
 51
0.0
  0
LINE
  5
B56A7A5C3AE62C3F
330
B56A7A5C3AE62BFB
100
AcDbEntity
  8
0
100
AcDbLine
 10
1.494999975720388
 20
0.4600000127869386
 30
0.0
 11
1.494999975720345
 21
1.360000012787001
 31
0.0
  0
ARC
  5
B56A7A5C3AE62C40
330
B56A7A5C3AE62BFB
100
AcDbEntity
  8
0
100
AcDbCircle
 10
1.479999975720355
 20
1.360000012787011
 30
0.0
 40
0.0149999999999899
100
AcDbArc
 50
359.9999999999593
 51
90.00000000004071
  0
LINE
  5
B56A7A5C3AE62C41
330
B56A7A5C3AE62BFB
100
AcDbEntity
  8
0
100
AcDbLine
 10
1.479999975720344
 20
1.375000012787001
 30
0.0
 11
1.27499997572036
 21
1.375000012786987
 31
0.0
  0
ARC
  5
B56A7A5C3AE62C42
330
B56A7A5C3AE62BFB
100
AcDbEntity
  8
0
100
AcDbCircle
 10
1.27499997572036
 20
1.405000012786988
 30
0.0
 40
0.0300000000000011
100
AcDbArc
 50
180.0
 51
270.0000000000008
  0
LINE
  5
B56A7A5C3AE62C43
330
B56A7A5C3AE62BFB
100
AcDbEntity
  8
0
100
AcDbLine
 10
1.244999975720359
 20
1.405000012786988
 30
0.0
 11
1.244999975720316
 21
2.227000009418421
 31
0.0
  0
ARC
  5
B56A7A5C3AE62C44
330
B56A7A5C3AE62BFB
100
AcDbEntity
  8
0
100
AcDbCircle
 10
1.214999975720316
 20
2.227000009418421
 30
0.0
 40
0.0300000000000007
100
AcDbArc
 50
0.0
 51
89.99999999999408
  0
LINE
  5
B56A7A5C3AE62C45
330
B56A7A5C3AE62BFB
100
AcDbEntity
  8
0
100
AcDbLine
 10
1.214999975720319
 20
2.257000009418423
 30
0.0
 11
0.0349999757203339
 21
2.257000009418508
 31
0.0
  0
ARC
  5
B56A7A5C3AE62C46
330
B56A7A5C3AE62BFB
100
AcDbEntity
  8
0
100
AcDbCircle
 10
0.0349999757203334
 20
2.292000009418504
 30
0.0
 40
0.0349999999999966
100
AcDbArc
 50
89.99999999999927
 51
270.0000000000007
  0
LINE
  5
B56A7A5C3AE62C47
330
B56A7A5C3AE62BFB
100
AcDbEntity
  8
0
100
AcDbLine
 10
0.0349999757203339
 20
2.327000009418501
 30
0.0
 11
1.644999979958667
 21
2.327000009418345
 31
0.0
  0
ARC
  5
B56A7A5C3AE62C48
330
B56A7A5C3AE62BFB
100
AcDbEntity
  8
0
100
AcDbCircle
 10
1.64499997995867
 20
2.357000009418346
 30
0.0
 40
0.030000000000002
100
AcDbArc
 50
269.9999999999949
 51
359.9999999999983
  0
LINE
  5
B56A7A5C3AE62C49
330
B56A7A5C3AE62BFB
100
AcDbEntity
  8
0
100
AcDbLine
 10
1.674999979958672
 20
2.357000009418346
 30
0.0
 11
1.6749999799587
 21
3.165000012786823
 31
0.0
  0
ARC
  5
B56A7A5C3AE62C4A
330
B56A7A5C3AE62BFB
100
AcDbEntity
  8
0
100
AcDbCircle
 10
1.659999979958699
 20
3.165000012786823
 30
0.0
 40
0.0150000000000006
100
AcDbArc
 50
0.0
 51
90.0
  0
LINE
  5
B56A7A5C3AE62C4B
330
B56A7A5C3AE62BFB
100
AcDbEntity
  8
0
100
AcDbLine
 10
1.659999979958698
 20
3.180000012786825
 30
0.0
 11
1.129999979958681
 21
3.180000012786852
 31
0.0
  0
ARC
  5
B56A7A5C3AE62C4C
330
B56A7A5C3AE62BFB
100
AcDbEntity
  8
0
100
AcDbCircle
 10
1.129999979958681
 20
3.165000012786851
 30
0.0
 40
0.0150000000000006
100
AcDbArc
 50
90.00000000001353
 51
180.0
  0
LINE
  5
B56A7A5C3AE62C4D
330
B56A7A5C3AE62BFB
100
AcDbEntity
  8
0
100
AcDbLine
 10
1.114999979958678
 20
3.165000012786851
 30
0.0
 11
1.114999979958678
 21
3.155000012786818
 31
0.0
  0
LINE
  5
B56A7A5C3AE62C4F
330
B56A7A5C3AE62BFB
100
AcDbEntity
  8
0
100
AcDbLine
 10
1.044999979959023
 20
3.170000012786749
 30
0.0
 11
1.044999979958873
 21
3.235000012786802
 31
0.0
  0
ARC
  5
B56A7A5C3AE62C50
330
B56A7A5C3AE62BFB
100
AcDbEntity
  8
0
100
AcDbCircle
 10
1.059999979958874
 20
3.235000012786816
 30
0.0
 40
0.0150000000000006
100
AcDbArc
 50
90.0
 51
180.0000000000542
  0
LINE
  5
B56A7A5C3AE62C51
330
B56A7A5C3AE62BFB
100
AcDbEntity
  8
0
100
AcDbLine
 10
1.059999979958874
 20
3.250000012786816
 30
0.0
 11
3.453820918099861
 21
3.250000012786832
 31
0.0
  0
ARC
  5
B56A7A5C3AE62C52
330
B56A7A5C3AE62BFB
100
AcDbEntity
  8
0
100
AcDbCircle
 10
3.45382091809986
 20
3.235000012786814
 30
0.0
 40
0.0150000000000166
100
AcDbArc
 50
7.996416800655429
 51
89.99999999998982
  0
LINE
  5
B56A7A5C3AE62C53
330
B56A7A5C3AE62BFB
100
AcDbEntity
  8
0
100
AcDbLine
 10
3.46867506965737
 20
3.237086680347065
 30
0.0
 11
3.601999975720419
 21
2.288000012786937
 31
0.0
  0
LINE
  5
B56A7A5C3AE62DF8
330
B56A7A5C3AE62BFB
100
AcDbEntity
  8
0
100
AcDbLine
 10
1.074999979959022
 20
3.140000012786817
 30
0.0
 11
1.099999979958678
 21
3.140000012786815
 31
0.0
  0
ARC
  5
B56A7A5C3AE62DF9
330
B56A7A5C3AE62BFB
100
AcDbEntity
  8
0
100
AcDbCircle
 10
1.074999979959022
 20
3.170000012786816
 30
0.0
 40
0.03
100
AcDbArc
 50
180.0000000001284
 51
270.0000000000003
  0
ARC
  5
B56A7A5C3AE62DFA
330
B56A7A5C3AE62BFB
100
AcDbEntity
  8
0
100
AcDbCircle
 10
1.099999979958678
 20
3.155000012786818
 30
0.0
 40
0.015
100
AcDbArc
 50
270.0000000000004
 51
0.0
  0
ENDBLK
  5
B56A7A5C3AE62C54
330
B56A7A5C3AE62BFB
100
AcDbEntity
  8
0
100
AcDbBlockEnd
  0
BLOCK
  5
B56A7A5C3AE62D8E
330
B56A7A5C3AE62D6B
100
AcDbEntity
  8
0
100
AcDbBlockBegin
  2
A$C232861D4
 70
     0
 10
0.0
 20
0.0
 30
0.0
  3
A$C232861D4
  1

  0
LINE
  5
B56A7A5C3AE62D6C
330
B56A7A5C3AE62D6B
100
AcDbEntity
  8
IG
100
AcDbLine
 10
0.5617499722452655
 20
0.1774999880367361
 30
0.0
 11
0.5617499722452087
 21
0.3974999880367065
 31
0.0
  0
LINE
  5
B56A7A5C3AE62D6D
330
B56A7A5C3AE62D6B
100
AcDbEntity
  8
IG
100
AcDbLine
 10
0.1602499722452579
 20
0.1474999880367065
 30
0.0
 11
0.5217499722451882
 21
0.1474999880367065
 31
0.0
  0
LINE
  5
B56A7A5C3AE62D6E
330
B56A7A5C3AE62D6B
100
AcDbEntity
  8
IG
100
AcDbLine
 10
0.2102499722452977
 20
0.1974999880367179
 30
0.0
 11
0.47174997224512
 21
0.1974999880367179
 31
0.0
  0
ARC
  5
B56A7A5C3AE62D6F
330
B56A7A5C3AE62D6B
100
AcDbEntity
  8
IG
100
AcDbCircle
 10
0.1602499722452579
 20
0.1774999880366792
 30
0.0
 40
0.03
100
AcDbArc
 50
180.0
 51
270.0000000000049
  0
ARC
  5
B56A7A5C3AE62D70
330
B56A7A5C3AE62D6B
100
AcDbEntity
  8
IG
100
AcDbCircle
 10
0.1602499722452579
 20
0.1774999880366792
 30
0.0
 40
0.04
100
AcDbArc
 50
180.0
 51
270.0000000000049
  0
LINE
  5
B56A7A5C3AE62D71
330
B56A7A5C3AE62D6B
100
AcDbEntity
  8
IG
100
AcDbLine
 10
0.5517499722452178
 20
0.1774999880367361
 30
0.0
 11
0.5517499722452178
 21
0.3974999880367065
 31
0.0
  0
ARC
  5
B56A7A5C3AE62D72
330
B56A7A5C3AE62D6B
100
AcDbEntity
  8
IG
100
AcDbCircle
 10
0.5217499722451882
 20
0.1774999880367361
 30
0.0
 40
0.03
100
AcDbArc
 50
270.0000000000049
 51
0.0
  0
ARC
  5
B56A7A5C3AE62D73
330
B56A7A5C3AE62D6B
100
AcDbEntity
  8
IG
100
AcDbCircle
 10
0.5217499722451882
 20
0.1774999880367361
 30
0.0
 40
0.04
100
AcDbArc
 50
270.0000000000049
 51
0.0
  0
LINE
  5
B56A7A5C3AE62D74
330
B56A7A5C3AE62D6B
100
AcDbEntity
  8
IG
100
AcDbLine
 10
0.521749972245245
 20
0.4274999880367361
 30
0.0
 11
0.4837499722452341
 21
0.4274999880367361
 31
0.0
  0
ARC
  5
B56A7A5C3AE62D75
330
B56A7A5C3AE62D6B
100
AcDbEntity
  8
IG
100
AcDbCircle
 10
0.521749972245245
 20
0.3974999880367065
 30
0.0
 40
0.03
100
AcDbArc
 50
359.9999999999933
 51
90.0
  0
ARC
  5
B56A7A5C3AE62D76
330
B56A7A5C3AE62D6B
100
AcDbEntity
  8
IG
100
AcDbCircle
 10
0.521749972245245
 20
0.3974999880367065
 30
0.0
 40
0.04
100
AcDbArc
 50
359.9999999999933
 51
90.0
  0
LINE
  5
B56A7A5C3AE62D77
330
B56A7A5C3AE62D6B
100
AcDbEntity
  8
IG
100
AcDbLine
 10
0.4837499722452341
 20
0.4274999880367361
 30
0.0
 11
0.4837499722452341
 21
0.437499988036727
 31
0.0
  0
LINE
  5
B56A7A5C3AE62D78
330
B56A7A5C3AE62D6B
100
AcDbEntity
  8
IG
100
AcDbLine
 10
0.4837499722452341
 20
0.437499988036727
 30
0.0
 11
0.521749972245245
 21
0.437499988036727
 31
0.0
  0
LINE
  5
B56A7A5C3AE62D79
330
B56A7A5C3AE62D6B
100
AcDbEntity
  8
IG
100
AcDbLine
 10
0.5217499722451882
 20
0.1374999880367156
 30
0.0
 11
0.1602499722452579
 21
0.1374999880367156
 31
0.0
  0
LINE
  5
B56A7A5C3AE62D7A
330
B56A7A5C3AE62D6B
100
AcDbEntity
  8
IG
100
AcDbLine
 10
0.5929999722452371
 20
0.1024999880366906
 30
0.0
 11
0.0889999722452375
 21
0.1024999880367474
 31
0.0
  0
LINE
  5
B56A7A5C3AE62D7B
330
B56A7A5C3AE62D6B
100
AcDbEntity
  8
IG
100
AcDbLine
 10
0.5929999722452371
 20
0.3754999880367151
 30
0.0
 11
0.5617499722452087
 21
0.3754999880367151
 31
0.0
  0
LINE
  5
B56A7A5C3AE62D7C
330
B56A7A5C3AE62D6B
100
AcDbEntity
  8
IG
100
AcDbLine
 10
0.1202499722452375
 20
0.3754999880367151
 30
0.0
 11
0.0889999722452091
 21
0.375499988036772
 31
0.0
  0
LINE
  5
B56A7A5C3AE62D7D
330
B56A7A5C3AE62D6B
100
AcDbEntity
  8
IG
100
AcDbLine
 10
0.1302499722452852
 20
0.1774999880366792
 30
0.0
 11
0.1302499722452284
 21
0.3974999880367065
 31
0.0
  0
LINE
  5
B56A7A5C3AE62D7E
330
B56A7A5C3AE62D6B
100
AcDbEntity
  8
IG
100
AcDbLine
 10
0.1602499722452579
 20
0.4274999880367361
 30
0.0
 11
0.1982499722452688
 21
0.4274999880367361
 31
0.0
  0
ARC
  5
B56A7A5C3AE62D7F
330
B56A7A5C3AE62D6B
100
AcDbEntity
  8
IG
100
AcDbCircle
 10
0.1602499722452579
 20
0.3974999880367065
 30
0.0
 40
0.03
100
AcDbArc
 50
90.0
 51
180.0
  0
ARC
  5
B56A7A5C3AE62D80
330
B56A7A5C3AE62D6B
100
AcDbEntity
  8
IG
100
AcDbCircle
 10
0.1602499722452579
 20
0.3974999880367065
 30
0.0
 40
0.04
100
AcDbArc
 50
90.0
 51
180.0
  0
LINE
  5
B56A7A5C3AE62D81
330
B56A7A5C3AE62D6B
100
AcDbEntity
  8
IG
100
AcDbLine
 10
0.1982499722452688
 20
0.4274999880367361
 30
0.0
 11
0.1982499722452688
 21
0.437499988036727
 31
0.0
  0
LINE
  5
B56A7A5C3AE62D82
330
B56A7A5C3AE62D6B
100
AcDbEntity
  8
IG
100
AcDbLine
 10
0.1982499722452688
 20
0.437499988036727
 30
0.0
 11
0.1602499722452579
 21
0.437499988036727
 31
0.0
  0
LINE
  5
B56A7A5C3AE62D83
330
B56A7A5C3AE62D6B
100
AcDbEntity
  8
IG
100
AcDbLine
 10
0.1202499722452375
 20
0.3974999880367065
 30
0.0
 11
0.1202499722452375
 21
0.1774999880366792
 31
0.0
  0
LINE
  5
B56A7A5C3AE62D84
330
B56A7A5C3AE62D6B
100
AcDbEntity
  8
IG
100
AcDbLine
 10
0.0889999722452375
 20
-0.000000011963273
 30
0.0
 11
-0.0000000277547594
 21
-0.0000000119633263
 31
0.0
  0
LINE
  5
B56A7A5C3AE62D85
330
B56A7A5C3AE62D6B
100
AcDbEntity
  8
IG
100
AcDbLine
 10
0.0889999722452384
 20
-0.000000011963273
 30
0.0
 11
0.0889999722452348
 21
0.8499999880366733
 31
0.0
  0
LINE
  5
B56A7A5C3AE62D86
330
B56A7A5C3AE62D6B
100
AcDbEntity
  8
IG
100
AcDbLine
 10
-0.0000000277547603
 20
-0.0000000119633263
 30
0.0
 11
-0.0000000277547638
 21
0.8499999880366733
 31
0.0
  0
LINE
  5
B56A7A5C3AE62D87
330
B56A7A5C3AE62D6B
100
AcDbEntity
  8
IG
100
AcDbLine
 10
0.5929999722452362
 20
-0.000000011963273
 30
0.0
 11
0.5929999722452362
 21
0.8499999880366733
 31
0.0
  0
LINE
  5
B56A7A5C3AE62D88
330
B56A7A5C3AE62D6B
100
AcDbEntity
  8
IG
100
AcDbLine
 10
0.6819999722452384
 20
-0.0000000119633263
 30
0.0
 11
0.6819999722452348
 21
0.8499999880366733
 31
0.0
  0
LINE
  5
B56A7A5C3AE62D89
330
B56A7A5C3AE62D6B
100
AcDbEntity
  8
IG
100
AcDbLine
 10
0.6819999722452375
 20
-0.0000000119633263
 30
0.0
 11
0.5929999722452371
 21
-0.000000011963273
 31
0.0
  0
LINE
  5
B56A7A5C3AE62D8A
330
B56A7A5C3AE62D6B
100
AcDbEntity
  8
IG
100
AcDbLine
 10
0.1602499722452579
 20
0.1474999880366496
 30
0.0
 11
0.2102499722452693
 21
0.197499988036661
 31
0.0
  0
LINE
  5
B56A7A5C3AE62D8B
330
B56A7A5C3AE62D6B
100
AcDbEntity
  8
IG
100
AcDbLine
 10
0.5217499722451882
 20
0.1474999880366496
 30
0.0
 11
0.47174997224512
 21
0.1974999880367179
 31
0.0
  0
ENDBLK
  5
B56A7A5C3AE62D8F
330
B56A7A5C3AE62D6B
100
AcDbEntity
  8
0
100
AcDbBlockEnd
  0
BLOCK
  5
B56A7A5C3AE62E3C
330
B56A7A5C3AE62E2D
100
AcDbEntity
  8
0
100
AcDbBlockBegin
  2
A$C2E0304CA
 70
     0
 10
0.0
 20
0.0
 30
0.0
  3
A$C2E0304CA
  1

  0
LINE
  5
B56A7A5C3AE62E2E
330
B56A7A5C3AE62E2D
100
AcDbEntity
  8
XTHIN
100
AcDbLine
 10
0.0229763575729241
 20
0.0008789461558329
 30
0.0
 11
0.0000000116918972
 21
0.0238552920368598
 31
0.0
  0
LINE
  5
B56A7A5C3AE62E2F
330
B56A7A5C3AE62E2D
100
AcDbEntity
  8
XTHIN
100
AcDbLine
 10
0.035000008324106
 20
0.0330494692288106
 30
0.0
 11
0.0000075897210827
 21
0.0680418878318356
 31
0.0
  0
LINE
  5
B56A7A5C3AE62E30
330
B56A7A5C3AE62E2D
100
AcDbEntity
  8
XTHIN
100
AcDbLine
 10
0.0350000083241042
 20
0.0772436430529702
 30
0.0
 11
0.0000075897210703
 21
0.1122360616560023
 31
0.0
  0
LINE
  5
B56A7A5C3AE62E31
330
B56A7A5C3AE62E2D
100
AcDbEntity
  8
XTHIN
100
AcDbLine
 10
0.0350000083241042
 20
0.1214378168771333
 30
0.0
 11
0.0000075897210561
 21
0.1564302354801761
 31
0.0
  0
LINE
  5
B56A7A5C3AE62E32
330
B56A7A5C3AE62E2D
100
AcDbEntity
  8
XTHIN
100
AcDbLine
 10
0.0350000083241042
 20
0.1656319907012929
 30
0.0
 11
0.0000075897210419
 21
0.2006244093043499
 31
0.0
  0
LINE
  5
B56A7A5C3AE62E33
330
B56A7A5C3AE62E2D
100
AcDbEntity
  8
XTHIN
100
AcDbLine
 10
0.035000008324106
 20
0.2098261645254489
 30
0.0
 11
0.0000075897210277
 21
0.2448185831285237
 31
0.0
  0
LINE
  5
B56A7A5C3AE62E34
330
B56A7A5C3AE62E2D
100
AcDbEntity
  8
XTHIN
100
AcDbLine
 10
0.0350000083241042
 20
0.2540203383496049
 30
0.0
 11
0.0000075897210117
 21
0.289012756952701
 31
0.0
  0
LINE
  5
B56A7A5C3AE62E35
330
B56A7A5C3AE62E2D
100
AcDbEntity
  8
XTHIN
100
AcDbLine
 10
0.035000008324106
 20
0.2982145121737645
 30
0.0
 11
0.0042651413978003
 21
0.3289493791000702
 31
0.0
  0
ARC
  5
B56A7A5C3AE62E36
330
B56A7A5C3AE62E2D
100
AcDbEntity
  8
10
100
AcDbCircle
 10
0.0175000100079998
 20
0.0175000038361333
 30
0.0
 40
0.0174999983161044
100
AcDbArc
 50
179.9999999999768
 51
0.0000000000232053
  0
ARC
  5
B56A7A5C3AE62E37
330
B56A7A5C3AE62E2D
100
AcDbEntity
  8
10
100
AcDbCircle
 10
0.0175000100079998
 20
0.317500003836134
 30
0.0
 40
0.0174999983161044
100
AcDbArc
 50
359.9999999999768
 51
180.0000000000231
  0
LINE
  5
B56A7A5C3AE62E38
330
B56A7A5C3AE62E2D
100
AcDbEntity
  8
10
100
AcDbLine
 10
0.0000000116918955
 20
0.317500003836134
 30
0.0
 11
0.0000000116918955
 21
0.0175000038361404
 31
0.0
  0
LINE
  5
B56A7A5C3AE62E39
330
B56A7A5C3AE62E2D
100
AcDbEntity
  8
10
100
AcDbLine
 10
0.0350000083241042
 20
0.0175000038361404
 30
0.0
 11
0.0350000083241042
 21
0.317500003836134
 31
0.0
  0
ENDBLK
  5
B56A7A5C3AE62E3D
330
B56A7A5C3AE62E2D
100
AcDbEntity
  8
0
100
AcDbBlockEnd
  0
BLOCK
  5
B56A7A5C3AE6309B
330
B56A7A5C3AE63098
100
AcDbEntity
  8
0
100
AcDbBlockBegin
  2
B4823 small offset flat casing
 70
     0
 10
0.0
 20
0.0
 30
0.0
  3
B4823 small offset flat casing
  1

  0
LWPOLYLINE
  5
B56A7A5C3AE6309C
330
B56A7A5C3AE63098
100
AcDbEntity
  8
0
100
AcDbPolyline
 90
        8
 70
     1
 43
0.0
 10
-1.003000042119352
 20
0.1550000000000011
 42
-0.4142135623729563
 10
-0.9880000421193377
 20
0.1700000000000017
 10
-0.055000000000021
 20
0.1700000000000088
 42
-0.4142135623730951
 10
-0.0400000000000205
 20
0.1550000000000082
 10
-0.0400000000000205
 20
0.0849999999999995
 42
-0.4142135623730256
 10
-0.055000000000021
 20
0.0700000000000061
 10
-0.9880000421193377
 20
0.069999999999999
 42
-0.4142135623732336
 10
-1.003000042119366
 20
0.0849999999999995
  0
LWPOLYLINE
  5
B56A7A5C3AE6309D
330
B56A7A5C3AE63098
100
AcDbEntity
  8
0
100
AcDbPolyline
 90
        8
 70
     1
 43
0.0
 10
-2.356000000000007
 20
1.306000000000056
 42
-0.4142135623729561
 10
-2.341000000000021
 20
1.321000000000056
 10
-1.801000000000166
 20
1.321000000000042
 42
-0.4142135623730604
 10
-1.786000000000165
 20
1.306000000000041
 10
-1.786000000000165
 20
0.9350000000068874
 42
-0.4142135623730953
 10
-1.801000000000166
 20
0.9200000000068854
 10
-2.340999999999993
 20
0.9200000000068868
 42
-0.4142135623729563
 10
-2.355999999999993
 20
0.9350000000069016
  0
LWPOLYLINE
  5
B56A7A5C3AE6309E
330
B56A7A5C3AE63098
100
AcDbEntity
  8
0
100
AcDbPolyline
 90
        8
 70
     1
 43
0.0
 10
0.4840526532194076
 20
1.306785039343693
 42
0.3989595459737407
 10
0.4690732101980882
 20
1.321000000000049
 10
0.0449999999999831
 20
1.321000000000028
 42
0.4142135623731992
 10
0.0299999999999843
 20
1.306000000000022
 10
0.0300000000000864
 20
1.043000000000439
 42
0.4142135623733376
 10
0.045000000000087
 20
1.028000000000439
 10
0.4828564561495057
 20
1.028000000000503
 42
0.4296339059668246
 10
0.4978358991708234
 20
1.043785039344143
  0
LINE
  5
B56A7A5C3AE6309F
330
B56A7A5C3AE63098
100
AcDbEntity
  8
THIN
100
AcDbLine
 10
0.5240000000000009
 20
0.9280000033753665
 30
0.0
 11
0.6531678014252407
 21
0.8638353089935932
 31
0.0
  0
ARC
  5
B56A7A5C3AE630A0
330
B56A7A5C3AE63098
100
AcDbEntity
  8
THIN
100
AcDbCircle
 10
0.6567268960314295
 20
0.8710000033753715
 30
0.0
 40
0.008
100
AcDbArc
 50
243.5839018601615
 51
60.000000000001
  0
LINE
  5
B56A7A5C3AE630A1
330
B56A7A5C3AE63098
100
AcDbEntity
  8
THIN
100
AcDbLine
 10
0.5739999999999981
 20
0.9280000033753665
 30
0.0
 11
0.6607268960314201
 21
0.8779282066056453
 31
0.0
  0
LWPOLYLINE
  5
B56A7A5C3AE630A2
330
B56A7A5C3AE63098
100
AcDbEntity
  8
0
100
AcDbPolyline
 90
       28
 70
     1
 43
0.0
 10
-3.641000000000047
 20
-0.0149999999931063
 10
-1.801000000000001
 20
-0.014999999993149
 42
0.4142135623731645
 10
-1.786
 20
0.0000000000068516
 10
-1.786000000000171
 20
0.8350000000069002
 42
0.4142135623730951
 10
-1.801000000000185
 20
0.8500000000068865
 10
-2.330999999999974
 20
0.8500000000068936
 42
0.4142135623733725
 10
-2.345999999999989
 20
0.8350000000068931
 10
-2.345999999999989
 20
0.8130000000069088
 42
-0.4142135623730256
 10
-2.360999999999989
 20
0.7980000000069083
 10
-2.395999999999985
 20
0.7980000000069083
 42
-0.4142135623730776
 10
-2.425999999999986
 20
0.8280000000069023
 10
-2.426000000000001
 20
1.361000000000046
 42
-0.4142135623731125
 10
-2.395999999999999
 20
1.391000000000047
 10
0.5212662613674013
 20
1.391000000000076
 42
-0.3989595459737314
 10
0.5512251474100367
 20
1.362570078687362
 10
0.5739999999999981
 20
0.9280000033753807
 10
0.5039039357801443
 20
0.9280000033753807
 10
0.5030766770991022
 20
0.943785039344192
 42
0.3989595459733684
 10
0.4880972340777845
 20
0.9580000000005455
 10
0.0449999999999875
 20
0.9580000000003323
 42
0.4142135623728869
 10
0.0300000000000011
 20
0.9430000000003317
 10
0.0300000000000011
 20
0.0299999999999869
 42
-0.4142135623729735
 10
0.0
 20
0.0
 10
-1.700999999999992
 20
0.0
 42
0.4142135623730951
 10
-1.715999999999993
 20
-0.0150000000000006
 10
-1.716000000000007
 20
-0.0549999999931552
 42
-0.4142135623730605
 10
-1.746000000000008
 20
-0.0849999999931493
 10
-3.641000000000047
 20
-0.0849999999931066
 42
-0.9999999999999998
  0
LWPOLYLINE
  5
B56A7A5C3AE630A3
330
B56A7A5C3AE63098
100
AcDbEntity
  8
0
100
AcDbPolyline
 90
       22
 70
     1
 43
0.0
 10
-1.716000000000021
 20
0.8450000000069039
 42
0.1195350615024158
 10
-1.724333333333476
 20
0.8793592135539206
 42
-0.1195350615024871
 10
-1.726000000000166
 20
0.886231056263329
 10
-1.726000000000165
 20
1.076000000775
 42
-0.4142135623731644
 10
-1.711000000000164
 20
1.091000000775
 10
-1.218999999999999
 20
1.091000000775003
 42
0.4142135623730415
 10
-1.144
 20
1.166000000774991
 10
-1.143999999999976
 20
1.306000000000027
 42
-0.4142135623733035
 10
-1.128999999999989
 20
1.321000000000028
 10
-0.0450000000000159
 20
1.321000000000056
 42
-0.4142135623729894
 10
-0.0300000000000162
 20
1.306000000000062
 10
-0.0299999999998946
 20
0.9942310562570071
 42
-0.119535061502954
 10
-0.0316666666665997
 20
0.9873592135475766
 42
0.1195350615029104
 10
-0.0400000000001004
 20
0.953000000000423
 10
-0.0399999999999494
 20
0.2550000000000097
 42
-0.4142135623730951
 10
-0.05499999999995
 20
0.2400000000000091
 10
-0.9980000421193677
 20
0.2399999999999951
 42
0.4142135623730118
 10
-1.073000042119367
 20
0.1650000000000154
 10
-1.073000042119388
 20
0.0850000000000009
 42
-0.4142135623733724
 10
-1.088000042119388
 20
0.0700000000000003
 10
-1.700999999999836
 20
0.0700000000000003
 42
-0.4142135623730258
 10
-1.715999999999836
 20
0.0850000000000009
  0
LWPOLYLINE
  5
B56A7A5C3AE630A4
330
B56A7A5C3AE63098
100
AcDbEntity
  8
0
100
AcDbPolyline
 90
        8
 70
     1
 43
0.0
 10
-1.711000000000207
 20
1.321000000000053
 10
-1.399000000000014
 20
1.321000000000035
 42
-0.4142135623730951
 10
-1.384000000000013
 20
1.306000000000034
 10
-1.383999999999985
 20
1.166000000774999
 42
-0.4142135623730951
 10
-1.398999999999985
 20
1.151000000774999
 10
-1.711000000000164
 20
1.151000000775002
 42
-0.4142135623730429
 10
-1.726000000000165
 20
1.166000000775003
 10
-1.726000000000207
 20
1.306000000000045
 42
-0.4142135623731596
  0
LWPOLYLINE
  5
B56A7A5C3AE630A5
330
B56A7A5C3AE63098
100
AcDbEntity
  8
0
100
AcDbPolyline
 90
       16
 70
     1
 43
0.0
 10
-1.30400000000001
 20
1.316000000000059
 42
-0.4142135623730989
 10
-1.289
 20
1.301000000000058
 10
-1.289
 20
1.286000000774999
 42
0.4142135623730951
 10
-1.274
 20
1.271000000774998
 10
-1.254
 20
1.271000000774998
 42
0.4142135623730951
 10
-1.23900000000001
 20
1.286000000774999
 10
-1.23900000000001
 20
1.301000000000058
 42
-0.4142135623731212
 10
-1.224000000000001
 20
1.316000000000059
 10
-1.21900000000001
 20
1.316000000000055
 42
-0.4142135623730623
 10
-1.20400000000001
 20
1.301000000000058
 10
-1.204000000000001
 20
1.166000000775003
 42
-0.4142135623731289
 10
-1.218999999999991
 20
1.151000000774999
 10
-1.309
 20
1.151000000774999
 42
-0.4142135623730951
 10
-1.324
 20
1.166000000774999
 10
-1.324
 20
1.301000000000058
 42
-0.4142135623730935
 10
-1.309
 20
1.316000000000059
  0
ENDBLK
  5
B56A7A5C3AE630A6
330
B56A7A5C3AE63098
100
AcDbEntity
  8
0
100
AcDbBlockEnd
  0
BLOCK
  5
B56A7A5C3AE633FA
330
B56A7A5C3AE633BC
100
AcDbEntity
  8
0
100
AcDbBlockBegin
  2
PW Flat Casing 4-sides
 70
     0
 10
0.0
 20
0.0
 30
0.0
  3
PW Flat Casing 4-sides
  1

  0
LINE
  5
B56A7A5C3AE633BD
330
B56A7A5C3AE633BC
100
AcDbEntity
  8
XTHIN
100
AcDbLine
 10
4.737500039460151
 20
3.787499988345295
 30
0.0
 11
0.0500000403078573
 21
3.787499988345295
 31
0.0
  0
LINE
  5
B56A7A5C3AE633BE
330
B56A7A5C3AE633BC
100
AcDbEntity
  8
XTHIN
100
AcDbLine
 10
4.662500039460127
 20
3.662499988345285
 30
0.0
 11
0.125000040307853
 21
3.662499988345285
 31
0.0
  0
LINE
  5
B56A7A5C3AE633BF
330
B56A7A5C3AE633BC
100
AcDbEntity
  8
XTHIN
100
AcDbLine
 10
4.36250003946013
 20
3.362499988345287
 30
0.0
 11
0.4250000403078503
 21
3.362499988345287
 31
0.0
  0
LINE
  5
B56A7A5C3AE633C0
330
B56A7A5C3AE633BC
100
AcDbEntity
  8
XTHIN
100
AcDbLine
 10
4.353522360210483
 20
3.353522309095641
 30
0.0
 11
0.4339777195574968
 21
3.353522309095643
 31
0.0
  0
LINE
  5
B56A7A5C3AE633C1
330
B56A7A5C3AE633BC
100
AcDbEntity
  8
XTHIN
100
AcDbLine
 10
0.0000000403078459
 20
0.0499999891929939
 30
0.0
 11
0.0000000403078459
 21
3.737499988345287
 31
0.0
  0
LINE
  5
B56A7A5C3AE633C2
330
B56A7A5C3AE633BC
100
AcDbEntity
  8
XTHIN
100
AcDbLine
 10
0.125000040307853
 20
0.1249999891929985
 30
0.0
 11
0.125000040307853
 21
3.662499988345285
 31
0.0
  0
LINE
  5
B56A7A5C3AE633C3
330
B56A7A5C3AE633BC
100
AcDbEntity
  8
XTHIN
100
AcDbLine
 10
0.4250000403078503
 20
0.4249999891929975
 30
0.0
 11
0.4250000403078503
 21
3.362499988345287
 31
0.0
  0
LINE
  5
B56A7A5C3AE633C4
330
B56A7A5C3AE633BC
100
AcDbEntity
  8
XTHIN
100
AcDbLine
 10
0.4339777195574968
 20
0.4339776684426422
 30
0.0
 11
0.4339777195574968
 21
3.353522309095643
 31
0.0
  0
LINE
  5
B56A7A5C3AE633C5
330
B56A7A5C3AE633BC
100
AcDbEntity
  8
XTHIN
100
AcDbLine
 10
4.787500039460134
 20
0.0499999891929903
 30
0.0
 11
4.787500039460141
 21
3.737499988345277
 31
0.0
  0
LINE
  5
B56A7A5C3AE633C6
330
B56A7A5C3AE633BC
100
AcDbEntity
  8
XTHIN
100
AcDbLine
 10
4.662500039460127
 20
0.1249999891929967
 30
0.0
 11
4.662500039460127
 21
3.662499988345285
 31
0.0
  0
LINE
  5
B56A7A5C3AE633C7
330
B56A7A5C3AE633BC
100
AcDbEntity
  8
XTHIN
100
AcDbLine
 10
4.36250003946013
 20
0.4249999891929975
 30
0.0
 11
4.36250003946013
 21
3.362499988345287
 31
0.0
  0
LINE
  5
B56A7A5C3AE633C8
330
B56A7A5C3AE633BC
100
AcDbEntity
  8
XTHIN
100
AcDbLine
 10
4.353522360210483
 20
0.4339776684426422
 30
0.0
 11
4.353522360210483
 21
3.353522309095641
 31
0.0
  0
LINE
  5
B56A7A5C3AE633C9
330
B56A7A5C3AE633BC
100
AcDbEntity
  8
XTHIN
100
AcDbLine
 10
4.737500039460122
 20
-0.0000000108070068
 30
0.0
 11
0.0500000403078218
 21
-0.0000000108070068
 31
0.0
  0
LINE
  5
B56A7A5C3AE633CA
330
B56A7A5C3AE633BC
100
AcDbEntity
  8
XTHIN
100
AcDbLine
 10
4.662500039460127
 20
0.1249999891929985
 30
0.0
 11
0.125000040307853
 21
0.1249999891929985
 31
0.0
  0
LINE
  5
B56A7A5C3AE633CB
330
B56A7A5C3AE633BC
100
AcDbEntity
  8
XTHIN
100
AcDbLine
 10
4.362500039460137
 20
0.4249999891929975
 30
0.0
 11
0.4250000403078503
 21
0.4249999891929975
 31
0.0
  0
LINE
  5
B56A7A5C3AE633CC
330
B56A7A5C3AE633BC
100
AcDbEntity
  8
XTHIN
100
AcDbLine
 10
4.353522360210483
 20
0.4339776684426422
 30
0.0
 11
0.4339777195574968
 21
0.4339776684426422
 31
0.0
  0
LINE
  5
B56A7A5C3AE633CD
330
B56A7A5C3AE633BC
100
AcDbEntity
  8
XTHIN
100
AcDbLine
 10
0.0250000403078374
 20
0.0249999891929882
 30
0.0
 11
0.4339777195574968
 21
0.4339776684426422
 31
0.0
  0
LINE
  5
B56A7A5C3AE633CE
330
B56A7A5C3AE633BC
100
AcDbEntity
  8
XTHIN
100
AcDbLine
 10
4.762500039460135
 20
0.0249999891929989
 30
0.0
 11
4.353522360210483
 21
0.4339776684426422
 31
0.0
  0
LINE
  5
B56A7A5C3AE633CF
330
B56A7A5C3AE633BC
100
AcDbEntity
  8
XTHIN
100
AcDbLine
 10
4.762500039460142
 20
3.762499988345293
 30
0.0
 11
4.353522360210483
 21
3.353522309095641
 31
0.0
  0
LINE
  5
B56A7A5C3AE633D0
330
B56A7A5C3AE633BC
100
AcDbEntity
  8
XTHIN
100
AcDbLine
 10
0.0250000403078588
 20
3.76249998834529
 30
0.0
 11
0.4339777195574968
 21
3.353522309095643
 31
0.0
  0
LWPOLYLINE
  5
B56A7A5C3AE633D1
330
B56A7A5C3AE633BC
100
AcDbEntity
  8
XTHIN
100
AcDbPolyline
 90
        4
 70
     1
 43
0.0
 10
0.7898103461851989
 20
3.742499988345308
 42
0.9999999999999998
 10
0.7898103461851989
 20
3.757499988345294
 10
0.7698103461851887
 20
3.757499988345294
 42
0.9999999999999998
 10
0.7698103461851887
 20
3.742499988345308
  0
LWPOLYLINE
  5
B56A7A5C3AE633D2
330
B56A7A5C3AE633BC
100
AcDbEntity
  8
XTHIN
100
AcDbPolyline
 90
        4
 70
     1
 43
0.0
 10
1.274810346185184
 20
3.742499988345308
 42
0.9999999999999998
 10
1.274810346185184
 20
3.757499988345294
 10
1.254810346185202
 20
3.757499988345294
 42
0.9999999999999998
 10
1.254810346185202
 20
3.742499988345308
  0
LWPOLYLINE
  5
B56A7A5C3AE633D3
330
B56A7A5C3AE633BC
100
AcDbEntity
  8
XTHIN
100
AcDbPolyline
 90
        4
 70
     1
 43
0.0
 10
0.7029744399040752
 20
0.0449999891929522
 42
-0.9999999999999998
 10
0.7029744399040752
 20
0.0299999891929659
 10
0.682974439904065
 20
0.0299999891929659
 42
-0.9999999999999998
 10
0.682974439904065
 20
0.0449999891929522
  0
LWPOLYLINE
  5
B56A7A5C3AE633D4
330
B56A7A5C3AE633BC
100
AcDbEntity
  8
XTHIN
100
AcDbPolyline
 90
        4
 70
     1
 43
0.0
 10
1.18797443990406
 20
0.0449999891929522
 42
-0.9999999999999998
 10
1.18797443990406
 20
0.0299999891929659
 10
1.167974439904078
 20
0.0299999891929659
 42
-0.9999999999999998
 10
1.167974439904078
 20
0.0449999891929522
  0
LWPOLYLINE
  5
B56A7A5C3AE633D5
330
B56A7A5C3AE633BC
100
AcDbEntity
  8
XTHIN
100
AcDbPolyline
 90
        4
 70
     1
 43
0.0
 10
0.3048103461851852
 20
3.742499988345308
 42
0.9999999999999998
 10
0.3048103461851852
 20
3.757499988345294
 10
0.284810346185175
 20
3.757499988345294
 42
0.9999999999999998
 10
0.284810346185175
 20
3.742499988345308
  0
LWPOLYLINE
  5
B56A7A5C3AE633D6
330
B56A7A5C3AE633BC
100
AcDbEntity
  8
XTHIN
100
AcDbPolyline
 90
        4
 70
     1
 43
0.0
 10
1.759810346185197
 20
3.742499988345308
 42
0.9999999999999998
 10
1.759810346185197
 20
3.757499988345294
 10
1.739810346185187
 20
3.757499988345294
 42
0.9999999999999998
 10
1.739810346185187
 20
3.742499988345308
  0
LWPOLYLINE
  5
B56A7A5C3AE633D7
330
B56A7A5C3AE633BC
100
AcDbEntity
  8
XTHIN
100
AcDbPolyline
 90
        4
 70
     1
 43
0.0
 10
2.729810346185196
 20
3.742499988345308
 42
0.9999999999999998
 10
2.729810346185196
 20
3.757499988345294
 10
2.709810346185214
 20
3.757499988345294
 42
0.9999999999999998
 10
2.709810346185214
 20
3.742499988345308
  0
LWPOLYLINE
  5
B56A7A5C3AE633D8
330
B56A7A5C3AE633BC
100
AcDbEntity
  8
XTHIN
100
AcDbPolyline
 90
        4
 70
     1
 43
0.0
 10
2.244810346185211
 20
3.742499988345308
 42
0.9999999999999998
 10
2.244810346185211
 20
3.757499988345294
 10
2.224810346185201
 20
3.757499988345294
 42
0.9999999999999998
 10
2.224810346185201
 20
3.742499988345308
  0
LWPOLYLINE
  5
B56A7A5C3AE633D9
330
B56A7A5C3AE633BC
100
AcDbEntity
  8
XTHIN
100
AcDbPolyline
 90
        4
 70
     1
 43
0.0
 10
3.21481034618521
 20
3.742499988345308
 42
0.9999999999999998
 10
3.21481034618521
 20
3.757499988345294
 10
3.194810346185228
 20
3.757499988345294
 42
0.9999999999999998
 10
3.194810346185228
 20
3.742499988345308
  0
LWPOLYLINE
  5
B56A7A5C3AE633DA
330
B56A7A5C3AE633BC
100
AcDbEntity
  8
XTHIN
100
AcDbPolyline
 90
        4
 70
     1
 43
0.0
 10
4.75750003946014
 20
0.1794743136896635
 42
0.9999999999999998
 10
4.742500039460153
 20
0.1794743136896635
 10
4.742500039460153
 20
0.1594743136896533
 42
0.9999999999999998
 10
4.75750003946014
 20
0.1594743136896533
  0
LWPOLYLINE
  5
B56A7A5C3AE633DB
330
B56A7A5C3AE633BC
100
AcDbEntity
  8
XTHIN
100
AcDbPolyline
 90
        4
 70
     1
 43
0.0
 10
4.75750003946014
 20
1.149474313689662
 42
0.9999999999999998
 10
4.742500039460153
 20
1.149474313689662
 10
4.742500039460153
 20
1.12947431368968
 42
0.9999999999999998
 10
4.75750003946014
 20
1.12947431368968
  0
LWPOLYLINE
  5
B56A7A5C3AE633DC
330
B56A7A5C3AE633BC
100
AcDbEntity
  8
XTHIN
100
AcDbPolyline
 90
        4
 70
     1
 43
0.0
 10
4.75750003946014
 20
0.6644743136896487
 42
0.9999999999999998
 10
4.742500039460153
 20
0.6644743136896487
 10
4.742500039460153
 20
0.6444743136896669
 42
0.9999999999999998
 10
4.75750003946014
 20
0.6444743136896669
  0
LWPOLYLINE
  5
B56A7A5C3AE633DD
330
B56A7A5C3AE633BC
100
AcDbEntity
  8
XTHIN
100
AcDbPolyline
 90
        4
 70
     1
 43
0.0
 10
4.75750003946014
 20
1.634474313689675
 42
0.9999999999999998
 10
4.742500039460153
 20
1.634474313689675
 10
4.742500039460153
 20
1.614474313689665
 42
0.9999999999999998
 10
4.75750003946014
 20
1.614474313689665
  0
LWPOLYLINE
  5
B56A7A5C3AE633DE
330
B56A7A5C3AE633BC
100
AcDbEntity
  8
XTHIN
100
AcDbPolyline
 90
        4
 70
     1
 43
0.0
 10
4.75750003946014
 20
2.119474313689689
 42
0.9999999999999998
 10
4.742500039460153
 20
2.119474313689689
 10
4.742500039460153
 20
2.099474313689679
 42
0.9999999999999998
 10
4.75750003946014
 20
2.099474313689679
  0
LWPOLYLINE
  5
B56A7A5C3AE633DF
330
B56A7A5C3AE633BC
100
AcDbEntity
  8
XTHIN
100
AcDbPolyline
 90
        4
 70
     1
 43
0.0
 10
4.75750003946014
 20
2.604474313689674
 42
0.9999999999999998
 10
4.742500039460153
 20
2.604474313689674
 10
4.742500039460153
 20
2.584474313689693
 42
0.9999999999999998
 10
4.75750003946014
 20
2.584474313689693
  0
LWPOLYLINE
  5
B56A7A5C3AE633E0
330
B56A7A5C3AE633BC
100
AcDbEntity
  8
XTHIN
100
AcDbPolyline
 90
        4
 70
     1
 43
0.0
 10
4.75750003946014
 20
3.089474313689688
 42
0.9999999999999998
 10
4.742500039460153
 20
3.089474313689688
 10
4.742500039460153
 20
3.069474313689678
 42
0.9999999999999998
 10
4.75750003946014
 20
3.069474313689678
  0
LWPOLYLINE
  5
B56A7A5C3AE633E1
330
B56A7A5C3AE633BC
100
AcDbEntity
  8
XTHIN
100
AcDbPolyline
 90
        4
 70
     1
 43
0.0
 10
4.75750003946014
 20
3.574474313689702
 42
0.9999999999999998
 10
4.742500039460153
 20
3.574474313689702
 10
4.742500039460153
 20
3.55447431368972
 42
0.9999999999999998
 10
4.75750003946014
 20
3.55447431368972
  0
LWPOLYLINE
  5
B56A7A5C3AE633E2
330
B56A7A5C3AE633BC
100
AcDbEntity
  8
XTHIN
100
AcDbPolyline
 90
        4
 70
     1
 43
0.0
 10
0.0300000403078755
 20
0.1433539884677053
 42
-0.9999999999999998
 10
0.0450000403078903
 20
0.1433539884677053
 10
0.0450000403078903
 20
0.1233539884676951
 42
-0.9999999999999998
 10
0.0300000403078755
 20
0.1233539884676951
  0
LWPOLYLINE
  5
B56A7A5C3AE633E3
330
B56A7A5C3AE633BC
100
AcDbEntity
  8
XTHIN
100
AcDbPolyline
 90
        4
 70
     1
 43
0.0
 10
0.0300000403078755
 20
1.113353988467704
 42
-0.9999999999999998
 10
0.0450000403078903
 20
1.113353988467704
 10
0.0450000403078903
 20
1.093353988467722
 42
-0.9999999999999998
 10
0.0300000403078755
 20
1.093353988467722
  0
LWPOLYLINE
  5
B56A7A5C3AE633E4
330
B56A7A5C3AE633BC
100
AcDbEntity
  8
XTHIN
100
AcDbPolyline
 90
        4
 70
     1
 43
0.0
 10
0.0300000403078755
 20
0.6283539884676906
 42
-0.9999999999999998
 10
0.0450000403078903
 20
0.6283539884676906
 10
0.0450000403078903
 20
0.6083539884677088
 42
-0.9999999999999998
 10
0.0300000403078755
 20
0.6083539884677088
  0
LWPOLYLINE
  5
B56A7A5C3AE633E5
330
B56A7A5C3AE633BC
100
AcDbEntity
  8
XTHIN
100
AcDbPolyline
 90
        4
 70
     1
 43
0.0
 10
0.0300000403078755
 20
1.598353988467717
 42
-0.9999999999999998
 10
0.0450000403078903
 20
1.598353988467717
 10
0.0450000403078903
 20
1.578353988467707
 42
-0.9999999999999998
 10
0.0300000403078755
 20
1.578353988467707
  0
LWPOLYLINE
  5
B56A7A5C3AE633E6
330
B56A7A5C3AE633BC
100
AcDbEntity
  8
XTHIN
100
AcDbPolyline
 90
        4
 70
     1
 43
0.0
 10
0.0300000403078755
 20
2.083353988467731
 42
-0.9999999999999998
 10
0.0450000403078903
 20
2.083353988467731
 10
0.0450000403078903
 20
2.063353988467721
 42
-0.9999999999999998
 10
0.0300000403078755
 20
2.063353988467721
  0
LWPOLYLINE
  5
B56A7A5C3AE633E7
330
B56A7A5C3AE633BC
100
AcDbEntity
  8
XTHIN
100
AcDbPolyline
 90
        4
 70
     1
 43
0.0
 10
0.0300000403078755
 20
2.568353988467716
 42
-0.9999999999999998
 10
0.0450000403078903
 20
2.568353988467716
 10
0.0450000403078903
 20
2.548353988467734
 42
-0.9999999999999998
 10
0.0300000403078755
 20
2.548353988467734
  0
LWPOLYLINE
  5
B56A7A5C3AE633E8
330
B56A7A5C3AE633BC
100
AcDbEntity
  8
XTHIN
100
AcDbPolyline
 90
        4
 70
     1
 43
0.0
 10
0.0300000403078755
 20
3.05335398846773
 42
-0.9999999999999998
 10
0.0450000403078903
 20
3.05335398846773
 10
0.0450000403078903
 20
3.03335398846772
 42
-0.9999999999999998
 10
0.0300000403078755
 20
3.03335398846772
  0
LWPOLYLINE
  5
B56A7A5C3AE633E9
330
B56A7A5C3AE633BC
100
AcDbEntity
  8
XTHIN
100
AcDbPolyline
 90
        4
 70
     1
 43
0.0
 10
0.0300000403078755
 20
3.538353988467743
 42
-0.9999999999999998
 10
0.0450000403078903
 20
3.538353988467743
 10
0.0450000403078903
 20
3.518353988467762
 42
-0.9999999999999998
 10
0.0300000403078755
 20
3.518353988467762
  0
LWPOLYLINE
  5
B56A7A5C3AE633EA
330
B56A7A5C3AE633BC
100
AcDbEntity
  8
XTHIN
100
AcDbPolyline
 90
        4
 70
     1
 43
0.0
 10
0.2179744399040615
 20
0.0449999891929522
 42
-0.9999999999999998
 10
0.2179744399040615
 20
0.0299999891929659
 10
0.1979744399040513
 20
0.0299999891929659
 42
-0.9999999999999998
 10
0.1979744399040513
 20
0.0449999891929522
  0
LWPOLYLINE
  5
B56A7A5C3AE633EB
330
B56A7A5C3AE633BC
100
AcDbEntity
  8
XTHIN
100
AcDbPolyline
 90
        4
 70
     1
 43
0.0
 10
1.672974439904074
 20
0.0449999891929522
 42
-0.9999999999999998
 10
1.672974439904074
 20
0.0299999891929659
 10
1.652974439904063
 20
0.0299999891929659
 42
-0.9999999999999998
 10
1.652974439904063
 20
0.0449999891929522
  0
LWPOLYLINE
  5
B56A7A5C3AE633EC
330
B56A7A5C3AE633BC
100
AcDbEntity
  8
XTHIN
100
AcDbPolyline
 90
        4
 70
     1
 43
0.0
 10
2.642974439904072
 20
0.0449999891929522
 42
-0.9999999999999998
 10
2.642974439904072
 20
0.0299999891929659
 10
2.622974439904091
 20
0.0299999891929659
 42
-0.9999999999999998
 10
2.622974439904091
 20
0.0449999891929522
  0
LWPOLYLINE
  5
B56A7A5C3AE633ED
330
B56A7A5C3AE633BC
100
AcDbEntity
  8
XTHIN
100
AcDbPolyline
 90
        4
 70
     1
 43
0.0
 10
2.157974439904087
 20
0.0449999891929522
 42
-0.9999999999999998
 10
2.157974439904087
 20
0.0299999891929659
 10
2.137974439904077
 20
0.0299999891929659
 42
-0.9999999999999998
 10
2.137974439904077
 20
0.0449999891929522
  0
LWPOLYLINE
  5
B56A7A5C3AE633EE
330
B56A7A5C3AE633BC
100
AcDbEntity
  8
XTHIN
100
AcDbPolyline
 90
        4
 70
     1
 43
0.0
 10
3.127974439904086
 20
0.0449999891929522
 42
-0.9999999999999998
 10
3.127974439904086
 20
0.0299999891929659
 10
3.107974439904104
 20
0.0299999891929659
 42
-0.9999999999999998
 10
3.107974439904104
 20
0.0449999891929522
  0
LINE
  5
B56A7A5C3AE633EF
330
B56A7A5C3AE633BC
100
AcDbEntity
  8
XTHIN
100
AcDbLine
 10
0.0500000403078573
 20
3.787499988345292
 30
0.0
 11
0.0000000403078459
 21
3.737499988345295
 31
0.0
  0
LINE
  5
B56A7A5C3AE633F0
330
B56A7A5C3AE633BC
100
AcDbEntity
  8
XTHIN
100
AcDbLine
 10
4.787500039460134
 20
0.0499999891929903
 30
0.0
 11
4.737500039460122
 21
-0.0000000108070068
 31
0.0
  0
LINE
  5
B56A7A5C3AE633F1
330
B56A7A5C3AE633BC
100
AcDbEntity
  8
XTHIN
100
AcDbLine
 10
0.0000000403078459
 20
0.0499999891929903
 30
0.0
 11
0.0500000403078289
 21
-0.0000000108070211
 31
0.0
  0
LINE
  5
B56A7A5C3AE633F2
330
B56A7A5C3AE633BC
100
AcDbEntity
  8
XTHIN
100
AcDbLine
 10
4.737500039460151
 20
3.787499988345292
 30
0.0
 11
4.787500039460134
 21
3.73749998834528
 31
0.0
  0
LWPOLYLINE
  5
B56A7A5C3AE633F3
330
B56A7A5C3AE633BC
100
AcDbEntity
  8
XTHIN
100
AcDbPolyline
 90
        4
 70
     1
 43
0.0
 10
4.184810346185237
 20
3.742499988345308
 42
0.9999999999999998
 10
4.184810346185237
 20
3.757499988345294
 10
4.164810346185255
 20
3.757499988345294
 42
0.9999999999999998
 10
4.164810346185255
 20
3.742499988345308
  0
LWPOLYLINE
  5
B56A7A5C3AE633F4
330
B56A7A5C3AE633BC
100
AcDbEntity
  8
XTHIN
100
AcDbPolyline
 90
        4
 70
     1
 43
0.0
 10
3.699810346185252
 20
3.742499988345308
 42
0.9999999999999998
 10
3.699810346185252
 20
3.757499988345294
 10
3.679810346185242
 20
3.757499988345294
 42
0.9999999999999998
 10
3.679810346185242
 20
3.742499988345308
  0
LWPOLYLINE
  5
B56A7A5C3AE633F5
330
B56A7A5C3AE633BC
100
AcDbEntity
  8
XTHIN
100
AcDbPolyline
 90
        4
 70
     1
 43
0.0
 10
4.669810346185251
 20
3.742499988345308
 42
0.9999999999999998
 10
4.669810346185251
 20
3.757499988345294
 10
4.649810346185269
 20
3.757499988345294
 42
0.9999999999999998
 10
4.649810346185269
 20
3.742499988345308
  0
LWPOLYLINE
  5
B56A7A5C3AE633F6
330
B56A7A5C3AE633BC
100
AcDbEntity
  8
XTHIN
100
AcDbPolyline
 90
        4
 70
     1
 43
0.0
 10
3.6129744399041
 20
0.0449999891929522
 42
-0.9999999999999998
 10
3.6129744399041
 20
0.0299999891929659
 10
3.592974439904118
 20
0.0299999891929659
 42
-0.9999999999999998
 10
3.592974439904118
 20
0.0449999891929522
  0
LWPOLYLINE
  5
B56A7A5C3AE633F7
330
B56A7A5C3AE633BC
100
AcDbEntity
  8
XTHIN
100
AcDbPolyline
 90
        4
 70
     1
 43
0.0
 10
4.097974439904113
 20
0.0449999891929522
 42
-0.9999999999999998
 10
4.097974439904113
 20
0.0299999891929659
 10
4.077974439904131
 20
0.0299999891929659
 42
-0.9999999999999998
 10
4.077974439904131
 20
0.0449999891929522
  0
LWPOLYLINE
  5
B56A7A5C3AE633F8
330
B56A7A5C3AE633BC
100
AcDbEntity
  8
XTHIN
100
AcDbPolyline
 90
        4
 70
     1
 43
0.0
 10
4.582974439904127
 20
0.0449999891929522
 42
-0.9999999999999998
 10
4.582974439904127
 20
0.0299999891929659
 10
4.562974439904145
 20
0.0299999891929659
 42
-0.9999999999999998
 10
4.562974439904145
 20
0.0449999891929522
  0
ENDBLK
  5
B56A7A5C3AE633FB
330
B56A7A5C3AE633BC
100
AcDbEntity
  8
0
100
AcDbBlockEnd
  0
BLOCK
  5
B56A7A5C3AE635C6
330
B56A7A5C3AE635C5
100
AcDbEntity
  8
0
100
AcDbBlockBegin
  2
WEEP COVER
 70
     0
 10
0.0
 20
0.0
 30
0.0
  3
WEEP COVER
  1

  0
LINE
  5
B56A7A5C3AE635C7
330
B56A7A5C3AE635C5
100
AcDbEntity
  8
vent
100
AcDbLine
 10
21.46790220916235
 20
4.974129669412202
 30
0.0
 11
21.54690220916235
 21
5.024129669412202
 31
0.0
  0
CIRCLE
  5
B56A7A5C3AE635C8
330
B56A7A5C3AE635C5
100
AcDbEntity
  8
DIM
100
AcDbCircle
 10
21.53290220916234
 20
5.143941487029717
 30
0.0
 40
0.025
  0
ARC
  5
B56A7A5C3AE635C9
330
B56A7A5C3AE635C5
100
AcDbEntity
  8
DIM
100
AcDbCircle
 10
21.53290220916234
 20
5.144129669412199
 30
0.0
 40
0.0300000000000004
100
AcDbArc
 50
180.000000000005
 51
0.0000000000050889
  0
LINE
  5
B56A7A5C3AE635CA
330
B56A7A5C3AE635C5
100
AcDbEntity
  8
vent
100
AcDbLine
 10
21.50290220916234
 20
5.179129669412203
 30
0.0
 11
21.56290220916234
 21
5.179129669412204
 31
0.0
  0
LINE
  5
B56A7A5C3AE635CB
330
B56A7A5C3AE635C5
100
AcDbEntity
  8
vent
100
AcDbLine
 10
21.53290220916235
 20
5.099129669412202
 30
0.0
 11
21.5717593520195
 21
5.099129669412201
 31
0.0
  0
LINE
  5
B56A7A5C3AE635CC
330
B56A7A5C3AE635C5
100
AcDbEntity
  8
vent
100
AcDbLine
 10
21.53890220916235
 20
5.267129669412201
 30
0.0
 11
21.56190220916235
 21
5.247129669412202
 31
0.0
  0
LINE
  5
B56A7A5C3AE635CD
330
B56A7A5C3AE635C5
100
AcDbEntity
  8
vent
100
AcDbLine
 10
21.43790220916235
 20
5.244129669412202
 30
0.0
 11
21.60490220916235
 21
5.244129669412202
 31
0.0
  0
LINE
  5
B56A7A5C3AE635CE
330
B56A7A5C3AE635C5
100
AcDbEntity
  8
vent
100
AcDbLine
 10
21.53290220916236
 20
5.015268909918535
 30
0.0
 11
21.53290220916234
 21
5.099129669412203
 31
0.0
  0
LINE
  5
B56A7A5C3AE635CF
330
B56A7A5C3AE635C5
100
AcDbEntity
  8
vent
100
AcDbLine
 10
21.43790220916235
 20
4.974129669412202
 30
0.0
 11
21.46790220916235
 21
4.974129669412202
 31
0.0
  0
LINE
  5
B56A7A5C3AE635D0
330
B56A7A5C3AE635C5
100
AcDbEntity
  8
vent
100
AcDbLine
 10
21.50290220916234
 20
5.144129669412196
 30
0.0
 11
21.50290220916234
 21
5.179129669412204
 31
0.0
  0
LINE
  5
B56A7A5C3AE635D1
330
B56A7A5C3AE635C5
100
AcDbEntity
  8
vent
100
AcDbLine
 10
21.51590220916235
 20
5.267129669412201
 30
0.0
 11
21.53890220916235
 21
5.247129669412202
 31
0.0
  0
LINE
  5
B56A7A5C3AE635D2
330
B56A7A5C3AE635C5
100
AcDbEntity
  8
vent
100
AcDbLine
 10
21.53890220916235
 20
5.247129669412204
 30
0.0
 11
21.53890220916235
 21
5.267129669412201
 31
0.0
  0
LINE
  5
B56A7A5C3AE635D3
330
B56A7A5C3AE635C5
100
AcDbEntity
  8
vent
100
AcDbLine
 10
21.51590220916235
 20
5.244129669412202
 30
0.0
 11
21.51590220916235
 21
5.267129669412201
 31
0.0
  0
LINE
  5
B56A7A5C3AE635D4
330
B56A7A5C3AE635C5
100
AcDbEntity
  8
vent
100
AcDbLine
 10
21.39990220916235
 20
4.955129669412203
 30
0.0
 11
21.43790220916235
 21
4.955129669412203
 31
0.0
  0
LINE
  5
B56A7A5C3AE635D5
330
B56A7A5C3AE635C5
100
AcDbEntity
  8
vent
100
AcDbLine
 10
21.39990220916235
 20
4.955129669412203
 30
0.0
 11
21.39990220916235
 21
5.263129669412202
 31
0.0
  0
LINE
  5
B56A7A5C3AE635D6
330
B56A7A5C3AE635C5
100
AcDbEntity
  8
vent
100
AcDbLine
 10
21.43790220916235
 20
4.955129669412203
 30
0.0
 11
21.43790220916235
 21
5.263129669412202
 31
0.0
  0
LINE
  5
B56A7A5C3AE635D7
330
B56A7A5C3AE635C5
100
AcDbEntity
  8
vent
100
AcDbLine
 10
21.39990220916235
 20
5.263129669412202
 30
0.0
 11
21.43790220916235
 21
5.263129669412202
 31
0.0
  0
LINE
  5
B56A7A5C3AE635D8
330
B56A7A5C3AE635C5
100
AcDbEntity
  8
vent
100
AcDbLine
 10
21.56290220916234
 20
5.144129669412205
 30
0.0
 11
21.56290220916234
 21
5.179129669412204
 31
0.0
  0
LINE
  5
B56A7A5C3AE635D9
330
B56A7A5C3AE635C5
100
AcDbEntity
  8
vent
100
AcDbLine
 10
21.58490220916235
 20
5.244129669412202
 30
0.0
 11
21.58490220916235
 21
5.247129669412202
 31
0.0
  0
LINE
  5
B56A7A5C3AE635DA
330
B56A7A5C3AE635C5
100
AcDbEntity
  8
vent
100
AcDbLine
 10
21.56190220916235
 20
5.247129669412202
 30
0.0
 11
21.56190220916235
 21
5.267129669412201
 31
0.0
  0
LINE
  5
B56A7A5C3AE635DB
330
B56A7A5C3AE635C5
100
AcDbEntity
  8
vent
100
AcDbLine
 10
21.56190220916235
 20
5.267129669412201
 30
0.0
 11
21.58490220916235
 21
5.247129669412202
 31
0.0
  0
LINE
  5
B56A7A5C3AE635DC
330
B56A7A5C3AE635C5
100
AcDbEntity
  8
vent
100
AcDbLine
 10
21.60490220916235
 20
5.199129669412204
 30
0.0
 11
21.60490220916235
 21
5.244129669412202
 31
0.0
  0
LINE
  5
B56A7A5C3AE635DD
330
B56A7A5C3AE635C5
100
AcDbEntity
  8
vent
100
AcDbLine
 10
21.54690220916235
 20
5.024129669412202
 30
0.0
 11
21.60490220916235
 21
5.199129669412202
 31
0.0
  0
ENDBLK
  5
B56A7A5C3AE635DE
330
B56A7A5C3AE635C5
100
AcDbEntity
  8
0
100
AcDbBlockEnd
  0
BLOCK
  5
B56A7A5C3AE6380F
330
B56A7A5C3AE6380E
100
AcDbEntity
  8
0
100
AcDbBlockBegin
  2
*D14
 70
     1
 10
0.0
 20
0.0
 30
0.0
  3
*D14
  1

  0
LINE
  5
B56A7A5C3AE63883
330
B56A7A5C3AE6380E
100
AcDbEntity
  8
DIM
 62
     7
440
 16777216
370
    -2
100
AcDbLine
 10
13.21268756952835
 20
17.46348479298107
 30
0.0
 11
14.34986652128113
 21
17.46348479298107
 31
0.0
  0
LINE
  5
B56A7A5C3AE63884
330
B56A7A5C3AE6380E
100
AcDbEntity
  8
DIM
 62
     7
440
 16777216
370
    -2
100
AcDbLine
 10
11.71567253672363
 20
14.92634829179016
 30
0.0
 11
14.34986652128113
 21
14.92634829179016
 31
0.0
  0
LINE
  5
B56A7A5C3AE63885
330
B56A7A5C3AE6380E
100
AcDbEntity
  8
DIM
 62
     7
440
 16777216
370
    -2
100
AcDbLine
 10
14.18986652128113
 20
17.21348479298107
 30
0.0
 11
14.18986652128113
 21
16.49685887992243
 31
0.0
  0
LINE
  5
B56A7A5C3AE63886
330
B56A7A5C3AE6380E
100
AcDbEntity
  8
DIM
 62
     7
440
 16777216
370
    -2
100
AcDbLine
 10
14.18986652128113
 20
15.17634829179016
 30
0.0
 11
14.18986652128113
 21
15.89304935611291
 31
0.0
  0
SOLID
  5
B56A7A5C3AE63887
330
B56A7A5C3AE6380E
100
AcDbEntity
  8
DIM
 62
     7
440
 16777216
100
AcDbTrace
 10
14.14819985461447
 20
17.21348479298107
 30
0.0
 11
14.2315331879478
 21
17.21348479298107
 31
0.0
 12
14.18986652128113
 22
17.46348479298107
 32
0.0
 13
14.18986652128113
 23
17.46348479298107
 33
0.0
  0
SOLID
  5
B56A7A5C3AE63888
330
B56A7A5C3AE6380E
100
AcDbEntity
  8
DIM
 62
     7
440
 16777216
100
AcDbTrace
 10
14.14819985461447
 20
15.17634829179016
 30
0.0
 11
14.2315331879478
 21
15.17634829179016
 31
0.0
 12
14.18986652128113
 22
14.92634829179016
 32
0.0
 13
14.18986652128113
 23
14.92634829179016
 33
0.0
  0
MTEXT
  5
B56A7A5C3AE63889
330
B56A7A5C3AE6380E
100
AcDbEntity
  8
DIM
440
 16777216
100
AcDbMText
 10
14.18986652128113
 20
16.19495411801767
 30
0.0
 40
0.16
 41
0.0
 46
0.0
 71
     5
 72
     1
  1
\A1;2 9/16"
  7
ROMANS
 73
     1
 44
1.0
  0
POINT
  5
B56A7A5C3AE6388A
330
B56A7A5C3AE6380E
100
AcDbEntity
  8
DEFPOINTS
 62
     0
440
 16777216
100
AcDbPoint
 10
13.12268756952835
 20
17.46348479298107
 30
0.0
  0
POINT
  5
B56A7A5C3AE6388B
330
B56A7A5C3AE6380E
100
AcDbEntity
  8
DEFPOINTS
 62
     0
440
 16777216
100
AcDbPoint
 10
11.62567253672363
 20
14.92634829179016
 30
0.0
  0
POINT
  5
B56A7A5C3AE6388C
330
B56A7A5C3AE6380E
100
AcDbEntity
  8
DEFPOINTS
 62
     0
440
 16777216
100
AcDbPoint
 10
14.18986652128113
 20
14.92634829179016
 30
0.0
  0
ENDBLK
  5
B56A7A5C3AE63810
330
B56A7A5C3AE6380E
100
AcDbEntity
  8
0
100
AcDbBlockEnd
  0
BLOCK
  5
B56A7A5C3AE6381C
330
B56A7A5C3AE6381B
100
AcDbEntity
  8
0
100
AcDbBlockBegin
  2
*D15
 70
     1
 10
0.0
 20
0.0
 30
0.0
  3
*D15
  1

  0
LINE
  5
B56A7A5C3AE6388D
330
B56A7A5C3AE6381B
100
AcDbEntity
  8
DIM
 62
     7
440
 16777216
370
    -2
100
AcDbLine
 10
13.7347026490148
 20
7.474069079253114
 30
0.0
 11
13.7347026490148
 21
6.511665171186395
 31
0.0
  0
LINE
  5
B56A7A5C3AE6388E
330
B56A7A5C3AE6381B
100
AcDbEntity
  8
DIM
 62
     7
440
 16777216
370
    -2
100
AcDbLine
 10
27.1097026405377
 20
7.474069079253222
 30
0.0
 11
27.1097026405377
 21
6.511665171186395
 31
0.0
  0
LINE
  5
B56A7A5C3AE6388F
330
B56A7A5C3AE6381B
100
AcDbEntity
  8
DIM
 62
     7
440
 16777216
370
    -2
100
AcDbLine
 10
13.98470264901481
 20
6.671665171186395
 30
0.0
 11
19.53856708594274
 21
6.671665171186395
 31
0.0
  0
LINE
  5
B56A7A5C3AE63890
330
B56A7A5C3AE6381B
100
AcDbEntity
  8
DIM
 62
     7
440
 16777216
370
    -2
100
AcDbLine
 10
26.8597026405377
 20
6.671665171186395
 30
0.0
 11
22.91212122645418
 21
6.671665171186395
 31
0.0
  0
SOLID
  5
B56A7A5C3AE63891
330
B56A7A5C3AE6381B
100
AcDbEntity
  8
DIM
 62
     7
440
 16777216
100
AcDbTrace
 10
13.98470264901481
 20
6.713331837853062
 30
0.0
 11
13.98470264901481
 21
6.629998504519728
 31
0.0
 12
13.7347026490148
 22
6.671665171186395
 32
0.0
 13
13.7347026490148
 23
6.671665171186395
 33
0.0
  0
SOLID
  5
B56A7A5C3AE63892
330
B56A7A5C3AE6381B
100
AcDbEntity
  8
DIM
 62
     7
440
 16777216
100
AcDbTrace
 10
26.8597026405377
 20
6.713331837853062
 30
0.0
 11
26.8597026405377
 21
6.629998504519728
 31
0.0
 12
27.1097026405377
 22
6.671665171186395
 32
0.0
 13
27.1097026405377
 23
6.671665171186395
 33
0.0
  0
MTEXT
  5
B56A7A5C3AE63893
330
B56A7A5C3AE6381B
100
AcDbEntity
  8
DIM
440
 16777216
100
AcDbMText
 10
21.22534415619846
 20
6.671665171186395
 30
0.0
 40
0.16
 41
0.0
 46
0.0
 71
     5
 72
     1
  1
\A1;Window Width + 5 3/8"
  7
ROMANS
 73
     1
 44
1.0
  0
POINT
  5
B56A7A5C3AE63894
330
B56A7A5C3AE6381B
100
AcDbEntity
  8
DEFPOINTS
 62
     0
440
 16777216
100
AcDbPoint
 10
13.7347026490148
 20
7.564069079253114
 30
0.0
  0
POINT
  5
B56A7A5C3AE63895
330
B56A7A5C3AE6381B
100
AcDbEntity
  8
DEFPOINTS
 62
     0
440
 16777216
100
AcDbPoint
 10
27.1097026405377
 20
7.564069079253222
 30
0.0
  0
POINT
  5
B56A7A5C3AE63896
330
B56A7A5C3AE6381B
100
AcDbEntity
  8
DEFPOINTS
 62
     0
440
 16777216
100
AcDbPoint
 10
27.1097026405377
 20
6.671665171186395
 30
0.0
  0
ENDBLK
  5
B56A7A5C3AE6381D
330
B56A7A5C3AE6381B
100
AcDbEntity
  8
0
100
AcDbBlockEnd
  0
BLOCK
  5
B56A7A5C3AE63829
330
B56A7A5C3AE63828
100
AcDbEntity
  8
0
100
AcDbBlockBegin
  2
*D16
 70
     1
 10
0.0
 20
0.0
 30
0.0
  3
*D16
  1

  0
LINE
  5
B56A7A5C3AE63897
330
B56A7A5C3AE63828
100
AcDbEntity
  8
DIM
 62
     7
440
 16777216
370
    -2
100
AcDbLine
 10
9.377187552896874
 20
20.15089561662348
 30
0.0
 11
8.73100091157835
 21
20.15089561662348
 31
0.0
  0
LINE
  5
B56A7A5C3AE63898
330
B56A7A5C3AE63828
100
AcDbEntity
  8
DIM
 62
     7
440
 16777216
370
    -2
100
AcDbLine
 10
9.37718755289686
 20
9.27589562510059
 30
0.0
 11
8.731000911578346
 21
9.27589562510059
 31
0.0
  0
LINE
  5
B56A7A5C3AE63899
330
B56A7A5C3AE63828
100
AcDbEntity
  8
DIM
 62
     7
440
 16777216
370
    -2
100
AcDbLine
 10
8.891000911578348
 20
19.90089561662348
 30
0.0
 11
8.891000911578348
 21
14.92006384348259
 31
0.0
  0
LINE
  5
B56A7A5C3AE6389A
330
B56A7A5C3AE63828
100
AcDbEntity
  8
DIM
 62
     7
440
 16777216
370
    -2
100
AcDbLine
 10
8.891000911578347
 20
9.52589562510059
 30
0.0
 11
8.891000911578348
 21
14.0495876530064
 31
0.0
  0
SOLID
  5
B56A7A5C3AE6389B
330
B56A7A5C3AE63828
100
AcDbEntity
  8
DIM
 62
     7
440
 16777216
100
AcDbTrace
 10
8.849334244911682
 20
19.90089561662348
 30
0.0
 11
8.932667578245014
 21
19.90089561662348
 31
0.0
 12
8.89100091157835
 22
20.15089561662348
 32
0.0
 13
8.89100091157835
 23
20.15089561662348
 33
0.0
  0
SOLID
  5
B56A7A5C3AE6389C
330
B56A7A5C3AE63828
100
AcDbEntity
  8
DIM
 62
     7
440
 16777216
100
AcDbTrace
 10
8.84933424491168
 20
9.52589562510059
 30
0.0
 11
8.932667578245013
 21
9.52589562510059
 31
0.0
 12
8.891000911578347
 22
9.27589562510059
 32
0.0
 13
8.891000911578347
 23
9.27589562510059
 33
0.0
  0
MTEXT
  5
B56A7A5C3AE6389D
330
B56A7A5C3AE63828
100
AcDbEntity
  8
DIM
440
 16777216
100
AcDbMText
 10
8.891000911578345
 20
14.48482574824449
 30
0.0
 40
0.16
 41
0.0
 46
0.0
 71
     5
 72
     1
  1
\A1;Window Height \P+ 5 3/8"
  7
ROMANS
 73
     1
 44
1.0
  0
POINT
  5
B56A7A5C3AE6389E
330
B56A7A5C3AE63828
100
AcDbEntity
  8
DEFPOINTS
 62
     0
440
 16777216
100
AcDbPoint
 10
9.467187552896874
 20
20.15089561662348
 30
0.0
  0
POINT
  5
B56A7A5C3AE6389F
330
B56A7A5C3AE63828
100
AcDbEntity
  8
DEFPOINTS
 62
     0
440
 16777216
100
AcDbPoint
 10
9.467187552896859
 20
9.27589562510059
 30
0.0
  0
POINT
  5
B56A7A5C3AE638A0
330
B56A7A5C3AE63828
100
AcDbEntity
  8
DEFPOINTS
 62
     0
440
 16777216
100
AcDbPoint
 10
8.891000911578347
 20
9.27589562510059
 30
0.0
  0
ENDBLK
  5
B56A7A5C3AE6382A
330
B56A7A5C3AE63828
100
AcDbEntity
  8
0
100
AcDbBlockEnd
  0
BLOCK
  5
B56A7A5C3AE63836
330
B56A7A5C3AE63835
100
AcDbEntity
  8
0
100
AcDbBlockBegin
  2
*D17
 70
     1
 10
0.0
 20
0.0
 30
0.0
  3
*D17
  1

  0
LINE
  5
B56A7A5C3AE638A1
330
B56A7A5C3AE63835
100
AcDbEntity
  8
DIM
 62
     7
440
 16777216
370
    -2
100
AcDbLine
 10
13.7347026490148
 20
7.474069079253114
 30
0.0
 11
13.7347026490148
 21
6.911567189887898
 31
0.0
  0
LINE
  5
B56A7A5C3AE638A2
330
B56A7A5C3AE63835
100
AcDbEntity
  8
DIM
 62
     7
440
 16777216
370
    -2
100
AcDbLine
 10
16.73470264901481
 20
7.907069075877787
 30
0.0
 11
16.73470264901481
 21
6.911567189887898
 31
0.0
  0
LINE
  5
B56A7A5C3AE638A3
330
B56A7A5C3AE63835
100
AcDbEntity
  8
DIM
 62
     7
440
 16777216
370
    -2
100
AcDbLine
 10
13.98470264901481
 20
7.071567189887899
 30
0.0
 11
15.18070284555558
 21
7.071567189887899
 31
0.0
  0
LINE
  5
B56A7A5C3AE638A4
330
B56A7A5C3AE63835
100
AcDbEntity
  8
DIM
 62
     7
440
 16777216
370
    -2
100
AcDbLine
 10
16.48470264901481
 20
7.071567189887899
 30
0.0
 11
15.78852409975878
 21
7.071567189887899
 31
0.0
  0
SOLID
  5
B56A7A5C3AE638A5
330
B56A7A5C3AE63835
100
AcDbEntity
  8
DIM
 62
     7
440
 16777216
100
AcDbTrace
 10
13.98470264901481
 20
7.113233856554566
 30
0.0
 11
13.98470264901481
 21
7.029900523221232
 31
0.0
 12
13.7347026490148
 22
7.071567189887899
 32
0.0
 13
13.7347026490148
 23
7.071567189887899
 33
0.0
  0
SOLID
  5
B56A7A5C3AE638A6
330
B56A7A5C3AE63835
100
AcDbEntity
  8
DIM
 62
     7
440
 16777216
100
AcDbTrace
 10
16.48470264901481
 20
7.113233856554566
 30
0.0
 11
16.48470264901481
 21
7.029900523221232
 31
0.0
 12
16.73470264901481
 22
7.071567189887899
 32
0.0
 13
16.73470264901481
 23
7.071567189887899
 33
0.0
  0
MTEXT
  5
B56A7A5C3AE638A7
330
B56A7A5C3AE63835
100
AcDbEntity
  8
DIM
440
 16777216
100
AcDbMText
 10
15.48461347265718
 20
7.071567189887899
 30
0.0
 40
0.16
 41
0.0
 46
0.0
 71
     5
 72
     1
  1
\A1;3"
  7
ROMANS
 73
     1
 44
1.0
  0
POINT
  5
B56A7A5C3AE638A8
330
B56A7A5C3AE63835
100
AcDbEntity
  8
DEFPOINTS
 62
     0
440
 16777216
100
AcDbPoint
 10
13.7347026490148
 20
7.564069079253114
 30
0.0
  0
POINT
  5
B56A7A5C3AE638A9
330
B56A7A5C3AE63835
100
AcDbEntity
  8
DEFPOINTS
 62
     0
440
 16777216
100
AcDbPoint
 10
16.73470264901481
 20
7.997069075877787
 30
0.0
  0
POINT
  5
B56A7A5C3AE638AA
330
B56A7A5C3AE63835
100
AcDbEntity
  8
DEFPOINTS
 62
     0
440
 16777216
100
AcDbPoint
 10
16.73470264901481
 20
7.071567189887899
 30
0.0
  0
ENDBLK
  5
B56A7A5C3AE63837
330
B56A7A5C3AE63835
100
AcDbEntity
  8
0
100
AcDbBlockEnd
  0
BLOCK
  5
B56A7A5C3AE63843
330
B56A7A5C3AE63842
100
AcDbEntity
  8
0
100
AcDbBlockBegin
  2
*D18
 70
     1
 10
0.0
 20
0.0
 30
0.0
  3
*D18
  1

  0
LINE
  5
B56A7A5C3AE638AB
330
B56A7A5C3AE63842
100
AcDbEntity
  8
DIM
 62
     7
440
 16777216
370
    -2
100
AcDbLine
 10
12.42970264901476
 20
9.010069079246274
 30
0.0
 11
11.87750025180024
 21
9.010069079246276
 31
0.0
  0
LINE
  5
B56A7A5C3AE638AC
330
B56A7A5C3AE63842
100
AcDbEntity
  8
DIM
 62
     7
440
 16777216
370
    -2
100
AcDbLine
 10
13.67470264901481
 20
7.53406907925312
 30
0.0
 11
11.87750025180024
 21
7.53406907925312
 31
0.0
  0
LINE
  5
B56A7A5C3AE638AD
330
B56A7A5C3AE63842
100
AcDbEntity
  8
DIM
 62
     7
440
 16777216
370
    -2
100
AcDbLine
 10
12.03750025180024
 20
8.760069079246274
 30
0.0
 11
12.03750025180024
 21
8.491473841154594
 31
0.0
  0
LINE
  5
B56A7A5C3AE638AE
330
B56A7A5C3AE63842
100
AcDbEntity
  8
DIM
 62
     7
440
 16777216
370
    -2
100
AcDbLine
 10
12.03750025180024
 20
7.78406907925312
 30
0.0
 11
12.03750025180024
 21
7.887664317345071
 31
0.0
  0
SOLID
  5
B56A7A5C3AE638AF
330
B56A7A5C3AE63842
100
AcDbEntity
  8
DIM
 62
     7
440
 16777216
100
AcDbTrace
 10
11.99583358513357
 20
8.760069079246276
 30
0.0
 11
12.07916691846691
 21
8.760069079246274
 31
0.0
 12
12.03750025180024
 22
9.010069079246274
 32
0.0
 13
12.03750025180024
 23
9.010069079246274
 33
0.0
  0
SOLID
  5
B56A7A5C3AE638B0
330
B56A7A5C3AE63842
100
AcDbEntity
  8
DIM
 62
     7
440
 16777216
100
AcDbTrace
 10
11.99583358513357
 20
7.78406907925312
 30
0.0
 11
12.07916691846691
 21
7.78406907925312
 31
0.0
 12
12.03750025180024
 22
7.53406907925312
 32
0.0
 13
12.03750025180024
 23
7.53406907925312
 33
0.0
  0
MTEXT
  5
B56A7A5C3AE638B1
330
B56A7A5C3AE63842
100
AcDbEntity
  8
DIM
440
 16777216
100
AcDbMText
 10
12.03750025180024
 20
8.189569079249835
 30
0.0
 40
0.16
 41
0.0
 46
0.0
 71
     5
 72
     1
  1
\A1;1 1/2"
  7
ROMANS
 73
     1
 44
1.0
  0
POINT
  5
B56A7A5C3AE638B2
330
B56A7A5C3AE63842
100
AcDbEntity
  8
DEFPOINTS
 62
     0
440
 16777216
100
AcDbPoint
 10
12.51970264901476
 20
9.010069079246274
 30
0.0
  0
POINT
  5
B56A7A5C3AE638B3
330
B56A7A5C3AE63842
100
AcDbEntity
  8
DEFPOINTS
 62
     0
440
 16777216
100
AcDbPoint
 10
13.76470264901481
 20
7.53406907925312
 30
0.0
  0
POINT
  5
B56A7A5C3AE638B4
330
B56A7A5C3AE63842
100
AcDbEntity
  8
DEFPOINTS
 62
     0
440
 16777216
100
AcDbPoint
 10
12.03750025180024
 20
7.53406907925312
 30
0.0
  0
ENDBLK
  5
B56A7A5C3AE63844
330
B56A7A5C3AE63842
100
AcDbEntity
  8
0
100
AcDbBlockEnd
  0
BLOCK
  5
B56A7A5C3AE63850
330
B56A7A5C3AE6384F
100
AcDbEntity
  8
0
100
AcDbBlockBegin
  2
*D19
 70
     1
 10
0.0
 20
0.0
 30
0.0
  3
*D19
  1

  0
LINE
  5
B56A7A5C3AE638B5
330
B56A7A5C3AE6384F
100
AcDbEntity
  8
DIM
 62
     7
440
 16777216
370
    -2
100
AcDbLine
 10
16.36461347265723
 20
11.25206911588479
 30
0.0
 11
13.85637902817869
 21
11.25206911588479
 31
0.0
  0
LINE
  5
B56A7A5C3AE638B6
330
B56A7A5C3AE6384F
100
AcDbEntity
  8
DIM
 62
     7
440
 16777216
370
    -2
100
AcDbLine
 10
12.60970264901476
 20
9.010069079246274
 30
0.0
 11
14.17637902817869
 21
9.010069079246274
 31
0.0
  0
LINE
  5
B56A7A5C3AE638B7
330
B56A7A5C3AE6384F
100
AcDbEntity
  8
DIM
 62
     7
440
 16777216
370
    -2
100
AcDbLine
 10
14.01637902817869
 20
11.00206911588479
 30
0.0
 11
14.01637902817869
 21
10.53568067426817
 31
0.0
  0
LINE
  5
B56A7A5C3AE638B8
330
B56A7A5C3AE6384F
100
AcDbEntity
  8
DIM
 62
     7
440
 16777216
370
    -2
100
AcDbLine
 10
14.01637902817869
 20
9.260069079246274
 30
0.0
 11
14.01637902817869
 21
9.931871150458652
 31
0.0
  0
SOLID
  5
B56A7A5C3AE638B9
330
B56A7A5C3AE6384F
100
AcDbEntity
  8
DIM
 62
     7
440
 16777216
100
AcDbTrace
 10
13.97471236151202
 20
11.00206911588479
 30
0.0
 11
14.05804569484535
 21
11.00206911588479
 31
0.0
 12
14.01637902817869
 22
11.25206911588479
 32
0.0
 13
14.01637902817869
 23
11.25206911588479
 33
0.0
  0
SOLID
  5
B56A7A5C3AE638BA
330
B56A7A5C3AE6384F
100
AcDbEntity
  8
DIM
 62
     7
440
 16777216
100
AcDbTrace
 10
13.97471236151202
 20
9.260069079246274
 30
0.0
 11
14.05804569484535
 21
9.260069079246274
 31
0.0
 12
14.01637902817869
 22
9.010069079246274
 32
0.0
 13
14.01637902817869
 23
9.010069079246274
 33
0.0
  0
MTEXT
  5
B56A7A5C3AE638BB
330
B56A7A5C3AE6384F
100
AcDbEntity
  8
DIM
440
 16777216
100
AcDbMText
 10
14.01637902817869
 20
10.23377591236342
 30
0.0
 40
0.16
 41
0.0
 46
0.0
 71
     5
 72
     1
  1
\A1;2 1/4"
  7
ROMANS
 73
     1
 44
1.0
  0
POINT
  5
B56A7A5C3AE638BC
330
B56A7A5C3AE6384F
100
AcDbEntity
  8
DEFPOINTS
 62
     0
440
 16777216
100
AcDbPoint
 10
16.45461347265723
 20
11.25206911588479
 30
0.0
  0
POINT
  5
B56A7A5C3AE638BD
330
B56A7A5C3AE6384F
100
AcDbEntity
  8
DEFPOINTS
 62
     0
440
 16777216
100
AcDbPoint
 10
12.51970264901476
 20
9.010069079246274
 30
0.0
  0
POINT
  5
B56A7A5C3AE638BE
330
B56A7A5C3AE6384F
100
AcDbEntity
  8
DEFPOINTS
 62
     0
440
 16777216
100
AcDbPoint
 10
14.01637902817869
 20
9.010069079246274
 30
0.0
  0
ENDBLK
  5
B56A7A5C3AE63851
330
B56A7A5C3AE6384F
100
AcDbEntity
  8
0
100
AcDbBlockEnd
  0
BLOCK
  5
B56A7A5C3AE6385D
330
B56A7A5C3AE6385C
100
AcDbEntity
  8
0
100
AcDbBlockBegin
  2
*D20
 70
     1
 10
0.0
 20
0.0
 30
0.0
  3
*D20
  1

  0
LINE
  5
B56A7A5C3AE638BF
330
B56A7A5C3AE6385C
100
AcDbEntity
  8
DIM
 62
     7
440
 16777216
370
    -2
100
AcDbLine
 10
16.42211347265721
 20
11.30956911588477
 30
0.0
 11
16.42211347265721
 21
11.89049479870972
 31
0.0
  0
LINE
  5
B56A7A5C3AE638C0
330
B56A7A5C3AE6385C
100
AcDbEntity
  8
DIM
 62
     7
440
 16777216
370
    -2
100
AcDbLine
 10
18.95924997384812
 20
9.812554063080055
 30
0.0
 11
18.95924997384812
 21
11.89049479870972
 31
0.0
  0
LINE
  5
B56A7A5C3AE638C1
330
B56A7A5C3AE6385C
100
AcDbEntity
  8
DIM
 62
     7
440
 16777216
370
    -2
100
AcDbLine
 10
16.67211347265721
 20
11.73049479870972
 30
0.0
 11
16.99166568081294
 21
11.73049479870972
 31
0.0
  0
LINE
  5
B56A7A5C3AE638C2
330
B56A7A5C3AE6385C
100
AcDbEntity
  8
DIM
 62
     7
440
 16777216
370
    -2
100
AcDbLine
 10
18.70924997384811
 20
11.73049479870972
 30
0.0
 11
18.3896226144282
 21
11.73049479870972
 31
0.0
  0
SOLID
  5
B56A7A5C3AE638C3
330
B56A7A5C3AE6385C
100
AcDbEntity
  8
DIM
 62
     7
440
 16777216
100
AcDbTrace
 10
16.67211347265721
 20
11.77216146537639
 30
0.0
 11
16.67211347265721
 21
11.68882813204306
 31
0.0
 12
16.42211347265721
 22
11.73049479870972
 32
0.0
 13
16.42211347265721
 23
11.73049479870972
 33
0.0
  0
SOLID
  5
B56A7A5C3AE638C4
330
B56A7A5C3AE6385C
100
AcDbEntity
  8
DIM
 62
     7
440
 16777216
100
AcDbTrace
 10
18.70924997384811
 20
11.77216146537639
 30
0.0
 11
18.70924997384811
 21
11.68882813204306
 31
0.0
 12
18.95924997384812
 22
11.73049479870972
 32
0.0
 13
18.95924997384812
 23
11.73049479870972
 33
0.0
  0
MTEXT
  5
B56A7A5C3AE638C5
330
B56A7A5C3AE6385C
100
AcDbEntity
  8
DIM
440
 16777216
100
AcDbMText
 10
17.69064414762057
 20
11.73049479870972
 30
0.0
 40
0.16
 41
0.0
 46
0.0
 71
     5
 72
     1
  1
\A1;2 9/16"
  7
ROMANS
 73
     1
 44
1.0
  0
POINT
  5
B56A7A5C3AE638C6
330
B56A7A5C3AE6385C
100
AcDbEntity
  8
DEFPOINTS
 62
     0
440
 16777216
100
AcDbPoint
 10
16.42211347265721
 20
11.21956911588477
 30
0.0
  0
POINT
  5
B56A7A5C3AE638C7
330
B56A7A5C3AE6385C
100
AcDbEntity
  8
DEFPOINTS
 62
     0
440
 16777216
100
AcDbPoint
 10
18.95924997384812
 20
9.722554063080055
 30
0.0
  0
POINT
  5
B56A7A5C3AE638C8
330
B56A7A5C3AE6385C
100
AcDbEntity
  8
DEFPOINTS
 62
     0
440
 16777216
100
AcDbPoint
 10
18.95924997384812
 20
11.73049479870972
 30
0.0
  0
ENDBLK
  5
B56A7A5C3AE6385E
330
B56A7A5C3AE6385C
100
AcDbEntity
  8
0
100
AcDbBlockEnd
  0
BLOCK
  5
B56A7A5C3AE6386A
330
B56A7A5C3AE63869
100
AcDbEntity
  8
0
100
AcDbBlockBegin
  2
*D21
 70
     1
 10
0.0
 20
0.0
 30
0.0
  3
*D21
  1

  0
LINE
  5
B56A7A5C3AE638C9
330
B56A7A5C3AE63869
100
AcDbEntity
  8
DIM
 62
     7
440
 16777216
370
    -2
100
AcDbLine
 10
24.42220264477626
 20
11.30956911588477
 30
0.0
 11
24.42220264477626
 21
11.90664137362749
 31
0.0
  0
LINE
  5
B56A7A5C3AE638CA
330
B56A7A5C3AE63869
100
AcDbEntity
  8
DIM
 62
     7
440
 16777216
370
    -2
100
AcDbLine
 10
28.35970264053774
 20
9.065069079246356
 30
0.0
 11
28.35970264053774
 21
11.90664137362749
 31
0.0
  0
LINE
  5
B56A7A5C3AE638CB
330
B56A7A5C3AE63869
100
AcDbEntity
  8
DIM
 62
     7
440
 16777216
370
    -2
100
AcDbLine
 10
24.67220264477627
 20
11.74664137362749
 30
0.0
 11
25.33722058910328
 21
11.74664137362749
 31
0.0
  0
LINE
  5
B56A7A5C3AE638CC
330
B56A7A5C3AE63869
100
AcDbEntity
  8
DIM
 62
     7
440
 16777216
370
    -2
100
AcDbLine
 10
28.10970264053774
 20
11.74664137362749
 30
0.0
 11
26.88218470044934
 21
11.74664137362749
 31
0.0
  0
SOLID
  5
B56A7A5C3AE638CD
330
B56A7A5C3AE63869
100
AcDbEntity
  8
DIM
 62
     7
440
 16777216
100
AcDbTrace
 10
24.67220264477627
 20
11.78830804029415
 30
0.0
 11
24.67220264477627
 21
11.70497470696082
 31
0.0
 12
24.42220264477626
 22
11.74664137362749
 32
0.0
 13
24.42220264477626
 23
11.74664137362749
 33
0.0
  0
SOLID
  5
B56A7A5C3AE638CE
330
B56A7A5C3AE63869
100
AcDbEntity
  8
DIM
 62
     7
440
 16777216
100
AcDbTrace
 10
28.10970264053774
 20
11.78830804029415
 30
0.0
 11
28.10970264053774
 21
11.70497470696082
 31
0.0
 12
28.35970264053774
 22
11.74664137362749
 32
0.0
 13
28.35970264053774
 23
11.74664137362749
 33
0.0
  0
MTEXT
  5
B56A7A5C3AE638CF
330
B56A7A5C3AE63869
100
AcDbEntity
  8
DIM
440
 16777216
100
AcDbMText
 10
26.10970264477631
 20
11.74664137362749
 30
0.0
 40
0.16
 41
0.0
 46
0.0
 71
     5
 72
     1
  1
\A1;3 15/16"
  7
ROMANS
 73
     1
 44
1.0
  0
POINT
  5
B56A7A5C3AE638D0
330
B56A7A5C3AE63869
100
AcDbEntity
  8
DEFPOINTS
 62
     0
440
 16777216
100
AcDbPoint
 10
24.42220264477626
 20
11.21956911588477
 30
0.0
  0
POINT
  5
B56A7A5C3AE638D1
330
B56A7A5C3AE63869
100
AcDbEntity
  8
DEFPOINTS
 62
     0
440
 16777216
100
AcDbPoint
 10
28.35970264053774
 20
8.975069079246356
 30
0.0
  0
POINT
  5
B56A7A5C3AE638D2
330
B56A7A5C3AE63869
100
AcDbEntity
  8
DEFPOINTS
 62
     0
440
 16777216
100
AcDbPoint
 10
28.35970264053774
 20
11.74664137362749
 30
0.0
  0
ENDBLK
  5
B56A7A5C3AE6386B
330
B56A7A5C3AE63869
100
AcDbEntity
  8
0
100
AcDbBlockEnd
  0
BLOCK
  5
B56A7A5C3AE63877
330
B56A7A5C3AE63876
100
AcDbEntity
  8
0
100
AcDbBlockBegin
  2
*D22
 70
     1
 10
0.0
 20
0.0
 30
0.0
  3
*D22
  1

  0
LINE
  5
B56A7A5C3AE638D3
330
B56A7A5C3AE63876
100
AcDbEntity
  8
DIM
 62
     7
440
 16777216
370
    -2
100
AcDbLine
 10
10.96787417614275
 20
21.40089421366704
 30
0.0
 11
14.34986652128113
 21
21.40089421366704
 31
0.0
  0
LINE
  5
B56A7A5C3AE638D4
330
B56A7A5C3AE63876
100
AcDbEntity
  8
DIM
 62
     7
440
 16777216
370
    -2
100
AcDbLine
 10
13.21268758952835
 20
17.46348479298107
 30
0.0
 11
14.34986652128113
 21
17.46348479298107
 31
0.0
  0
LINE
  5
B56A7A5C3AE638D5
330
B56A7A5C3AE63876
100
AcDbEntity
  8
DIM
 62
     7
440
 16777216
370
    -2
100
AcDbLine
 10
14.18986652128113
 20
21.15089421366704
 30
0.0
 11
14.18986652128113
 21
19.73409426522881
 31
0.0
  0
LINE
  5
B56A7A5C3AE638D6
330
B56A7A5C3AE63876
100
AcDbEntity
  8
DIM
 62
     7
440
 16777216
370
    -2
100
AcDbLine
 10
14.18986652128113
 20
17.71348479298107
 30
0.0
 11
14.18986652128113
 21
19.13028474141929
 31
0.0
  0
SOLID
  5
B56A7A5C3AE638D7
330
B56A7A5C3AE63876
100
AcDbEntity
  8
DIM
 62
     7
440
 16777216
100
AcDbTrace
 10
14.14819985461447
 20
21.15089421366704
 30
0.0
 11
14.2315331879478
 21
21.15089421366704
 31
0.0
 12
14.18986652128113
 22
21.40089421366704
 32
0.0
 13
14.18986652128113
 23
21.40089421366704
 33
0.0
  0
SOLID
  5
B56A7A5C3AE638D8
330
B56A7A5C3AE63876
100
AcDbEntity
  8
DIM
 62
     7
440
 16777216
100
AcDbTrace
 10
14.14819985461446
 20
17.71348479298107
 30
0.0
 11
14.2315331879478
 21
17.71348479298107
 31
0.0
 12
14.18986652128113
 22
17.46348479298107
 32
0.0
 13
14.18986652128113
 23
17.46348479298107
 33
0.0
  0
MTEXT
  5
B56A7A5C3AE638D9
330
B56A7A5C3AE63876
100
AcDbEntity
  8
DIM
440
 16777216
100
AcDbMText
 10
14.18986652128113
 20
19.43218950332406
 30
0.0
 40
0.16
 41
0.0
 46
0.0
 71
     5
 72
     1
  1
\A1;3 15/16"
  7
ROMANS
 73
     1
 44
1.0
  0
POINT
  5
B56A7A5C3AE638DA
330
B56A7A5C3AE63876
100
AcDbEntity
  8
DEFPOINTS
 62
     0
440
 16777216
100
AcDbPoint
 10
10.87787417614275
 20
21.40089421366704
 30
0.0
  0
POINT
  5
B56A7A5C3AE638DB
330
B56A7A5C3AE63876
100
AcDbEntity
  8
DEFPOINTS
 62
     0
440
 16777216
100
AcDbPoint
 10
13.12268758952835
 20
17.46348479298107
 30
0.0
  0
POINT
  5
B56A7A5C3AE638DC
330
B56A7A5C3AE63876
100
AcDbEntity
  8
DEFPOINTS
 62
     0
440
 16777216
100
AcDbPoint
 10
14.18986652128113
 20
17.46348479298107
 30
0.0
  0
ENDBLK
  5
B56A7A5C3AE63878
330
B56A7A5C3AE63876
100
AcDbEntity
  8
0
100
AcDbBlockEnd
  0
ENDSEC
  0
SECTION
  2
ENTITIES
  0
INSERT
  5
2C6FD
330
B56A7A5C3AE5E797
100
AcDbEntity
  8
0
100
AcDbBlockReference
  2
ACAD1
 10
42.98720334360906
 20
26.32246384250237
 30
0.0
 41
0.2
 42
0.2
 43
0.2
  0
INSERT
  5
2CDE3
330
B56A7A5C3AE5E797
100
AcDbEntity
  8
0
100
AcDbBlockReference
  2
ACAD1
 10
27.91371297571162
 20
55.05638196569197
 30
0.0
 41
0.02
 42
0.02
 43
0.02
  0
INSERT
  5
2D39D
330
B56A7A5C3AE5E797
100
AcDbEntity
  8
0
100
AcDbBlockReference
  2
ACAD1
 10
241.0990921742116
 20
36.31468213220049
 30
0.0
 41
0.2
 42
0.2
 43
0.2
  0
INSERT
  5
B56A7A5C3AE6039B
330
B56A7A5C3AE5E797
100
AcDbEntity
  8
DIM
100
AcDbBlockReference
  2
AS extents block
 10
29.50749573247898
 20
4.850267244930542
 30
0.0
 50
90.0
1001
MTVPROFILELINK
1002
{
1000
#BlockRef=9e8b4fc7-0x2-11d8-A62E-005004E2D0E9|
1002
}
1005
0
  0
CIRCLE
  5
B56A7A5C3AE637C0
330
B56A7A5C3AE5E797
100
AcDbEntity
  8
DIM
100
AcDbCircle
 10
9.386123339401976
 20
16.27315468623721
 30
0.0
 40
0.24
  0
TEXT
  5
B56A7A5C3AE637C1
330
B56A7A5C3AE5E797
100
AcDbEntity
  8
DIM
100
AcDbText
 10
9.362313815592452
 20
16.17315468623721
 30
0.0
 40
0.2
  1
1
 51
10.0
  7
SIMPLEX
 72
     1
 11
9.386123339401976
 21
16.27315468623721
 31
0.0
100
AcDbText
 73
     2
  0
CIRCLE
  5
B56A7A5C3AE637C2
330
B56A7A5C3AE5E797
100
AcDbEntity
  8
DIM
100
AcDbCircle
 10
9.309534258874023
 20
13.16387491770146
 30
0.0
 40
0.24
  0
TEXT
  5
B56A7A5C3AE637C3
330
B56A7A5C3AE5E797
100
AcDbEntity
  8
DIM
100
AcDbText
 10
9.242867592207357
 20
13.06387491770146
 30
0.0
 40
0.2
  1
2
 51
10.0
  7
SIMPLEX
 72
     1
 11
9.309534258874023
 21
13.16387491770146
 31
0.0
100
AcDbText
 73
     2
  0
TEXT
  5
B56A7A5C3AE637C4
330
B56A7A5C3AE5E797
100
AcDbEntity
  8
DIM
100
AcDbText
 10
17.52446406454421
 20
7.331695180744501
 30
0.0
 40
0.2
  1
3
 51
10.0
  7
SIMPLEX
 72
     4
 11
17.59113073121087
 21
7.431695180744501
 31
0.0
100
AcDbText
  0
CIRCLE
  5
B56A7A5C3AE637C5
330
B56A7A5C3AE5E797
100
AcDbEntity
  8
DIM
100
AcDbCircle
 10
17.59113073121087
 20
7.431695180744501
 30
0.0
 40
0.24
  0
DIMENSION
  5
B56A7A5C3AE637C6
330
B56A7A5C3AE5E797
100
AcDbEntity
  8
DIM
100
AcDbDimension
280
     0
  2
*D14
 10
14.18986652128113
 20
14.92634829179016
 30
0.0
 11
14.18986652128113
 21
16.19495411801767
 31
0.0
 70
   160
 71
     5
 42
2.537136501190909
 73
     0
 74
     0
 75
     0
  3
ASWhite
100
AcDbAlignedDimension
 13
13.12268756952835
 23
17.46348479298107
 33
0.0
 14
11.62567253672363
 24
14.92634829179016
 34
0.0
 50
90.0
100
AcDbRotatedDimension
  0
MTEXT
  5
B56A7A5C3AE637C7
330
B56A7A5C3AE5E797
100
AcDbEntity
  8
DIM
100
AcDbMText
 10
21.96720577569022
 20
19.56874824520324
 30
0.0
 40
0.3
 41
6.184477999999999
 46
0.0
 71
     5
 72
     5
  1
Harvey Building Products\PN.C. Vinyl Picture Window\Pw/ Flat Casing\P{\H0.8333x;(1/2 Scale)}
  7
TAHOMA
 73
     1
 44
1.0
  0
MTEXT
  5
B56A7A5C3AE637C8
330
B56A7A5C3AE5E797
100
AcDbEntity
  8
DIM
100
AcDbMText
 10
21.85755933731246
 20
12.99910532620767
 30
0.0
 40
0.2
 41
6.184477999999999
 46
0.0
 71
     5
 72
     5
  1
{\Fromans|c0;(1/20)}
  7
TAHOMA
 73
     1
 44
1.0
  0
DIMENSION
  5
B56A7A5C3AE637C9
330
B56A7A5C3AE5E797
100
AcDbEntity
  8
DIM
100
AcDbDimension
280
     0
  2
*D15
 10
27.1097026405377
 20
6.671665171186395
 30
0.0
 11
21.22534415619846
 21
6.671665171186395
 31
0.0
 70
   160
  1
Window Width + 5 3/8"
 71
     5
 42
13.37499999152289
 73
     0
 74
     0
 75
     0
  3
ASWhite
100
AcDbAlignedDimension
 13
13.7347026490148
 23
7.564069079253114
 33
0.0
 14
27.1097026405377
 24
7.564069079253222
 34
0.0
100
AcDbRotatedDimension
  0
DIMENSION
  5
B56A7A5C3AE637CA
330
B56A7A5C3AE5E797
100
AcDbEntity
  8
DIM
100
AcDbDimension
280
     0
  2
*D16
 10
8.891000911578347
 20
9.27589562510059
 30
0.0
 11
8.891000911578345
 21
14.48482574824449
 31
0.0
 70
   160
  1
Window Height \P+ 5 3/8"
 71
     5
 42
10.87499999152289
 73
     0
 74
     0
 75
     0
  3
ASWhite
100
AcDbAlignedDimension
 13
9.467187552896874
 23
20.15089561662348
 33
0.0
 14
9.467187552896859
 24
9.27589562510059
 34
0.0
 50
90.0
100
AcDbRotatedDimension
  0
DIMENSION
  5
B56A7A5C3AE637CB
330
B56A7A5C3AE5E797
100
AcDbEntity
  8
DIM
100
AcDbDimension
280
     0
  2
*D17
 10
16.73470264901481
 20
7.071567189887899
 30
0.0
 11
15.48461347265718
 21
7.071567189887899
 31
0.0
 70
   160
 71
     5
 42
3.0
 73
     0
 74
     0
 75
     0
  3
ASWhite
100
AcDbAlignedDimension
 13
13.7347026490148
 23
7.564069079253114
 33
0.0
 14
16.73470264901481
 24
7.997069075877787
 34
0.0
100
AcDbRotatedDimension
  0
DIMENSION
  5
B56A7A5C3AE637CC
330
B56A7A5C3AE5E797
100
AcDbEntity
  8
DIM
100
AcDbDimension
280
     0
  2
*D18
 10
12.03750025180024
 20
7.53406907925312
 30
0.0
 11
12.03750025180024
 21
8.189569079249835
 31
0.0
 70
   160
 71
     5
 42
1.475999999993155
 73
     0
 74
     0
 75
     0
  3
ASWhite
100
AcDbAlignedDimension
 13
12.51970264901476
 23
9.010069079246274
 33
0.0
 14
13.76470264901481
 24
7.53406907925312
 34
0.0
 50
270.0
100
AcDbRotatedDimension
  0
DIMENSION
  5
B56A7A5C3AE637CD
330
B56A7A5C3AE5E797
100
AcDbEntity
  8
DIM
100
AcDbDimension
280
     0
  2
*D19
 10
14.01637902817869
 20
9.010069079246274
 30
0.0
 11
14.01637902817869
 21
10.23377591236342
 31
0.0
 70
   160
 71
     5
 42
2.242000036638513
 73
     0
 74
     0
 75
     0
  3
ASWhite
100
AcDbAlignedDimension
 13
16.45461347265723
 23
11.25206911588479
 33
0.0
 14
12.51970264901476
 24
9.010069079246274
 34
0.0
 50
270.0
100
AcDbRotatedDimension
  0
DIMENSION
  5
B56A7A5C3AE637CE
330
B56A7A5C3AE5E797
100
AcDbEntity
  8
DIM
100
AcDbDimension
280
     0
  2
*D20
 10
18.95924997384812
 20
11.73049479870972
 30
0.0
 11
17.69064414762057
 21
11.73049479870972
 31
0.0
 70
   160
 71
     5
 42
2.5371365011909
 73
     0
 74
     0
 75
     0
  3
ASWhite
100
AcDbAlignedDimension
 13
16.42211347265721
 23
11.21956911588477
 33
0.0
 14
18.95924997384812
 24
9.722554063080055
 34
0.0
100
AcDbRotatedDimension
  0
DIMENSION
  5
B56A7A5C3AE637CF
330
B56A7A5C3AE5E797
100
AcDbEntity
  8
DIM
100
AcDbDimension
280
     0
  2
*D21
 10
28.35970264053774
 20
11.74664137362749
 30
0.0
 11
26.10970264477631
 21
11.74664137362749
 31
0.0
 70
   160
 71
     5
 42
3.937499995761477
 73
     0
 74
     0
 75
     0
  3
ASWhite
100
AcDbAlignedDimension
 13
24.42220264477626
 23
11.21956911588477
 33
0.0
 14
28.35970264053774
 24
8.975069079246356
 34
0.0
100
AcDbRotatedDimension
  0
DIMENSION
  5
B56A7A5C3AE637D0
330
B56A7A5C3AE5E797
100
AcDbEntity
  8
DIM
100
AcDbDimension
280
     0
  2
*D22
 10
14.18986652128113
 20
17.46348479298107
 30
0.0
 11
14.18986652128113
 21
19.43218950332406
 31
0.0
 70
    32
 71
     5
 42
3.937409420685966
 73
     0
 74
     0
 75
     0
  3
ASWhite
100
AcDbAlignedDimension
 13
10.87787417614275
 23
21.40089421366704
 33
0.0
 14
13.12268758952835
 24
17.46348479298107
 34
0.0
 50
90.0
100
AcDbRotatedDimension
  0
LINE
  5
B56A7A5C3AE637D1
330
B56A7A5C3AE5E797
100
AcDbEntity
  8
DIM
100
AcDbLine
 10
20.25189155604716
 20
14.95676131080381
 30
0.0
 11
19.29901945487013
 21
14.95676131080381
 31
0.0
  0
TEXT
  5
B56A7A5C3AE637D2
330
B56A7A5C3AE5E797
100
AcDbEntity
  8
DIM
100
AcDbText
 10
21.73823333108191
 20
17.63263581097109
 30
0.0
 40
0.2
  1
1
 51
10.0
  7
SIMPLEX
 72
     1
 11
21.76204285489143
 21
17.7326358109711
 31
0.0
100
AcDbText
 73
     2
  0
CIRCLE
  5
B56A7A5C3AE637D3
330
B56A7A5C3AE5E797
100
AcDbEntity
  8
DIM
100
AcDbCircle
 10
21.79315645603741
 20
17.7326358109711
 30
0.0
 40
0.24
  0
TEXT
  5
B56A7A5C3AE637D4
330
B56A7A5C3AE5E797
100
AcDbEntity
  8
DIM
100
AcDbText
 10
21.69186796031011
 20
14.5514163692875
 30
0.0
 40
0.2
  1
2
 51
10.0
  7
SIMPLEX
 72
     1
 11
21.75853462697677
 21
14.6514163692875
 31
0.0
100
AcDbText
 73
     2
  0
CIRCLE
  5
B56A7A5C3AE637D5
330
B56A7A5C3AE5E797
100
AcDbEntity
  8
DIM
100
AcDbCircle
 10
21.75853462697677
 20
14.6514163692875
 30
0.0
 40
0.24
  0
TEXT
  5
B56A7A5C3AE637D6
330
B56A7A5C3AE5E797
100
AcDbEntity
  8
DIM
100
AcDbText
 10
18.99235278820346
 20
14.85676131080381
 30
0.0
 40
0.2
  1
3
 51
10.0
  7
SIMPLEX
 72
     1
 11
19.05901945487013
 21
14.95676131080381
 31
0.0
100
AcDbText
 73
     2
  0
CIRCLE
  5
B56A7A5C3AE637D7
330
B56A7A5C3AE5E797
100
AcDbEntity
  8
DIM
100
AcDbCircle
 10
19.05901945487013
 20
14.95676131080381
 30
0.0
 40
0.24
  0
LINE
  5
B56A7A5C3AE637D8
330
B56A7A5C3AE5E797
100
AcDbEntity
  8
DIM
100
AcDbLine
 10
21.79315645603741
 20
17.49263581097109
 30
0.0
 11
21.79315645603741
 21
16.62933698851506
 31
0.0
  0
LINE
  5
B56A7A5C3AE637D9
330
B56A7A5C3AE5E797
100
AcDbEntity
  8
DIM
100
AcDbLine
 10
21.75853462697677
 20
14.4114163692875
 30
0.0
 11
21.75853462697677
 21
13.40477587212286
 31
0.0
  0
INSERT
  5
B56A7A5C3AE637DA
330
B56A7A5C3AE5E797
100
AcDbEntity
  8
0
100
AcDbBlockReference
 66
     1
  2
Architechural Drawing Foot-Note
 10
8.770711048343954
 20
5.858717849699823
 30
0.0
1001
MTVPROFILELINK
1002
{
1000
#BlockRef=c9ca7210-0x5343-472e-96A6-71CCABC8FD9D| 
1002
}
1005
0
  0
ATTRIB
  5
B56A7A5C3AE637DB
330
B56A7A5C3AE637DA
100
AcDbEntity
  8
THIN
100
AcDbText
 10
9.520623972100537
 20
5.859685690436909
 30
0.0
 40
0.18
  1
02/18
 51
10.0
  7
ROMANS
100
AcDbAttribute
280
     0
  2
REV:
 70
     0
280
     0
  0
ATTRIB
  5
B56A7A5C3AE637DC
330
B56A7A5C3AE637DA
100
AcDbEntity
  8
THIN
100
AcDbText
 10
28.08908514172851
 20
5.808889223307035
 30
0.0
 40
0.25
  1
396
 51
10.0
  7
ROMANS
100
AcDbAttribute
280
     0
  2
AS#
 70
     0
280
     0
  0
SEQEND
  5
B56A7A5C3AE637DD
330
B56A7A5C3AE637DA
100
AcDbEntity
  8
0
  0
INSERT
  5
B56A7A5C3AE637DE
330
B56A7A5C3AE5E797
100
AcDbEntity
  8
THIN
100
AcDbBlockReference
  2
A$C3D1746A9
 10
17.96672062587805
 20
11.25206908299964
 30
0.0
 50
270.0
  0
INSERT
  5
B56A7A5C3AE637DF
330
B56A7A5C3AE5E797
100
AcDbEntity
  8
THIN
100
AcDbBlockReference
  2
678_IG_Break
 10
20.39720264477624
 20
9.696803205249858
 30
0.0
 41
-1.0
 50
180.0
1001
MTVPROFILELINK
1002
{
1000
#BlockRef=41e95379-0xdf06-4d4b-8A41-67856E9440A6| 
1002
}
1005
0
  0
INSERT
  5
B56A7A5C3AE637E0
330
B56A7A5C3AE5E797
100
AcDbEntity
  8
CYAN
100
AcDbBlockReference
  2
A$C390C7DD8
 10
18.29720261871116
 20
9.016819083365119
 30
0.0
 41
-1.0
 50
270.0
  0
INSERT
  5
B56A7A5C3AE637E1
330
B56A7A5C3AE5E797
100
AcDbEntity
  8
THIN
100
AcDbBlockReference
  2
A$C3D1746A9
 10
22.87768466367445
 20
11.25206908299964
 30
0.0
 41
-1.0
 50
90.0
  0
INSERT
  5
B56A7A5C3AE637E2
330
B56A7A5C3AE5E797
100
AcDbEntity
  8
CYAN
100
AcDbBlockReference
  2
A$C390C7DD8
 10
22.54720267084127
 20
9.016819083365119
 30
0.0
 50
90.0
  0
INSERT
  5
B56A7A5C3AE637E3
330
B56A7A5C3AE5E797
100
AcDbEntity
  8
THIN
100
AcDbBlockReference
  2
A$C3D1746A9
 10
13.15518755664321
 20
13.50791360196383
 30
0.0
 41
-1.0
  0
INSERT
  5
B56A7A5C3AE637E4
330
B56A7A5C3AE5E797
100
AcDbEntity
  8
THIN
100
AcDbBlockReference
  2
A$C3D1746A9
 10
13.15518755664322
 20
15.91887763976023
 30
0.0
 50
180.0
  0
INSERT
  5
B56A7A5C3AE637E5
330
B56A7A5C3AE5E797
100
AcDbEntity
  8
THIN
100
AcDbBlockReference
  2
678_IG_Break
 10
11.59992167889343
 20
14.68839562086203
 30
0.0
 50
90.0
1001
MTVPROFILELINK
1002
{
1000
#BlockRef=41e95379-0xdf06-4d4b-8A41-67856E9440A6| 
1002
}
1005
0
  0
INSERT
  5
B56A7A5C3AE637E6
330
B56A7A5C3AE5E797
100
AcDbEntity
  8
CYAN
100
AcDbBlockReference
  2
A$C232861D4
 10
10.91993757728316
 20
13.83839563282536
 30
0.0
  0
INSERT
  5
B56A7A5C3AE637E7
330
B56A7A5C3AE5E797
100
AcDbEntity
  8
CYAN
100
AcDbBlockReference
  2
A$C232861D4
 10
10.91993757728316
 20
15.5883956088987
 30
0.0
 41
-1.0
 50
180.0
  0
INSERT
  5
B56A7A5C3AE637E8
330
B56A7A5C3AE5E797
100
AcDbEntity
  8
10
100
AcDbBlockReference
  2
A$C2E0304CA
 10
9.870187541204401
 20
17.30696731917887
 30
0.0
  0
INSERT
  5
B56A7A5C3AE637E9
330
B56A7A5C3AE5E797
100
AcDbEntity
  8
10
100
AcDbBlockReference
  2
A$C2E0304CA
 10
9.870187541204394
 20
11.76450088275192
 30
0.0
  0
INSERT
  5
B56A7A5C3AE637EA
330
B56A7A5C3AE5E797
100
AcDbEntity
  8
10
100
AcDbBlockReference
  2
A$C2E0304CA
 10
16.23370823164948
 20
7.967069067560819
 30
0.0
 41
-1.0
 50
270.0
  0
INSERT
  5
B56A7A5C3AE637EB
330
B56A7A5C3AE5E797
100
AcDbEntity
  8
10
100
AcDbBlockReference
  2
A$C2E0304CA
 10
24.26752982007963
 20
7.967069067560819
 30
0.0
 41
-1.0
 50
270.0
  0
INSERT
  5
B56A7A5C3AE637EC
330
B56A7A5C3AE5E797
100
AcDbEntity
  8
THIN
100
AcDbBlockReference
  2
B4823 small offset flat casing
 10
10.82818755289692
 20
17.72489561662348
 30
0.0
 41
-1.0
 50
90.0
1001
MTVPROFILELINK
1002
{
1000
#BlockRef=a127c25-0x7035-4a29-9E04-55E5A20013DE| 
1002
}
1005
0
  0
INSERT
  5
B56A7A5C3AE637ED
330
B56A7A5C3AE5E797
100
AcDbEntity
  8
THIN
100
AcDbBlockReference
  2
B4823 small offset flat casing
 10
10.8281875528969
 20
11.70189562510059
 30
0.0
 50
90.0
1001
MTVPROFILELINK
1002
{
1000
#BlockRef=a127c25-0x7035-4a29-9E04-55E5A20013DE| 
1002
}
1005
0
  0
INSERT
  5
B56A7A5C3AE637EE
330
B56A7A5C3AE5E797
100
AcDbEntity
  8
THIN
100
AcDbBlockReference
  2
B4823 small offset flat casing
 10
24.68370264053769
 20
8.925069079253249
 30
0.0
 50
180.0
1001
MTVPROFILELINK
1002
{
1000
#BlockRef=a127c25-0x7035-4a29-9E04-55E5A20013DE| 
1002
}
1005
0
  0
INSERT
  5
B56A7A5C3AE637EF
330
B56A7A5C3AE5E797
100
AcDbEntity
  8
THIN
100
AcDbBlockReference
  2
B4823 small offset flat casing
 10
16.16070264901481
 20
8.925069079253168
 30
0.0
 41
-1.0
 50
180.0
1001
MTVPROFILELINK
1002
{
1000
#BlockRef=a127c25-0x7035-4a29-9E04-55E5A20013DE| 
1002
}
1005
0
  0
INSERT
  5
B56A7A5C3AE637F0
330
B56A7A5C3AE5E797
100
AcDbEntity
  8
XTHIN
100
AcDbBlockReference
  2
PW Flat Casing 4-sides
 10
19.42317444963647
 20
13.64862747193874
 30
0.0
  0
LINE
  5
B56A7A5C3AE637F1
330
B56A7A5C3AE5E797
100
AcDbEntity
  8
XTHIN
100
AcDbLine
 10
20.06743434486262
 20
16.79186760536573
 30
0.0
 11
23.56641463417831
 21
16.79186760536573
 31
0.0
  0
LINE
  5
B56A7A5C3AE637F2
330
B56A7A5C3AE5E797
100
AcDbEntity
  8
XTHIN
100
AcDbLine
 10
23.5664146341783
 20
14.29288731605003
 30
0.0
 11
23.56641463417831
 21
16.79186760536573
 31
0.0
  0
LINE
  5
B56A7A5C3AE637F3
330
B56A7A5C3AE5E797
100
AcDbEntity
  8
XTHIN
100
AcDbLine
 10
20.06743434486262
 20
14.29288731605003
 30
0.0
 11
20.06743434486262
 21
16.79186760536573
 31
0.0
  0
LINE
  5
B56A7A5C3AE637F4
330
B56A7A5C3AE5E797
100
AcDbEntity
  8
XTHIN
100
AcDbLine
 10
20.06743434486262
 20
14.29288731605003
 30
0.0
 11
23.56641463417831
 21
14.29288731605003
 31
0.0
  0
LINE
  5
B56A7A5C3AE637F5
330
B56A7A5C3AE5E797
100
AcDbEntity
  8
XTHIN
100
AcDbLine
 10
19.85715216919397
 20
17.00214978103444
 30
0.0
 11
20.06743434486262
 21
16.79186760536573
 31
0.0
  0
LINE
  5
B56A7A5C3AE637F6
330
B56A7A5C3AE5E797
100
AcDbEntity
  8
XTHIN
100
AcDbLine
 10
20.06743434486262
 20
14.29288731605003
 30
0.0
 11
19.85715216919401
 21
14.08260514038138
 31
0.0
  0
LWPOLYLINE
  5
B56A7A5C3AE637F7
330
B56A7A5C3AE5E797
100
AcDbEntity
  8
XTHIN
100
AcDbPolyline
 90
        4
 70
     1
 43
0.0
 10
20.58967448952047
 20
14.12287510002558
 42
0.9999999999999998
 10
20.58967448952047
 20
14.09237510002559
 10
20.68867448952047
 20
14.09237510002559
 42
0.9999999999999998
 10
20.68867448952047
 20
14.12287510002558
  0
LWPOLYLINE
  5
B56A7A5C3AE637F8
330
B56A7A5C3AE5E797
100
AcDbEntity
  8
XTHIN
100
AcDbPolyline
 90
        4
 70
     1
 43
0.0
 10
22.94792448952046
 20
14.11662510002559
 10
22.94792448952046
 20
14.09862510002558
 10
23.04142448952047
 20
14.09862510002558
 10
23.04142448952047
 20
14.11662510002559
  0
LINE
  5
B56A7A5C3AE637F9
330
B56A7A5C3AE5E797
100
AcDbEntity
  8
XTHIN
100
AcDbLine
 10
20.0387907077003
 20
16.82051124252805
 30
0.0
 11
23.59505827134063
 21
16.82051124252805
 31
0.0
  0
LINE
  5
B56A7A5C3AE637FA
330
B56A7A5C3AE5E797
100
AcDbEntity
  8
XTHIN
100
AcDbLine
 10
20.05262448952047
 20
16.80667746070788
 30
0.0
 11
23.58122448952046
 21
16.80667746070788
 31
0.0
  0
LINE
  5
B56A7A5C3AE637FB
330
B56A7A5C3AE5E797
100
AcDbEntity
  8
XTHIN
100
AcDbLine
 10
23.59505827134063
 20
14.26424367888771
 30
0.0
 11
23.59505827134063
 21
16.82051124252805
 31
0.0
  0
LINE
  5
B56A7A5C3AE637FC
330
B56A7A5C3AE5E797
100
AcDbEntity
  8
XTHIN
100
AcDbLine
 10
23.58122448952046
 20
14.27807746070788
 30
0.0
 11
23.58122448952046
 21
16.80667746070788
 31
0.0
  0
LINE
  5
B56A7A5C3AE637FD
330
B56A7A5C3AE5E797
100
AcDbEntity
  8
XTHIN
100
AcDbLine
 10
20.0387907077003
 20
14.26424367888771
 30
0.0
 11
20.0387907077003
 21
16.82051124252805
 31
0.0
  0
LINE
  5
B56A7A5C3AE637FE
330
B56A7A5C3AE5E797
100
AcDbEntity
  8
XTHIN
100
AcDbLine
 10
20.05262448952047
 20
14.27807746070788
 30
0.0
 11
20.05262448952047
 21
16.80667746070788
 31
0.0
  0
LINE
  5
B56A7A5C3AE637FF
330
B56A7A5C3AE5E797
100
AcDbEntity
  8
XTHIN
100
AcDbLine
 10
20.0387907077003
 20
14.26424367888771
 30
0.0
 11
23.59505827134065
 21
14.26424367888771
 31
0.0
  0
LINE
  5
B56A7A5C3AE63800
330
B56A7A5C3AE5E797
100
AcDbEntity
  8
XTHIN
100
AcDbLine
 10
20.05262448952048
 20
14.27807746070788
 30
0.0
 11
23.58122448952046
 21
14.27807746070788
 31
0.0
  0
LINE
  5
B56A7A5C3AE63801
330
B56A7A5C3AE5E797
100
AcDbEntity
  8
XTHIN
100
AcDbLine
 10
23.77669680984695
 20
17.00214978103437
 30
0.0
 11
23.56641463417831
 21
16.79186760536573
 31
0.0
  0
LINE
  5
B56A7A5C3AE63802
330
B56A7A5C3AE5E797
100
AcDbEntity
  8
XTHIN
100
AcDbLine
 10
23.56641463417831
 20
14.29288731605003
 30
0.0
 11
23.77669680984705
 21
14.08260514038138
 31
0.0
  0
LWPOLYLINE
  5
B56A7A5C3AE63803
330
B56A7A5C3AE5E797
100
AcDbEntity
  8
XTHIN
100
AcDbPolyline
 90
        4
 70
     1
 43
0.0
 10
20.59242448952047
 20
14.11662510002559
 10
20.59242448952047
 20
14.09862510002558
 10
20.68592448952047
 20
14.09862510002558
 10
20.68592448952047
 20
14.11662510002559
  0
LWPOLYLINE
  5
B56A7A5C3AE63804
330
B56A7A5C3AE5E797
100
AcDbEntity
  8
XTHIN
100
AcDbPolyline
 90
        4
 70
     1
 43
0.0
 10
22.94517448952047
 20
14.12287510002558
 42
0.9999999999999998
 10
22.94517448952047
 20
14.09237510002559
 10
23.04417448952046
 20
14.09237510002559
 42
0.9999999999999998
 10
23.04417448952046
 20
14.12287510002558
  0
INSERT
  5
B56A7A5C3AE6380D
330
B56A7A5C3AE5E797
100
AcDbEntity
  8
XTHIN
100
AcDbBlockReference
  2
WEEP COVER
 10
-11.53271465963384
 20
7.504176793569435
 30
0.0
  0
INSERT
  5
B56A7A5C3AE638DE
330
B56A7A5C3AE5E797
100
AcDbEntity
  8
THIN
100
AcDbBlockReference
  2
A$C07E67A71
 10
25.66720262049664
 20
11.25206904867176
 30
0.0
 50
180.0
  0
INSERT
  5
B56A7A5C3AE638DF
330
B56A7A5C3AE5E797
100
AcDbEntity
  8
THIN
100
AcDbBlockReference
  2
A$C07E67A71
 10
15.1772026690558
 20
11.25206904867176
 30
0.0
 41
-1.0
 50
180.0
  0
INSERT
  5
B56A7A5C3AE638E0
330
B56A7A5C3AE5E797
100
AcDbEntity
  8
THIN
100
AcDbBlockReference
  2
A$C07E67A71
 10
13.15518752231533
 20
10.71839564514164
 30
0.0
 50
89.99999999999998
  0
INSERT
  5
B56A7A5C3AE638E1
330
B56A7A5C3AE5E797
100
AcDbEntity
  8
THIN
100
AcDbBlockReference
  2
A$C07E67A71
 10
13.15518752231533
 20
18.70839559658241
 30
0.0
 41
-1.0
 50
90.0
  0
ENDSEC
  0
SECTION
  2
OBJECTS
  0
DICTIONARY
  5
B56A7A5C3AE5E78C
330
0
100
AcDbDictionary
281
     1
  3
ACAD_CIP_PREVIOUS_PRODUCT_INFO
350
B56A7A5C3AE62FCB
  3
ACAD_COLOR
350
B56A7A5C3AE60425
  3
ACAD_DETAILVIEWSTYLE
350
B56A7A5C3AE62FC2
  3
ACAD_GROUP
350
B56A7A5C3AE5E78D
  3
ACAD_IMAGE_DICT
350
B56A7A5C3AE60251
  3
ACAD_LAYOUT
350
B56A7A5C3AE5FA73
  3
ACAD_MATERIAL
350
B56A7A5C3AE60424
  3
ACAD_MLEADERSTYLE
350
B56A7A5C3AE62FBE
  3
ACAD_MLINESTYLE
350
B56A7A5C3AE5E79A
  3
ACAD_PLOTSETTINGS
350
B56A7A5C3AE5FA74
  3
ACAD_PLOTSTYLENAME
350
B56A7A5C3AE5FA71
  3
ACAD_SCALELIST
350
B56A7A5C3AE62FAC
  3
ACAD_SECTIONVIEWSTYLE
350
B56A7A5C3AE62FC0
  3
ACAD_TABLESTYLE
350
B56A7A5C3AE60968
  3
ACAD_VISUALSTYLE
350
B56A7A5C3AE62F93
  3
AcAmCatalogState
350
B56A7A5C3AE6070C
  3
ACDB_RECOMPOSE_DATA
350
B56A7A5C3AE6392D
  3
ACDBVARIABLEDICTIONARY
350
B56A7A5C3AE5E7DC
  3
ACDMSYSVARMGR
350
B56A7A5C3AE606D0
  3
ACGREF_MASTER
350
B56A7A5C3AE606CA
  3
ACGREFACAD_MASTER
350
B56A7A5C3AE606EE
  3
AcmDictionary
350
B56A7A5C3AE60483
  3
ACME_BOM_MANAGER_NAME
350
B56A7A5C3AE606C4
  3
ACME_COMMAND_HISTORY
350
B56A7A5C3AE606C1
  3
ACME_SCOPE_NAME
350
B56A7A5C3AE606C0
  3
ACMESTATEMGR
350
B56A7A5C3AE606C9
  3
AcmeSysVarManager
350
B56A7A5C3AE606C2
  3
AcmSystemVariableManager
350
B56A7A5C3AE60713
  3
AD_APPL
350
B56A7A5C3AE606F9
  3
ADSYSVARMGR
350
B56A7A5C3AE606F8
  3
AmdtNamedDwgMgr
350
B56A7A5C3AE606EB
  3
AMG
350
B56A7A5C3AE6042B
  3
AMGSNAPSETTINGS
350
B56A7A5C3AE604C1
  3
AMI_MASTER
350
B56A7A5C3AE606F1
  3
ASE_INDEX_DICTIONARY
350
B56A7A5C3AE6090E
  3
AUTOCAD_ASSEMBLIES_PROJECT
350
B56A7A5C3AE60701
  3
Designer_Assemblies_SysVars
350
B56A7A5C3AE606FC
  3
GREFAM_MODULE
350
B56A7A5C3AE606F2
  3
MTV_XATTACH
350
B56A7A5C3AE6025F
  0
DICTIONARY
  5
B56A7A5C3AE62FF4
330
B56A7A5C3AE5E788
100
AcDbDictionary
280
     1
281
     1
  0
DICTIONARY
  5
B56A7A5C3AE60395
330
B56A7A5C3AE5E782
100
AcDbDictionary
280
     1
281
     1
  3
ACAD_LAYERFILTERS
360
B56A7A5C3AE6174C
  3
ACAD_LAYERSTATES
360
B56A7A5C3AE60396
  3
ACLYDICTIONARY
360
B56A7A5C3AE6174B
  0
DICTIONARY
  5
B56A7A5C3AE62FCD
330
B56A7A5C3AE5E78E
100
AcDbDictionary
280
     1
281
     1
  3
ADSK_XREC_LAYER_RECONCILED
360
B56A7A5C3AE62FCE
  0
DICTIONARY
  5
B56A7A5C3AE62FCF
330
B56A7A5C3AE5E7CB
100
AcDbDictionary
280
     1
281
     1
  3
ADSK_XREC_LAYER_RECONCILED
360
B56A7A5C3AE62FD0
  0
DICTIONARY
  5
B56A7A5C3AE62FD1
330
B56A7A5C3AE5E7CC
100
AcDbDictionary
280
     1
281
     1
  3
ADSK_XREC_LAYER_RECONCILED
360
B56A7A5C3AE62FD2
  0
DICTIONARY
  5
B56A7A5C3AE62FD3
330
B56A7A5C3AE5E7CE
100
AcDbDictionary
280
     1
281
     1
  3
ADSK_XREC_LAYER_RECONCILED
360
B56A7A5C3AE62FD4
  0
DICTIONARY
  5
B56A7A5C3AE62FD5
330
B56A7A5C3AE5E7D6
100
AcDbDictionary
280
     1
281
     1
  3
ADSK_XREC_LAYER_RECONCILED
360
B56A7A5C3AE62FD6
  0
DICTIONARY
  5
B56A7A5C3AE62FD7
330
B56A7A5C3AE5FCA1
100
AcDbDictionary
280
     1
281
     1
  3
ADSK_XREC_LAYER_RECONCILED
360
B56A7A5C3AE62FD8
  0
DICTIONARY
  5
B56A7A5C3AE62FD9
330
B56A7A5C3AE60393
100
AcDbDictionary
280
     1
281
     1
  3
ADSK_XREC_LAYER_RECONCILED
360
B56A7A5C3AE62FDA
  0
DICTIONARY
  5
B56A7A5C3AE62FDB
330
B56A7A5C3AE62C56
100
AcDbDictionary
280
     1
281
     1
  3
ADSK_XREC_LAYER_RECONCILED
360
B56A7A5C3AE62FDC
  0
DICTIONARY
  5
B56A7A5C3AE62FDD
330
B56A7A5C3AE62C57
100
AcDbDictionary
280
     1
281
     1
  3
ADSK_XREC_LAYER_RECONCILED
360
B56A7A5C3AE62FDE
  0
DICTIONARY
  5
B56A7A5C3AE604DE
330
B56A7A5C3AE5E797
100
AcDbDictionary
280
     1
281
     1
  3
ACAD_SORTENTS
360
B56A7A5C3AE62C96
  0
DICTIONARY
  5
B56A7A5C3AE62B80
330
B56A7A5C3AE62B7F
100
AcDbDictionary
280
     1
281
     1
  3
ACAD_SORTENTS
360
B56A7A5C3AE62B81
  0
DICTIONARY
  5
B56A7A5C3AE62BD0
330
B56A7A5C3AE62BCF
100
AcDbDictionary
280
     1
281
     1
  3
ACAD_SORTENTS
360
B56A7A5C3AE62BD1
  0
DICTIONARY
  5
B56A7A5C3AE62BD7
330
B56A7A5C3AE62BD6
100
AcDbDictionary
280
     1
281
     1
  3
ACAD_SORTENTS
360
B56A7A5C3AE62BD8
  0
DICTIONARY
  5
B56A7A5C3AE62BFC
330
B56A7A5C3AE62BFB
100
AcDbDictionary
280
     1
281
     1
  3
ACAD_SORTENTS
360
B56A7A5C3AE62DFB
  0
DICTIONARY
  5
B56A7A5C3AE62D8C
330
B56A7A5C3AE62D6B
100
AcDbDictionary
280
     1
281
     1
  3
ACAD_SORTENTS
360
B56A7A5C3AE62D8D
  0
DICTIONARY
  5
B56A7A5C3AE62E3A
330
B56A7A5C3AE62E2D
100
AcDbDictionary
280
     1
281
     1
  3
ACAD_SORTENTS
360
B56A7A5C3AE62E3B
  0
DICTIONARY
  5
B56A7A5C3AE63099
330
B56A7A5C3AE63098
100
AcDbDictionary
280
     1
281
     1
  3
ACAD_SORTENTS
360
B56A7A5C3AE6309A
  0
DICTIONARY
  5
B56A7A5C3AE633F9
330
B56A7A5C3AE633BC
100
AcDbDictionary
280
     1
281
     1
  0
XRECORD
  5
B56A7A5C3AE62FCB
102
{ACAD_REACTORS
330
B56A7A5C3AE5E78C
102
}
330
B56A7A5C3AE5E78C
100
AcDbXrecord
280
     1
300
ACDLT
300
2019
300

  0
DICTIONARY
  5
B56A7A5C3AE60425
102
{ACAD_REACTORS
330
B56A7A5C3AE5E78C
102
}
330
B56A7A5C3AE5E78C
100
AcDbDictionary
281
     1
  0
DICTIONARY
  5
B56A7A5C3AE62FC2
102
{ACAD_REACTORS
330
B56A7A5C3AE5E78C
102
}
330
B56A7A5C3AE5E78C
100
AcDbDictionary
281
     1
  3
Imperial24
350
B56A7A5C3AE62FC3
  0
DICTIONARY
  5
B56A7A5C3AE5E78D
102
{ACAD_REACTORS
330
B56A7A5C3AE5E78C
102
}
330
B56A7A5C3AE5E78C
100
AcDbDictionary
281
     1
  0
DICTIONARY
  5
B56A7A5C3AE60251
102
{ACAD_REACTORS
330
B56A7A5C3AE5E78C
102
}
330
B56A7A5C3AE5E78C
100
AcDbDictionary
281
     1
  0
DICTIONARY
  5
B56A7A5C3AE5FA73
102
{ACAD_REACTORS
330
B56A7A5C3AE5E78C
102
}
330
B56A7A5C3AE5E78C
100
AcDbDictionary
281
     1
  3
Layout1
350
B56A7A5C3AE5FA76
  3
Model
350
B56A7A5C3AE5FA75
  0
DICTIONARY
  5
B56A7A5C3AE60424
102
{ACAD_REACTORS
330
B56A7A5C3AE5E78C
102
}
330
B56A7A5C3AE5E78C
100
AcDbDictionary
281
     1
  3
ByBlock
350
B56A7A5C3AE62F83
  3
ByLayer
350
B56A7A5C3AE62F7B
  3
Global
350
B56A7A5C3AE62F8B
  0
DICTIONARY
  5
B56A7A5C3AE62FBE
102
{ACAD_REACTORS
330
B56A7A5C3AE5E78C
102
}
330
B56A7A5C3AE5E78C
100
AcDbDictionary
281
     1
  3
Standard
350
B56A7A5C3AE62FBF
  0
DICTIONARY
  5
B56A7A5C3AE5E79A
102
{ACAD_REACTORS
330
B56A7A5C3AE5E78C
102
}
330
B56A7A5C3AE5E78C
100
AcDbDictionary
281
     1
  3
STANDARD
350
B56A7A5C3AE5E79B
  0
DICTIONARY
  5
B56A7A5C3AE5FA74
102
{ACAD_REACTORS
330
B56A7A5C3AE5E78C
102
}
330
B56A7A5C3AE5E78C
100
AcDbDictionary
281
     1
  0
ACDBDICTIONARYWDFLT
  5
B56A7A5C3AE5FA71
102
{ACAD_REACTORS
330
B56A7A5C3AE5E78C
102
}
330
B56A7A5C3AE5E78C
100
AcDbDictionary
281
     1
  3
Normal
350
B56A7A5C3AE5FA72
100
AcDbDictionaryWithDefault
340
B56A7A5C3AE5FA72
  0
DICTIONARY
  5
B56A7A5C3AE62FAC
102
{ACAD_REACTORS
330
B56A7A5C3AE5E78C
102
}
330
B56A7A5C3AE5E78C
100
AcDbDictionary
281
     1
  3
A0
350
B56A7A5C3AE62FAD
  3
A1
350
B56A7A5C3AE62FAE
  3
A2
350
B56A7A5C3AE62FAF
  3
A3
350
B56A7A5C3AE62FB0
  3
A4
350
B56A7A5C3AE62FB1
  3
A5
350
B56A7A5C3AE62FB2
  3
A6
350
B56A7A5C3AE62FB3
  3
A7
350
B56A7A5C3AE62FB4
  3
A8
350
B56A7A5C3AE62FB5
  3
A9
350
B56A7A5C3AE62FB6
  3
B0
350
B56A7A5C3AE62FB7
  3
B1
350
B56A7A5C3AE62FB8
  3
B2
350
B56A7A5C3AE62FB9
  3
B3
350
B56A7A5C3AE62FBA
  3
B4
350
B56A7A5C3AE62FBB
  3
B5
350
B56A7A5C3AE62FBC
  3
B6
350
B56A7A5C3AE62FBD
  0
DICTIONARY
  5
B56A7A5C3AE62FC0
102
{ACAD_REACTORS
330
B56A7A5C3AE5E78C
102
}
330
B56A7A5C3AE5E78C
100
AcDbDictionary
281
     1
  3
Imperial24
350
B56A7A5C3AE62FC1
  0
DICTIONARY
  5
B56A7A5C3AE60968
102
{ACAD_REACTORS
330
B56A7A5C3AE5E78C
102
}
330
B56A7A5C3AE5E78C
100
AcDbDictionary
281
     1
  3
Standard
350
B56A7A5C3AE60969
  0
DICTIONARY
  5
B56A7A5C3AE62F93
102
{ACAD_REACTORS
330
B56A7A5C3AE5E78C
102
}
330
B56A7A5C3AE5E78C
100
AcDbDictionary
281
     1
  3
2dWireframe
350
B56A7A5C3AE62F99
  3
Basic
350
B56A7A5C3AE62F98
  3
Brighten
350
B56A7A5C3AE62F9F
  3
ColorChange
350
B56A7A5C3AE62FA3
  3
Conceptual
350
B56A7A5C3AE62F9C
  3
Dim
350
B56A7A5C3AE62F9E
  3
EdgeColorOff
350
B56A7A5C3AE62FAB
  3
Facepattern
350
B56A7A5C3AE62FA2
  3
Flat
350
B56A7A5C3AE62F94
  3
FlatWithEdges
350
B56A7A5C3AE62F95
  3
Gouraud
350
B56A7A5C3AE62F96
  3
GouraudWithEdges
350
B56A7A5C3AE62F97
  3
Hidden
350
B56A7A5C3AE62F9B
  3
JitterOff
350
B56A7A5C3AE62FA9
  3
Linepattern
350
B56A7A5C3AE62FA1
  3
OverhangOff
350
B56A7A5C3AE62FAA
  3
Realistic
350
B56A7A5C3AE62F9D
  3
Shaded
350
B56A7A5C3AE62FA8
  3
Shaded with edges
350
B56A7A5C3AE62FA7
  3
Shades of Gray
350
B56A7A5C3AE62FA4
  3
Sketchy
350
B56A7A5C3AE62FA5
  3
Thicken
350
B56A7A5C3AE62FA0
  3
Wireframe
350
B56A7A5C3AE62F9A
  3
X-Ray
350
B56A7A5C3AE62FA6
  0
ACAD_PROXY_OBJECT
  5
B56A7A5C3AE6070C
102
{ACAD_REACTORS
330
B56A7A5C3AE5E78C
102
}
330
B56A7A5C3AE5E78C
100
AcDbProxyObject
 90
      499
 91
      549
 71
    25
 97
      104
 70
     0
161
               472
310
3FFFFFFFE00A028140297241D2E222522AE26B7BA34BB30902BB7B935B9B830B1B2AE20A99019991CAF9817192F981A981B18181819192F99400AA00
 94
        0
  0
XRECORD
  5
B56A7A5C3AE6392D
102
{ACAD_REACTORS
330
B56A7A5C3AE5E78C
102
}
330
B56A7A5C3AE5E78C
100
AcDbXrecord
280
     1
 90
        1
330
B56A7A5C3AE60969
  0
DICTIONARY
  5
B56A7A5C3AE5E7DC
102
{ACAD_REACTORS
330
B56A7A5C3AE5E78C
102
}
330
B56A7A5C3AE5E78C
100
AcDbDictionary
281
     1
  3
CANNOSCALE
350
B56A7A5C3AE6303B
  3
CMLEADERSTYLE
350
B56A7A5C3AE63038
  3
CTABLESTYLE
350
B56A7A5C3AE60994
  3
CVIEWDETAILSTYLE
350
B56A7A5C3AE63039
  3
CVIEWSECTIONSTYLE
350
B56A7A5C3AE6303A
  3
DIMADEC
350
B56A7A5C3AE5E7DD
  3
DIMASSOC
350
B56A7A5C3AE604F2
  3
INDEXCTL
350
B56A7A5C3AE604F1
  3
LAYEREVAL
350
B56A7A5C3AE6308D
  3
LAYERNOTIFY
350
B56A7A5C3AE6308E
  3
LIGHTINGUNITS
350
B56A7A5C3AE6308C
  3
MSLTSCALE
350
B56A7A5C3AE6308B
  3
PROJECTNAME
350
B56A7A5C3AE604F3
  0
ACAD_PROXY_OBJECT
  5
B56A7A5C3AE606D0
102
{ACAD_REACTORS
330
B56A7A5C3AE5E78C
102
}
330
B56A7A5C3AE5E78C
100
AcDbProxyObject
 90
      499
 91
      510
 71
    25
 97
      104
 70
     0
161
               240
310
4C51A47A0000000000000000000000000000000000000000000000000000F8
330
B56A7A5C3AE606D1
330
B56A7A5C3AE606D2
330
B56A7A5C3AE606D3
330
B56A7A5C3AE606D4
330
B56A7A5C3AE606D5
330
B56A7A5C3AE606D6
330
B56A7A5C3AE606D7
330
B56A7A5C3AE606D8
330
B56A7A5C3AE606D9
330
B56A7A5C3AE606DA
330
B56A7A5C3AE606DB
330
B56A7A5C3AE606DC
330
B56A7A5C3AE606DD
330
B56A7A5C3AE606DE
330
B56A7A5C3AE606DF
330
B56A7A5C3AE606E0
330
B56A7A5C3AE606E1
330
B56A7A5C3AE606E2
330
B56A7A5C3AE606E3
330
B56A7A5C3AE606E4
330
B56A7A5C3AE606E5
330
B56A7A5C3AE606E6
330
B56A7A5C3AE606E7
330
B56A7A5C3AE606E8
330
B56A7A5C3AE606E9
330
B56A7A5C3AE606EA
 94
        0
  0
ACAD_PROXY_OBJECT
  5
B56A7A5C3AE606CA
102
{ACAD_REACTORS
330
B56A7A5C3AE5E78C
102
}
330
B56A7A5C3AE5E78C
100
AcDbProxyObject
 90
      499
 91
      518
 71
    25
 97
      104
 70
     0
161
                34
310
040000428C
 94
        0
  0
ACAD_PROXY_OBJECT
  5
B56A7A5C3AE606EE
102
{ACAD_REACTORS
330
B56A7A5C3AE5E78C
102
}
330
B56A7A5C3AE5E78C
100
AcDbProxyObject
 90
      499
 91
      527
 71
    25
 97
      104
 70
     0
161
               114
310
04000041C08000000000000000000C
 94
        0
  0
DICTIONARY
  5
B56A7A5C3AE60483
102
{ACAD_REACTORS
330
B56A7A5C3AE5E78C
102
}
330
B56A7A5C3AE5E78C
100
AcDbDictionary
281
     1
  3
AcmBOMDATA
350
B56A7A5C3AE6070B
  3
AcmStdDictionary
350
B56A7A5C3AE60490
  3
AMDTSECTSYM_ARROWCOLOR
350
B56A7A5C3AE6097F
  0
ACAD_PROXY_OBJECT
  5
B56A7A5C3AE606C4
102
{ACAD_REACTORS
330
B56A7A5C3AE5E78C
102
}
330
B56A7A5C3AE5E78C
100
AcDbProxyObject
 90
      499
 91
      512
 71
    25
 97
      104
 70
     0
161
                50
310
0001004040000C
330
0
330
0
330
B56A7A5C3AE606C5
 94
        0
  0
ACAD_PROXY_OBJECT
  5
B56A7A5C3AE606C1
102
{ACAD_REACTORS
330
B56A7A5C3AE5E78C
102
}
330
B56A7A5C3AE5E78C
100
AcDbProxyObject
 90
      499
 91
      509
 71
    25
 97
      104
 70
     0
161
              2792
310
4780504554E444F80504554E444F80504554E444F805044C494E45805044D4F56458050545524153458050752454645444954805045452494D80508524546434C4F5345805064F464653455440405184D5347202D20436F6D6D616E642043414E43454C4C45442E01411353D591601411353D5916014113125391601411312
310
5391601411353D5916014151549054D16014151549054D160141D491519151125520141151492536014214915190D313D4D16014151549054D16014151549054D16014151549054D16014151549054D16014151549054D16014151549054D1601411693D3D3601415454D05591501014B9354D1C80B481414104E880808191
310
95CDADD1BDC0B985C9E08119A5B1955995C9CDA5BDB8E880C4C0B8C8B8C0B8D405045A4F4F4D805055153415645404052E4D5347202D205050413A2020206465736B746F702E6172782046696C6556657273696F6E3A2031302E322E302E3522
 94
        0
  0
ACAD_PROXY_OBJECT
  5
B56A7A5C3AE606C0
102
{ACAD_REACTORS
330
B56A7A5C3AE5E78C
102
}
330
B56A7A5C3AE5E78C
100
AcDbProxyObject
 90
      499
 91
      508
 71
    25
 97
      104
 70
     0
161
               546
310
0A0000480080000000000000000012F4CE0000000000000000000000000000000000000000000000000000000000000000000000000000000000000000000000AAA406AA8C
360
B56A7A5C3AE606C3
360
B56A7A5C3AE606C5
360
B56A7A5C3AE606CB
360
B56A7A5C3AE606CC
360
B56A7A5C3AE606CD
360
B56A7A5C3AE606CE
360
B56A7A5C3AE606D1
360
B56A7A5C3AE606D2
360
B56A7A5C3AE606D3
360
B56A7A5C3AE606D4
360
B56A7A5C3AE606D5
360
B56A7A5C3AE606D6
360
B56A7A5C3AE606D7
360
B56A7A5C3AE606D8
360
B56A7A5C3AE606D9
360
B56A7A5C3AE606DA
360
B56A7A5C3AE606DB
360
B56A7A5C3AE606DC
360
B56A7A5C3AE606DD
360
B56A7A5C3AE606DE
360
B56A7A5C3AE606DF
360
B56A7A5C3AE606E0
360
B56A7A5C3AE606E1
360
B56A7A5C3AE606E2
360
B56A7A5C3AE606E3
360
B56A7A5C3AE606E4
360
B56A7A5C3AE606E5
360
B56A7A5C3AE606E6
360
B56A7A5C3AE606E7
360
B56A7A5C3AE606E8
360
B56A7A5C3AE606E9
360
B56A7A5C3AE606EA
360
B56A7A5C3AE606F4
360
B56A7A5C3AE606F5
360
B56A7A5C3AE606F6
360
B56A7A5C3AE606F7
360
B56A7A5C3AE606FD
360
B56A7A5C3AE606FE
360
B56A7A5C3AE606FF
360
B56A7A5C3AE60700
360
B56A7A5C3AE60705
360
B56A7A5C3AE60706
360
B56A7A5C3AE60707
360
B56A7A5C3AE60708
360
B56A7A5C3AE60709
360
B56A7A5C3AE6070A
360
B56A7A5C3AE60714
 94
        0
  0
ACAD_PROXY_OBJECT
  5
B56A7A5C3AE606C9
102
{ACAD_REACTORS
330
B56A7A5C3AE5E78C
102
}
330
B56A7A5C3AE5E78C
100
AcDbProxyObject
 90
      499
 91
      517
 71
    25
 97
      104
 70
     0
161
                50
310
0A000042A4128C
 94
        0
  0
ACAD_PROXY_OBJECT
  5
B56A7A5C3AE606C2
102
{ACAD_REACTORS
330
B56A7A5C3AE5E78C
102
}
330
B56A7A5C3AE5E78C
100
AcDbProxyObject
 90
      499
 91
      510
 71
    25
 97
      104
 70
     0
161
                32
310
90140A0000
330
B56A7A5C3AE606C3
 94
        0
  0
ACAD_PROXY_OBJECT
  5
B56A7A5C3AE60713
102
{ACAD_REACTORS
330
B56A7A5C3AE5E78C
102
}
330
B56A7A5C3AE5E78C
100
AcDbProxyObject
 90
      499
 91
      510
 71
    25
 97
      104
 70
     0
161
                32
310
90140A0000
330
B56A7A5C3AE60714
 94
        0
  0
ACAD_PROXY_OBJECT
  5
B56A7A5C3AE606F9
102
{ACAD_REACTORS
330
B56A7A5C3AE5E78C
102
}
330
B56A7A5C3AE5E78C
100
AcDbProxyObject
 90
      499
 91
      537
 71
    25
 97
      104
 70
     0
161
                42
310
00090000404C
330
B56A7A5C3AE606F4
 94
        0
  0
ACAD_PROXY_OBJECT
  5
B56A7A5C3AE606F8
102
{ACAD_REACTORS
330
B56A7A5C3AE5E78C
102
}
330
B56A7A5C3AE5E78C
100
AcDbProxyObject
 90
      499
 91
      510
 71
    25
 97
      104
 70
     0
161
                 8
310
AA01
 94
        0
  0
ACAD_PROXY_OBJECT
  5
B56A7A5C3AE606EB
102
{ACAD_REACTORS
330
B56A7A5C3AE5E78C
102
}
330
B56A7A5C3AE5E78C
100
AcDbProxyObject
 90
      499
 91
      524
 71
    25
 97
      104
 70
     0
161
                42
310
000100005E8C
330
B56A7A5C3AE606CB
 94
        0
  0
DICTIONARY
  5
B56A7A5C3AE6042B
102
{ACAD_REACTORS
330
B56A7A5C3AE5E78C
102
}
330
B56A7A5C3AE5E78C
100
AcDbDictionary
281
     1
  3
AcMgSettings
350
B56A7A5C3AE606BC
  3
AMGLAYCFG
350
B56A7A5C3AE60716
  0
DICTIONARY
  5
B56A7A5C3AE604C1
102
{ACAD_REACTORS
330
B56A7A5C3AE5E78C
102
}
330
B56A7A5C3AE5E78C
100
AcDbDictionary
281
     1
  0
ACAD_PROXY_OBJECT
  5
B56A7A5C3AE606F1
102
{ACAD_REACTORS
330
B56A7A5C3AE5E78C
102
}
330
B56A7A5C3AE5E78C
100
AcDbProxyObject
 90
      499
 91
      530
 71
    25
 97
      104
 70
     0
161
                34
310
050000428C
 94
        0
  0
DICTIONARY
  5
B56A7A5C3AE6090E
102
{ACAD_REACTORS
330
B56A7A5C3AE5E78C
102
}
330
B56A7A5C3AE5E78C
100
AcDbDictionary
281
     1
  3
ASEBlockHierarchyIndexRecord
350
B56A7A5C3AE60910
1001
DCO15
1040
1526621902.952
  0
ACAD_PROXY_OBJECT
  5
B56A7A5C3AE60701
102
{ACAD_REACTORS
330
B56A7A5C3AE5E78C
102
}
330
B56A7A5C3AE5E78C
100
AcDbProxyObject
 90
      499
 91
      541
 71
    25
 97
      104
 70
     0
161
                98
310
0A00004FC0000000000000000C
330
B56A7A5C3AE60708
330
0
330
B56A7A5C3AE60709
330
0
330
0
330
0
330
0
330
0
 94
        0
  0
ACAD_PROXY_OBJECT
  5
B56A7A5C3AE606FC
102
{ACAD_REACTORS
330
B56A7A5C3AE5E78C
102
}
330
B56A7A5C3AE5E78C
100
AcDbProxyObject
 90
      499
 91
      510
 71
    25
 97
      104
 70
     0
161
                56
310
9044160000000000
330
B56A7A5C3AE606FD
330
B56A7A5C3AE606FE
330
B56A7A5C3AE606FF
330
B56A7A5C3AE60700
 94
        0
  0
ACAD_PROXY_OBJECT
  5
B56A7A5C3AE606F2
102
{ACAD_REACTORS
330
B56A7A5C3AE5E78C
102
}
330
B56A7A5C3AE5E78C
100
AcDbProxyObject
 90
      499
 91
      531
 71
    25
 97
      104
 70
     0
161
                 8
310
0500
 94
        0
  0
DICTIONARY
  5
B56A7A5C3AE6025F
102
{ACAD_REACTORS
330
B56A7A5C3AE5E78C
102
}
330
B56A7A5C3AE5E78C
100
AcDbDictionary
280
     1
281
     1
  3
9e8b4fc7-0x2-11d8-A62E-005004E2D0E9
360
B56A7A5C3AE6039C
  0
DICTIONARY
  5
B56A7A5C3AE6174C
102
{ACAD_REACTORS
330
B56A7A5C3AE60395
102
}
330
B56A7A5C3AE60395
100
AcDbDictionary
281
     1
  0
DICTIONARY
  5
B56A7A5C3AE60396
102
{ACAD_REACTORS
330
B56A7A5C3AE60395
102
}
330
B56A7A5C3AE60395
100
AcDbDictionary
281
     1
  0
DICTIONARY
  5
B56A7A5C3AE6174B
102
{ACAD_REACTORS
330
B56A7A5C3AE60395
102
}
330
B56A7A5C3AE60395
100
AcDbDictionary
281
     1
1001
ACAD
1000
<All
  0
XRECORD
  5
B56A7A5C3AE62FCE
102
{ACAD_REACTORS
330
B56A7A5C3AE62FCD
102
}
330
B56A7A5C3AE62FCD
100
AcDbXrecord
280
     1
290
     1
  0
XRECORD
  5
B56A7A5C3AE62FD0
102
{ACAD_REACTORS
330
B56A7A5C3AE62FCF
102
}
330
B56A7A5C3AE62FCF
100
AcDbXrecord
280
     1
290
     1
  0
XRECORD
  5
B56A7A5C3AE62FD2
102
{ACAD_REACTORS
330
B56A7A5C3AE62FD1
102
}
330
B56A7A5C3AE62FD1
100
AcDbXrecord
280
     1
290
     1
  0
XRECORD
  5
B56A7A5C3AE62FD4
102
{ACAD_REACTORS
330
B56A7A5C3AE62FD3
102
}
330
B56A7A5C3AE62FD3
100
AcDbXrecord
280
     1
290
     1
  0
XRECORD
  5
B56A7A5C3AE62FD6
102
{ACAD_REACTORS
330
B56A7A5C3AE62FD5
102
}
330
B56A7A5C3AE62FD5
100
AcDbXrecord
280
     1
290
     1
  0
XRECORD
  5
B56A7A5C3AE62FD8
102
{ACAD_REACTORS
330
B56A7A5C3AE62FD7
102
}
330
B56A7A5C3AE62FD7
100
AcDbXrecord
280
     1
290
     1
  0
XRECORD
  5
B56A7A5C3AE62FDA
102
{ACAD_REACTORS
330
B56A7A5C3AE62FD9
102
}
330
B56A7A5C3AE62FD9
100
AcDbXrecord
280
     1
290
     1
  0
XRECORD
  5
B56A7A5C3AE62FDC
102
{ACAD_REACTORS
330
B56A7A5C3AE62FDB
102
}
330
B56A7A5C3AE62FDB
100
AcDbXrecord
280
     1
290
     1
  0
XRECORD
  5
B56A7A5C3AE62FDE
102
{ACAD_REACTORS
330
B56A7A5C3AE62FDD
102
}
330
B56A7A5C3AE62FDD
100
AcDbXrecord
280
     1
290
     1
  0
SORTENTSTABLE
  5
B56A7A5C3AE62C96
102
{ACAD_REACTORS
330
B56A7A5C3AE604DE
102
}
330
B56A7A5C3AE604DE
100
AcDbSortentsTable
330
B56A7A5C3AE5E797
  0
SORTENTSTABLE
  5
B56A7A5C3AE62B81
102
{ACAD_REACTORS
330
B56A7A5C3AE62B80
102
}
330
B56A7A5C3AE62B80
100
AcDbSortentsTable
330
B56A7A5C3AE62B7F
331
B56A7A5C3AE62BC1
  5
63
331
B56A7A5C3AE62B84
  5
55
331
B56A7A5C3AE62BB6
  5
4C
331
B56A7A5C3AE62B9A
  5
38
331
B56A7A5C3AE62BA5
  5
44
331
B56A7A5C3AE62B87
  5
58
331
B56A7A5C3AE62BB1
  5
45
331
B56A7A5C3AE62BC0
  5
6B
331
B56A7A5C3AE62BA4
  5
43
331
B56A7A5C3AE62BB0
  5
34
331
B56A7A5C3AE62BC3
  5
7C
331
B56A7A5C3AE62B86
  5
57
331
B56A7A5C3AE62B95
  5
69
331
B56A7A5C3AE62B94
  5
68
331
B56A7A5C3AE62BC2
  5
7B
331
B56A7A5C3AE62BB3
  5
3F
331
B56A7A5C3AE62BA7
  5
47
331
B56A7A5C3AE62B97
  5
35
331
B56A7A5C3AE62BB2
  5
4E
331
B56A7A5C3AE62BA6
  5
46
331
B56A7A5C3AE62BA1
  5
40
331
B56A7A5C3AE62BBD
  5
48
331
B56A7A5C3AE62B83
  5
54
331
B56A7A5C3AE62B96
  5
6A
331
B56A7A5C3AE62B91
  5
64
331
B56A7A5C3AE62BBC
  5
73
331
B56A7A5C3AE62BA0
  5
3E
331
B56A7A5C3AE62BAD
  5
53
331
B56A7A5C3AE62BA3
  5
42
331
B56A7A5C3AE62BAC
  5
52
331
B56A7A5C3AE62B8D
  5
5F
331
B56A7A5C3AE62BBF
  5
67
331
B56A7A5C3AE62B90
  5
62
331
B56A7A5C3AE62B93
  5
66
331
B56A7A5C3AE62BAF
  5
50
331
B56A7A5C3AE62B8C
  5
5D
331
B56A7A5C3AE62BBE
  5
4A
331
B56A7A5C3AE62BA2
  5
41
331
B56A7A5C3AE62B92
  5
65
331
B56A7A5C3AE62BB9
  5
70
331
B56A7A5C3AE62BCC
  5
79
331
B56A7A5C3AE62B8F
  5
61
331
B56A7A5C3AE62BAE
  5
4F
331
B56A7A5C3AE62BA9
  5
4B
331
B56A7A5C3AE62B9D
  5
3B
331
B56A7A5C3AE62BB8
  5
6F
331
B56A7A5C3AE62B8E
  5
60
331
B56A7A5C3AE62BBB
  5
72
331
B56A7A5C3AE62B89
  5
5A
331
B56A7A5C3AE62BA8
  5
49
331
B56A7A5C3AE62B9C
  5
3A
331
B56A7A5C3AE62BC9
  5
7F
331
B56A7A5C3AE62BAB
  5
51
331
B56A7A5C3AE62B9F
  5
3D
331
B56A7A5C3AE62B88
  5
59
331
B56A7A5C3AE62BBA
  5
71
331
B56A7A5C3AE62BC8
  5
7E
331
B56A7A5C3AE62B8B
  5
5C
331
B56A7A5C3AE62BAA
  5
4D
331
B56A7A5C3AE62B9E
  5
3C
331
B56A7A5C3AE62BC5
  5
77
331
B56A7A5C3AE62B8A
  5
5B
331
B56A7A5C3AE62B99
  5
37
331
B56A7A5C3AE62BB5
  5
6D
331
B56A7A5C3AE62BC4
  5
7D
331
B56A7A5C3AE62BCB
  5
7A
331
B56A7A5C3AE62B98
  5
36
331
B56A7A5C3AE62BCA
  5
80
331
B56A7A5C3AE62BB4
  5
6C
331
B56A7A5C3AE62BC7
  5
75
331
B56A7A5C3AE62B85
  5
56
331
B56A7A5C3AE62B9B
  5
39
331
B56A7A5C3AE62BB7
  5
6E
331
B56A7A5C3AE62BC6
  5
78
  0
SORTENTSTABLE
  5
B56A7A5C3AE62BD1
102
{ACAD_REACTORS
330
B56A7A5C3AE62BD0
102
}
330
B56A7A5C3AE62BD0
100
AcDbSortentsTable
330
B56A7A5C3AE62BCF
  0
SORTENTSTABLE
  5
B56A7A5C3AE62BD8
102
{ACAD_REACTORS
330
B56A7A5C3AE62BD7
102
}
330
B56A7A5C3AE62BD7
100
AcDbSortentsTable
330
B56A7A5C3AE62BD6
  0
SORTENTSTABLE
  5
B56A7A5C3AE62DFB
102
{ACAD_REACTORS
330
B56A7A5C3AE62BFC
102
}
330
B56A7A5C3AE62BFC
100
AcDbSortentsTable
330
B56A7A5C3AE62BFB
331
B56A7A5C3AE62DF9
  5
B56A7A5C3AE62DFA
331
B56A7A5C3AE62DF8
  5
B56A7A5C3AE62DF9
331
B56A7A5C3AE62DFA
  5
B56A7A5C3AE62C4F
331
B56A7A5C3AE62C51
  5
B56A7A5C3AE62DF8
331
B56A7A5C3AE62C50
  5
B56A7A5C3AE62C51
331
B56A7A5C3AE62C4F
  5
B56A7A5C3AE62C50
  0
SORTENTSTABLE
  5
B56A7A5C3AE62D8D
102
{ACAD_REACTORS
330
B56A7A5C3AE62D8C
102
}
330
B56A7A5C3AE62D8C
100
AcDbSortentsTable
330
B56A7A5C3AE62D6B
  0
SORTENTSTABLE
  5
B56A7A5C3AE62E3B
102
{ACAD_REACTORS
330
B56A7A5C3AE62E3A
102
}
330
B56A7A5C3AE62E3A
100
AcDbSortentsTable
330
B56A7A5C3AE62E2D
  0
SORTENTSTABLE
  5
B56A7A5C3AE6309A
102
{ACAD_REACTORS
330
B56A7A5C3AE63099
102
}
330
B56A7A5C3AE63099
100
AcDbSortentsTable
330
B56A7A5C3AE63098
  0
ACDBDETAILVIEWSTYLE
  5
B56A7A5C3AE62FC3
102
{ACAD_REACTORS
330
B56A7A5C3AE62FC2
102
}
330
B56A7A5C3AE62FC2
100
AcDbModelDocViewStyle
 70
     0
  3
Imperial24
290
     0
300
Imperial24
 90
        0
100
AcDbDetailViewStyle
 70
     0
 71
     0
 90
        3
 71
     1
340
B56A7A5C3AE5E78F
 62
   256
 40
0.24
340
0
 62
   256
 40
0.24
300

 40
0.36
280
     3
 71
     2
340
B56A7A5C3AE5E793
 90
       25
 62
   256
 71
     3
340
B56A7A5C3AE5E78F
 62
   256
 40
0.24
 90
        1
 40
0.75
 90
        1
300
%<\AcVar ViewType \f "%tc1">% %<\AcVar ViewDetailId>%\PSCALE %<\AcVar ViewScale \f "%sn">%
 71
     4
340
B56A7A5C3AE5E793
 90
       25
 62
   256
340
B56A7A5C3AE5E793
 90
       25
 62
   256
280
     0
  0
LAYOUT
  5
B56A7A5C3AE5FA76
102
{ACAD_REACTORS
330
B56A7A5C3AE5FA73
102
}
330
B56A7A5C3AE5FA73
100
AcDbPlotSettings
  1

  2
C:\Program Files\ACAD2000\plotters\LaserJet 4V.pc3
  4

  6

 40
0.0
 41
0.0
 42
0.0
 43
0.0
 44
0.0
 45
0.0
 46
0.0
 47
0.0
 48
0.0
 49
0.0
140
0.0
141
0.0
142
1.0
143
1.0
 70
   688
 72
     0
 73
     0
 74
     5
  7
Harvey Std Plot Style.ctb
 75
    16
147
1.0
 76
     0
 77
     2
 78
   300
148
0.0
149
0.0
100
AcDbLayout
  1
Layout1
 70
     0
 71
     1
 10
0.0
 20
0.0
 11
12.0
 21
9.0
 12
0.0
 22
0.0
 32
0.0
 14
1.000000000000000E+20
 24
1.000000000000000E+20
 34
1.000000000000000E+20
 15
-1.000000000000000E+20
 25
-1.000000000000000E+20
 35
-1.000000000000000E+20
146
0.0
 13
0.0
 23
0.0
 33
0.0
 16
1.0
 26
0.0
 36
0.0
 17
0.0
 27
1.0
 37
0.0
 76
     0
330
B56A7A5C3AE5E794
  0
LAYOUT
  5
B56A7A5C3AE5FA75
102
{ACAD_XDICTIONARY
360
B56A7A5C3AE62FFE
102
}
102
{ACAD_REACTORS
330
B56A7A5C3AE5FA73
102
}
330
B56A7A5C3AE5FA73
100
AcDbPlotSettings
  1

  2
\\manmfg\Jet25 Eng
  4
Letter
  6
A
 40
7.143749713897705
 41
6.720425128936767
 42
7.14373779296875
 43
3.757080078125
 44
215.8999938964844
 45
279.3999938964844
 46
-7.160503765253102
 47
-5.261129607333534
 48
0.0
 49
0.0
140
0.0
141
0.0
142
1.0
143
2.0
 70
 11940
 72
     0
 73
     1
 74
     1
  7
Harvey Std Plot Style.ctb
 75
    17
147
0.5
 76
     0
 77
     2
 78
   300
148
-190.6608371256846
149
-123.1645621676699
100
AcDbLayout
  1
Model
 70
     1
 71
     0
 10
0.0
 20
0.0
 11
12.0
 21
9.0
 12
0.0
 22
0.0
 32
0.0
 14
0.0
 24
0.0
 34
0.0
 15
0.0
 25
0.0
 35
0.0
146
0.0
 13
0.0
 23
0.0
 33
0.0
 16
1.0
 26
0.0
 36
0.0
 17
0.0
 27
1.0
 37
0.0
 76
     0
330
B56A7A5C3AE5E797
331
B56A7A5C3AE62F79
1001
ACAD_PSEXT
1000
\\manmfg\Jet25 Eng
1000
HP LaserJet 5000 Series PCL
1000
\\MANMFG
1000

1070
     0
  0
MATERIAL
  5
B56A7A5C3AE62F83
102
{ACAD_XDICTIONARY
360
B56A7A5C3AE62F84
102
}
102
{ACAD_REACTORS
330
B56A7A5C3AE60424
102
}
330
B56A7A5C3AE60424
100
AcDbMaterial
  1
ByBlock
 72
     0
 43
0.0208333333333333
 43
0.0
 43
0.0
 43
0.0
 43
0.0
 43
0.0208333333333333
 43
0.0
 43
0.0
 43
0.0
 43
0.0
 43
1.0
 43
0.0
 43
0.0
 43
0.0
 43
0.0
 43
1.0
 77
     0
 47
0.0208333333333333
 47
0.0
 47
0.0
 47
0.0
 47
0.0
 47
0.0208333333333333
 47
0.0
 47
0.0
 47
0.0
 47
0.0
 47
1.0
 47
0.0
 47
0.0
 47
0.0
 47
0.0
 47
1.0
171
     0
 49
0.0208333333333333
 49
0.0
 49
0.0
 49
0.0
 49
0.0
 49
0.0208333333333333
 49
0.0
 49
0.0
 49
0.0
 49
0.0
 49
1.0
 49
0.0
 49
0.0
 49
0.0
 49
0.0
 49
1.0
175
     0
142
0.0208333333333333
142
0.0
142
0.0
142
0.0
142
0.0
142
0.0208333333333333
142
0.0
142
0.0
142
0.0
142
0.0
142
1.0
142
0.0
142
0.0
142
0.0
142
0.0
142
1.0
179
     0
144
0.0208333333333333
144
0.0
144
0.0
144
0.0
144
0.0
144
0.0208333333333333
144
0.0
144
0.0
144
0.0
144
0.0
144
1.0
144
0.0
144
0.0
144
0.0
144
0.0
144
1.0
147
0.0208333333333333
147
0.0
147
0.0
147
0.0
147
0.0
147
0.0208333333333333
147
0.0
147
0.0
147
0.0
147
0.0
147
1.0
147
0.0
147
0.0
147
0.0
147
0.0
147
1.0
  0
MATERIAL
  5
B56A7A5C3AE62F7B
102
{ACAD_XDICTIONARY
360
B56A7A5C3AE62F7C
102
}
102
{ACAD_REACTORS
330
B56A7A5C3AE60424
102
}
330
B56A7A5C3AE60424
100
AcDbMaterial
  1
ByLayer
 72
     0
 43
0.0208333333333333
 43
0.0
 43
0.0
 43
0.0
 43
0.0
 43
0.0208333333333333
 43
0.0
 43
0.0
 43
0.0
 43
0.0
 43
1.0
 43
0.0
 43
0.0
 43
0.0
 43
0.0
 43
1.0
 77
     0
 47
0.0208333333333333
 47
0.0
 47
0.0
 47
0.0
 47
0.0
 47
0.0208333333333333
 47
0.0
 47
0.0
 47
0.0
 47
0.0
 47
1.0
 47
0.0
 47
0.0
 47
0.0
 47
0.0
 47
1.0
171
     0
 49
0.0208333333333333
 49
0.0
 49
0.0
 49
0.0
 49
0.0
 49
0.0208333333333333
 49
0.0
 49
0.0
 49
0.0
 49
0.0
 49
1.0
 49
0.0
 49
0.0
 49
0.0
 49
0.0
 49
1.0
175
     0
142
0.0208333333333333
142
0.0
142
0.0
142
0.0
142
0.0
142
0.0208333333333333
142
0.0
142
0.0
142
0.0
142
0.0
142
1.0
142
0.0
142
0.0
142
0.0
142
0.0
142
1.0
179
     0
144
0.0208333333333333
144
0.0
144
0.0
144
0.0
144
0.0
144
0.0208333333333333
144
0.0
144
0.0
144
0.0
144
0.0
144
1.0
144
0.0
144
0.0
144
0.0
144
0.0
144
1.0
147
0.0208333333333333
147
0.0
147
0.0
147
0.0
147
0.0
147
0.0208333333333333
147
0.0
147
0.0
147
0.0
147
0.0
147
1.0
147
0.0
147
0.0
147
0.0
147
0.0
147
1.0
  0
MATERIAL
  5
B56A7A5C3AE62F8B
102
{ACAD_XDICTIONARY
360
B56A7A5C3AE62F8C
102
}
102
{ACAD_REACTORS
330
B56A7A5C3AE60424
102
}
330
B56A7A5C3AE60424
100
AcDbMaterial
  1
Global
 72
     0
 43
0.0208333333333333
 43
0.0
 43
0.0
 43
0.0
 43
0.0
 43
0.0208333333333333
 43
0.0
 43
0.0
 43
0.0
 43
0.0
 43
1.0
 43
0.0
 43
0.0
 43
0.0
 43
0.0
 43
1.0
 77
     0
 47
0.0208333333333333
 47
0.0
 47
0.0
 47
0.0
 47
0.0
 47
0.0208333333333333
 47
0.0
 47
0.0
 47
0.0
 47
0.0
 47
1.0
 47
0.0
 47
0.0
 47
0.0
 47
0.0
 47
1.0
171
     0
 49
0.0208333333333333
 49
0.0
 49
0.0
 49
0.0
 49
0.0
 49
0.0208333333333333
 49
0.0
 49
0.0
 49
0.0
 49
0.0
 49
1.0
 49
0.0
 49
0.0
 49
0.0
 49
0.0
 49
1.0
175
     0
142
0.0208333333333333
142
0.0
142
0.0
142
0.0
142
0.0
142
0.0208333333333333
142
0.0
142
0.0
142
0.0
142
0.0
142
1.0
142
0.0
142
0.0
142
0.0
142
0.0
142
1.0
179
     0
144
0.0208333333333333
144
0.0
144
0.0
144
0.0
144
0.0
144
0.0208333333333333
144
0.0
144
0.0
144
0.0
144
0.0
144
1.0
144
0.0
144
0.0
144
0.0
144
0.0
144
1.0
147
0.0208333333333333
147
0.0
147
0.0
147
0.0
147
0.0
147
0.0208333333333333
147
0.0
147
0.0
147
0.0
147
0.0
147
1.0
147
0.0
147
0.0
147
0.0
147
0.0
147
1.0
  0
MLEADERSTYLE
  5
B56A7A5C3AE62FBF
102
{ACAD_REACTORS
330
B56A7A5C3AE62FBE
102
}
330
B56A7A5C3AE62FBE
100
AcDbMLeaderStyle
179
     2
170
     2
171
     1
172
     0
 90
        2
 40
0.0
 41
0.0
173
     1
 91
-1056964608
340
B56A7A5C3AE5E791
 92
       -2
290
     1
 42
0.09
291
     1
 43
0.36
  3
Standard
 44
0.18
300

342
B56A7A5C3AE5E78F
174
     1
178
     6
175
     1
176
     0
 93
-1056964608
 45
0.18
292
     0
297
     0
 46
0.18
 94
-1056964608
 47
1.0
 49
1.0
140
1.0
293
     1
141
0.0
294
     1
177
     0
142
1.0
295
     0
296
     0
143
0.125
271
     0
272
     9
273
     9
298
     1
  0
MLINESTYLE
  5
B56A7A5C3AE5E79B
102
{ACAD_REACTORS
330
B56A7A5C3AE5E79A
102
}
330
B56A7A5C3AE5E79A
100
AcDbMlineStyle
  2
STANDARD
 70
     0
  3

 62
   256
 51
90.0
 52
90.0
 71
     2
 49
0.5
 62
   256
  6
BYLAYER
 49
-0.5
 62
   256
  6
BYLAYER
  0
ACDBPLACEHOLDER
  5
B56A7A5C3AE5FA72
102
{ACAD_REACTORS
330
B56A7A5C3AE5FA71
102
}
330
B56A7A5C3AE5FA71
  0
SCALE
  5
B56A7A5C3AE62FAD
102
{ACAD_REACTORS
330
B56A7A5C3AE62FAC
102
}
330
B56A7A5C3AE62FAC
100
AcDbScale
 70
     0
300
1:1
140
1.0
141
1.0
290
     1
  0
SCALE
  5
B56A7A5C3AE62FAE
102
{ACAD_REACTORS
330
B56A7A5C3AE62FAC
102
}
330
B56A7A5C3AE62FAC
100
AcDbScale
 70
     0
300
1/128" = 1'-0"
140
0.0078125
141
12.0
290
     0
  0
SCALE
  5
B56A7A5C3AE62FAF
102
{ACAD_REACTORS
330
B56A7A5C3AE62FAC
102
}
330
B56A7A5C3AE62FAC
100
AcDbScale
 70
     0
300
1/64" = 1'-0"
140
0.015625
141
12.0
290
     0
  0
SCALE
  5
B56A7A5C3AE62FB0
102
{ACAD_REACTORS
330
B56A7A5C3AE62FAC
102
}
330
B56A7A5C3AE62FAC
100
AcDbScale
 70
     0
300
1/32" = 1'-0"
140
0.03125
141
12.0
290
     0
  0
SCALE
  5
B56A7A5C3AE62FB1
102
{ACAD_REACTORS
330
B56A7A5C3AE62FAC
102
}
330
B56A7A5C3AE62FAC
100
AcDbScale
 70
     0
300
1/16" = 1'-0"
140
0.0625
141
12.0
290
     0
  0
SCALE
  5
B56A7A5C3AE62FB2
102
{ACAD_REACTORS
330
B56A7A5C3AE62FAC
102
}
330
B56A7A5C3AE62FAC
100
AcDbScale
 70
     0
300
3/32" = 1'-0"
140
0.09375
141
12.0
290
     0
  0
SCALE
  5
B56A7A5C3AE62FB3
102
{ACAD_REACTORS
330
B56A7A5C3AE62FAC
102
}
330
B56A7A5C3AE62FAC
100
AcDbScale
 70
     0
300
1/8" = 1'-0"
140
0.125
141
12.0
290
     0
  0
SCALE
  5
B56A7A5C3AE62FB4
102
{ACAD_REACTORS
330
B56A7A5C3AE62FAC
102
}
330
B56A7A5C3AE62FAC
100
AcDbScale
 70
     0
300
3/16" = 1'-0"
140
0.1875
141
12.0
290
     0
  0
SCALE
  5
B56A7A5C3AE62FB5
102
{ACAD_REACTORS
330
B56A7A5C3AE62FAC
102
}
330
B56A7A5C3AE62FAC
100
AcDbScale
 70
     0
300
1/4" = 1'-0"
140
0.25
141
12.0
290
     0
  0
SCALE
  5
B56A7A5C3AE62FB6
102
{ACAD_REACTORS
330
B56A7A5C3AE62FAC
102
}
330
B56A7A5C3AE62FAC
100
AcDbScale
 70
     0
300
3/8" = 1'-0"
140
0.375
141
12.0
290
     0
  0
SCALE
  5
B56A7A5C3AE62FB7
102
{ACAD_REACTORS
330
B56A7A5C3AE62FAC
102
}
330
B56A7A5C3AE62FAC
100
AcDbScale
 70
     0
300
1/2" = 1'-0"
140
0.5
141
12.0
290
     0
  0
SCALE
  5
B56A7A5C3AE62FB8
102
{ACAD_REACTORS
330
B56A7A5C3AE62FAC
102
}
330
B56A7A5C3AE62FAC
100
AcDbScale
 70
     0
300
3/4" = 1'-0"
140
0.75
141
12.0
290
     0
  0
SCALE
  5
B56A7A5C3AE62FB9
102
{ACAD_REACTORS
330
B56A7A5C3AE62FAC
102
}
330
B56A7A5C3AE62FAC
100
AcDbScale
 70
     0
300
1" = 1'-0"
140
1.0
141
12.0
290
     0
  0
SCALE
  5
B56A7A5C3AE62FBA
102
{ACAD_REACTORS
330
B56A7A5C3AE62FAC
102
}
330
B56A7A5C3AE62FAC
100
AcDbScale
 70
     0
300
1-1/2" = 1'-0"
140
1.5
141
12.0
290
     0
  0
SCALE
  5
B56A7A5C3AE62FBB
102
{ACAD_REACTORS
330
B56A7A5C3AE62FAC
102
}
330
B56A7A5C3AE62FAC
100
AcDbScale
 70
     0
300
3" = 1'-0"
140
3.0
141
12.0
290
     0
  0
SCALE
  5
B56A7A5C3AE62FBC
102
{ACAD_REACTORS
330
B56A7A5C3AE62FAC
102
}
330
B56A7A5C3AE62FAC
100
AcDbScale
 70
     0
300
6" = 1'-0"
140
6.0
141
12.0
290
     0
  0
SCALE
  5
B56A7A5C3AE62FBD
102
{ACAD_REACTORS
330
B56A7A5C3AE62FAC
102
}
330
B56A7A5C3AE62FAC
100
AcDbScale
 70
     0
300
1'-0" = 1'-0"
140
12.0
141
12.0
290
     0
  0
ACDBSECTIONVIEWSTYLE
  5
B56A7A5C3AE62FC1
102
{ACAD_REACTORS
330
B56A7A5C3AE62FC0
102
}
330
B56A7A5C3AE62FC0
100
AcDbModelDocViewStyle
 70
     0
  3
Imperial24
290
     0
300
Imperial24
 90
        0
100
AcDbSectionViewStyle
 70
     0
 71
     0
 90
       78
 71
     1
340
B56A7A5C3AE5E78F
 62
   256
 40
0.24
340
0
340
0
 62
   256
 40
0.24
300
I, O, Q, S, X, Z
 40
0.48
 90
        3
 40
0.18
 90
        1
 71
     2
340
B56A7A5C3AE6044B
 90
       25
 62
   256
340
B56A7A5C3AE5E793
 90
       50
 62
   256
 40
0.24
 40
0.0
 40
0.24
 71
     3
340
B56A7A5C3AE5E78F
 62
   256
 40
0.24
 90
        1
 40
0.75
 90
        1
300
%<\AcVar ViewType \f "%tc1">% %<\AcVar ViewSectionStartId>%-%<\AcVar ViewSectionEndId>%\PSCALE %<\AcVar ViewScale \f "%sn">%
 71
     4
 62
   256
 62
   257
300
ANSI31
 40
1.0
 90
        0
290
     0
290
     0
 90
        6
 40
0.0
 40
1.570796326794896
 40
0.2617993877991494
 40
1.308996938995747
 40
-0.2617993877991494
 40
1.832595714594046
  0
TABLESTYLE
  5
B56A7A5C3AE60969
102
{ACAD_XDICTIONARY
360
B56A7A5C3AE62FE7
102
}
102
{ACAD_REACTORS
330
B56A7A5C3AE60968
102
}
330
B56A7A5C3AE60968
100
AcDbTableStyle
280
     0
  3
Standard
 70
     0
 71
     0
 40
0.06
 41
0.06
280
     0
281
     0
  7
STANDARD
140
0.18
170
     2
 62
     0
 63
     7
283
     0
 90
        4
 91
        0
  1

274
    -2
284
     1
 64
     0
275
    -2
285
     1
 65
     0
276
    -2
286
     1
 66
     0
277
    -2
287
     1
 67
     0
278
    -2
288
     1
 68
     0
279
    -2
289
     1
 69
     0
  7
STANDARD
140
0.25
170
     5
 62
     0
 63
     7
283
     0
 90
        4
 91
        0
  1

274
    -2
284
     1
 64
     0
275
    -2
285
     1
 65
     0
276
    -2
286
     1
 66
     0
277
    -2
287
     1
 67
     0
278
    -2
288
     1
 68
     0
279
    -2
289
     1
 69
     0
  7
STANDARD
140
0.18
170
     5
 62
     0
 63
     7
283
     0
 90
        4
 91
        0
  1

274
    -2
284
     1
 64
     0
275
    -2
285
     1
 65
     0
276
    -2
286
     1
 66
     0
277
    -2
287
     1
 67
     0
278
    -2
288
     1
 68
     0
279
    -2
289
     1
 69
     0
  0
VISUALSTYLE
  5
B56A7A5C3AE62F99
102
{ACAD_REACTORS
330
B56A7A5C3AE62F93
102
}
330
B56A7A5C3AE62F93
100
AcDbVisualStyle
  2
2dWireframe
 70
     4
177
     3
291
     0
 70
    58
 90
        0
176
     1
 90
        2
176
     1
 90
        0
176
     1
 90
        0
176
     1
 40
0.6
176
     1
 40
30.0
176
     1
 62
     7
420
 16777215
176
     1
 90
        1
176
     1
 90
        4
176
     1
 62
     7
176
     1
 62
   257
176
     1
 90
        1
176
     1
 90
        1
176
     1
 40
1.0
176
     1
 90
        0
176
     1
 62
   257
176
     1
 40
1.0
176
     1
 90
        1
176
     1
 90
        6
176
     1
 90
        2
176
     1
 62
     7
176
     1
 90
        5
176
     1
 90
        0
176
     1
 90
        0
176
     1
290
     0
176
     1
 90
        1
176
     1
 40
0.0
176
     1
 90
        0
176
     1
290
     1
176
     1
290
     1
176
     1
290
     0
176
     1
290
     0
176
     1
290
     0
176
     1
290
     0
176
     1
290
     0
176
     1
290
     0
176
     1
290
     0
176
     1
 90
       50
176
     1
 40
0.0
176
     1
 40
1.0
176
     1
 90
        0
176
     1
 62
    18
420
        0
176
     1
 90
       50
176
     1
 90
        3
176
     1
 62
     5
420
      255
176
     1
290
     0
176
     1
 90
       50
176
     1
 90
       50
176
     1
 90
       50
176
     1
290
     0
176
     1
 90
       50
176
     1
 62
   256
176
     0
 40
1.0
176
     0
 90
        2
176
     1
  1
strokes_ogs.tif
176
     1
290
     0
176
     1
 40
1.0
176
     1
 40
1.0
176
     1
  0
VISUALSTYLE
  5
B56A7A5C3AE62F98
102
{ACAD_REACTORS
330
B56A7A5C3AE62F93
102
}
330
B56A7A5C3AE62F93
100
AcDbVisualStyle
  2
Basic
 70
     7
177
     3
291
     1
 70
    58
 90
        1
176
     1
 90
        0
176
     1
 90
        1
176
     1
 90
        0
176
     1
 40
0.6
176
     1
 40
30.0
176
     1
 62
     7
420
 16777215
176
     1
 90
        0
176
     1
 90
        4
176
     1
 62
     7
176
     1
 62
   257
176
     1
 90
        1
176
     1
 90
        1
176
     1
 40
1.0
176
     1
 90
        8
176
     1
 62
     7
176
     1
 40
1.0
176
     1
 90
        1
176
     1
 90
        6
176
     1
 90
        2
176
     1
 62
     7
176
     1
 90
        5
176
     1
 90
        0
176
     1
 90
        0
176
     1
290
     0
176
     1
 90
        1
176
     1
 40
0.0
176
     1
 90
        0
176
     1
290
     0
176
     1
290
     1
176
     1
290
     1
176
     1
290
     0
176
     1
290
     0
176
     1
290
     0
176
     1
290
     0
176
     1
290
     0
176
     1
290
     0
176
     1
 90
       50
176
     1
 40
0.0
176
     1
 40
1.0
176
     1
 90
        0
176
     1
 62
    18
420
        0
176
     1
 90
       50
176
     1
 90
        3
176
     1
 62
     5
420
      255
176
     1
290
     0
176
     1
 90
       50
176
     1
 90
       50
176
     1
 90
       50
176
     1
290
     0
176
     1
 90
       50
176
     1
 62
   256
176
     0
 40
1.0
176
     0
 90
        2
176
     1
  1
strokes_ogs.tif
176
     1
290
     0
176
     1
 40
1.0
176
     1
 40
1.0
176
     1
  0
VISUALSTYLE
  5
B56A7A5C3AE62F9F
102
{ACAD_REACTORS
330
B56A7A5C3AE62F93
102
}
330
B56A7A5C3AE62F93
100
AcDbVisualStyle
  2
Brighten
 70
    12
177
     3
291
     1
 70
    58
 90
        2
176
     1
 90
        2
176
     1
 90
        0
176
     1
 90
        0
176
     1
 40
0.6
176
     1
 40
30.0
176
     1
 62
     7
420
 16777215
176
     1
 90
        1
176
     1
 90
        4
176
     1
 62
     7
176
     1
 62
   257
176
     1
 90
        1
176
     1
 90
        1
176
     1
 40
1.0
176
     1
 90
        8
176
     1
 62
     7
176
     1
 40
1.0
176
     1
 90
        1
176
     1
 90
        6
176
     1
 90
        2
176
     1
 62
     7
176
     1
 90
        5
176
     1
 90
        0
176
     1
 90
        0
176
     1
290
     0
176
     1
 90
        1
176
     1
 40
50.0
176
     1
 90
        0
176
     1
290
     0
176
     1
290
     1
176
     1
290
     1
176
     1
290
     0
176
     1
290
     0
176
     1
290
     0
176
     1
290
     0
176
     1
290
     0
176
     1
290
     0
176
     1
 90
       50
176
     1
 40
0.0
176
     1
 40
1.0
176
     1
 90
        0
176
     1
 62
    18
420
        0
176
     1
 90
       50
176
     1
 90
        3
176
     1
 62
     5
420
      255
176
     1
290
     0
176
     1
 90
       50
176
     1
 90
       50
176
     1
 90
       50
176
     1
290
     0
176
     1
 90
       50
176
     1
 62
   256
176
     0
 40
1.0
176
     0
 90
        2
176
     1
  1
strokes_ogs.tif
176
     1
290
     0
176
     1
 40
1.0
176
     1
 40
1.0
176
     1
  0
VISUALSTYLE
  5
B56A7A5C3AE62FA3
102
{ACAD_REACTORS
330
B56A7A5C3AE62F93
102
}
330
B56A7A5C3AE62F93
100
AcDbVisualStyle
  2
ColorChange
 70
    16
177
     3
291
     1
 70
    58
 90
        2
176
     1
 90
        2
176
     1
 90
        3
176
     1
 90
        0
176
     1
 40
0.6
176
     1
 40
30.0
176
     1
 62
     8
420
  8421504
176
     1
 90
        1
176
     1
 90
        4
176
     1
 62
     7
176
     1
 62
   257
176
     1
 90
        1
176
     1
 90
        1
176
     1
 40
1.0
176
     1
 90
        8
176
     1
 62
     8
420
  8421504
176
     1
 40
1.0
176
     1
 90
        1
176
     1
 90
        6
176
     1
 90
        2
176
     1
 62
     7
176
     1
 90
        5
176
     1
 90
        0
176
     1
 90
        0
176
     1
290
     0
176
     1
 90
        1
176
     1
 40
0.0
176
     1
 90
        0
176
     1
290
     0
176
     1
290
     1
176
     1
290
     1
176
     1
290
     0
176
     1
290
     0
176
     1
290
     0
176
     1
290
     0
176
     1
290
     0
176
     1
290
     0
176
     1
 90
       50
176
     1
 40
0.0
176
     1
 40
1.0
176
     1
 90
        0
176
     1
 62
    18
420
        0
176
     1
 90
       50
176
     1
 90
        3
176
     1
 62
     5
420
      255
176
     1
290
     0
176
     1
 90
       50
176
     1
 90
       50
176
     1
 90
       50
176
     1
290
     0
176
     1
 90
       50
176
     1
 62
   256
176
     0
 40
1.0
176
     0
 90
        2
176
     1
  1
strokes_ogs.tif
176
     1
290
     0
176
     1
 40
1.0
176
     1
 40
1.0
176
     1
  0
VISUALSTYLE
  5
B56A7A5C3AE62F9C
102
{ACAD_REACTORS
330
B56A7A5C3AE62F93
102
}
330
B56A7A5C3AE62F93
100
AcDbVisualStyle
  2
Conceptual
 70
     9
177
     3
291
     0
 70
    58
 90
        3
176
     1
 90
        2
176
     1
 90
        0
176
     1
 90
        0
176
     1
 40
0.6
176
     1
 40
30.0
176
     1
 62
     7
420
 16777215
176
     1
 90
        2
176
     1
 90
        2
176
     1
 62
     7
176
     1
 62
   257
176
     1
 90
        1
176
     1
 90
        1
176
     1
 40
179.0
176
     1
 90
        8
176
     1
 62
     7
176
     1
 40
1.0
176
     1
 90
        1
176
     1
 90
        6
176
     1
 90
        2
176
     1
 62
     7
176
     1
 90
        3
176
     1
 90
        0
176
     1
 90
        0
176
     1
290
     0
176
     1
 90
        1
176
     1
 40
0.0
176
     1
 90
        0
176
     1
290
     0
176
     1
290
     1
176
     1
290
     1
176
     1
290
     0
176
     1
290
     0
176
     1
290
     0
176
     1
290
     0
176
     1
290
     0
176
     1
290
     0
176
     1
 90
       50
176
     1
 40
0.0
176
     1
 40
1.0
176
     1
 90
        0
176
     1
 62
    18
420
        0
176
     1
 90
       50
176
     1
 90
        3
176
     1
 62
     5
420
      255
176
     1
290
     0
176
     1
 90
       50
176
     1
 90
       50
176
     1
 90
       50
176
     1
290
     0
176
     1
 90
       50
176
     1
 62
   256
176
     0
 40
1.0
176
     0
 90
        2
176
     1
  1
strokes_ogs.tif
176
     1
290
     0
176
     1
 40
1.0
176
     1
 40
1.0
176
     1
  0
VISUALSTYLE
  5
B56A7A5C3AE62F9E
102
{ACAD_REACTORS
330
B56A7A5C3AE62F93
102
}
330
B56A7A5C3AE62F93
100
AcDbVisualStyle
  2
Dim
 70
    11
177
     3
291
     1
 70
    58
 90
        2
176
     1
 90
        2
176
     1
 90
        0
176
     1
 90
        0
176
     1
 40
0.6
176
     1
 40
30.0
176
     1
 62
     7
420
 16777215
176
     1
 90
        1
176
     1
 90
        4
176
     1
 62
     7
176
     1
 62
   257
176
     1
 90
        1
176
     1
 90
        1
176
     1
 40
1.0
176
     1
 90
        8
176
     1
 62
     7
176
     1
 40
1.0
176
     1
 90
        1
176
     1
 90
        6
176
     1
 90
        2
176
     1
 62
     7
176
     1
 90
        5
176
     1
 90
        0
176
     1
 90
        0
176
     1
290
     0
176
     1
 90
        1
176
     1
 40
-50.0
176
     1
 90
        0
176
     1
290
     0
176
     1
290
     1
176
     1
290
     1
176
     1
290
     0
176
     1
290
     0
176
     1
290
     0
176
     1
290
     0
176
     1
290
     0
176
     1
290
     0
176
     1
 90
       50
176
     1
 40
0.0
176
     1
 40
1.0
176
     1
 90
        0
176
     1
 62
    18
420
        0
176
     1
 90
       50
176
     1
 90
        3
176
     1
 62
     5
420
      255
176
     1
290
     0
176
     1
 90
       50
176
     1
 90
       50
176
     1
 90
       50
176
     1
290
     0
176
     1
 90
       50
176
     1
 62
   256
176
     0
 40
1.0
176
     0
 90
        2
176
     1
  1
strokes_ogs.tif
176
     1
290
     0
176
     1
 40
1.0
176
     1
 40
1.0
176
     1
  0
VISUALSTYLE
  5
B56A7A5C3AE62FAB
102
{ACAD_REACTORS
330
B56A7A5C3AE62F93
102
}
330
B56A7A5C3AE62F93
100
AcDbVisualStyle
  2
EdgeColorOff
 70
    22
177
     3
291
     1
 70
    58
 90
        2
176
     0
 90
        2
176
     0
 90
        0
176
     0
 90
        0
176
     0
 40
0.6
176
     0
 40
30.0
176
     0
 62
     7
420
 16777215
176
     0
 90
        1
176
     0
 90
        4
176
     0
 62
     7
176
     0
 62
   257
176
     0
 90
        1
176
     0
 90
        1
176
     0
 40
1.0
176
     0
 90
        8
176
     2
 62
     7
176
     0
 40
1.0
176
     0
 90
        1
176
     0
 90
        6
176
     0
 90
        2
176
     0
 62
     7
176
     0
 90
        5
176
     0
 90
        0
176
     0
 90
        0
176
     0
290
     0
176
     0
 90
        1
176
     0
 40
0.0
176
     0
 90
        0
176
     0
290
     0
176
     0
290
     1
176
     0
290
     1
176
     0
290
     0
176
     0
290
     0
176
     0
290
     0
176
     0
290
     0
176
     0
290
     0
176
     0
290
     0
176
     0
 90
       50
176
     0
 40
0.0
176
     0
 40
1.0
176
     0
 90
        0
176
     0
 62
    18
420
        0
176
     0
 90
       50
176
     0
 90
        3
176
     0
 62
     5
420
      255
176
     0
290
     0
176
     0
 90
       50
176
     0
 90
       50
176
     0
 90
       50
176
     0
290
     0
176
     0
 90
       50
176
     0
 62
   256
176
     0
 40
1.0
176
     0
 90
        2
176
     0
  1
strokes_ogs.tif
176
     0
290
     0
176
     0
 40
1.0
176
     0
 40
1.0
176
     0
  0
VISUALSTYLE
  5
B56A7A5C3AE62FA2
102
{ACAD_REACTORS
330
B56A7A5C3AE62F93
102
}
330
B56A7A5C3AE62F93
100
AcDbVisualStyle
  2
Facepattern
 70
    15
177
     3
291
     1
 70
    58
 90
        2
176
     1
 90
        2
176
     1
 90
        0
176
     1
 90
        0
176
     1
 40
0.6
176
     1
 40
30.0
176
     1
 62
     7
420
 16777215
176
     1
 90
        1
176
     1
 90
        4
176
     1
 62
     7
176
     1
 62
   257
176
     1
 90
        1
176
     1
 90
        1
176
     1
 40
1.0
176
     1
 90
        8
176
     1
 62
     7
176
     1
 40
1.0
176
     1
 90
        1
176
     1
 90
        6
176
     1
 90
        2
176
     1
 62
     7
176
     1
 90
        5
176
     1
 90
        0
176
     1
 90
        0
176
     1
290
     0
176
     1
 90
        1
176
     1
 40
0.0
176
     1
 90
        0
176
     1
290
     0
176
     1
290
     1
176
     1
290
     1
176
     1
290
     0
176
     1
290
     0
176
     1
290
     0
176
     1
290
     0
176
     1
290
     0
176
     1
290
     0
176
     1
 90
       50
176
     1
 40
0.0
176
     1
 40
1.0
176
     1
 90
        0
176
     1
 62
    18
420
        0
176
     1
 90
       50
176
     1
 90
        3
176
     1
 62
     5
420
      255
176
     1
290
     0
176
     1
 90
       50
176
     1
 90
       50
176
     1
 90
       50
176
     1
290
     0
176
     1
 90
       50
176
     1
 62
   256
176
     0
 40
1.0
176
     0
 90
        2
176
     1
  1
strokes_ogs.tif
176
     1
290
     0
176
     1
 40
1.0
176
     1
 40
1.0
176
     1
  0
VISUALSTYLE
  5
B56A7A5C3AE62F94
102
{ACAD_REACTORS
330
B56A7A5C3AE62F93
102
}
330
B56A7A5C3AE62F93
100
AcDbVisualStyle
  2
Flat
 70
     0
177
     3
291
     1
 70
    58
 90
        2
176
     1
 90
        1
176
     1
 90
        1
176
     1
 90
        2
176
     1
 40
0.6
176
     1
 40
30.0
176
     1
 62
     7
420
 16777215
176
     1
 90
        0
176
     1
 90
        0
176
     1
 62
     7
176
     1
 62
   257
176
     1
 90
        1
176
     1
 90
        1
176
     1
 40
1.0
176
     1
 90
        8
176
     1
 62
     7
176
     1
 40
1.0
176
     1
 90
        1
176
     1
 90
        6
176
     1
 90
        2
176
     1
 62
     7
176
     1
 90
        5
176
     1
 90
        0
176
     1
 90
        0
176
     1
290
     0
176
     1
 90
       13
176
     1
 40
0.0
176
     1
 90
        0
176
     1
290
     0
176
     1
290
     1
176
     1
290
     1
176
     1
290
     0
176
     1
290
     0
176
     1
290
     0
176
     1
290
     0
176
     1
290
     0
176
     1
290
     0
176
     1
 90
       50
176
     1
 40
0.0
176
     1
 40
1.0
176
     1
 90
        0
176
     1
 62
    18
420
        0
176
     1
 90
       50
176
     1
 90
        3
176
     1
 62
     5
420
      255
176
     1
290
     0
176
     1
 90
       50
176
     1
 90
       50
176
     1
 90
       50
176
     1
290
     0
176
     1
 90
       50
176
     1
 62
   256
176
     0
 40
1.0
176
     0
 90
        2
176
     1
  1
strokes_ogs.tif
176
     1
290
     0
176
     1
 40
1.0
176
     1
 40
1.0
176
     1
  0
VISUALSTYLE
  5
B56A7A5C3AE62F95
102
{ACAD_REACTORS
330
B56A7A5C3AE62F93
102
}
330
B56A7A5C3AE62F93
100
AcDbVisualStyle
  2
FlatWithEdges
 70
     1
177
     3
291
     1
 70
    58
 90
        2
176
     1
 90
        1
176
     1
 90
        1
176
     1
 90
        2
176
     1
 40
0.6
176
     1
 40
30.0
176
     1
 62
     7
420
 16777215
176
     1
 90
        1
176
     1
 90
        0
176
     1
 62
     7
176
     1
 62
   257
176
     1
 90
        1
176
     1
 90
        1
176
     1
 40
1.0
176
     1
 90
        0
176
     1
 62
   257
176
     1
 40
1.0
176
     1
 90
        1
176
     1
 90
        6
176
     1
 90
        2
176
     1
 62
     7
176
     1
 90
        5
176
     1
 90
        0
176
     1
 90
        0
176
     1
290
     0
176
     1
 90
       13
176
     1
 40
0.0
176
     1
 90
        0
176
     1
290
     0
176
     1
290
     1
176
     1
290
     1
176
     1
290
     0
176
     1
290
     0
176
     1
290
     0
176
     1
290
     0
176
     1
290
     0
176
     1
290
     0
176
     1
 90
       50
176
     1
 40
0.0
176
     1
 40
1.0
176
     1
 90
        0
176
     1
 62
    18
420
        0
176
     1
 90
       50
176
     1
 90
        3
176
     1
 62
     5
420
      255
176
     1
290
     0
176
     1
 90
       50
176
     1
 90
       50
176
     1
 90
       50
176
     1
290
     0
176
     1
 90
       50
176
     1
 62
   256
176
     0
 40
1.0
176
     0
 90
        2
176
     1
  1
strokes_ogs.tif
176
     1
290
     0
176
     1
 40
1.0
176
     1
 40
1.0
176
     1
  0
VISUALSTYLE
  5
B56A7A5C3AE62F96
102
{ACAD_REACTORS
330
B56A7A5C3AE62F93
102
}
330
B56A7A5C3AE62F93
100
AcDbVisualStyle
  2
Gouraud
 70
     2
177
     3
291
     1
 70
    58
 90
        2
176
     1
 90
        2
176
     1
 90
        1
176
     1
 90
        2
176
     1
 40
0.6
176
     1
 40
30.0
176
     1
 62
     7
420
 16777215
176
     1
 90
        0
176
     1
 90
        0
176
     1
 62
     7
176
     1
 62
   257
176
     1
 90
        1
176
     1
 90
        1
176
     1
 40
1.0
176
     1
 90
        0
176
     1
 62
     7
176
     1
 40
1.0
176
     1
 90
        1
176
     1
 90
        6
176
     1
 90
        2
176
     1
 62
     7
176
     1
 90
        5
176
     1
 90
        0
176
     1
 90
        0
176
     1
290
     0
176
     1
 90
       13
176
     1
 40
0.0
176
     1
 90
        0
176
     1
290
     0
176
     1
290
     1
176
     1
290
     1
176
     1
290
     0
176
     1
290
     0
176
     1
290
     0
176
     1
290
     0
176
     1
290
     0
176
     1
290
     0
176
     1
 90
       50
176
     1
 40
0.0
176
     1
 40
1.0
176
     1
 90
        0
176
     1
 62
    18
420
        0
176
     1
 90
       50
176
     1
 90
        3
176
     1
 62
     5
420
      255
176
     1
290
     0
176
     1
 90
       50
176
     1
 90
       50
176
     1
 90
       50
176
     1
290
     0
176
     1
 90
       50
176
     1
 62
   256
176
     0
 40
1.0
176
     0
 90
        2
176
     1
  1
strokes_ogs.tif
176
     1
290
     0
176
     1
 40
1.0
176
     1
 40
1.0
176
     1
  0
VISUALSTYLE
  5
B56A7A5C3AE62F97
102
{ACAD_REACTORS
330
B56A7A5C3AE62F93
102
}
330
B56A7A5C3AE62F93
100
AcDbVisualStyle
  2
GouraudWithEdges
 70
     3
177
     3
291
     1
 70
    58
 90
        2
176
     1
 90
        2
176
     1
 90
        1
176
     1
 90
        2
176
     1
 40
0.6
176
     1
 40
30.0
176
     1
 62
     7
420
 16777215
176
     1
 90
        1
176
     1
 90
        0
176
     1
 62
     7
176
     1
 62
   257
176
     1
 90
        1
176
     1
 90
        1
176
     1
 40
1.0
176
     1
 90
        0
176
     1
 62
   257
176
     1
 40
1.0
176
     1
 90
        1
176
     1
 90
        6
176
     1
 90
        2
176
     1
 62
     7
176
     1
 90
        5
176
     1
 90
        0
176
     1
 90
        0
176
     1
290
     0
176
     1
 90
       13
176
     1
 40
0.0
176
     1
 90
        0
176
     1
290
     0
176
     1
290
     1
176
     1
290
     1
176
     1
290
     0
176
     1
290
     0
176
     1
290
     0
176
     1
290
     0
176
     1
290
     0
176
     1
290
     0
176
     1
 90
       50
176
     1
 40
0.0
176
     1
 40
1.0
176
     1
 90
        0
176
     1
 62
    18
420
        0
176
     1
 90
       50
176
     1
 90
        3
176
     1
 62
     5
420
      255
176
     1
290
     0
176
     1
 90
       50
176
     1
 90
       50
176
     1
 90
       50
176
     1
290
     0
176
     1
 90
       50
176
     1
 62
   256
176
     0
 40
1.0
176
     0
 90
        2
176
     1
  1
strokes_ogs.tif
176
     1
290
     0
176
     1
 40
1.0
176
     1
 40
1.0
176
     1
  0
VISUALSTYLE
  5
B56A7A5C3AE62F9B
102
{ACAD_REACTORS
330
B56A7A5C3AE62F93
102
}
330
B56A7A5C3AE62F93
100
AcDbVisualStyle
  2
Hidden
 70
     6
177
     3
291
     0
 70
    58
 90
        1
176
     1
 90
        2
176
     1
 90
        2
176
     1
 90
        0
176
     1
 40
0.6
176
     1
 40
30.0
176
     1
 62
     7
420
 16777215
176
     1
 90
        2
176
     1
 90
        2
176
     1
 62
     7
176
     1
 62
   257
176
     1
 90
        2
176
     1
 90
        1
176
     1
 40
40.0
176
     1
 90
        0
176
     1
 62
   257
176
     1
 40
1.0
176
     1
 90
        1
176
     1
 90
        6
176
     1
 90
        2
176
     1
 62
     7
176
     1
 90
        3
176
     1
 90
        0
176
     1
 90
        0
176
     1
290
     0
176
     1
 90
        1
176
     1
 40
0.0
176
     1
 90
        0
176
     1
290
     0
176
     1
290
     1
176
     1
290
     1
176
     1
290
     0
176
     1
290
     0
176
     1
290
     0
176
     1
290
     0
176
     1
290
     0
176
     1
290
     0
176
     1
 90
       50
176
     1
 40
0.0
176
     1
 40
1.0
176
     1
 90
        0
176
     1
 62
    18
420
        0
176
     1
 90
       50
176
     1
 90
        3
176
     1
 62
     5
420
      255
176
     1
290
     0
176
     1
 90
       50
176
     1
 90
       50
176
     1
 90
       50
176
     1
290
     0
176
     1
 90
       50
176
     1
 62
   256
176
     0
 40
1.0
176
     0
 90
        2
176
     1
  1
strokes_ogs.tif
176
     1
290
     0
176
     1
 40
1.0
176
     1
 40
1.0
176
     1
  0
VISUALSTYLE
  5
B56A7A5C3AE62FA9
102
{ACAD_REACTORS
330
B56A7A5C3AE62F93
102
}
330
B56A7A5C3AE62F93
100
AcDbVisualStyle
  2
JitterOff
 70
    20
177
     3
291
     1
 70
    58
 90
        2
176
     0
 90
        2
176
     0
 90
        0
176
     0
 90
        0
176
     0
 40
0.6
176
     0
 40
30.0
176
     0
 62
     7
420
 16777215
176
     0
 90
        1
176
     0
 90
        4
176
     0
 62
     7
176
     0
 62
   257
176
     0
 90
        1
176
     0
 90
        1
176
     0
 40
1.0
176
     0
 90
       10
176
     2
 62
     7
176
     0
 40
1.0
176
     0
 90
        1
176
     0
 90
        6
176
     0
 90
        2
176
     0
 62
     7
176
     0
 90
        5
176
     0
 90
        0
176
     0
 90
        0
176
     0
290
     0
176
     0
 90
        1
176
     0
 40
0.0
176
     0
 90
        0
176
     0
290
     0
176
     0
290
     1
176
     0
290
     1
176
     0
290
     0
176
     0
290
     0
176
     0
290
     0
176
     0
290
     0
176
     0
290
     0
176
     0
290
     0
176
     0
 90
       50
176
     0
 40
0.0
176
     0
 40
1.0
176
     0
 90
        0
176
     0
 62
    18
420
        0
176
     0
 90
       50
176
     0
 90
        3
176
     0
 62
     5
420
      255
176
     0
290
     0
176
     0
 90
       50
176
     0
 90
       50
176
     0
 90
       50
176
     0
290
     0
176
     0
 90
       50
176
     0
 62
   256
176
     0
 40
1.0
176
     0
 90
        2
176
     0
  1
strokes_ogs.tif
176
     0
290
     0
176
     0
 40
1.0
176
     0
 40
1.0
176
     0
  0
VISUALSTYLE
  5
B56A7A5C3AE62FA1
102
{ACAD_REACTORS
330
B56A7A5C3AE62F93
102
}
330
B56A7A5C3AE62F93
100
AcDbVisualStyle
  2
Linepattern
 70
    14
177
     3
291
     1
 70
    58
 90
        2
176
     1
 90
        2
176
     1
 90
        0
176
     1
 90
        0
176
     1
 40
0.6
176
     1
 40
30.0
176
     1
 62
     7
420
 16777215
176
     1
 90
        1
176
     1
 90
        4
176
     1
 62
     7
176
     1
 62
   257
176
     1
 90
        7
176
     1
 90
        7
176
     1
 40
1.0
176
     1
 90
        8
176
     1
 62
     7
176
     1
 40
1.0
176
     1
 90
        1
176
     1
 90
        6
176
     1
 90
        2
176
     1
 62
     7
176
     1
 90
        5
176
     1
 90
        0
176
     1
 90
        0
176
     1
290
     0
176
     1
 90
        1
176
     1
 40
0.0
176
     1
 90
        0
176
     1
290
     0
176
     1
290
     1
176
     1
290
     1
176
     1
290
     0
176
     1
290
     0
176
     1
290
     0
176
     1
290
     0
176
     1
290
     0
176
     1
290
     0
176
     1
 90
       50
176
     1
 40
0.0
176
     1
 40
1.0
176
     1
 90
        0
176
     1
 62
    18
420
        0
176
     1
 90
       50
176
     1
 90
        3
176
     1
 62
     5
420
      255
176
     1
290
     0
176
     1
 90
       50
176
     1
 90
       50
176
     1
 90
       50
176
     1
290
     0
176
     1
 90
       50
176
     1
 62
   256
176
     0
 40
1.0
176
     0
 90
        2
176
     1
  1
strokes_ogs.tif
176
     1
290
     0
176
     1
 40
1.0
176
     1
 40
1.0
176
     1
  0
VISUALSTYLE
  5
B56A7A5C3AE62FAA
102
{ACAD_REACTORS
330
B56A7A5C3AE62F93
102
}
330
B56A7A5C3AE62F93
100
AcDbVisualStyle
  2
OverhangOff
 70
    21
177
     3
291
     1
 70
    58
 90
        2
176
     0
 90
        2
176
     0
 90
        0
176
     0
 90
        0
176
     0
 40
0.6
176
     0
 40
30.0
176
     0
 62
     7
420
 16777215
176
     0
 90
        1
176
     0
 90
        4
176
     0
 62
     7
176
     0
 62
   257
176
     0
 90
        1
176
     0
 90
        1
176
     0
 40
1.0
176
     0
 90
        9
176
     2
 62
     7
176
     0
 40
1.0
176
     0
 90
        1
176
     0
 90
        6
176
     0
 90
        2
176
     0
 62
     7
176
     0
 90
        5
176
     0
 90
        0
176
     0
 90
        0
176
     0
290
     0
176
     0
 90
        1
176
     0
 40
0.0
176
     0
 90
        0
176
     0
290
     0
176
     0
290
     1
176
     0
290
     1
176
     0
290
     0
176
     0
290
     0
176
     0
290
     0
176
     0
290
     0
176
     0
290
     0
176
     0
290
     0
176
     0
 90
       50
176
     0
 40
0.0
176
     0
 40
1.0
176
     0
 90
        0
176
     0
 62
    18
420
        0
176
     0
 90
       50
176
     0
 90
        3
176
     0
 62
     5
420
      255
176
     0
290
     0
176
     0
 90
       50
176
     0
 90
       50
176
     0
 90
       50
176
     0
290
     0
176
     0
 90
       50
176
     0
 62
   256
176
     0
 40
1.0
176
     0
 90
        2
176
     0
  1
strokes_ogs.tif
176
     0
290
     0
176
     0
 40
1.0
176
     0
 40
1.0
176
     0
  0
VISUALSTYLE
  5
B56A7A5C3AE62F9D
102
{ACAD_REACTORS
330
B56A7A5C3AE62F93
102
}
330
B56A7A5C3AE62F93
100
AcDbVisualStyle
  2
Realistic
 70
     8
177
     3
291
     0
 70
    58
 90
        2
176
     1
 90
        2
176
     1
 90
        0
176
     1
 90
        2
176
     1
 40
0.6
176
     1
 40
30.0
176
     1
 62
     7
420
 16777215
176
     1
 90
        0
176
     1
 90
        0
176
     1
 62
     7
176
     1
 62
   257
176
     1
 90
        1
176
     1
 90
        1
176
     1
 40
1.0
176
     1
 90
        8
176
     1
 62
   257
176
     1
 40
1.0
176
     1
 90
        1
176
     1
 90
        6
176
     1
 90
        2
176
     1
 62
     7
176
     1
 90
        3
176
     1
 90
        0
176
     1
 90
        0
176
     1
290
     0
176
     1
 90
       13
176
     1
 40
0.0
176
     1
 90
        0
176
     1
290
     0
176
     1
290
     1
176
     1
290
     1
176
     1
290
     0
176
     1
290
     0
176
     1
290
     0
176
     1
290
     0
176
     1
290
     0
176
     1
290
     0
176
     1
 90
       50
176
     1
 40
0.0
176
     1
 40
1.0
176
     1
 90
        0
176
     1
 62
    18
420
        0
176
     1
 90
       50
176
     1
 90
        3
176
     1
 62
     5
420
      255
176
     1
290
     0
176
     1
 90
       50
176
     1
 90
       50
176
     1
 90
       50
176
     1
290
     0
176
     1
 90
       50
176
     1
 62
   256
176
     0
 40
1.0
176
     0
 90
        2
176
     1
  1
strokes_ogs.tif
176
     1
290
     0
176
     1
 40
1.0
176
     1
 40
1.0
176
     1
  0
VISUALSTYLE
  5
B56A7A5C3AE62FA8
102
{ACAD_REACTORS
330
B56A7A5C3AE62F93
102
}
330
B56A7A5C3AE62F93
100
AcDbVisualStyle
  2
Shaded
 70
    27
177
     3
291
     0
 70
    58
 90
        2
176
     1
 90
        2
176
     1
 90
        1
176
     1
 90
        2
176
     1
 40
0.6
176
     1
 40
30.0
176
     1
 62
     7
420
 16777215
176
     1
 90
        0
176
     1
 90
        4
176
     1
 62
     7
176
     1
 62
   257
176
     1
 90
        1
176
     1
 90
        1
176
     1
 40
1.0
176
     1
 90
        8
176
     1
 62
   257
176
     1
 40
1.0
176
     1
 90
        1
176
     1
 90
        6
176
     1
 90
        2
176
     1
 62
     8
420
  7895160
176
     1
 90
        3
176
     1
 90
        0
176
     1
 90
        0
176
     1
290
     0
176
     1
 90
        5
176
     1
 40
0.0
176
     1
 90
        0
176
     1
290
     0
176
     1
290
     1
176
     1
290
     1
176
     1
290
     0
176
     1
290
     0
176
     1
290
     0
176
     1
290
     0
176
     1
290
     0
176
     1
290
     0
176
     1
 90
       50
176
     1
 40
0.0
176
     1
 40
1.0
176
     1
 90
        0
176
     1
 62
    18
420
        0
176
     1
 90
       50
176
     1
 90
        3
176
     1
 62
     5
420
      255
176
     1
290
     0
176
     1
 90
       50
176
     1
 90
       50
176
     1
 90
       50
176
     1
290
     0
176
     1
 90
       50
176
     1
 62
   256
176
     0
 40
1.0
176
     0
 90
        2
176
     1
  1
strokes_ogs.tif
176
     1
290
     0
176
     1
 40
1.0
176
     1
 40
1.0
176
     1
  0
VISUALSTYLE
  5
B56A7A5C3AE62FA7
102
{ACAD_REACTORS
330
B56A7A5C3AE62F93
102
}
330
B56A7A5C3AE62F93
100
AcDbVisualStyle
  2
Shaded with edges
 70
    26
177
     3
291
     0
 70
    58
 90
        2
176
     1
 90
        2
176
     1
 90
        1
176
     1
 90
        2
176
     1
 40
0.6
176
     1
 40
30.0
176
     1
 62
     7
420
 16777215
176
     1
 90
        1
176
     1
 90
        2
176
     1
 62
     7
176
     1
 62
   257
176
     1
 90
        2
176
     1
 90
        1
176
     1
 40
1.0
176
     1
 90
        8
176
     1
 62
   257
176
     1
 40
1.0
176
     1
 90
        1
176
     1
 90
        6
176
     1
 90
        2
176
     1
 62
     7
176
     1
 90
        3
176
     1
 90
        0
176
     1
 90
        0
176
     1
290
     0
176
     1
 90
        5
176
     1
 40
0.0
176
     1
 90
        0
176
     1
290
     0
176
     1
290
     1
176
     1
290
     1
176
     1
290
     0
176
     1
290
     0
176
     1
290
     0
176
     1
290
     0
176
     1
290
     0
176
     1
290
     0
176
     1
 90
       50
176
     1
 40
0.0
176
     1
 40
1.0
176
     1
 90
        0
176
     1
 62
    18
420
        0
176
     1
 90
       50
176
     1
 90
        3
176
     1
 62
     5
420
      255
176
     1
290
     0
176
     1
 90
       50
176
     1
 90
       50
176
     1
 90
       50
176
     1
290
     0
176
     1
 90
       50
176
     1
 62
   256
176
     0
 40
1.0
176
     0
 90
        2
176
     1
  1
strokes_ogs.tif
176
     1
290
     0
176
     1
 40
1.0
176
     1
 40
1.0
176
     1
  0
VISUALSTYLE
  5
B56A7A5C3AE62FA4
102
{ACAD_REACTORS
330
B56A7A5C3AE62F93
102
}
330
B56A7A5C3AE62F93
100
AcDbVisualStyle
  2
Shades of Gray
 70
    23
177
     3
291
     0
 70
    58
 90
        2
176
     1
 90
        2
176
     1
 90
        3
176
     1
 90
        0
176
     1
 40
0.6
176
     1
 40
30.0
176
     1
 62
     7
420
 16777215
176
     1
 90
        2
176
     1
 90
        2
176
     1
 62
     7
176
     1
 62
     7
176
     1
 90
        1
176
     1
 90
        1
176
     1
 40
40.0
176
     1
 90
        8
176
     1
 62
     7
176
     1
 40
1.0
176
     1
 90
        1
176
     1
 90
        6
176
     1
 90
        2
176
     1
 62
     7
176
     1
 90
        3
176
     1
 90
        0
176
     1
 90
        0
176
     1
290
     0
176
     1
 90
        1
176
     1
 40
0.0
176
     1
 90
        0
176
     1
290
     0
176
     1
290
     1
176
     1
290
     1
176
     1
290
     0
176
     1
290
     0
176
     1
290
     0
176
     1
290
     0
176
     1
290
     0
176
     1
290
     0
176
     1
 90
       50
176
     1
 40
0.0
176
     1
 40
1.0
176
     1
 90
        0
176
     1
 62
    18
420
        0
176
     1
 90
       50
176
     1
 90
        3
176
     1
 62
     5
420
      255
176
     1
290
     0
176
     1
 90
       50
176
     1
 90
       50
176
     1
 90
       50
176
     1
290
     0
176
     1
 90
       50
176
     1
 62
   256
176
     0
 40
1.0
176
     0
 90
        2
176
     1
  1
strokes_ogs.tif
176
     1
290
     0
176
     1
 40
1.0
176
     1
 40
1.0
176
     1
  0
VISUALSTYLE
  5
B56A7A5C3AE62FA5
102
{ACAD_REACTORS
330
B56A7A5C3AE62F93
102
}
330
B56A7A5C3AE62F93
100
AcDbVisualStyle
  2
Sketchy
 70
    24
177
     3
291
     0
 70
    58
 90
        1
176
     1
 90
        2
176
     1
 90
        2
176
     1
 90
        0
176
     1
 40
0.6
176
     1
 40
30.0
176
     1
 62
     7
420
 16777215
176
     1
 90
        2
176
     1
 90
        2
176
     1
 62
     7
176
     1
 62
     7
176
     1
 90
        1
176
     1
 90
        1
176
     1
 40
40.0
176
     1
 90
       11
176
     1
 62
     7
176
     1
 40
1.0
176
     1
 90
        1
176
     1
 90
        6
176
     1
 90
        2
176
     1
 62
     7
176
     1
 90
        6
176
     1
 90
        0
176
     1
 90
        0
176
     1
290
     0
176
     1
 90
        1
176
     1
 40
0.0
176
     1
 90
        0
176
     1
290
     0
176
     1
290
     1
176
     1
290
     1
176
     1
290
     0
176
     1
290
     0
176
     1
290
     0
176
     1
290
     0
176
     1
290
     0
176
     1
290
     0
176
     1
 90
       50
176
     1
 40
0.0
176
     1
 40
1.0
176
     1
 90
        0
176
     1
 62
    18
420
        0
176
     1
 90
       50
176
     1
 90
        3
176
     1
 62
     5
420
      255
176
     1
290
     0
176
     1
 90
       50
176
     1
 90
       50
176
     1
 90
       50
176
     1
290
     0
176
     1
 90
       50
176
     1
 62
   256
176
     0
 40
1.0
176
     0
 90
        2
176
     1
  1
strokes_ogs.tif
176
     1
290
     0
176
     1
 40
1.0
176
     1
 40
1.0
176
     1
  0
VISUALSTYLE
  5
B56A7A5C3AE62FA0
102
{ACAD_REACTORS
330
B56A7A5C3AE62F93
102
}
330
B56A7A5C3AE62F93
100
AcDbVisualStyle
  2
Thicken
 70
    13
177
     3
291
     1
 70
    58
 90
        2
176
     1
 90
        2
176
     1
 90
        0
176
     1
 90
        0
176
     1
 40
0.6
176
     1
 40
30.0
176
     1
 62
     7
420
 16777215
176
     1
 90
        1
176
     1
 90
        4
176
     1
 62
     7
176
     1
 62
   257
176
     1
 90
        1
176
     1
 90
        1
176
     1
 40
1.0
176
     1
 90
       12
176
     1
 62
     7
176
     1
 40
1.0
176
     1
 90
        1
176
     1
 90
        6
176
     1
 90
        2
176
     1
 62
     7
176
     1
 90
        5
176
     1
 90
        0
176
     1
 90
        0
176
     1
290
     0
176
     1
 90
        1
176
     1
 40
0.0
176
     1
 90
        0
176
     1
290
     0
176
     1
290
     1
176
     1
290
     1
176
     1
290
     0
176
     1
290
     0
176
     1
290
     0
176
     1
290
     0
176
     1
290
     0
176
     1
290
     0
176
     1
 90
       50
176
     1
 40
0.0
176
     1
 40
1.0
176
     1
 90
        0
176
     1
 62
    18
420
        0
176
     1
 90
       50
176
     1
 90
        3
176
     1
 62
     5
420
      255
176
     1
290
     0
176
     1
 90
       50
176
     1
 90
       50
176
     1
 90
       50
176
     1
290
     0
176
     1
 90
       50
176
     1
 62
   256
176
     0
 40
1.0
176
     0
 90
        2
176
     1
  1
strokes_ogs.tif
176
     1
290
     0
176
     1
 40
1.0
176
     1
 40
1.0
176
     1
  0
VISUALSTYLE
  5
B56A7A5C3AE62F9A
102
{ACAD_REACTORS
330
B56A7A5C3AE62F93
102
}
330
B56A7A5C3AE62F93
100
AcDbVisualStyle
  2
Wireframe
 70
     5
177
     3
291
     0
 70
    58
 90
        0
176
     1
 90
        2
176
     1
 90
        0
176
     1
 90
        0
176
     1
 40
0.6
176
     1
 40
30.0
176
     1
 62
     7
420
 16777215
176
     1
 90
        1
176
     1
 90
        4
176
     1
 62
     7
176
     1
 62
   257
176
     1
 90
        1
176
     1
 90
        1
176
     1
 40
1.0
176
     1
 90
        0
176
     1
 62
   257
176
     1
 40
1.0
176
     1
 90
        1
176
     1
 90
        6
176
     1
 90
        2
176
     1
 62
     7
176
     1
 90
        3
176
     1
 90
        0
176
     1
 90
        0
176
     1
290
     0
176
     1
 90
        1
176
     1
 40
0.0
176
     1
 90
        0
176
     1
290
     0
176
     1
290
     1
176
     1
290
     1
176
     1
290
     0
176
     1
290
     0
176
     1
290
     0
176
     1
290
     0
176
     1
290
     0
176
     1
290
     0
176
     1
 90
       50
176
     1
 40
0.0
176
     1
 40
1.0
176
     1
 90
        0
176
     1
 62
    18
420
        0
176
     1
 90
       50
176
     1
 90
        3
176
     1
 62
     5
420
      255
176
     1
290
     0
176
     1
 90
       50
176
     1
 90
       50
176
     1
 90
       50
176
     1
290
     0
176
     1
 90
       50
176
     1
 62
   256
176
     0
 40
1.0
176
     0
 90
        2
176
     1
  1
strokes_ogs.tif
176
     1
290
     0
176
     1
 40
1.0
176
     1
 40
1.0
176
     1
  0
VISUALSTYLE
  5
B56A7A5C3AE62FA6
102
{ACAD_REACTORS
330
B56A7A5C3AE62F93
102
}
330
B56A7A5C3AE62F93
100
AcDbVisualStyle
  2
X-Ray
 70
    25
177
     3
291
     0
 70
    58
 90
        2
176
     1
 90
        2
176
     1
 90
        1
176
     1
 90
        1
176
     1
 40
0.5
176
     1
 40
30.0
176
     1
 62
     7
420
 16777215
176
     1
 90
        1
176
     1
 90
        0
176
     1
 62
     7
176
     1
 62
   257
176
     1
 90
        1
176
     1
 90
        1
176
     1
 40
1.0
176
     1
 90
        8
176
     1
 62
     7
176
     1
 40
1.0
176
     1
 90
        1
176
     1
 90
        6
176
     1
 90
        2
176
     1
 62
     7
176
     1
 90
        3
176
     1
 90
        0
176
     1
 90
        0
176
     1
290
     0
176
     1
 90
       13
176
     1
 40
0.0
176
     1
 90
        0
176
     1
290
     0
176
     1
290
     1
176
     1
290
     1
176
     1
290
     0
176
     1
290
     0
176
     1
290
     0
176
     1
290
     0
176
     1
290
     0
176
     1
290
     0
176
     1
 90
       50
176
     1
 40
0.0
176
     1
 40
1.0
176
     1
 90
        0
176
     1
 62
    18
420
        0
176
     1
 90
       50
176
     1
 90
        3
176
     1
 62
     5
420
      255
176
     1
290
     0
176
     1
 90
       50
176
     1
 90
       50
176
     1
 90
       50
176
     1
290
     0
176
     1
 90
       50
176
     1
 62
   256
176
     0
 40
1.0
176
     0
 90
        2
176
     1
  1
strokes_ogs.tif
176
     1
290
     0
176
     1
 40
1.0
176
     1
 40
1.0
176
     1
  0
DICTIONARYVAR
  5
B56A7A5C3AE6303B
102
{ACAD_REACTORS
330
B56A7A5C3AE5E7DC
102
}
330
B56A7A5C3AE5E7DC
100
DictionaryVariables
280
     0
  1
1:1
  0
DICTIONARYVAR
  5
B56A7A5C3AE63038
102
{ACAD_REACTORS
330
B56A7A5C3AE5E7DC
102
}
330
B56A7A5C3AE5E7DC
100
DictionaryVariables
280
     0
  1
STANDARD
  0
DICTIONARYVAR
  5
B56A7A5C3AE60994
102
{ACAD_REACTORS
330
B56A7A5C3AE5E7DC
102
}
330
B56A7A5C3AE5E7DC
100
DictionaryVariables
280
     0
  1
STANDARD
  0
DICTIONARYVAR
  5
B56A7A5C3AE63039
102
{ACAD_REACTORS
330
B56A7A5C3AE5E7DC
102
}
330
B56A7A5C3AE5E7DC
100
DictionaryVariables
280
     0
  1
Imperial24
  0
DICTIONARYVAR
  5
B56A7A5C3AE6303A
102
{ACAD_REACTORS
330
B56A7A5C3AE5E7DC
102
}
330
B56A7A5C3AE5E7DC
100
DictionaryVariables
280
     0
  1
Imperial24
  0
DICTIONARYVAR
  5
B56A7A5C3AE5E7DD
102
{ACAD_REACTORS
330
B56A7A5C3AE5E7DC
102
}
330
B56A7A5C3AE5E7DC
100
DictionaryVariables
280
     0
  1
2
  0
DICTIONARYVAR
  5
B56A7A5C3AE604F2
102
{ACAD_REACTORS
330
B56A7A5C3AE5E7DC
102
}
330
B56A7A5C3AE5E7DC
100
DictionaryVariables
280
     0
  1
1
  0
DICTIONARYVAR
  5
B56A7A5C3AE604F1
102
{ACAD_REACTORS
330
B56A7A5C3AE5E7DC
102
}
330
B56A7A5C3AE5E7DC
100
DictionaryVariables
280
     0
  1
1
  0
DICTIONARYVAR
  5
B56A7A5C3AE6308D
102
{ACAD_REACTORS
330
B56A7A5C3AE5E7DC
102
}
330
B56A7A5C3AE5E7DC
100
DictionaryVariables
280
     0
  1
1
  0
DICTIONARYVAR
  5
B56A7A5C3AE6308E
102
{ACAD_REACTORS
330
B56A7A5C3AE5E7DC
102
}
330
B56A7A5C3AE5E7DC
100
DictionaryVariables
280
     0
  1
15
  0
DICTIONARYVAR
  5
B56A7A5C3AE6308C
102
{ACAD_REACTORS
330
B56A7A5C3AE5E7DC
102
}
330
B56A7A5C3AE5E7DC
100
DictionaryVariables
280
     0
  1
0
  0
DICTIONARYVAR
  5
B56A7A5C3AE6308B
102
{ACAD_REACTORS
330
B56A7A5C3AE5E7DC
102
}
330
B56A7A5C3AE5E7DC
100
DictionaryVariables
280
     0
  1
0
  0
DICTIONARYVAR
  5
B56A7A5C3AE604F3
102
{ACAD_REACTORS
330
B56A7A5C3AE5E7DC
102
}
330
B56A7A5C3AE5E7DC
100
DictionaryVariables
280
     0
  1

  0
ACAD_PROXY_OBJECT
  5
B56A7A5C3AE6070B
102
{ACAD_REACTORS
330
B56A7A5C3AE60483
102
}
330
B56A7A5C3AE60483
100
AcDbProxyObject
 90
      499
 91
      548
 71
    25
 97
      104
 70
     0
161
                86
310
90100057356C1D82465018
330
B56A7A5C3AE5E797
 94
        0
  0
DICTIONARY
  5
B56A7A5C3AE60490
102
{ACAD_REACTORS
330
B56A7A5C3AE60483
102
}
330
B56A7A5C3AE60483
100
AcDbDictionary
281
     1
  3
ANSI
350
B56A7A5C3AE60715
  0
XRECORD
  5
B56A7A5C3AE6097F
102
{ACAD_REACTORS
330
B56A7A5C3AE60483
102
}
330
B56A7A5C3AE60483
100
AcDbXrecord
280
     1
 90
-1023410169
  0
ACAD_PROXY_OBJECT
  5
B56A7A5C3AE606C3
330
0
100
AcDbProxyObject
 90
      499
 91
      511
 71
    25
 97
      104
 70
     0
161
               156
310
000101439050D35154D6535093D314D25691508C
330
B56A7A5C3AE606C0
 94
        0
  0
ACAD_PROXY_OBJECT
  5
B56A7A5C3AE606C5
330
0
100
AcDbProxyObject
 90
      499
 91
      513
 71
    25
 97
      104
 70
     0
161
                88
310
000101411093D34C402B0001
330
B56A7A5C3AE606C0
330
0
330
0
 94
        0
  0
ACAD_PROXY_OBJECT
  5
B56A7A5C3AE606CB
330
0
100
AcDbProxyObject
 90
      499
 91
      519
 71
    25
 97
      104
 70
     0
161
               382
310
0001014119185D1940508372E302E34322E32014119185D194050831302E322E302E3540501000041905394D24CCC658
330
B56A7A5C3AE606C0
330
B56A7A5C3AE606CC
330
B56A7A5C3AE606D0
 94
        0
  0
ACAD_PROXY_OBJECT
  5
B56A7A5C3AE606CC
330
0
100
AcDbProxyObject
 90
      499
 91
      520
 71
    25
 97
      104
 70
     0
161
                48
310
000190140A000F
330
B56A7A5C3AE606C0
330
B56A7A5C3AE606CD
 94
        0
  0
ACAD_PROXY_OBJECT
  5
B56A7A5C3AE606CD
330
0
100
AcDbProxyObject
 90
      499
 91
      521
 71
    25
 97
      104
 70
     0
161
                48
310
0001AA0000000B
330
B56A7A5C3AE606C0
330
B56A7A5C3AE5FA76
330
B56A7A5C3AE606CE
330
0
 94
        0
  0
ACAD_PROXY_OBJECT
  5
B56A7A5C3AE606CE
330
0
100
AcDbProxyObject
 90
      499
 91
      522
 71
    25
 97
      104
 70
     0
161
                28
310
0001AAAC
330
B56A7A5C3AE606C0
 94
        0
  0
ACAD_PROXY_OBJECT
  5
B56A7A5C3AE606D1
330
0
100
AcDbProxyObject
 90
      499
 91
      511
 71
    25
 97
      104
 70
     0
161
               108
310
000101421053521310D05310D01C
330
B56A7A5C3AE606C0
 94
        0
  0
ACAD_PROXY_OBJECT
  5
B56A7A5C3AE606D2
330
0
100
AcDbProxyObject
 90
      499
 91
      511
 71
    25
 97
      104
 70
     0
161
               124
310
00010142905354915554D1511253501C
330
B56A7A5C3AE606C0
 94
        0
  0
ACAD_PROXY_OBJECT
  5
B56A7A5C3AE606D3
330
0
100
AcDbProxyObject
 90
      499
 91
      511
 71
    25
 97
      104
 70
     0
161
               132
310
00010143105354D150D51253D39112536C
330
B56A7A5C3AE606C0
 94
        0
  0
ACAD_PROXY_OBJECT
  5
B56A7A5C3AE606D4
330
0
100
AcDbProxyObject
 90
      499
 91
      511
 71
    25
 97
      104
 70
     0
161
               124
310
00010142905355941093D4911154901C
330
B56A7A5C3AE606C0
 94
        0
  0
ACAD_PROXY_OBJECT
  5
B56A7A5C3AE606D5
330
0
100
AcDbProxyObject
 90
      499
 91
      511
 71
    25
 97
      104
 70
     0
161
               116
310
0001014290535115D1D0D3D313D4AC
330
B56A7A5C3AE606C0
 94
        0
  0
ACAD_PROXY_OBJECT
  5
B56A7A5C3AE606D6
330
0
100
AcDbProxyObject
 90
      499
 91
      511
 71
    25
 97
      104
 70
     0
161
               148
310
00010143505355925155D49151949154D2101C
330
B56A7A5C3AE606C0
 94
        0
  0
ACAD_PROXY_OBJECT
  5
B56A7A5C3AE606D7
330
0
100
AcDbProxyObject
 90
      499
 91
      511
 71
    25
 97
      104
 70
     0
161
               172
310
00010144105350539393D51154149154D1549591501C
330
B56A7A5C3AE606C0
 94
        0
  0
ACAD_PROXY_OBJECT
  5
B56A7A5C3AE606D8
330
0
100
AcDbProxyObject
 90
      499
 91
      511
 71
    25
 97
      104
 70
     0
161
               172
310
00010144105350555513D11253505494905391D1501C
330
B56A7A5C3AE606C0
 94
        0
  0
ACAD_PROXY_OBJECT
  5
B56A7A5C3AE606D9
330
0
100
AcDbProxyObject
 90
      499
 91
      511
 71
    25
 97
      104
 70
     0
161
               124
310
00010142D0535156151491519112536C
330
B56A7A5C3AE606C0
 94
        0
  0
ACAD_PROXY_OBJECT
  5
B56A7A5C3AE606DA
330
0
100
AcDbProxyObject
 90
      499
 91
      511
 71
    25
 97
      104
 70
     0
161
               132
310
00010142D05355105410539393D511501C
330
B56A7A5C3AE606C0
 94
        0
  0
ACAD_PROXY_OBJECT
  5
B56A7A5C3AE606DB
330
0
100
AcDbProxyObject
 90
      499
 91
      511
 71
    25
 97
      104
 70
     0
161
               108
310
00010142105350555513D0D3101C
330
B56A7A5C3AE606C0
 94
        0
  0
ACAD_PROXY_OBJECT
  5
B56A7A5C3AE606DC
330
0
100
AcDbProxyObject
 90
      499
 91
      511
 71
    25
 97
      104
 70
     0
161
               108
310
00010142105350D311915055105C
330
B56A7A5C3AE606C0
 94
        0
  0
ACAD_PROXY_OBJECT
  5
B56A7A5C3AE606DD
330
0
100
AcDbProxyObject
 90
      499
 91
      511
 71
    25
 97
      104
 70
     0
161
               108
310
00010142105350D315925155D3FC
330
B56A7A5C3AE606C0
 94
        0
  0
ACAD_PROXY_OBJECT
  5
B56A7A5C3AE606DE
330
0
100
AcDbProxyObject
 90
      499
 91
      511
 71
    25
 97
      104
 70
     0
161
               148
310
0001014350535212511156915493D11253501C
330
B56A7A5C3AE606C0
 94
        0
  0
ACAD_PROXY_OBJECT
  5
B56A7A5C3AE606DF
330
0
100
AcDbProxyObject
 90
      499
 91
      511
 71
    25
 97
      104
 70
     0
161
               124
310
00010142905352105510D21254D3D01C
330
B56A7A5C3AE606C0
 94
        0
  0
ACAD_PROXY_OBJECT
  5
B56A7A5C3AE606E0
330
0
100
AcDbProxyObject
 90
      499
 91
      511
 71
    25
 97
      104
 70
     0
161
               148
310
00010143905354D25391D3115210551310566C
330
B56A7A5C3AE606C0
 94
        0
  0
ACAD_PROXY_OBJECT
  5
B56A7A5C3AE606E1
330
0
100
AcDbProxyObject
 90
      499
 91
      511
 71
    25
 97
      104
 70
     0
161
               124
310
00010142D0535115D1D193111254D42C
330
B56A7A5C3AE606C0
 94
        0
  0
ACAD_PROXY_OBJECT
  5
B56A7A5C3AE606E2
330
0
100
AcDbProxyObject
 90
      499
 91
      511
 71
    25
 97
      104
 70
     0
161
               100
310
00010142105350555513D213AC
330
B56A7A5C3AE606C0
 94
        0
  0
ACAD_PROXY_OBJECT
  5
B56A7A5C3AE606E3
330
0
100
AcDbProxyObject
 90
      499
 91
      511
 71
    25
 97
      104
 70
     0
161
               116
310
000101425053521390D3D55395101C
330
B56A7A5C3AE606C0
 94
        0
  0
ACAD_PROXY_OBJECT
  5
B56A7A5C3AE606E4
330
0
100
AcDbProxyObject
 90
      499
 91
      511
 71
    25
 97
      104
 70
     0
161
               108
310
0001014210535213941493D2901C
330
B56A7A5C3AE606C0
 94
        0
  0
ACAD_PROXY_OBJECT
  5
B56A7A5C3AE606E5
330
0
100
AcDbProxyObject
 90
      499
 91
      511
 71
    25
 97
      104
 70
     0
161
               108
310
000101421053521395165411507C
330
B56A7A5C3AE606C0
 94
        0
  0
ACAD_PROXY_OBJECT
  5
B56A7A5C3AE606E6
330
0
100
AcDbProxyObject
 90
      499
 91
      511
 71
    25
 97
      104
 70
     0
161
               108
310
000101421053521395925155D0FC
330
B56A7A5C3AE606C0
 94
        0
  0
ACAD_PROXY_OBJECT
  5
B56A7A5C3AE606E7
330
0
100
AcDbProxyObject
 90
      499
 91
      511
 71
    25
 97
      104
 70
     0
161
               140
310
00010143505354D150D51253D390D3D4166C
330
B56A7A5C3AE606C0
 94
        0
  0
ACAD_PROXY_OBJECT
  5
B56A7A5C3AE606E8
330
0
100
AcDbProxyObject
 90
      499
 91
      511
 71
    25
 97
      104
 70
     0
161
               108
310
00010142105350D3141493D2903C
330
B56A7A5C3AE606C0
 94
        0
  0
ACAD_PROXY_OBJECT
  5
B56A7A5C3AE606E9
330
0
100
AcDbProxyObject
 90
      499
 91
      523
 71
    25
 97
      104
 70
     0
161
               212
310
00010143905350555513D2105510D21493D500000000000002E40C
330
B56A7A5C3AE606C0
 94
        0
  0
ACAD_PROXY_OBJECT
  5
B56A7A5C3AE606EA
330
0
100
AcDbProxyObject
 90
      499
 91
      511
 71
    25
 97
      104
 70
     0
161
               156
310
00010143905350555513D2105510D2111155101C
330
B56A7A5C3AE606C0
 94
        0
  0
ACAD_PROXY_OBJECT
  5
B56A7A5C3AE606F4
330
0
100
AcDbProxyObject
 90
      499
 91
      533
 71
    25
 97
      104
 70
     0
161
               714
310
0001000000009AA6A9AA4051E576564204170722030362031313A34303A3431203230303520285554432901420DCB8C0B8D0C8B8C80518546875205365702032372031333A33343A3239203230313201420C4C0B8C8B8C0B8D4C
330
B56A7A5C3AE606C0
330
B56A7A5C3AE606F5
330
B56A7A5C3AE606F6
330
B56A7A5C3AE606F8
330
0
 94
        0
  0
ACAD_PROXY_OBJECT
  5
B56A7A5C3AE606F5
330
0
100
AcDbProxyObject
 90
      499
 91
      534
 71
    25
 97
      104
 70
     0
161
                70
310
0001AAA80820000000
330
B56A7A5C3AE606C0
330
B56A7A5C3AE606F5
330
B56A7A5C3AE606F5
 94
        0
  0
ACAD_PROXY_OBJECT
  5
B56A7A5C3AE606F6
330
0
100
AcDbProxyObject
 90
      499
 91
      535
 71
    25
 97
      104
 70
     0
161
                48
310
0001000000001B
330
B56A7A5C3AE606C0
330
0
330
B56A7A5C3AE606F7
330
0
330
0
 94
        0
  0
ACAD_PROXY_OBJECT
  5
B56A7A5C3AE606F7
330
0
100
AcDbProxyObject
 90
      499
 91
      536
 71
    25
 97
      104
 70
     0
161
                40
310
000100AAAA00
330
B56A7A5C3AE606C0
330
0
 94
        0
  0
ACAD_PROXY_OBJECT
  5
B56A7A5C3AE606FD
330
0
100
AcDbProxyObject
 90
      499
 91
      540
 71
    25
 97
      104
 70
     0
161
               180
310
00010143105050D3D35411119390535140504434F4D50C
330
B56A7A5C3AE606C0
 94
        0
  0
ACAD_PROXY_OBJECT
  5
B56A7A5C3AE606FE
330
0
100
AcDbProxyObject
 90
      499
 91
      540
 71
    25
 97
      104
 70
     0
161
               212
310
0001014390505193D311115491119390535140506466F6C646572C
330
B56A7A5C3AE606C0
 94
        0
  0
ACAD_PROXY_OBJECT
  5
B56A7A5C3AE606FF
330
0
100
AcDbProxyObject
 90
      499
 91
      540
 71
    25
 97
      104
 70
     0
161
               180
310
00010143105050539393D111939053514050428415629C
330
B56A7A5C3AE606C0
 94
        0
  0
ACAD_PROXY_OBJECT
  5
B56A7A5C3AE60700
330
0
100
AcDbProxyObject
 90
      499
 91
      540
 71
    25
 97
      104
 70
     0
161
               420
310
00010143905050D3D35415925155D31254D500520546F700A46726F6E740A52696768740A4C6566740A426F74746F6D0A41757831C
330
B56A7A5C3AE606C0
 94
        0
  0
ACAD_PROXY_OBJECT
  5
B56A7A5C3AE60705
330
0
100
AcDbProxyObject
 90
      499
 91
      542
 71
    25
 97
      104
 70
     0
161
                32
310
0001000000
330
B56A7A5C3AE606C0
340
B56A7A5C3AE60702
330
B56A7A5C3AE60707
330
B56A7A5C3AE60702
 94
        0
  0
ACAD_PROXY_OBJECT
  5
B56A7A5C3AE60706
330
0
100
AcDbProxyObject
 90
      499
 91
      543
 71
    25
 97
      104
 70
     0
161
                18
310
00018C
330
B56A7A5C3AE606C0
 94
        0
  0
ACAD_PROXY_OBJECT
  5
B56A7A5C3AE60707
330
0
100
AcDbProxyObject
 90
      499
 91
      544
 71
    25
 97
      104
 70
     0
161
               362
310
000101489054CB4CCE4D881415C815D2551208119310550810D054D25391C80D0B54D2511154D05005540155000C
330
B56A7A5C3AE606C0
330
B56A7A5C3AE60705
330
B56A7A5C3AE60706
 94
        0
  0
ACAD_PROXY_OBJECT
  5
B56A7A5C3AE60708
330
0
100
AcDbProxyObject
 90
      499
 91
      545
 71
    25
 97
      104
 70
     0
161
               178
310
000100AAAAAA800000000000000000000000000000000C
330
B56A7A5C3AE606C0
330
B56A7A5C3AE60707
 94
        0
  0
ACAD_PROXY_OBJECT
  5
B56A7A5C3AE60709
330
0
100
AcDbProxyObject
 90
      499
 91
      546
 71
    25
 97
      104
 70
     0
161
               108
310
000190140A000000000000AAAAAC
330
B56A7A5C3AE606C0
330
B56A7A5C3AE6070A
330
B56A7A5C3AE6070A
330
B56A7A5C3AE6070A
330
B56A7A5C3AE6070A
330
B56A7A5C3AE6070A
330
0
 94
        0
  0
ACAD_PROXY_OBJECT
  5
B56A7A5C3AE6070A
330
0
100
AcDbProxyObject
 90
      499
 91
      547
 71
    25
 97
      104
 70
     0
161
                51
310
00010000AAAA8C
330
B56A7A5C3AE606C0
330
B56A7A5C3AE60709
330
B56A7A5C3AE60707
 94
        0
  0
ACAD_PROXY_OBJECT
  5
B56A7A5C3AE60714
330
0
100
AcDbProxyObject
 90
      499
 91
      540
 71
    25
 97
      104
 70
     0
161
               148
310
00010142105350D55494D51100504414E5349C
330
B56A7A5C3AE606C0
 94
        0
  0
DICTIONARY
  5
B56A7A5C3AE606BC
102
{ACAD_REACTORS
330
B56A7A5C3AE6042B
102
}
330
B56A7A5C3AE6042B
100
AcDbDictionary
281
     1
  3
DWGSETTINGS
350
B56A7A5C3AE606BD
  3
FEM
350
B56A7A5C3AE617F5
  3
Shaft
350
B56A7A5C3AE617F4
  3
TRANSSETTINGS
350
B56A7A5C3AE606BE
  0
ACAD_PROXY_OBJECT
  5
B56A7A5C3AE60716
102
{ACAD_REACTORS
330
B56A7A5C3AE6042B
102
}
330
B56A7A5C3AE6042B
100
AcDbProxyObject
 90
      499
 91
      555
 71
    25
 97
      104
 70
     0
161
             17992
310
41903491013041105357CC201C00030C011E442404C504414D5F3180E0000C300479109013241105357CCA01400030C011E442404CD04414D5F338060000C30043E9013441105357CD200C00030C010FA404D504414D5F358030000C30043E9013641105357CDA00800030C011EA404DD04414D5F378040000C30043E90138
310
41105357CE200400030C010FA404E504414D5F398FD0000C300904902324141505357CC4C201C00030C011EA408D10505414D5F31318030000C30043E902495041505357CC4CA01C00030C011E40A408C13905414D5F304E8070000C30047A902314E41505357CC53A03800030C011EA408C93905414D5F324E8050000C300
310
47A902334E41505357CCD3A01800030C010FA408D13905414D5F344E8030000C30043E902354E41505357CD53A00C00030C010FA408D93905414D5F364E8020000C30047A902374E41505357CDD3A01000030C010FA408E13905414D5F384E8010000C30043E902394E41505357CE53A3F400030C0241240CC9053906414D5
310
F31304E8070000C30047A90334414E41905357CC4C53A00C00030C010FA40D25413906414D5F31324E8070000C300479029044B4C494E41505357D0D3200400030C010F4264112539193D08414D5F50415245468040000C30043D0B9055241484D3541905357D093D4A01C00030C011E4264115925155D08414D5F56494557
310
538010000C30043D0B906424548494E4441905357D25395A3F400030C02436415514905253105414D5F54528030000C30043D0990348494441905357D21251201C00030C010F42640D59254D06414D5F5649538070000C3004790990650415244494D42505357D41054911253600C00030C010F42641949151911253509414
310
D5F52454644494D8040000C30043D099534110921395901398000000C0003FFFFFFFE415092139594D06424548494E448000000C0003FFFFFFFE411093D48C9055241484D358010000C30043E411093D48CD055241484D358020000C30047A411093D48D5055241484D358000000C0003FFFFFFFE4110D0530C90134800000
310
0C0003FFFFFFFE4110D0530CD01348020000C30047A4110D0530D501348070000C30047A4110D0530DD013481E0000C3004F24110D15393901378000000C0003FFFFFFFE4110D15395D01378000000C0003FFFFFFFE4110D312539044B4C494E8000000C0003FFFFFFFE4110D3D38C501308000000C0003FFFFFFFD034110D
310
3D38C901318000000C0003FFFFFFFD034110D3D38CD01328000000C0003FFFFFFFD034110D3D38D101328000000C0003FFFFFFFD034111115510501348000000C0003FFFFFFFE4111125051D01358000000C0003FFFFFFFE4111125312501358000000C0003FFFFFFFE411112535410650415244494D8000000C0003FFFFFF
310
FE411112535490652454644494D8000000C0003FFFFFFFE4111915353901388000000C0003FFFFFFFE415191535413901388030000C3003FFFFFFFE4151915354D410234418000000C0003FFFFFFFE4151915354D510234418030000C30043E415191535593901328000000C0003FFFFFFFE415191535595101328030000C3
310
0043E4112105510D01388000000C0003FFFFFFFD014112125113901338000000C0003FFFFFFFD034112125115D01338000000C0003FFFFFFFD034112131253901348000000C0003FFFFFFFD01411213D0D3901378000000C0003FFFFFFFE411213D0D5D01378000000C0003FFFFFFFE4112539193D04494E464F8000000C00
310
03FFFFFFFE4113115051101358000000C0003FFFFFFFE419397D0921395902394E8000000C0003FFFFFFFE419397D0D3D38C502304E8000000C0003FFFFFFFD03419397D0D3D38C902314E8000000C0003FFFFFFFD03419397D0D3D38CD02324E8000000C0003FFFFFFFD03419397D0D3D38D102324E8000000C0003FFFFFF
310
FD03419397D0D15393902374E8000000C0003FFFFFFFE419397D0D15395D02374E8000000C0003FFFFFFFE419397D1125312502354E8000000C0003FFFFFFFE419397D2105510D02384E8000000C0003FFFFFFFD01419397D2125113902334E8000000C0003FFFFFFFD03419397D2125115D02334E8000000C0003FFFFFFFD
310
03419397D3115051102354E8000000C0003FFFFFFFE419397D391D25410349504E8000000C0003FFFFFFFE419397D412105390334414E8000000C0003FFFFFFFE419397D510D3D3902304E8000000C0003FFFFFFFD03419397D5121312502344E8000000C0003FFFFFFFD01419397D5131153902304E8000000C0003FFFFFF
310
FD03419397D594131250332414E8000000C0003FFFFFFFE411391D25410249508000000C0003FFFFFFFE411410530C9055241484D358010000C30043E411410530CD055241484D358020000C30047A411410530D5055241484D358000000C0003FFFFFFFE411412105390234418000000C0003FFFFFFFE411413D4D3901358
310
000000C0003FFFFFFFE411490D1D3901378000000C0003FFFFFFFE411490D1D5D01378000000C0003FFFFFFFE4114D09492D01348070000C300479014114D150D5101348000000C0003FFFFFFFD014114D6508CD01358020000C30047A411354D653501358020000C30047A411510D3D3901308000000C0003FFFFFFFD0341
310
15121312501348000000C0003FFFFFFFD01411512550C9055241484D358010000C30043E411512550CD055241484D358020000C30047A411512550D5055241484D358000000C0003FFFFFFFE4115131153901308000000C0003FFFFFFFD03415514905253105545241494C8000000C0003FFFFFFFE41151493125013480000
310
00C0003FFFFFFFD01411516150C501368030000C30043E411516150C901368030000C30043E411516150CD01368000000C0003FFFFFFFE411516150D501368070000C30047A411516150DD013681E0000C3004F24115925155D04564945578000000C0003FFFFFFFE41159151121034849448000000C0003FFFFFFFD024115
310
9151159035649538000000C0003FFFFFFFD02411594131250232418000000C0003FFFFFFFE4116925690501348000000C0003FFFFFFFD01AAA3F400030C01013F90A4050F4091E40D0F4110F4151E4190F41D1E4391E4793C7F6CC
340
B56A7A5C3AE5E793
340
B56A7A5C3AE5E793
340
B56A7A5C3AE5E793
340
B56A7A5C3AE6044A
340
B56A7A5C3AE5E793
340
B56A7A5C3AE5E793
340
B56A7A5C3AE5E793
340
B56A7A5C3AE6044C
340
B56A7A5C3AE5E793
340
B56A7A5C3AE5E793
340
B56A7A5C3AE6044C
340
B56A7A5C3AE6044B
340
B56A7A5C3AE5E793
340
B56A7A5C3AE5E793
340
B56A7A5C3AE5E793
340
B56A7A5C3AE5E793
340
B56A7A5C3AE6044A
340
B56A7A5C3AE5E793
340
B56A7A5C3AE5E793
340
B56A7A5C3AE5E793
340
B56A7A5C3AE6044C
340
B56A7A5C3AE5E793
340
B56A7A5C3AE5E793
340
B56A7A5C3AE6044C
340
B56A7A5C3AE6044B
340
B56A7A5C3AE5E793
340
B56A7A5C3AE60496
340
B56A7A5C3AE5E793
340
B56A7A5C3AE5E793
340
B56A7A5C3AE5E793
340
B56A7A5C3AE5E793
340
B56A7A5C3AE5E793
340
B56A7A5C3AE6044A
340
B56A7A5C3AE5E793
340
B56A7A5C3AE5E793
340
B56A7A5C3AE5E793
340
B56A7A5C3AE5E792
340
B56A7A5C3AE5E792
340
B56A7A5C3AE5E792
340
B56A7A5C3AE5E792
340
B56A7A5C3AE5E792
340
B56A7A5C3AE5E792
340
B56A7A5C3AE5E792
340
B56A7A5C3AE5E792
340
B56A7A5C3AE5E792
340
B56A7A5C3AE6049C
340
B56A7A5C3AE5E792
340
B56A7A5C3AE5E792
340
B56A7A5C3AE5E792
340
B56A7A5C3AE5E792
340
B56A7A5C3AE5E792
340
B56A7A5C3AE5E792
340
B56A7A5C3AE5E792
340
B56A7A5C3AE5E792
340
B56A7A5C3AE5E792
340
B56A7A5C3AE5E792
340
B56A7A5C3AE5E792
340
B56A7A5C3AE5E792
340
B56A7A5C3AE5E792
340
B56A7A5C3AE5E793
340
B56A7A5C3AE5E792
340
B56A7A5C3AE5E792
340
B56A7A5C3AE5E792
340
B56A7A5C3AE5E792
340
B56A7A5C3AE6049D
340
B56A7A5C3AE5E792
340
B56A7A5C3AE5E792
340
B56A7A5C3AE6049C
340
B56A7A5C3AE5E792
340
B56A7A5C3AE5E792
340
B56A7A5C3AE5E792
340
B56A7A5C3AE5E792
340
B56A7A5C3AE5E792
340
B56A7A5C3AE5E792
340
B56A7A5C3AE5E792
340
B56A7A5C3AE5E792
340
B56A7A5C3AE6049C
340
B56A7A5C3AE5E792
340
B56A7A5C3AE5E792
340
B56A7A5C3AE5E792
340
B56A7A5C3AE6049D
340
B56A7A5C3AE5E792
340
B56A7A5C3AE5E792
340
B56A7A5C3AE5E792
340
B56A7A5C3AE5E792
340
B56A7A5C3AE5E792
340
B56A7A5C3AE6049D
340
B56A7A5C3AE5E792
340
B56A7A5C3AE6044B
340
B56A7A5C3AE5E792
340
B56A7A5C3AE5E792
340
B56A7A5C3AE5E792
340
B56A7A5C3AE5E792
340
B56A7A5C3AE5E792
340
B56A7A5C3AE5E792
340
B56A7A5C3AE6049C
340
B56A7A5C3AE5E792
340
B56A7A5C3AE5E792
340
B56A7A5C3AE5E792
340
B56A7A5C3AE5E792
340
B56A7A5C3AE5E792
340
B56A7A5C3AE5E792
340
B56A7A5C3AE6049D
340
B56A7A5C3AE5E792
340
B56A7A5C3AE5E792
340
B56A7A5C3AE5E792
340
B56A7A5C3AE5E792
340
B56A7A5C3AE5E792
340
B56A7A5C3AE5E792
340
B56A7A5C3AE5E792
340
B56A7A5C3AE5E792
340
B56A7A5C3AE5E792
340
B56A7A5C3AE5E792
340
B56A7A5C3AE5E792
340
B56A7A5C3AE5E792
340
B56A7A5C3AE5E792
340
B56A7A5C3AE5E792
340
B56A7A5C3AE6044B
340
B56A7A5C3AE6049E
 94
        0
  0
XRECORD
  5
B56A7A5C3AE60910
102
{ACAD_REACTORS
330
B56A7A5C3AE6090E
102
}
330
B56A7A5C3AE6090E
100
AcDbXrecord
280
     1
330
2C6FD
330
2CDE3
330
2D39D
330
0
330
0
330
B56A7A5C3AE6039B
330
0
330
0
330
0
330
0
330
0
330
0
330
0
  0
ACAD_PROXY_OBJECT
  5
B56A7A5C3AE6039C
102
{ACAD_REACTORS
330
B56A7A5C3AE6025F
102
}
330
B56A7A5C3AE6025F
100
AcDbProxyObject
 90
      499
 91
      505
 71
    25
 97
      104
 70
     0
161
               492
310
4048110415320657874656E747320626C6F636B48CE594E188D1998CDCB4C1E0C8B4C4C590E0B504D8C914B4C0C0D4C0C0D114C910C114E602800010101C
 94
        0
  0
DICTIONARY
  5
B56A7A5C3AE62FFE
330
B56A7A5C3AE5FA75
100
AcDbDictionary
280
     1
281
     1
  0
DICTIONARY
  5
B56A7A5C3AE62F84
330
B56A7A5C3AE62F83
100
AcDbDictionary
280
     1
281
     1
  3
BUMPTILE
360
B56A7A5C3AE62F86
  3
DIFFUSETILE
360
B56A7A5C3AE62F85
  3
OPACITYTILE
360
B56A7A5C3AE62F89
  3
REFLECTIONTILE
360
B56A7A5C3AE62F88
  3
REFRACTIONTILE
360
B56A7A5C3AE62F8A
  3
SPECULARTILE
360
B56A7A5C3AE62F87
  0
DICTIONARY
  5
B56A7A5C3AE62F7C
330
B56A7A5C3AE62F7B
100
AcDbDictionary
280
     1
281
     1
  3
BUMPTILE
360
B56A7A5C3AE62F7E
  3
DIFFUSETILE
360
B56A7A5C3AE62F7D
  3
OPACITYTILE
360
B56A7A5C3AE62F81
  3
REFLECTIONTILE
360
B56A7A5C3AE62F80
  3
REFRACTIONTILE
360
B56A7A5C3AE62F82
  3
SPECULARTILE
360
B56A7A5C3AE62F7F
  0
DICTIONARY
  5
B56A7A5C3AE62F8C
330
B56A7A5C3AE62F8B
100
AcDbDictionary
280
     1
281
     1
  3
BUMPTILE
360
B56A7A5C3AE62F8E
  3
DIFFUSETILE
360
B56A7A5C3AE62F8D
  3
OPACITYTILE
360
B56A7A5C3AE62F91
  3
REFLECTIONTILE
360
B56A7A5C3AE62F90
  3
REFRACTIONTILE
360
B56A7A5C3AE62F92
  3
SPECULARTILE
360
B56A7A5C3AE62F8F
  0
DICTIONARY
  5
B56A7A5C3AE62FE7
330
B56A7A5C3AE60969
100
AcDbDictionary
280
     1
281
     1
  3
ACAD_ROUNDTRIP_2008_TABLESTYLE_CELLSTYLEMAP
360
B56A7A5C3AE6392C
  0
ACAD_PROXY_OBJECT
  5
B56A7A5C3AE60715
102
{ACAD_REACTORS
330
B56A7A5C3AE60490
102
}
330
B56A7A5C3AE60490
100
AcDbProxyObject
 90
      499
 91
      554
 71
    25
 97
      104
 70
     0
161
              2431
310
608B81E85EB51B8BE3F8000000C00041105394D2501640600800030C0200800030C00B81E85EB51B8BE3F48821E8720B1B6A9BAB9332A32BC3A29BA3220480A1282C6DA8C868CA6E8C88120286A0B1B6ABB2B63234B733A9BA3220480A1082C6DA92C8A6E8C88120285A0B1B6A230BA3AB6A9BA3220480A1282C6DA849E9AA
310
6E8C8812028820B6B23A2232BA30B4B629BCB6A9BA3220480A2282DAC8E8A6CAC6E8D2DEDCA6F2DAA6E8C88120288A0B6B23A21B2B73A32B92634B732A9BA3220480A2282DAC8E8A8D0E4CAC2C898D2DCCAA6E8C88120285A0B6B23A2737BA32A9BA3220480A1682C682DACE98C2F2A6E8C88120285A0B1A0B6B3A234B6A9B
310
A3220480A2282C682DACE90DED8CA86D0C2E4E8A6E8C88120286A0B1A0B6B3AA34BA3632A9BA3220480A02812027FFF9FFFE
340
B56A7A5C3AE6049F
360
B56A7A5C3AE6071D
360
B56A7A5C3AE6071E
360
B56A7A5C3AE6071F
360
B56A7A5C3AE60720
360
B56A7A5C3AE60721
360
B56A7A5C3AE60722
360
B56A7A5C3AE60723
360
B56A7A5C3AE60724
360
B56A7A5C3AE60725
360
B56A7A5C3AE60726
360
B56A7A5C3AE60727
360
B56A7A5C3AE6072C
360
B56A7A5C3AE6072D
360
B56A7A5C3AE6072E
360
B56A7A5C3AE6072F
340
0
340
0
340
B56A7A5C3AE5E792
340
B56A7A5C3AE5E792
 94
        0
  0
ACAD_PROXY_OBJECT
  5
B56A7A5C3AE606BD
102
{ACAD_REACTORS
330
B56A7A5C3AE606BC
102
}
330
B56A7A5C3AE606BC
100
AcDbProxyObject
 90
      499
 91
      507
 71
    25
 97
      104
 70
     0
161
              2420
310
4050B44574753455454494E4753A1286829C8E82A4A482B282A106660F8686AF86C608321A2A720A723A0A849A1ABE1C983E18999AA0C868A9C889282940000000000001C07E83A1A2A72224A0A9A0A8598171ABE1897183E18971AA0E868A9C8892A6A8940000000000001807E8321A2A72622A7250000000000000701FA0
310
C868A9C9E8C8C940000000000001C07E84A1A624A720A92920ACA0A841C171818181818182108698929C8AA8B2A082A0AB098929C8A84A22BA3AAA9A1A0A622A50A0E9882A6A89E849482A02608426A0A5A2AB24A2ABA7E8120CA0A68682988A0C00800010652455649534941501304154D0D0531150540CC4E8C90954494D
310
455354414D504A0A4625CF15530734141D5915494D253D3905414C4D4B8C0C1107B44574753455454494E4753454E447DC
 94
        0
  0
ACAD_PROXY_OBJECT
  5
B56A7A5C3AE617F5
102
{ACAD_REACTORS
330
B56A7A5C3AE606BC
102
}
330
B56A7A5C3AE606BC
100
AcDbProxyObject
 90
      499
 91
      507
 71
    25
 97
      104
 70
     0
161
               411
310
4050346454D21092DCC6E486DECACC942842630BCA3B937BAB820A8320A6AFA322A0A20F688AE8EA68AA8A8929C8EA68A9C88FAC
 94
        0
  0
ACAD_PROXY_OBJECT
  5
B56A7A5C3AE617F4
102
{ACAD_REACTORS
330
B56A7A5C3AE606BC
102
}
330
B56A7A5C3AE606BC
100
AcDbProxyObject
 90
      499
 91
      507
 71
    25
 97
      104
 70
     0
161
               513
310
40505536861667421292DCE8CAE4E4EAE0E89FC84A634B3B43A2634B732A7F21A98D2CED0E898D2DCCAACD2CAEE9FC883DA22BA3A9A2AA2A24A723A9A2A7223ECC
 94
        0
  0
ACAD_PROXY_OBJECT
  5
B56A7A5C3AE606BE
102
{ACAD_REACTORS
330
B56A7A5C3AE606BC
102
}
330
B56A7A5C3AE606BC
100
AcDbProxyObject
 90
      499
 91
      507
 71
    25
 97
      104
 70
     0
161
               852
310
4050D5452414E5353455454494E4753A2488A482AE929C8EA8A4829CA69882A8929E9C0C00800050D4F524947494E414C4C595F4F4E0600400008529A7AAA921A2A620A723A0A81A2A72AA12AAA0A48AA68AA4AC8A0C0080001107B44574753455454494E4753454E447DC
 94
        0
  0
XRECORD
  5
B56A7A5C3AE62F86
102
{ACAD_REACTORS
330
B56A7A5C3AE62F84
102
}
330
B56A7A5C3AE62F84
100
AcDbXrecord
280
     1
270
     1
271
     1
  0
XRECORD
  5
B56A7A5C3AE62F85
102
{ACAD_REACTORS
330
B56A7A5C3AE62F84
102
}
330
B56A7A5C3AE62F84
100
AcDbXrecord
280
     1
270
     1
271
     1
  0
XRECORD
  5
B56A7A5C3AE62F89
102
{ACAD_REACTORS
330
B56A7A5C3AE62F84
102
}
330
B56A7A5C3AE62F84
100
AcDbXrecord
280
     1
270
     1
271
     1
  0
XRECORD
  5
B56A7A5C3AE62F88
102
{ACAD_REACTORS
330
B56A7A5C3AE62F84
102
}
330
B56A7A5C3AE62F84
100
AcDbXrecord
280
     1
270
     1
271
     1
  0
XRECORD
  5
B56A7A5C3AE62F8A
102
{ACAD_REACTORS
330
B56A7A5C3AE62F84
102
}
330
B56A7A5C3AE62F84
100
AcDbXrecord
280
     1
270
     1
271
     1
  0
XRECORD
  5
B56A7A5C3AE62F87
102
{ACAD_REACTORS
330
B56A7A5C3AE62F84
102
}
330
B56A7A5C3AE62F84
100
AcDbXrecord
280
     1
270
     1
271
     1
  0
XRECORD
  5
B56A7A5C3AE62F7E
102
{ACAD_REACTORS
330
B56A7A5C3AE62F7C
102
}
330
B56A7A5C3AE62F7C
100
AcDbXrecord
280
     1
270
     1
271
     1
  0
XRECORD
  5
B56A7A5C3AE62F7D
102
{ACAD_REACTORS
330
B56A7A5C3AE62F7C
102
}
330
B56A7A5C3AE62F7C
100
AcDbXrecord
280
     1
270
     1
271
     1
  0
XRECORD
  5
B56A7A5C3AE62F81
102
{ACAD_REACTORS
330
B56A7A5C3AE62F7C
102
}
330
B56A7A5C3AE62F7C
100
AcDbXrecord
280
     1
270
     1
271
     1
  0
XRECORD
  5
B56A7A5C3AE62F80
102
{ACAD_REACTORS
330
B56A7A5C3AE62F7C
102
}
330
B56A7A5C3AE62F7C
100
AcDbXrecord
280
     1
270
     1
271
     1
  0
XRECORD
  5
B56A7A5C3AE62F82
102
{ACAD_REACTORS
330
B56A7A5C3AE62F7C
102
}
330
B56A7A5C3AE62F7C
100
AcDbXrecord
280
     1
270
     1
271
     1
  0
XRECORD
  5
B56A7A5C3AE62F7F
102
{ACAD_REACTORS
330
B56A7A5C3AE62F7C
102
}
330
B56A7A5C3AE62F7C
100
AcDbXrecord
280
     1
270
     1
271
     1
  0
XRECORD
  5
B56A7A5C3AE62F8E
102
{ACAD_REACTORS
330
B56A7A5C3AE62F8C
102
}
330
B56A7A5C3AE62F8C
100
AcDbXrecord
280
     1
270
     1
271
     1
  0
XRECORD
  5
B56A7A5C3AE62F8D
102
{ACAD_REACTORS
330
B56A7A5C3AE62F8C
102
}
330
B56A7A5C3AE62F8C
100
AcDbXrecord
280
     1
270
     1
271
     1
  0
XRECORD
  5
B56A7A5C3AE62F91
102
{ACAD_REACTORS
330
B56A7A5C3AE62F8C
102
}
330
B56A7A5C3AE62F8C
100
AcDbXrecord
280
     1
270
     1
271
     1
  0
XRECORD
  5
B56A7A5C3AE62F90
102
{ACAD_REACTORS
330
B56A7A5C3AE62F8C
102
}
330
B56A7A5C3AE62F8C
100
AcDbXrecord
280
     1
270
     1
271
     1
  0
XRECORD
  5
B56A7A5C3AE62F92
102
{ACAD_REACTORS
330
B56A7A5C3AE62F8C
102
}
330
B56A7A5C3AE62F8C
100
AcDbXrecord
280
     1
270
     1
271
     1
  0
XRECORD
  5
B56A7A5C3AE62F8F
102
{ACAD_REACTORS
330
B56A7A5C3AE62F8C
102
}
330
B56A7A5C3AE62F8C
100
AcDbXrecord
280
     1
270
     1
271
     1
  0
CELLSTYLEMAP
  5
B56A7A5C3AE6392C
102
{ACAD_REACTORS
330
B56A7A5C3AE62FE7
102
}
330
B56A7A5C3AE62FE7
100
AcDbCellStyleMap
 90
        3
300
CELLSTYLE
  1
TABLEFORMAT_BEGIN
 90
        5
170
     1
 91
        0
 92
    32768
 62
   257
 93
        1
300
CONTENTFORMAT
  1
CONTENTFORMAT_BEGIN
 90
        0
 91
        0
 92
        4
 93
        0
300

 40
0.0
140
1.0
 94
        5
 62
     0
340
B56A7A5C3AE5E78F
144
0.25
309
CONTENTFORMAT_END
171
     0
 94
        6
 95
        1
302
GRIDFORMAT
  1
GRIDFORMAT_BEGIN
 90
        0
 91
        1
 62
     0
 92
       -2
340
0
 93
        0
 40
0.045
309
GRIDFORMAT_END
 95
        2
302
GRIDFORMAT
  1
GRIDFORMAT_BEGIN
 90
        0
 91
        1
 62
     0
 92
       -2
340
0
 93
        0
 40
0.045
309
GRIDFORMAT_END
 95
        4
302
GRIDFORMAT
  1
GRIDFORMAT_BEGIN
 90
        0
 91
        1
 62
     0
 92
       -2
340
0
 93
        0
 40
0.045
309
GRIDFORMAT_END
 95
        8
302
GRIDFORMAT
  1
GRIDFORMAT_BEGIN
 90
        0
 91
        1
 62
     0
 92
       -2
340
0
 93
        0
 40
0.045
309
GRIDFORMAT_END
 95
       16
302
GRIDFORMAT
  1
GRIDFORMAT_BEGIN
 90
        0
 91
        1
 62
     0
 92
       -2
340
0
 93
        0
 40
0.045
309
GRIDFORMAT_END
 95
       32
302
GRIDFORMAT
  1
GRIDFORMAT_BEGIN
 90
        0
 91
        1
 62
     0
 92
       -2
340
0
 93
        0
 40
0.045
309
GRIDFORMAT_END
309
TABLEFORMAT_END
  1
CELLSTYLE_BEGIN
 90
        1
 91
        1
300
_TITLE
309
CELLSTYLE_END
300
CELLSTYLE
  1
TABLEFORMAT_BEGIN
 90
        5
170
     1
 91
        0
 92
        0
 62
   257
 93
        1
300
CONTENTFORMAT
  1
CONTENTFORMAT_BEGIN
 90
        0
 91
        0
 92
        4
 93
        0
300

 40
0.0
140
1.0
 94
        5
 62
     0
340
B56A7A5C3AE5E78F
144
0.18
309
CONTENTFORMAT_END
171
     0
 94
        6
 95
        1
302
GRIDFORMAT
  1
GRIDFORMAT_BEGIN
 90
        0
 91
        1
 62
     0
 92
       -2
340
0
 93
        0
 40
0.045
309
GRIDFORMAT_END
 95
        2
302
GRIDFORMAT
  1
GRIDFORMAT_BEGIN
 90
        0
 91
        1
 62
     0
 92
       -2
340
0
 93
        0
 40
0.045
309
GRIDFORMAT_END
 95
        4
302
GRIDFORMAT
  1
GRIDFORMAT_BEGIN
 90
        0
 91
        1
 62
     0
 92
       -2
340
0
 93
        0
 40
0.045
309
GRIDFORMAT_END
 95
        8
302
GRIDFORMAT
  1
GRIDFORMAT_BEGIN
 90
        0
 91
        1
 62
     0
 92
       -2
340
0
 93
        0
 40
0.045
309
GRIDFORMAT_END
 95
       16
302
GRIDFORMAT
  1
GRIDFORMAT_BEGIN
 90
        0
 91
        1
 62
     0
 92
       -2
340
0
 93
        0
 40
0.045
309
GRIDFORMAT_END
 95
       32
302
GRIDFORMAT
  1
GRIDFORMAT_BEGIN
 90
        0
 91
        1
 62
     0
 92
       -2
340
0
 93
        0
 40
0.045
309
GRIDFORMAT_END
309
TABLEFORMAT_END
  1
CELLSTYLE_BEGIN
 90
        2
 91
        1
300
_HEADER
309
CELLSTYLE_END
300
CELLSTYLE
  1
TABLEFORMAT_BEGIN
 90
        5
170
     1
 91
        0
 92
        0
 62
   257
 93
        1
300
CONTENTFORMAT
  1
CONTENTFORMAT_BEGIN
 90
        0
 91
        0
 92
        4
 93
        0
300

 40
0.0
140
1.0
 94
        2
 62
     0
340
B56A7A5C3AE5E78F
144
0.18
309
CONTENTFORMAT_END
171
     0
 94
        6
 95
        1
302
GRIDFORMAT
  1
GRIDFORMAT_BEGIN
 90
        0
 91
        1
 62
     0
 92
       -2
340
0
 93
        0
 40
0.045
309
GRIDFORMAT_END
 95
        2
302
GRIDFORMAT
  1
GRIDFORMAT_BEGIN
 90
        0
 91
        1
 62
     0
 92
       -2
340
0
 93
        0
 40
0.045
309
GRIDFORMAT_END
 95
        4
302
GRIDFORMAT
  1
GRIDFORMAT_BEGIN
 90
        0
 91
        1
 62
     0
 92
       -2
340
0
 93
        0
 40
0.045
309
GRIDFORMAT_END
 95
        8
302
GRIDFORMAT
  1
GRIDFORMAT_BEGIN
 90
        0
 91
        1
 62
     0
 92
       -2
340
0
 93
        0
 40
0.045
309
GRIDFORMAT_END
 95
       16
302
GRIDFORMAT
  1
GRIDFORMAT_BEGIN
 90
        0
 91
        1
 62
     0
 92
       -2
340
0
 93
        0
 40
0.045
309
GRIDFORMAT_END
 95
       32
302
GRIDFORMAT
  1
GRIDFORMAT_BEGIN
 90
        0
 91
        1
 62
     0
 92
       -2
340
0
 93
        0
 40
0.045
309
GRIDFORMAT_END
309
TABLEFORMAT_END
  1
CELLSTYLE_BEGIN
 90
        3
 91
        2
300
_DATA
309
CELLSTYLE_END
  0
ACAD_PROXY_OBJECT
  5
B56A7A5C3AE6071D
330
B56A7A5C3AE60715
100
AcDbProxyObject
 90
      499
 91
      556
 71
    25
 97
      104
 70
     0
161
                96
310
60820E80A0280A0280A028086F
 94
        0
  0
ACAD_PROXY_OBJECT
  5
B56A7A5C3AE6071E
330
B56A7A5C3AE60715
100
AcDbProxyObject
 90
      499
 91
      557
 71
    25
 97
      104
 70
     0
161
               332
310
6090E405014050140501405014050140501405014250140501405014050140501200000000000000040C
340
B56A7A5C3AE604AB
 94
        0
  0
ACAD_PROXY_OBJECT
  5
B56A7A5C3AE6071F
330
B56A7A5C3AE60715
100
AcDbProxyObject
 90
      499
 91
      558
 71
    25
 97
      104
 70
     0
161
               403
310
608C199999999999E99F91F405014050140501405014050140501405014050140501405014050140501405014050140501404C
340
0
 94
        0
  0
ACAD_PROXY_OBJECT
  5
B56A7A5C3AE60720
330
B56A7A5C3AE60715
100
AcDbProxyObject
 90
      499
 91
      559
 71
    25
 97
      104
 70
     0
161
                10
310
608C
 94
        0
  0
ACAD_PROXY_OBJECT
  5
B56A7A5C3AE60721
330
B56A7A5C3AE60715
100
AcDbProxyObject
 90
      499
 91
      560
 71
    25
 97
      104
 70
     0
161
               257
310
60A290EA22A7D90F49F9353333333333727F44D4CCCCCCCCCDC9FC01000061804C
340
B56A7A5C3AE604AC
340
B56A7A5C3AE604AD
 94
        0
  0
ACAD_PROXY_OBJECT
  5
B56A7A5C3AE60722
330
B56A7A5C3AE60715
100
AcDbProxyObject
 90
      499
 91
      561
 71
    25
 97
      104
 70
     0
161
             13585
310
6090E41125511535014112551153501405014069011309A4F2590CB64FD3347454E545241434F2C454E552C302C4954454D2C47454E54524154582C25732C2847454E4D53472067656E647767203232322940690120281A8AA2CA0281A8AA2CA028120280A03202261349E4B2196C9FA648E8A9CA8A482869E588A9CAA5860
310
58A2A8B2588E8A9CA8A482A8B0584AE658508E8A9C9AA68E40CECADCC8EECE406464665280D202405044E414D45405044E414D454051C40640A8B95C2E97CBE502404CD1D15395149050D3CB1153954B0C0B139053514B11D15395149055160B095CCB0A11D1539354D1C819D95B991DD9C80C8C8D8A50192C3D4946284953
310
424C414E4B28504152543A4E414D45292C424C4F434B3A4E414D452C504152543A4E414D452940480A0A888AA686A480A16888AA686A492A0A8929E9C80A3A80C81D10782C06030180C809D23A2A72A2920A1A79622A72A9618162222A9A1A924A82A24A7A71623A2A72A2920AA2C1612B9961423A2A726A9A39033B2B7323
310
BB39019189B94A024809014214D51053911054911014214D510539110549110147501904A383BFDFEFF5FBFCFD3747454E545241434F2C454E552C302C5354414E444152442C47454E54524154582C25732C2847454E4D53472067656E64776720323138294049012028426A0AA22A924A0A62028426A0AA22A924A0A62028
310
EA0320B41396D838E9017D9FA6E8E8A9CA8A482869E588A9CAA5860589A82A88AA4928298588E8A9CA8A482A8B0584AE658508E8A9C9AA68E40CECADCC8EECE406464625280D202405044E4F5445405044E4F54454051D40641A8B95C2E97CBE5F23F4CD1D15395149050D3CB1153954B0C0B1393D5114B11D153951490551
310
60B095CCB0A11D1539354D1C819D95B991DD9C80C8C8D4A501A40480A0CAC8A9C889EA480A0CAC8A9C889EA480A3A80C83D172B85D2F97CBE47E9AA3A2A72A2920A1A79622A72A9618162B22A72227A91623A2A72A2920AA2C1612B9961423A2A726A9A39033B2B7323BB39019191A14A0348090141911154D0D48C9014351
310
1154D0D49254151253D3880C90147501908A20F0580C0603019013B47454E545241434F2C454E552C302C4445534352495054494F4E20322C47454E54524154582C25732C2847454E4D53472067656E6477672033362940490120284A9AA20A72220A922192028529AA20A72220A92210192028EA0321347077FBFDFEBF7F9
310
FA728E8A9CA8A482869E588A9CAA586058A6A8829C8882A4884064588E8A9CA8A482A8B0584AE658508E8A9C9AA68E40CECADCC8EECE4064646052809202405094D4154455249414C324050A4D4154455249414C20324051D40642A8272DB071D202FB3F4E11D15395149050D3CB1153954B0C0B1350551154925053080C8B
310
11D15395149055160B095CCB0A11D1539354D1C819D95B991DD9C80D0C0A501240480A089A82A6A680A089A82A6A680A3A80A0485A0681172B85D2F97CBE47E9923A2A72A2920A1A79622A72A96181626A0A9A99623A2A72A2920AA2C1612B9961423A2A726A9A39033B2B7323BB3901A1914A024809014154149250D15014
310
154149250D1501475014090C409022E570BA5F2F97C8FD3347454E545241434F2C454E552C302C50524943452C47454E54524154582C25732C2847454E4D53472067656E6477672034332940490120281A224A6A0285A6A2A0A9AAA922A6A2A72A2028EA028121A81A047DC2910F05877A1FA728E8A9CA8A482869E588A9CA
310
A5860589A8A82A6AAA48A9A8A9CA8588E8A9CA8A482A8B0584AE658508E8A9C9AA68E40CECADCC8EECE406868528092024050E441022E07A17AD46E338FE07800030C0001018ACD56AB55AADF63F2B355AAD56AB7D8FD073D3C4954454D3E405018ACD56AB55AADF63F2B355AAD56AB7D8FD073D3C4954454D3E40501890C7
310
E3F1783CEE3F2431F8FC5E0F3B8FD073D3C4954454D3E40501890C7E3F1783CEE3F2431F8FC5E0F3B8FD073D3C4954454D3E405029012B355AAD56AB7D8FCACD56AB55AADF63F41CF4F125511534F901418F4F1455164F9014062B355AAD56AB7D8FCACD56AB55AADF63F41CF4F125511534F9018F04E350744C1207C00400
310
00001C000001073D3C4954454D3E40640400ACD56AB55AADF63F2B355AAD56AB7D8FE88000000000000020810060001860120881A068120480A032208521122080D21480D211480A1485214852050000000000003C2FC000000000000F0BF40600800030C0201C00030C003BDF4F8D976EA23F0EF7D3E365DBA88FCB81E85E
310
B51B8BE3FC80D069014090541D06901A5C0F42F5A8DC5F1FC0100006180401000061804008000618008098A0280C80CC
340
0
340
0
 94
        0
  0
ACAD_PROXY_OBJECT
  5
B56A7A5C3AE60723
330
B56A7A5C3AE60715
100
AcDbProxyObject
 90
      499
 91
      562
 71
    25
 97
      104
 70
     0
161
               994
310
6080B81E85EB51B8CE3F4BCF511155105253080F11115510525317D3105091530F971414D0D05311480F11115510525317D05094D4D0D053114F92341C9A9999999999B93F26A666666666724FC000000000000E03F4000000000000004000000000000005100000000000000244081E0000C3002E07A17AD46E338FCC
340
B56A7A5C3AE6044B
340
B56A7A5C3AE6049F
 94
        0
  0
ACAD_PROXY_OBJECT
  5
B56A7A5C3AE60724
330
B56A7A5C3AE60715
100
AcDbProxyObject
 90
      499
 91
      563
 71
    25
 97
      104
 70
     0
161
               823
310
608031703D0BD6A3719C7E999EA9A2A1AA24A7A7101E29A2A1AA24A7A72FA620A122A62FA324A929AA1F169E29A2A1AA24A7A72FA620A122A62FA620A9AA1F1353333333333B27E3FFFE01C00030C008840F000061801353333333333B27F1703D0BD6A3719C7E
340
B56A7A5C3AE6044B
340
B56A7A5C3AE6049F
 94
        0
  0
ACAD_PROXY_OBJECT
  5
B56A7A5C3AE60725
330
B56A7A5C3AE60715
100
AcDbProxyObject
 90
      499
 91
      564
 71
    25
 97
      104
 70
     0
161
               280
310
6082B8716D9CEF7C33F0A5723F0BD4A2F0FC295C8FC2F528BC3FA199999999999F99FC7A
 94
        0
  0
ACAD_PROXY_OBJECT
  5
B56A7A5C3AE60726
330
B56A7A5C3AE60715
100
AcDbProxyObject
 90
      499
 91
      565
 71
    25
 97
      104
 70
     0
161
                14
310
60A4
340
0
 94
        0
  0
ACAD_PROXY_OBJECT
  5
B56A7A5C3AE60727
330
B56A7A5C3AE60715
100
AcDbProxyObject
 90
      499
 91
      566
 71
    25
 97
      104
 70
     0
161
              6888
310
609084050BA4050AA405024050A54656D706C617465203140405013D3C696628657175616C28486F6C653A7461707065642C223022292C22252563222C486F6C653A6E6F6D696E616C2022202220696628657175616C28486F6C653A756E6974732C223122292C2278222C222D222920222022293E3C696628657175616C28
310
486F6C653A7461707065642C223022292C486F6C653A6469612C486F6C653A706974636864657363293E207B5C46414D4744543B787D203C696628657175616C28486F6C653A7465726D696E6174696F6E2C223022292C486F6C653A64657074682C225448525522293E5C507B5C46414D4744543B767D2525633C486F6C65
310
3A63746469613E207B5C46414D4744543B787D203C486F6C653A637464657074683E406901405034050A54656D706C6174652031405FE3D3C696628657175616C28486F6C653A7461707065642C223022292C22252563222C486F6C653A6E6F6D696E616C2022202220696628657175616C28486F6C653A756E6974732C223
310
122292C2278222C222D222920222022293E3C696628657175616C28486F6C653A7461707065642C223022292C486F6C653A6469612C486F6C653A706974636864657363293E207B5C46414D4744543B787D203C696628657175616C28486F6C653A7465726D696E6174696F6E2C223022292C486F6C653A64657074682C225
310
448525522293E5C507B5C46414D4744543B777D2525633C486F6C653A63746469613E2058203C486F6C653A6374616E676C653E252564406901405014050A54656D706C6174652031405CF3D3C696628657175616C28486F6C653A7461707065642C223022292C22252563222C486F6C653A6E6F6D696E616C202220222069
310
6628657175616C28486F6C653A756E6974732C223122292C2278222C222D222920222022293E3C696628657175616C28486F6C653A7461707065642C223022292C486F6C653A6469612C486F6C653A706974636864657363293E5C507B5C46414D4744543B787D203C696628657175616C28486F6C653A7465726D696E6174
310
696F6E2C223022292C486F6C653A64657074682C225448525522293E4069014051E4050A54656D706C61746520314050C3D3C535444503A444553433E40690140515AAAB845C0F42F5A8DC5F1F9703D0BD6A3717C7F8020000C3008000000C0004410300
360
B56A7A5C3AE6072A
330
B56A7A5C3AE6072A
360
B56A7A5C3AE6072B
330
B56A7A5C3AE6072B
360
B56A7A5C3AE60729
330
B56A7A5C3AE60729
360
B56A7A5C3AE60728
330
B56A7A5C3AE60728
 94
        0
  0
ACAD_PROXY_OBJECT
  5
B56A7A5C3AE6072C
330
B56A7A5C3AE60715
100
AcDbProxyObject
 90
      499
 91
      568
 71
    25
 97
      104
 70
     0
161
                26
310
60902A8C
340
B56A7A5C3AE60716
 94
        0
  0
ACAD_PROXY_OBJECT
  5
B56A7A5C3AE6072D
330
B56A7A5C3AE60715
100
AcDbProxyObject
 90
      499
 91
      569
 71
    25
 97
      104
 70
     0
161
               258
310
60902000000000000380FC000000000000E03F408F0F9023C3E40DB18CCCFFFF8C
340
B56A7A5C3AE604B4
340
0
340
0
340
B56A7A5C3AE604B5
340
B56A7A5C3AE604B6
340
0
340
B56A7A5C3AE604B7
340
B56A7A5C3AE604B8
340
B56A7A5C3AE604BD
340
0
 94
        0
  0
ACAD_PROXY_OBJECT
  5
B56A7A5C3AE6072E
330
B56A7A5C3AE60715
100
AcDbProxyObject
 90
      499
 91
      570
 71
    25
 97
      104
 70
     0
161
             17490
310
6091F023FFFFFFFD010300002E07A17AD46E2F8FE00800030C01010300002E07A17AD46E2F8FE00800030C0005134C495354204F4620434F4F5244494E41544553015091D15395149050D3CB1153954B0C0B131254D50813D18810D3D3D491125390551154CB11D15395149055160B095CCB0A11D1539354D1C819D95B991A
310
5B5E880CCC0A78000C000000000000000000000000000000007B14AE47E17AA43F2E07A17AD46E2F8FE00800030C007B14AE47E17AA43F2E07A17AD46E2F8FE00800030C020143CF4F111959985D5B1D151A5D1B194F8050A484F4C45205441424C45014E51D15395149050D3CB1153954B0C0B1213D3114815105093114B1
310
1D15395149055160B095CCB0A11D1539354D1C819D95B991A5B5E880CCC4A78000C000000000000000000000000000000007B14AE47E17AA43F2E07A17AD46E2F8FE00800030C007B14AE47E17AA43F2E07A17AD46E2F8FE00800030C020143CF4F111959985D5B1D151A5D1B194F90C4410F4450240D04415014391244D15
310
4151241D144310D4400005064F524947494E014D11D15395149050D3CB1153954B0C0B13D49251D2538B11D15395149055160B095CCB0A11D1539354D1C819D95B991A5B5E880C4A400040410008850000A0C9EA4928E929C029A23A2A72A2920A1A79622A72A96181627A924A3A4A71623A2A72A2920AA2C1612B9961423A
310
2A726A9A39033B2B73234B6BD101894800080820010FA0001411213D3114053247454E545241434F2C454E552C302C484F4C452C47454E54524154582C25732C2847454E4D53472067656E64696D7A20322901538F4F12518A1254D093105392CA121BDB19525D195B4A4B13DC9A59DA5B8B08121BDB19525D195B4A4F8F12
310
518A1254D093105392CA121BDB19525D195B4A4B08888B08121BDB19525B99195E0A4F80404100088D0000A02B00297A3A2A72A2920A1A79622A72A9618162C1623A2A72A2920AA2C1612B9961423A2A726A9A39033B2B73234B6BD1019948000808000102A000140564052F47454E545241434F2C454E552C302C592C4745
310
4E54524154582C25732C2847454E4D53472067656E64696D7A20342900010100002074000280A900A5E8E8A9CA8A482869E588A9CAA586058A4588E8A9CA8A482A8B0584AE658508E8A9C9AA68E40CECADCC8D2DAF4406C52000202000041280005187B5C4653594D424F4C7C42307C49307C43327C50303B4A7D015191D15
310
395149050D3CB1153954B0C0B1ED71194D6535093D31F108C1F124C1F10CC9F140C0ED29F4B11D15395149055160B095CCB0A11D1539354D1C819D95B991A5B5E880DCA40004040C0082D0000A0892A88A9A0299A3A2A72A2920A1A79622A72A96181624AA22A69623A2A72A2920AA2C1612B9961423A2A726A9A39033B2B7
310
3234B6BD10189A148000808280101A00014152539111560053447454E545241434F2C454E552C302C494E4445582C47454E54524154582C25732C2847454E4D53472067656E64696D7A20313529000101050021D40002822427A62280A668E8A9CA8A482869E588A9CAA586058909E988A588E8A9CA8A482A8B0584AE65850
310
8E8A9C9AA68E40CECADCC8D2DAF440626C52000202080044A800050A484F4C4520494E444558014E51D15395149050D3CB1153954B0C0B1213D3114812539111560B11D15395149055160B095CCB0A11D1539354D1C819D95B991A5B5E880C4DCA4000404140089D0000A064A4A860298A3A2A72A2920A1A79622A72A96181
310
61292A19623A2A72A2920AA2C1612B9961423A2A726A9A39033B2B73234B6BD101C148000808080107A000140D455164053247454E545241434F2C454E552C302C5154592C47454E54524154582C25732C2847454E4D53472067656E64696D7A2031392900010106002294000285A222A9A1A924A82A24A7A700A748E8A9CA
310
8A482869E588A9CAA586058888AA686A492A0A8929E9C588E8A9CA8A482A8B0584AE658508E8A9C9AA68E40CECADCC8D2DAF440646052000200080043280005085354414E44415244014DD1D15395149050D3CB1153954B0C0B14D51053911054910B11D15395149055160B095CCB0A11D1539354D1C819D95B991A5B5E880
310
C8C4A4000400100086D0000A12AAA68AA44092A88A9A029C23A2A72A2920A1A79622A72A9618162AA9A2A91024AA22A69623A2A72A2920AA2C1612B9961423A2A726A9A39033B2B73234B6BD101919148000808280115A440019FFFFFFFE004D4CCCCCCCCCF49FCFFFFFFFF0326A6666666667A4FE7FFFFFFF809353333333
310
333D27F3FFFFFFFC049A9999999999E93F9FFFFFFFE044D4CCCCCCCCCF49FCFFFFFFFF0226A6666666667A4FE7FFFFFFF801353333333333B27F3FFFFFFFC009A9999999999E93F9FFFFFFFE004D4CCCCCCCCCF49FCFFFFFFFF0026A6666666667A4FE7FFFFFFF81B3FFFFFFFC0CB81E85EB51B8DE3F9FFFFFFFE060000000
310
0000000204FFFFFFFF0319D999999999819027FFFFFFF801353333333333D27F3FFFFFFFD100067FFFFFFF801353333333333D27F3FFFFFFFC0C9A9999999999E93F9FFFFFFFE064D4CCCCCCCCCF49FCFFFFFFFF0326A6666666667A4FE7FFFFFFF819353333333333D27F3FFFFFFFC0C9A9999999999E93F9FFFFFFFE004D
310
4CCCCCCCCCEC9FCFFFFFFFF0026A6666666667A4FE7FFFFFFF819353333333333D27F3FFFFFFFC009A9999999999E93F9FFFFFFFE06CFFFFFFFF032E07A17AD46E378FE7FFFFFFF81800000000000000813FFFFFFFC0C67666666666606409FFFFFFFE004D4CCCCCCCCCF49FCFFFFFFFF4111000000043C000001120000004
310
4C0000010441C0004011200000040C000401020001003FFFFFFFD0240400054E3D3C4946284953424C414E4B28486F6C654974656D292C4F726967696E2C20486F6C654974656D293E3C4946284953424C414E4B28486F6C654974656D292C22222C20486F6C65496E646578293E4111000000043C0000011200000044C000
310
0010300004111000000043C00000112000000454000000FFFFFFFF8C
340
0
340
0
340
0
340
0
340
B56A7A5C3AE6049F
340
B56A7A5C3AE6049F
 94
        0
  0
ACAD_PROXY_OBJECT
  5
B56A7A5C3AE6072F
330
B56A7A5C3AE60715
100
AcDbProxyObject
 90
      499
 91
      571
 71
    25
 97
      104
 70
     0
161
              5542
310
6099741105394D2506414E53495F4342905394D257D512551554D15414E53495F54525F5265766973696F6E6C697374614191143202831372E307832322E30696E63682941905394D257D0D1146202832382E307834302E30696E63682941905394D257D191142202831312E307831372E30696E63682941905394D257D091
310
144202832322E307833342E30696E63682941905394D257D111145202833342E307834342E30696E63682941905394D257D1510412028382E357831312E30696E63682941905394D257D0505439554C8151A5D1B1948109B1BD8DAD0A414E53495F544954555344D05B9CDA48151A5D1B1948109B1BD8DAC81110D0C414E53
310
495F5449544C45444344905B9CDA48151A5D1B1948109B1BD8DAC81050B414E53495F5449544C454144D05B9CDA48151A5D1B1948109B1BD8DAC81050D0C414E53495F5449544C45414344905B9CDA48151A5D1B1948109B1BD8DAC81110B414E53495F5449544C4544421125265766973696F6E6C69737420415F42525F45
310
505394D257D09497D4995D9A5CDA5BDB9B1A5CDD185125265766973696F6E6C69737420415F54525F45505394D257D51497D4995D9A5CDA5BDB9B1A5CDD185125265766973696F6E6C69737420445F42525F45505394D257D09497D4995D9A5CDA5BDB9B1A5CDD191125265766973696F6E6C69737420445F54525F4550539
310
4D257D51497D4995D9A5CDA5BDB9B1A5CDD191125265766973696F6E6C69737420415F424C5F45505394D257D09317D4995D9A5CDA5BDB9B1A5CDD185125265766973696F6E6C69737420415F544C5F45505394D257D51317D4995D9A5CDA5BDB9B1A5CDD185125265766973696F6E6C69737420445F424C5F45505394D257
310
D09317D4995D9A5CDA5BDB9B1A5CDD191125265766973696F6E6C69737420445F544C5F45505394D257D51317D4995D9A5CDA5BDB9B1A5CDD190
 94
        0
  0
ACAD_PROXY_OBJECT
  5
B56A7A5C3AE6072A
330
0
100
AcDbProxyObject
 90
      499
 91
      567
 71
    25
 97
      104
 70
     0
161
              2224
310
60A014295195B5C1B185D19480C40405013D3C696628657175616C28486F6C653A7461707065642C223022292C22252563222C486F6C653A6E6F6D696E616C2022202220696628657175616C28486F6C653A756E6974732C223122292C2278222C222D222920222022293E3C696628657175616C28486F6C653A7461707065
310
642C223022292C486F6C653A6469612C486F6C653A706974636864657363293E207B5C46414D4744543B787D203C696628657175616C28486F6C653A7465726D696E6174696F6E2C223022292C486F6C653A64657074682C225448525522293E5C507B5C46414D4744543B767D2525633C486F6C653A63746469613E207B5C
310
46414D4744543B787D203C486F6C653A637464657074683E6E
 94
        0
  0
ACAD_PROXY_OBJECT
  5
B56A7A5C3AE6072B
330
0
100
AcDbProxyObject
 90
      499
 91
      567
 71
    25
 97
      104
 70
     0
161
              2160
310
60A014295195B5C1B185D19480C405FE3D3C696628657175616C28486F6C653A7461707065642C223022292C22252563222C486F6C653A6E6F6D696E616C2022202220696628657175616C28486F6C653A756E6974732C223122292C2278222C222D222920222022293E3C696628657175616C28486F6C653A746170706564
310
2C223022292C486F6C653A6469612C486F6C653A706974636864657363293E207B5C46414D4744543B787D203C696628657175616C28486F6C653A7465726D696E6174696F6E2C223022292C486F6C653A64657074682C225448525522293E5C507B5C46414D4744543B777D2525633C486F6C653A63746469613E2058203C
310
486F6C653A6374616E676C653E25256400
 94
        0
  0
ACAD_PROXY_OBJECT
  5
B56A7A5C3AE60729
330
0
100
AcDbProxyObject
 90
      499
 91
      567
 71
    25
 97
      104
 70
     0
161
              1784
310
60A014295195B5C1B185D19480C405CF3D3C696628657175616C28486F6C653A7461707065642C223022292C22252563222C486F6C653A6E6F6D696E616C2022202220696628657175616C28486F6C653A756E6974732C223122292C2278222C222D222920222022293E3C696628657175616C28486F6C653A746170706564
310
2C223022292C486F6C653A6469612C486F6C653A706974636864657363293E5C507B5C46414D4744543B787D203C696628657175616C28486F6C653A7465726D696E6174696F6E2C223022292C486F6C653A64657074682C225448525522293E00
 94
        0
  0
ACAD_PROXY_OBJECT
  5
B56A7A5C3AE60728
330
0
100
AcDbProxyObject
 90
      499
 91
      567
 71
    25
 97
      104
 70
     0
161
               224
310
60A014295195B5C1B185D19480C4050C3D3C535444503A444553433E6A
 94
        0
  0
ENDSEC
  0
SECTION
  2
ACDSDATA
 70
     2
 71
     8
  0
ACDSSCHEMA
 90
        0
  1
AcDb_Thumbnail_Schema
  2
AcDbDs::ID
280
    10
 91
        8
  2
Thumbnail_Data
280
    15
 91
        0
101
ACDSRECORD
 95
        0
 90
        1
  2
AcDbDs::TreatedAsObjectData
280
     1
291
     1
101
ACDSRECORD
 95
        0
 90
        2
  2
AcDbDs::Legacy
280
     1
291
     1
101
ACDSRECORD
  1
AcDbDs::ID
 90
        3
  2
AcDs:Indexable
280
     1
291
     1
101
ACDSRECORD
  1
AcDbDs::ID
 90
        4
  2
AcDbDs::HandleAttribute
280
     7
282
     1
  0
ACDSSCHEMA
 90
        1
  1
AcDbDs::TreatedAsObjectDataSchema
  2
AcDbDs::TreatedAsObjectData
280
     1
 91
        0
  0
ACDSSCHEMA
 90
        2
  1
AcDbDs::LegacySchema
  2
AcDbDs::Legacy
280
     1
 91
        0
  0
ACDSSCHEMA
 90
        3
  1
AcDbDs::IndexedPropertySchema
  2
AcDs:Indexable
280
     1
 91
        0
  0
ACDSSCHEMA
 90
        4
  1
AcDbDs::HandleAttributeSchema
  2
AcDbDs::HandleAttribute
280
     7
 91
        1
284
     1
  0
ACDSRECORD
 90
        0
  2
AcDbDs::ID
280
    10
320
B56A7A5C3AE5FA75
  2
Thumbnail_Data
280
    15
 94
     1857
310
89504E470D0A1A0A0000000D49484452000001000000007D08030000007A674DFF00000300504C54450000000000FFFFFFFF0000000000000000000000000000000000000000000000000000330000660000990000CC0000FF0033000033330033660033990033CC0033FF0066000066330066660066990066CC0066FF0099
310
000099330099660099990099CC0099FF00CC0000CC3300CC6600CC9900CCCC00CCFF00FF0000FF3300FF6600FF9900FFCC00FFFF3300003300333300663300993300CC3300FF3333003333333333663333993333CC3333FF3366003366333366663366993366CC3366FF3399003399333399663399993399CC3399FF33CC00
310
33CC3333CC6633CC9933CCCC33CCFF33FF0033FF3333FF6633FF9933FFCC33FFFF6600006600336600666600996600CC6600FF6633006633336633666633996633CC6633FF6666006666336666666666996666CC6666FF6699006699336699666699996699CC6699FF66CC0066CC3366CC6666CC9966CCCC66CCFF66FF0066
310
FF3366FF6666FF9966FFCC66FFFF9900009900339900669900999900CC9900FF9933009933339933669933999933CC9933FF9966009966339966669966999966CC9966FF9999009999339999669999999999CC9999FF99CC0099CC3399CC6699CC9999CCCC99CCFF99FF0099FF3399FF6699FF9999FFCC99FFFFCC0000CC00
310
33CC0066CC0099CC00CCCC00FFCC3300CC3333CC3366CC3399CC33CCCC33FFCC6600CC6633CC6666CC6699CC66CCCC66FFCC9900CC9933CC9966CC9999CC99CCCC99FFCCCC00CCCC33CCCC66CCCC99CCCCCCCCCCFFCCFF00CCFF33CCFF66CCFF99CCFFCCCCFFFFFF0000FF0033FF0066FF0099FF00CCFF00FFFF3300FF3333
310
FF3366FF3399FF33CCFF33FFFF6600FF6633FF6666FF6699FF66CCFF66FFFF9900FF9933FF9966FF9999FF99CCFF99FFFFCC00FFCC33FFCC66FFCC99FFCCCCFFCCFFFFFF00FFFF33FFFF66FFFF99FFFFCCFFFFFF0000000D0D0D1A1A1A2828283535354343435050505D5D5D6B6B6B787878868686939393A1A1A1AEAEAEBB
310
BBBBC9C9C9D6D6D6E4E4E4F1F1F1FFFFFF000000000000000000000000000000000000000000000000000000000000565614B7000003FC4944415478DAED9D477684300C407598D972FF03E442DA689FA1BBB7A148B69445080C7EF82359058501A8933FF602F7CADDE3B3BF4005A000C2824831190540E400810250000A40
310
012880AC504E148002E00560BD2AC46DE6036A006DD3BE0600D145041480027816C029C1C9175F7BDF002AC6FF399B7C1CC0EE06E19A4850018C0E40502E701F809FCA49CFBBC1CD0BA202500043AE010A400128803B00B43F5061950B28801F008010007094C44C0CF3569D2BFFE4451A802A0DF88805E014457D83280590
310
331D9E00BC7BDF0E40A606F800F67D506B0219069C35C03281E63500D208C401801600B135802D80C5C7DD0400040058BD7C06C0F2B95E0140060015D7C5E56A00A401AC087A358155B7312255C30A0570DE74372F6E73839D00B035601800D304304D5E4C380E802F81AF9C963F1080E59E7F012C1A709AC13000F6293B26
310
509E0DCECE523A8099C1A9014D0068FE910C609EFCD4D4D911D200FB3C6E0042D3C359FD431A00D02B0027CCFFBAC1C515B6892C005B866787F9EB1A300C00D7002C2F80AD00645584F655700F7D0D2FD0960C7DB60D7B895D76488E042B0048AE096EF3374CA016C0271D3E7C846483EDF500C1CF05D2F58001005C51116A
310
88A0F9D40487054054F25CA075FAD408A10B0047A02DC3046E01401200ACBF90EE300102FE269004F0EB227845ACFE1480607FC03800620D12300480821EA1DE010046BCC07800226D72170A951C7C5903CA829CD3D31F3BCA4F0D8609E71FEC5A658341CEF90F9535F10E99D55838CEB669B0EB168FEA3155273E3C4DA019
310
008C0020F09C68F9A09D374726E626D769C65C3580FC69B92584220028140005011C19E43AAD288073DCAE34C0B8AB7900C58E460C00F3A4220050165CBE1607642E2F0300D300500C809AFA870D00E200403C00F709B20B00F300503200A2E0BFBF7506A0BE02301680B41B845C200402DC603A1DCE00581E29D314952E01
310
983A3E65C45C5CBA0400134CE183FB21EE00726F93CB0370EC032C048C0194BD4E8FB200A6B8064CBC35203CAF480120BE06E0DE5EE4C8BA3F01C0791ACF0500243A06422D04F6EA6E6DA25F3B49082700A9BA8699D8679C9B53680F0E557E816F02B0309800D26994FFA8C59ABA3000563DA81D406C5C4600C07DF9450640
310
CA04E4010875B60C06C0CEFFBDC5AAA69D2CF3D9C8C9AF7DC304C6E730068060EC8BEE855A2EBB4AFC6130889D2300B0CB1A2B80EA1E30748AD04C017871702468AB6F824BC67F8C34209D0B1E7B2FFAFA15D90060000046FFC2D91641E144B94F00FE265DF98A41B926500D50BC09140A381603B56F5C676B0285ACF60EA8
310
6DF6F5E34B300118670D784114C063E3AF3D2E56A4FF8E6CD7B05DC6F300705400A93AC0A3F3DFF34DD4354001280005A00014C0DDE3F7F6DDE3FF4A14A1A267CB76EA0000000049454E44AE426082
  0
ENDSEC
  0
EOF
