  0
SECTION
  2
HEADER
  9
$ACADVER
  1
AC1032
  9
$ACADMAINTVER
 90
       55
  9
$DWGCODEPAGE
  3
ANSI_1252
  9
$LASTSAVEDBY
  1
Administrator
  9
$REQUIREDVERSIONS
160
                 0
  9
$INSBASE
 10
0.0
 20
0.0
 30
0.0
  9
$EXTMIN
 10
0.0
 20
0.0
 30
0.0
  9
$EXTMAX
 10
17.0
 20
22.0
 30
0.0
  9
$LIMMIN
 10
0.0
 20
0.0
  9
$LIMMAX
 10
16.1
 20
10.0
  9
$ORTHOMODE
 70
     0
  9
$REGENMODE
 70
     0
  9
$FILLMODE
 70
     1
  9
$QTEXTMODE
 70
     0
  9
$MIRRTEXT
 70
     0
  9
$LTSCALE
 40
0.2
  9
$ATTMODE
 70
     1
  9
$TEXTSIZE
 40
0.045
  9
$TRACEWID
 40
0.05
  9
$TEXTSTYLE
  7
SIMPLEX
  9
$CLAYER
  8
THIN
  9
$CELTYPE
  6
ByLayer
  9
$CECOLOR
 62
   256
  9
$CELTSCALE
 40
1.0
  9
$DISPSILH
 70
     0
  9
$DIMSCALE
 40
2.0
  9
$DIMASZ
 40
0.125
  9
$DIMEXO
 40
0.045
  9
$DIMDLI
 40
0.38
  9
$DIMRND
 40
0.0
  9
$DIMDLE
 40
0.0
  9
$DIMEXE
 40
0.08
  9
$DIMTP
 40
0.0
  9
$DIMTM
 40
0.0
  9
$DIMTXT
 40
0.08
  9
$DIMCEN
 40
-0.09
  9
$DIMTSZ
 40
0.0
  9
$DIMTOL
 70
     0
  9
$DIMLIM
 70
     0
  9
$DIMTIH
 70
     1
  9
$DIMTOH
 70
     1
  9
$DIMSE1
 70
     0
  9
$DIMSE2
 70
     0
  9
$DIMTAD
 70
     0
  9
$DIMZIN
 70
     0
  9
$DIMBLK
  1

  9
$DIMASO
 70
     1
  9
$DIMSHO
 70
     0
  9
$DIMPOST
  1

  9
$DIMAPOST
  1

  9
$DIMALT
 70
     0
  9
$DIMALTD
 70
     2
  9
$DIMALTF
 40
25.4
  9
$DIMLFAC
 40
1.0
  9
$DIMTOFL
 70
     0
  9
$DIMTVP
 40
0.0
  9
$DIMTIX
 70
     0
  9
$DIMSOXD
 70
     0
  9
$DIMSAH
 70
     0
  9
$DIMBLK1
  1

  9
$DIMBLK2
  1

  9
$DIMSTYLE
  2
ASWhite
  9
$DIMCLRD
 70
   112
  9
$DIMCLRE
 70
     9
  9
$DIMCLRT
 70
   256
  9
$DIMTFAC
 40
0.4444440000000001
  9
$DIMGAP
 40
0.09
  9
$DIMJUST
 70
     0
  9
$DIMSD1
 70
     0
  9
$DIMSD2
 70
     0
  9
$DIMTOLJ
 70
     1
  9
$DIMTZIN
 70
     0
  9
$DIMALTZ
 70
     0
  9
$DIMALTTZ
 70
     0
  9
$DIMUPT
 70
     0
  9
$DIMDEC
 70
     4
  9
$DIMTDEC
 70
     4
  9
$DIMALTU
 70
     2
  9
$DIMALTTD
 70
     2
  9
$DIMTXSTY
  7
ROMANS
  9
$DIMAUNIT
 70
     0
  9
$DIMADEC
 70
     0
  9
$DIMALTRND
 40
0.0
  9
$DIMAZIN
 70
     0
  9
$DIMDSEP
 70
    46
  9
$DIMATFIT
 70
     1
  9
$DIMFRAC
 70
     2
  9
$DIMLDRBLK
  1

  9
$DIMLUNIT
 70
     5
  9
$DIMLWD
 70
    -2
  9
$DIMLWE
 70
    -2
  9
$DIMTMOVE
 70
     0
  9
$DIMFXL
 40
1.0
  9
$DIMFXLON
 70
     0
  9
$DIMJOGANG
 40
0.7853981633974483
  9
$DIMTFILL
 70
     0
  9
$DIMTFILLCLR
 70
     0
  9
$DIMARCSYM
 70
     0
  9
$DIMLTYPE
  6

  9
$DIMLTEX1
  6

  9
$DIMLTEX2
  6

  9
$DIMTXTDIRECTION
 70
     0
  9
$LUNITS
 70
     2
  9
$LUPREC
 70
     3
  9
$SKETCHINC
 40
0.1
  9
$FILLETRAD
 40
0.05
  9
$AUNITS
 70
     0
  9
$AUPREC
 70
     2
  9
$MENU
  1
TB
  9
$ELEVATION
 40
0.0
  9
$PELEVATION
 40
0.0
  9
$THICKNESS
 40
0.0
  9
$LIMCHECK
 70
     0
  9
$CHAMFERA
 40
0.0
  9
$CHAMFERB
 40
0.0
  9
$CHAMFERC
 40
0.0
  9
$CHAMFERD
 40
0.0
  9
$SKPOLY
 70
     0
  9
$TDCREATE
 40
2448967.715925926
  9
$TDUCREATE
 40
2448967.924259722
  9
$TDUPDATE
 40
2459264.425833334
  9
$TDUUPDATE
 40
2459264.634166667
  9
$TDINDWG
 40
0.5736392477
  9
$TDUSRTIMER
 40
0.5736392130
  9
$USRTIMER
 70
     1
  9
$ANGBASE
 50
0.0
  9
$ANGDIR
 70
     0
  9
$PDMODE
 70
     0
  9
$PDSIZE
 40
0.0
  9
$PLINEWID
 40
0.0
  9
$SPLFRAME
 70
     0
  9
$SPLINETYPE
 70
     6
  9
$SPLINESEGS
 70
     8
  9
$HANDSEED
  5
C90E73C08D241994
  9
$SURFTAB1
 70
     6
  9
$SURFTAB2
 70
     6
  9
$SURFTYPE
 70
     6
  9
$SURFU
 70
     6
  9
$SURFV
 70
     6
  9
$UCSBASE
  2

  9
$UCSNAME
  2

  9
$UCSORG
 10
0.0
 20
0.0
 30
0.0
  9
$UCSXDIR
 10
1.0
 20
0.0
 30
0.0
  9
$UCSYDIR
 10
0.0
 20
1.0
 30
0.0
  9
$UCSORTHOREF
  2

  9
$UCSORTHOVIEW
 70
     0
  9
$UCSORGTOP
 10
0.0
 20
0.0
 30
0.0
  9
$UCSORGBOTTOM
 10
0.0
 20
0.0
 30
0.0
  9
$UCSORGLEFT
 10
0.0
 20
0.0
 30
0.0
  9
$UCSORGRIGHT
 10
0.0
 20
0.0
 30
0.0
  9
$UCSORGFRONT
 10
0.0
 20
0.0
 30
0.0
  9
$UCSORGBACK
 10
0.0
 20
0.0
 30
0.0
  9
$PUCSBASE
  2

  9
$PUCSNAME
  2

  9
$PUCSORG
 10
0.0
 20
0.0
 30
0.0
  9
$PUCSXDIR
 10
1.0
 20
0.0
 30
0.0
  9
$PUCSYDIR
 10
0.0
 20
1.0
 30
0.0
  9
$PUCSORTHOREF
  2

  9
$PUCSORTHOVIEW
 70
     0
  9
$PUCSORGTOP
 10
0.0
 20
0.0
 30
0.0
  9
$PUCSORGBOTTOM
 10
0.0
 20
0.0
 30
0.0
  9
$PUCSORGLEFT
 10
0.0
 20
0.0
 30
0.0
  9
$PUCSORGRIGHT
 10
0.0
 20
0.0
 30
0.0
  9
$PUCSORGFRONT
 10
0.0
 20
0.0
 30
0.0
  9
$PUCSORGBACK
 10
0.0
 20
0.0
 30
0.0
  9
$USERI1
 70
     0
  9
$USERI2
 70
     0
  9
$USERI3
 70
     0
  9
$USERI4
 70
     0
  9
$USERI5
 70
     0
  9
$USERR1
 40
0.0
  9
$USERR2
 40
0.0
  9
$USERR3
 40
0.0
  9
$USERR4
 40
0.0
  9
$USERR5
 40
0.0
  9
$WORLDVIEW
 70
     1
  9
$SHADEDGE
 70
     3
  9
$SHADEDIF
 70
    70
  9
$TILEMODE
 70
     1
  9
$MAXACTVP
 70
    16
  9
$PINSBASE
 10
0.0
 20
0.0
 30
0.0
  9
$PLIMCHECK
 70
     0
  9
$PEXTMIN
 10
1.000000000000000E+20
 20
1.000000000000000E+20
 30
1.000000000000000E+20
  9
$PEXTMAX
 10
-1.000000000000000E+20
 20
-1.000000000000000E+20
 30
-1.000000000000000E+20
  9
$PLIMMIN
 10
0.0
 20
0.0
  9
$PLIMMAX
 10
12.0
 20
9.0
  9
$UNITMODE
 70
     0
  9
$VISRETAIN
 70
     0
  9
$PLINEGEN
 70
     0
  9
$PSLTSCALE
 70
     0
  9
$TREEDEPTH
 70
  3020
  9
$CMLSTYLE
  2
Standard
  9
$CMLJUST
 70
     0
  9
$CMLSCALE
 40
1.0
  9
$PROXYGRAPHICS
 70
     1
  9
$MEASUREMENT
 70
     0
  9
$CELWEIGHT
370
    -1
  9
$ENDCAPS
280
     0
  9
$JOINSTYLE
280
     0
  9
$LWDISPLAY
290
     0
  9
$INSUNITS
 70
     0
  9
$HYPERLINKBASE
  1

  9
$STYLESHEET
  1
HARVEY STD PLOT STYLE.CTB
  9
$XEDIT
290
     1
  9
$CEPSNTYPE
380
     0
  9
$PSTYLEMODE
290
     1
  9
$FINGERPRINTGUID
  2
{F804FE4C-B95E-11D4-8F2B-005004E2E84A}
  9
$VERSIONGUID
  2
{4CFD6A9D-DF17-43A4-B2A8-6E7EEA98C7D1}
  9
$EXTNAMES
290
     1
  9
$PSVPSCALE
 40
0.0
  9
$OLESTARTUP
290
     0
  9
$SORTENTS
280
    96
  9
$INDEXCTL
280
     0
  9
$HIDETEXT
280
     0
  9
$XCLIPFRAME
280
     2
  9
$HALOGAP
280
     0
  9
$OBSCOLOR
 70
   257
  9
$OBSLTYPE
280
     0
  9
$INTERSECTIONDISPLAY
280
     0
  9
$INTERSECTIONCOLOR
 70
   257
  9
$DIMASSOC
280
     1
  9
$PROJECTNAME
  1

  9
$CAMERADISPLAY
290
     0
  9
$LENSLENGTH
 40
50.0
  9
$CAMERAHEIGHT
 40
0.0
  9
$STEPSPERSEC
 40
2.0
  9
$STEPSIZE
 40
6.0
  9
$3DDWFPREC
 40
2.0
  9
$PSOLWIDTH
 40
0.25
  9
$PSOLHEIGHT
 40
4.0
  9
$LOFTANG1
 40
1.570796326794896
  9
$LOFTANG2
 40
1.570796326794896
  9
$LOFTMAG1
 40
0.0
  9
$LOFTMAG2
 40
0.0
  9
$LOFTPARAM
 70
     7
  9
$LOFTNORMALS
280
     1
  9
$LATITUDE
 40
37.795
  9
$LONGITUDE
 40
-122.394
  9
$NORTHDIRECTION
 40
0.0
  9
$TIMEZONE
 70
 -8000
  9
$LIGHTGLYPHDISPLAY
280
     1
  9
$TILEMODELIGHTSYNCH
280
     1
  9
$CMATERIAL
347
C90E73C08D241331
  9
$SOLIDHIST
280
     0
  9
$SHOWHIST
280
     1
  9
$DWFFRAME
280
     2
  9
$DGNFRAME
280
     0
  9
$REALWORLDSCALE
290
     1
  9
$INTERFERECOLOR
 62
     1
  9
$INTERFEREOBJVS
345
C90E73C08D241353
  9
$INTERFEREVPVS
346
C90E73C08D241350
  9
$CSHADOW
280
     0
  9
$SHADOWPLANELOCATION
 40
0.0
  0
ENDSEC
  0
SECTION
  2
CLASSES
  0
CLASS
  1
ACDBDICTIONARYWDFLT
  2
AcDbDictionaryWithDefault
  3
ObjectDBX Classes
 90
        0
 91
        1
280
     0
281
     0
  0
CLASS
  1
DICTIONARYVAR
  2
AcDbDictionaryVar
  3
ObjectDBX Classes
 90
        0
 91
       10
280
     0
281
     0
  0
CLASS
  1
MATERIAL
  2
AcDbMaterial
  3
ObjectDBX Classes
 90
     1153
 91
        3
280
     0
281
     0
  0
CLASS
  1
VISUALSTYLE
  2
AcDbVisualStyle
  3
ObjectDBX Classes
 90
     4095
 91
       24
280
     0
281
     0
  0
CLASS
  1
TABLESTYLE
  2
AcDbTableStyle
  3
ObjectDBX Classes
 90
     4095
 91
        1
280
     0
281
     0
  0
CLASS
  1
SCALE
  2
AcDbScale
  3
ObjectDBX Classes
 90
     1153
 91
       17
280
     0
281
     0
  0
CLASS
  1
MLEADERSTYLE
  2
AcDbMLeaderStyle
  3
ACDB_MLEADERSTYLE_CLASS
 90
     4095
 91
        1
280
     0
281
     0
  0
CLASS
  1
ACDBSECTIONVIEWSTYLE
  2
AcDbSectionViewStyle
  3
ObjectDBX Classes
 90
     1025
 91
        1
280
     0
281
     0
  0
CLASS
  1
ACDBDETAILVIEWSTYLE
  2
AcDbDetailViewStyle
  3
ObjectDBX Classes
 90
     1025
 91
        1
280
     0
281
     0
  0
CLASS
  1
SORTENTSTABLE
  2
AcDbSortentsTable
  3
ObjectDBX Classes
 90
        0
 91
        4
280
     0
281
     0
  0
CLASS
  1
CELLSTYLEMAP
  2
AcDbCellStyleMap
  3
ObjectDBX Classes
 90
     1152
 91
        1
280
     0
281
     0
  0
ENDSEC
  0
SECTION
  2
TABLES
  0
TABLE
  2
VPORT
  5
C90E73C08D240FEB
330
0
100
AcDbSymbolTable
 70
     1
  0
VPORT
  5
C90E73C08D24132E
330
C90E73C08D240FEB
100
AcDbSymbolTableRecord
100
AcDbViewportTableRecord
  2
*Active
 70
     0
 10
0.0
 20
0.0
 11
1.0
 21
1.0
 12
12.27625449786833
 22
11.00000015367761
 13
0.0
 23
0.0
 14
1.0
 24
1.0
 15
0.0
 25
0.0
 16
0.0
 26
0.0
 36
1.0
 17
0.0
 27
0.0
 37
0.0
 40
22.15066035751959
 41
2.292712066905615
 42
50.0
 43
0.0
 44
0.0
 50
0.0
 51
0.0
 71
     0
 72
  2000
 73
     1
 74
     3
 75
     0
 76
     0
 77
     0
 78
     0
281
     0
 65
     1
110
0.0
120
0.0
130
0.0
111
1.0
121
0.0
131
0.0
112
0.0
122
1.0
132
0.0
 79
     0
146
0.0
348
C90E73C08D24134F
 60
     3
 61
     5
292
     1
282
     1
141
0.0
142
0.0
 63
   250
421
  3355443
1001
ACAD_NAV_VCDISPLAY
1070
     3
  0
ENDTAB
  0
TABLE
  2
LTYPE
  5
C90E73C08D240FE8
330
0
100
AcDbSymbolTable
 70
     2
  0
LTYPE
  5
C90E73C08D240FF6
330
C90E73C08D240FE8
100
AcDbSymbolTableRecord
100
AcDbLinetypeTableRecord
  2
ByBlock
 70
     0
  3

 72
    65
 73
     0
 40
0.0
  0
LTYPE
  5
C90E73C08D240FF7
330
C90E73C08D240FE8
100
AcDbSymbolTableRecord
100
AcDbLinetypeTableRecord
  2
ByLayer
 70
     0
  3

 72
    65
 73
     0
 40
0.0
  0
LTYPE
  5
C90E73C08D240FF8
330
C90E73C08D240FE8
100
AcDbSymbolTableRecord
100
AcDbLinetypeTableRecord
  2
CONTINUOUS
 70
     0
  3
Solid line
 72
    65
 73
     0
 40
0.0
  0
LTYPE
  5
C90E73C08D24137A
330
C90E73C08D240FE8
100
AcDbSymbolTableRecord
100
AcDbLinetypeTableRecord
  2
PHANTOM2
 70
     0
  3
___ _ _ ___ _ _ ___ _ _ ___ _ _
 72
    65
 73
     6
 40
1.25
 49
0.625
 74
     0
 49
-0.125
 74
     0
 49
0.125
 74
     0
 49
-0.125
 74
     0
 49
0.125
 74
     0
 49
-0.125
 74
     0
  0
ENDTAB
  0
TABLE
  2
LAYER
  5
C90E73C08D240FE5
102
{ACAD_XDICTIONARY
360
C90E73C08D241385
102
}
330
0
100
AcDbSymbolTable
 70
     9
  0
LAYER
  5
C90E73C08D240FF3
102
{ACAD_XDICTIONARY
360
C90E73C08D24144D
102
}
330
C90E73C08D240FE5
100
AcDbSymbolTableRecord
100
AcDbLayerTableRecord
  2
0
 70
     0
 62
    31
  6
CONTINUOUS
370
    -3
390
C90E73C08D240FF2
347
C90E73C08D241341
348
0
  0
LAYER
  5
C90E73C08D241026
102
{ACAD_XDICTIONARY
360
C90E73C08D24144F
102
}
330
C90E73C08D240FE5
100
AcDbSymbolTableRecord
100
AcDbLayerTableRecord
  2
10
 70
     0
 62
     9
  6
CONTINUOUS
370
    -3
390
C90E73C08D240FF2
347
C90E73C08D241341
348
0
  0
LAYER
  5
C90E73C08D241027
102
{ACAD_XDICTIONARY
360
C90E73C08D241451
102
}
330
C90E73C08D240FE5
100
AcDbSymbolTableRecord
100
AcDbLayerTableRecord
  2
DIM
 70
     0
 62
     7
  6
CONTINUOUS
370
    -3
390
C90E73C08D240FF2
347
C90E73C08D241341
348
0
  0
LAYER
  5
C90E73C08D24102B
102
{ACAD_XDICTIONARY
360
C90E73C08D241459
102
}
330
C90E73C08D240FE5
100
AcDbSymbolTableRecord
100
AcDbLayerTableRecord
  2
ADCADD_FRZ
 70
     1
 62
     7
  6
CONTINUOUS
370
    -3
390
C90E73C08D240FF2
347
C90E73C08D241341
348
0
  0
LAYER
  5
C90E73C08D24102C
102
{ACAD_XDICTIONARY
360
C90E73C08D24145B
102
}
330
C90E73C08D240FE5
100
AcDbSymbolTableRecord
100
AcDbLayerTableRecord
  2
CYAN
 70
     0
 62
     4
  6
CONTINUOUS
370
    -3
390
C90E73C08D240FF2
347
C90E73C08D241341
348
0
  0
LAYER
  5
C90E73C08D24102E
102
{ACAD_XDICTIONARY
360
C90E73C08D24145F
102
}
330
C90E73C08D240FE5
100
AcDbSymbolTableRecord
100
AcDbLayerTableRecord
  2
THIN
 70
     0
 62
     9
  6
CONTINUOUS
370
    -3
390
C90E73C08D240FF2
347
C90E73C08D241341
348
0
  0
LAYER
  5
C90E73C08D24102F
102
{ACAD_XDICTIONARY
360
C90E73C08D241461
102
}
330
C90E73C08D240FE5
100
AcDbSymbolTableRecord
100
AcDbLayerTableRecord
  2
XTHIN
 70
     0
 62
   112
  6
CONTINUOUS
370
    -3
390
C90E73C08D240FF2
347
C90E73C08D241341
348
0
  0
LAYER
  5
C90E73C08D241035
330
C90E73C08D240FE5
100
AcDbSymbolTableRecord
100
AcDbLayerTableRecord
  2
DEFPOINTS
 70
     0
 62
     7
  6
CONTINUOUS
290
     0
370
    -3
390
C90E73C08D240FF2
347
C90E73C08D241341
348
0
  0
LAYER
  5
C90E73C08D241383
102
{ACAD_XDICTIONARY
360
C90E73C08D24146D
102
}
330
C90E73C08D240FE5
100
AcDbSymbolTableRecord
100
AcDbLayerTableRecord
  2
paper
 70
     0
 62
     6
  6
CONTINUOUS
290
     0
370
    -3
390
C90E73C08D240FF2
347
C90E73C08D241341
348
0
  0
ENDTAB
  0
TABLE
  2
STYLE
  5
C90E73C08D240FE6
330
0
100
AcDbSymbolTable
 70
     4
  0
STYLE
  5
C90E73C08D240FF4
330
C90E73C08D240FE6
100
AcDbSymbolTableRecord
100
AcDbTextStyleTableRecord
  2
STANDARD
 70
     0
 40
0.0
 41
1.0
 50
0.0
 71
     0
 42
0.05
  3
txt
  4

  0
STYLE
  5
C90E73C08D24100A
330
C90E73C08D240FE6
100
AcDbSymbolTableRecord
100
AcDbTextStyleTableRecord
  2
SIMPLEX
 70
     0
 40
0.0
 41
1.0
 50
10.0
 71
     0
 42
0.045
  3
SIMPLEX
  4

  0
STYLE
  5
C90E73C08D241016
330
C90E73C08D240FE6
100
AcDbSymbolTableRecord
100
AcDbTextStyleTableRecord
  2
ROMANS
 70
     0
 40
0.0
 41
1.0
 50
10.0
 71
     0
 42
0.18
  3
romans
  4

  0
STYLE
  5
C90E73C08D241710
330
C90E73C08D240FE6
100
AcDbSymbolTableRecord
100
AcDbTextStyleTableRecord
  2
TAHOMA
 70
     0
 40
0.0
 41
1.0
 50
0.0
 71
     0
 42
0.045
  3
TAHOMA.TTF
  4

1001
ACAD
1000
Tahoma
1071
       34
  0
ENDTAB
  0
TABLE
  2
VIEW
  5
C90E73C08D240FE9
330
0
100
AcDbSymbolTable
 70
     4
  0
VIEW
  5
C90E73C08D24101F
330
C90E73C08D240FE9
100
AcDbSymbolTableRecord
100
AcDbViewTableRecord
  2
X
 70
     0
 40
4.883763142233683
 10
4.003678815158993
 20
2.51688157111684
 41
0.0
 11
0.0
 21
0.0
 31
1.0
 12
0.0
 22
0.0
 32
0.0
 42
50.0
 43
0.0
 44
0.0
 50
0.0
 71
     0
281
     0
 72
     0
 73
     0
348
C90E73C08D24134F
  0
VIEW
  5
C90E73C08D241020
330
C90E73C08D240FE9
100
AcDbSymbolTableRecord
100
AcDbViewTableRecord
  2
A
 70
     0
 40
5.086925965388943
 10
4.014255291959629
 20
2.577963992275071
 41
0.0
 11
0.0
 21
0.0
 31
1.0
 12
0.0
 22
0.0
 32
0.0
 42
50.0
 43
0.0
 44
0.0
 50
0.0
 71
     0
281
     0
 72
     0
 73
     0
348
C90E73C08D24134F
  0
VIEW
  5
C90E73C08D241021
330
C90E73C08D240FE9
100
AcDbSymbolTableRecord
100
AcDbViewTableRecord
  2
B
 70
     0
 40
5.334674714956403
 10
4.099999999999998
 20
2.667337357478201
 41
0.0
 11
0.0
 21
0.0
 31
1.0
 12
0.0
 22
0.0
 32
0.0
 42
50.0
 43
0.0
 44
0.0
 50
0.0
 71
     0
281
     0
 72
     0
 73
     0
348
C90E73C08D24134F
  0
VIEW
  5
C90E73C08D241022
330
C90E73C08D240FE9
100
AcDbSymbolTableRecord
100
AcDbViewTableRecord
  2
C
 70
     0
 40
5.334674714956403
 10
4.099999999999998
 20
2.667337357478201
 41
0.0
 11
0.0
 21
0.0
 31
1.0
 12
0.0
 22
0.0
 32
0.0
 42
50.0
 43
0.0
 44
0.0
 50
0.0
 71
     0
281
     0
 72
     0
 73
     0
348
C90E73C08D24134F
  0
ENDTAB
  0
TABLE
  2
UCS
  5
C90E73C08D240FEA
330
0
100
AcDbSymbolTable
 70
     0
  0
ENDTAB
  0
TABLE
  2
APPID
  5
C90E73C08D240FEC
330
0
100
AcDbSymbolTable
 70
     9
  0
APPID
  5
C90E73C08D240FF5
330
C90E73C08D240FEC
100
AcDbSymbolTableRecord
100
AcDbRegAppTableRecord
  2
ACAD
 70
     0
  0
APPID
  5
C90E73C08D241025
330
C90E73C08D240FEC
100
AcDbSymbolTableRecord
100
AcDbRegAppTableRecord
  2
TB_S_MPD
 70
     0
  0
APPID
  5
C90E73C08D241442
330
C90E73C08D240FEC
100
AcDbSymbolTableRecord
100
AcDbRegAppTableRecord
  2
ACAD_NAV_VCDISPLAY
 70
     0
  0
APPID
  5
C90E73C08D2414C2
330
C90E73C08D240FEC
100
AcDbSymbolTableRecord
100
AcDbRegAppTableRecord
  2
ACAD_EXEMPT_FROM_CAD_STANDARDS
 70
     0
  0
APPID
  5
C90E73C08D241522
330
C90E73C08D240FEC
100
AcDbSymbolTableRecord
100
AcDbRegAppTableRecord
  2
ACAD_DSTYLE_DIMJAG
 70
     0
  0
APPID
  5
C90E73C08D241523
330
C90E73C08D240FEC
100
AcDbSymbolTableRecord
100
AcDbRegAppTableRecord
  2
ACAD_DSTYLE_DIMTALN
 70
     0
  0
APPID
  5
C90E73C08D241714
330
C90E73C08D240FEC
100
AcDbSymbolTableRecord
100
AcDbRegAppTableRecord
  2
ACAD_DSTYLE_DIMBREAK
 70
     0
  0
APPID
  5
C90E73C08D2417FF
330
C90E73C08D240FEC
100
AcDbSymbolTableRecord
100
AcDbRegAppTableRecord
  2
GradientColor1ACI
 70
     0
  0
APPID
  5
C90E73C08D241800
330
C90E73C08D240FEC
100
AcDbSymbolTableRecord
100
AcDbRegAppTableRecord
  2
GradientColor2ACI
 70
     0
  0
ENDTAB
  0
TABLE
  2
DIMSTYLE
  5
C90E73C08D240FED
330
0
100
AcDbSymbolTable
 70
     1
100
AcDbDimStyleTable
 71
     1
340
C90E73C08D241384
  0
DIMSTYLE
105
C90E73C08D241384
102
{ACAD_REACTORS
330
C90E73C08D241524
330
C90E73C08D241532
330
C90E73C08D241540
330
C90E73C08D241550
330
C90E73C08D241568
330
C90E73C08D2415F2
102
}
330
C90E73C08D240FED
100
AcDbSymbolTableRecord
100
AcDbDimStyleTableRecord
  2
ASWhite
 70
     0
 40
2.0
 41
0.125
 42
0.045
 44
0.08
140
0.08
141
-0.09
146
0.4444440000000001
176
   112
177
     9
178
   256
276
     2
277
     5
289
     1
340
C90E73C08D241016
1001
ACAD_DSTYLE_DIMJAG
1070
   388
1040
1.5
1001
ACAD_DSTYLE_DIMTALN
1070
   392
1070
     0
  0
ENDTAB
  0
TABLE
  2
BLOCK_RECORD
  5
C90E73C08D240FE4
330
0
100
AcDbSymbolTable
 70
    11
  0
BLOCK_RECORD
  5
C90E73C08D241001
102
{ACAD_XDICTIONARY
360
C90E73C08D241407
102
}
330
C90E73C08D240FE4
100
AcDbSymbolTableRecord
100
AcDbBlockTableRecord
  2
*Model_Space
340
C90E73C08D241004
 70
     0
280
     1
281
     0
  0
BLOCK_RECORD
  5
C90E73C08D240FFD
330
C90E73C08D240FE4
100
AcDbSymbolTableRecord
100
AcDbBlockTableRecord
  2
*Paper_Space
340
C90E73C08D241000
 70
     0
280
     1
281
     0
  0
BLOCK_RECORD
  5
C90E73C08D241009
102
{ACAD_XDICTIONARY
360
C90E73C08D2413C3
102
}
330
C90E73C08D240FE4
100
AcDbSymbolTableRecord
100
AcDbBlockTableRecord
  2
ASDTNUM
340
0
102
{BLKREFS
331
C90E73C08D2413C4
102
}
 70
     0
280
     1
281
     0
  0
BLOCK_RECORD
  5
C90E73C08D241387
102
{ACAD_XDICTIONARY
360
C90E73C08D241389
102
}
330
C90E73C08D240FE4
100
AcDbSymbolTableRecord
100
AcDbBlockTableRecord
  2
AS extents block
340
0
102
{BLKREFS
331
C90E73C08D24138C
102
}
 70
     0
280
     1
281
     0
  0
BLOCK_RECORD
  5
C90E73C08D2413E7
102
{ACAD_XDICTIONARY
360
C90E73C08D2413F4
102
}
330
C90E73C08D240FE4
100
AcDbSymbolTableRecord
100
AcDbBlockTableRecord
  2
B3363 DS Integral J-fin frame
340
0
102
{BLKREFS
331
C90E73C08D2413F9
331
C90E73C08D24154E
331
C90E73C08D241802
331
C90E73C08D2415E5
331
C90E73C08D2415E7
102
}
 70
     0
280
     1
281
     0
  0
BLOCK_RECORD
  5
C90E73C08D2414AB
102
{ACAD_XDICTIONARY
360
C90E73C08D2414D3
102
}
330
C90E73C08D240FE4
100
AcDbSymbolTableRecord
100
AcDbBlockTableRecord
  2
B3369 DS Glazing Bead
340
0
102
{BLKREFS
331
C90E73C08D2414B1
331
C90E73C08D24154F
331
C90E73C08D2415E6
331
C90E73C08D2415E8
102
}
 70
     0
280
     1
281
     0
  0
BLOCK_RECORD
  5
C90E73C08D241525
330
C90E73C08D240FE4
100
AcDbSymbolTableRecord
100
AcDbBlockTableRecord
  2
*D4
340
0
 70
     0
280
     1
281
     0
  0
BLOCK_RECORD
  5
C90E73C08D241533
330
C90E73C08D240FE4
100
AcDbSymbolTableRecord
100
AcDbBlockTableRecord
  2
*D5
340
0
 70
     0
280
     1
281
     0
  0
BLOCK_RECORD
  5
C90E73C08D241541
330
C90E73C08D240FE4
100
AcDbSymbolTableRecord
100
AcDbBlockTableRecord
  2
*D6
340
0
 70
     0
280
     1
281
     0
  0
BLOCK_RECORD
  5
C90E73C08D241551
330
C90E73C08D240FE4
100
AcDbSymbolTableRecord
100
AcDbBlockTableRecord
  2
*D7
340
0
 70
     0
280
     1
281
     0
  0
BLOCK_RECORD
  5
C90E73C08D241569
330
C90E73C08D240FE4
100
AcDbSymbolTableRecord
100
AcDbBlockTableRecord
  2
*D8
340
0
 70
     0
280
     1
281
     0
  0
BLOCK_RECORD
  5
C90E73C08D2415F3
330
C90E73C08D240FE4
100
AcDbSymbolTableRecord
100
AcDbBlockTableRecord
  2
*D9
340
0
 70
     0
280
     1
281
     0
  0
BLOCK_RECORD
  5
C90E73C08D241776
102
{ACAD_XDICTIONARY
360
C90E73C08D241784
102
}
330
C90E73C08D240FE4
100
AcDbSymbolTableRecord
100
AcDbBlockTableRecord
  2
A$C1C0E0B9C
340
0
102
{BLKREFS
331
C90E73C08D241788
331
C90E73C08D24178B
102
}
 70
     0
280
     1
281
     0
  0
ENDTAB
  0
ENDSEC
  0
SECTION
  2
BLOCKS
  0
BLOCK
  5
C90E73C08D241038
330
C90E73C08D241001
100
AcDbEntity
  8
0
100
AcDbBlockBegin
  2
*Model_Space
 70
     0
 10
0.0
 20
0.0
 30
0.0
  3
*Model_Space
  1

  0
ENDBLK
  5
C90E73C08D241039
330
C90E73C08D241001
100
AcDbEntity
  8
0
100
AcDbBlockEnd
  0
BLOCK
  5
C90E73C08D241036
330
C90E73C08D240FFD
100
AcDbEntity
 67
     1
  8
0
100
AcDbBlockBegin
  2
*Paper_Space
 70
     0
 10
0.0
 20
0.0
 30
0.0
  3
*Paper_Space
  1

  0
ENDBLK
  5
C90E73C08D241037
330
C90E73C08D240FFD
100
AcDbEntity
 67
     1
  8
0
100
AcDbBlockEnd
  0
BLOCK
  5
207A5C5EAD
330
C90E73C08D241009
100
AcDbEntity
  8
0
100
AcDbBlockBegin
  2
ASDTNUM
 70
     2
 10
0.0
 20
0.0
 30
0.0
  3
ASDTNUM
  1

  0
ATTDEF
  5
C90E73C08D2413BF
330
C90E73C08D241009
100
AcDbEntity
  8
THIN
100
AcDbText
 10
1.645491964163355
 20
0.7077964671298738
 30
0.0
 40
0.18
  1

 51
10.0
  7
ROMANS
100
AcDbAttributeDefinition
280
     0
  3
Revision date:
  2
REV:
 70
     0
280
     0
  0
TEXT
  5
C90E73C08D2413C0
330
C90E73C08D241009
100
AcDbEntity
  8
THIN
100
AcDbText
 10
0.8991511953395569
 20
0.7098478649101439
 30
0.0
 40
0.18
  1
REV.
 51
10.0
  7
ROMANS
100
AcDbText
  0
TEXT
  5
C90E73C08D2413C1
330
C90E73C08D241009
100
AcDbEntity
  8
THIN
100
AcDbText
 10
13.58214084242182
 20
0.6570694486990833
 30
0.0
 40
0.25
  1
AS
 51
10.0
  7
ROMANS
100
AcDbText
  0
ATTDEF
  5
C90E73C08D2413C2
330
C90E73C08D241009
100
AcDbEntity
  8
THIN
100
AcDbText
 10
14.18958977281909
 20
0.6570000000000002
 30
0.0
 40
0.25
  1

 51
10.0
  7
ROMANS
100
AcDbAttributeDefinition
280
     0
  3
AS Drawing Num.:
  2
AS#
 70
     0
280
     0
  0
ENDBLK
  5
C90E73C08D240FDF
330
C90E73C08D241009
100
AcDbEntity
  8
0
100
AcDbBlockEnd
  0
BLOCK
  5
C90E73C08D24138A
330
C90E73C08D241387
100
AcDbEntity
  8
0
100
AcDbBlockBegin
  2
AS extents block
 70
     0
 10
0.0
 20
0.0
 30
0.0
  3
AS extents block
  1

  0
LWPOLYLINE
  5
C90E73C08D241388
330
C90E73C08D241387
100
AcDbEntity
  8
paper
100
AcDbPolyline
 90
        4
 70
     1
 43
0.0
 10
0.0
 20
0.0
 10
17.0
 20
0.0
 10
17.0
 20
22.0
 10
0.0
 20
22.0
  0
ENDBLK
  5
C90E73C08D24138B
330
C90E73C08D241387
100
AcDbEntity
  8
0
100
AcDbBlockEnd
  0
BLOCK
  5
C90E73C08D2413F5
330
C90E73C08D2413E7
100
AcDbEntity
  8
0
100
AcDbBlockBegin
  2
B3363 DS Integral J-fin frame
 70
     0
 10
0.0
 20
0.0
 30
0.0
  3
B3363 DS Integral J-fin frame
  1

  0
LWPOLYLINE
  5
C90E73C08D2413E8
330
C90E73C08D2413E7
100
AcDbEntity
  8
0
100
AcDbPolyline
 90
        8
 70
     1
 43
0.0
 10
-2.241999999999951
 20
0.0980000000000141
 42
-0.4142135623730951
 10
-2.256999999999951
 20
0.1130000000000146
 10
-2.256999999999993
 20
0.7320000000000198
 42
-0.4142135623731151
 10
-2.241999999999993
 20
0.7470000000000196
 10
-2.023999999999989
 20
0.7470000000000196
 42
-0.4142135623729563
 10
-2.008999999999981
 20
0.7320000000000047
 10
-2.009000000000003
 20
0.1129999999999995
 42
-0.4142135623732337
 10
-2.024000000000004
 20
0.0980000000000132
  0
LWPOLYLINE
  5
C90E73C08D2413EB
330
C90E73C08D2413E7
100
AcDbEntity
  8
0
100
AcDbPolyline
 90
       12
 70
     1
 43
0.0
 10
-0.0980000000000039
 20
0.5270000000000295
 10
-0.0980000000000145
 20
0.7329999999999899
 42
0.4142135623730906
 10
-0.1130000000000151
 20
0.7479999999999905
 10
-0.2310000000000065
 20
0.7480000000000047
 42
0.4142135623731157
 10
-0.2460000000000071
 20
0.7330000000000041
 10
-0.2460000000000035
 20
0.6650000000000205
 42
-0.4142135623730702
 10
-0.2610000000000041
 20
0.6500000000000217
 10
-0.2979999999999969
 20
0.6500000000000075
 42
0.414213562373009
 10
-0.3129999999999939
 20
0.6350000000000069
 10
-0.3130000000000046
 20
0.5269999999999886
 42
0.4142135623731397
 10
-0.2980000000000039
 20
0.5119999999999881
 10
-0.1130000000000044
 20
0.5120000000000289
 42
0.4142135623730836
  0
LWPOLYLINE
  5
C90E73C08D2413ED
330
C90E73C08D2413E7
100
AcDbEntity
  8
THIN
 48
0.25
100
AcDbPolyline
 90
        8
 70
     0
 43
0.0
 10
-1.860135240160424
 20
1.433248441605128
 10
-1.865750852145014
 20
1.390045208399962
 42
-0.218506009279968
 10
-1.887889058287088
 20
1.354695455003954
 10
-1.958999999999971
 20
1.30799999999999
 10
-1.958999999999971
 20
1.237999999999994
 10
-1.866331459183419
 20
1.316316078807495
 42
0.2166422563016061
 10
-1.83089209503237
 20
1.391117616713824
 10
-1.830262233263617
 20
1.431078587343553
  0
LWPOLYLINE
  5
C90E73C08D2413EE
330
C90E73C08D2413E7
100
AcDbEntity
  8
0
100
AcDbPolyline
 90
        8
 70
     1
 43
0.0
 10
-2.057000000000015
 20
0.8420000000000076
 42
-0.4142135623730984
 10
-2.072000000000015
 20
0.8270000000000072
 10
-2.210000000000007
 20
0.8270000000000072
 42
-0.4142135623730951
 10
-2.225000000000008
 20
0.8420000000000076
 10
-2.224999999999976
 20
1.430720068540514
 42
-0.3394542588633731
 10
-2.213882285676515
 20
1.445208955934849
 10
-2.075882285676516
 20
1.482185944490351
 42
-0.4931454260313063
 10
-2.056999999999976
 20
1.467697057096015
  0
LWPOLYLINE
  5
C90E73C08D2413EF
330
C90E73C08D2413E7
100
AcDbEntity
  8
0
100
AcDbPolyline
 90
        8
 70
     1
 43
0.0
 10
-3.146070552360825
 20
0.4883907458845469
 42
0.3394542588634429
 10
-3.152000000000008
 20
0.4806633392742327
 10
-3.152000000000008
 20
0.4680000000000204
 42
0.4142135623729975
 10
-3.144000000000004
 20
0.460000000000025
 10
-2.351999999999954
 20
0.4599999999999965
 42
0.4142135623731549
 10
-2.336999999999953
 20
0.4749999999999989
 10
-2.336999999999989
 20
0.6856321664168208
 42
0.4931454260312531
 10
-2.355882285676524
 20
0.7001210538111549
  0
LWPOLYLINE
  5
C90E73C08D2413F0
330
C90E73C08D2413E7
100
AcDbEntity
  8
0
100
AcDbPolyline
 90
       12
 70
     1
 43
0.0
 10
-1.679568751556759
 20
0.8158465204853957
 42
-0.3401424000459158
 10
-1.665070328188831
 20
0.8270000000000282
 10
-1.038000000000005
 20
0.8270000000000139
 42
-0.4142135623730951
 10
-1.023000000000004
 20
0.8120000000000134
 10
-1.023000000000001
 20
0.1130000000000138
 42
-0.4142135623730951
 10
-1.038000000000001
 20
0.0980000000000132
 10
-1.914000000000015
 20
0.097999999999999
 42
-0.4142135623730951
 10
-1.929000000000016
 20
0.1129999999999995
 10
-1.929000000000016
 20
0.7140000000000148
 42
-0.4142135623731213
 10
-1.914000000000015
 20
0.7290000000000135
 10
-1.714149002121011
 20
0.7289999999999868
 42
0.3401424000459496
 10
-1.699650578753083
 20
0.7401534795146194
  0
LINE
  5
C90E73C08D2413F1
330
C90E73C08D2413E7
100
AcDbEntity
  8
THIN
100
AcDbLine
 10
-1.928999999999991
 20
1.623000000000001
 30
0.0
 11
-1.929021421978171
 21
1.623000000000001
 31
0.0
  0
LWPOLYLINE
  5
C90E73C08D2413F2
330
C90E73C08D2413E7
100
AcDbEntity
  8
0
100
AcDbPolyline
 90
       65
 70
     1
 43
0.0
 10
-1.789539336966111
 20
0.8269999999999715
 10
-1.944000000000025
 20
0.8269999999999891
 42
-0.4142135623730864
 10
-1.959000000000024
 20
0.8419999999999896
 10
-1.958999999999985
 20
1.51350445854688
 10
-1.928999999999991
 20
1.521542934319811
 10
-1.928999999999991
 20
1.623000000000001
 10
-2.278529142706119
 20
1.529343948480741
 42
0.3394542588633526
 10
-2.322999999999965
 20
1.471388398903401
 10
-2.323000000000014
 20
0.8218988062033368
 42
-0.3394542588633642
 10
-2.334117714323475
 20
0.8074099188090029
 10
-3.205529142706193
 20
0.5739159302985996
 42
0.3394542588634112
 10
-3.250000000000041
 20
0.515960380721249
 10
-3.249999999999949
 20
-0.1849999999999863
 42
0.4142135623730951
 10
-3.234999999999948
 20
-0.1999999999999868
 10
-3.180000000000014
 20
-0.199999999999986
 42
0.4142135623730688
 10
-3.150000000000015
 20
-0.1699999999999884
 10
-3.150000000000011
 20
-0.1099999999999799
 42
0.41421356237303
 10
-3.158000000000011
 20
-0.1019999999999808
 10
-3.181999999999991
 20
-0.1019999999999763
 42
-0.4142135623729325
 10
-3.189999999999982
 20
-0.0939999999999781
 10
-3.189999999999996
 20
-0.0710192378864507
 42
-0.131652497587552
 10
-3.187990381056763
 20
-0.0635192378864415
 10
-3.154009618943221
 20
-0.0046628314258763
 42
0.131652497587376
 10
-3.151999999999986
 20
0.0028371685741222
 10
-3.151999999999951
 20
0.3470000000000111
 42
-0.414213562373234
 10
-3.136999999999949
 20
0.3619999999999974
 10
-2.351999999999968
 20
0.3620000000000116
 42
-0.4142135623730951
 10
-2.336999999999966
 20
0.3470000000000111
 10
-2.336999999999956
 20
-1.204999999999968
 42
0.9999999999999998
 10
-2.256999999999943
 20
-1.204999999999968
 10
-2.256999999999954
 20
-0.0149999999999855
 42
-0.4142135623730951
 10
-2.241999999999954
 20
0.0000000000000151
 10
-0.0150000000000086
 20
0.0
 42
0.4142135623729565
 10
-0.0000000000000009
 20
0.0150000000000148
 10
-0.0000000000000084
 20
0.1820000000000164
 42
0.4142135623732339
 10
-0.015000000000009
 20
0.1970000000000027
 10
-0.0830000000000069
 20
0.1970000000000027
 42
0.4142135623732339
 10
-0.0980000000000003
 20
0.1820000000000164
 10
-0.0980000000000074
 20
0.1129999999999995
 42
-0.4142135623732337
 10
-0.113000000000008
 20
0.0980000000000132
 10
-0.2800000000000096
 20
0.0980000000000132
 42
-0.4142135623732337
 10
-0.295000000000003
 20
0.1129999999999995
 10
-0.2950000000000101
 20
0.3990000000000027
 42
-0.4142135623729561
 10
-0.2800000000000096
 20
0.4140000000000176
 10
-0.113000000000008
 20
0.4140000000000157
 42
-0.4142135623729563
 10
-0.0980000000000003
 20
0.3990000000000009
 10
-0.0980000000000074
 20
0.3300000000000125
 42
0.4142135623729563
 10
-0.0830000000000069
 20
0.3149999999999977
 10
-0.015000000000009
 20
0.3149999999999977
 42
0.4142135623729565
 10
-0.0000000000000013
 20
0.3300000000000125
 10
-0.0000000000000049
 20
0.786000000000005
 42
0.4142135623730864
 10
-0.0600000000000045
 20
0.8460000000000036
 10
-0.3589999999999889
 20
0.8460000000000054
 42
0.4931454260309718
 10
-0.3734888873943389
 20
0.8271177143234654
 10
-0.3573488529326396
 20
0.7668822856765605
 42
-0.4931454260309718
 10
-0.3718377403269897
 20
0.7480000000000207
 10
-0.9100000000000052
 20
0.7480000000000207
 42
-0.4142135623732341
 10
-0.9250000000000056
 20
0.7630000000000071
 10
-0.9250000000000056
 20
0.831000000000019
 42
-0.414213562373234
 10
-0.9100000000000052
 20
0.8460000000000054
 10
-0.7675000000000069
 20
0.8460000000000054
 42
0.9999999999999998
 10
-0.7675000000000069
 20
0.9250000000000131
 10
-1.740460663033933
 20
0.9250000000000111
 42
0.3401424000459107
 10
-1.75495908640186
 20
0.9138465204853789
 10
-1.775040913598183
 20
0.8381534795146039
 42
-0.3401424000459436
  0
LWPOLYLINE
  5
C90E73C08D2413F3
330
C90E73C08D2413E7
100
AcDbEntity
  8
0
100
AcDbPolyline
 90
        8
 70
     1
 43
0.0
 10
-0.393000000000002
 20
0.1129999999999995
 10
-0.3930000000000056
 20
0.6350000000000069
 42
0.4142135623730857
 10
-0.4080000000000063
 20
0.6500000000000075
 10
-0.9279999999999994
 20
0.6500000000000075
 42
0.4142135623730953
 10
-0.9429999999999999
 20
0.6350000000000069
 10
-0.9429999999999999
 20
0.1130000000000422
 42
0.4142135623730839
 10
-0.9279999999999994
 20
0.0980000000000416
 10
-0.4080000000000026
 20
0.097999999999999
 42
0.4142135623731205
  0
LINE
  5
C90E73C08D241438
330
C90E73C08D2413E7
100
AcDbEntity
  8
THIN
 48
0.25
100
AcDbLine
 10
-1.890751438511974
 20
1.64843174826434
 30
0.0
 11
-1.928999999999961
 21
1.622999999999992
 31
0.0
  0
LINE
  5
C90E73C08D241439
330
C90E73C08D2413E7
100
AcDbEntity
  8
THIN
 48
0.25
100
AcDbLine
 10
-1.928999999999961
 20
1.622999999999992
 30
0.0
 11
-1.928999999999961
 21
1.552999999999991
 31
0.0
  0
LINE
  5
C90E73C08D24143A
330
C90E73C08D2413E7
100
AcDbEntity
  8
THIN
 48
0.25
100
AcDbLine
 10
-1.928999999999961
 20
1.552999999999991
 30
0.0
 11
-1.866882900891425
 21
1.605350206038426
 31
0.0
  0
ARC
  5
C90E73C08D24143B
330
C90E73C08D2413E7
100
AcDbEntity
  8
THIN
 48
0.25
100
AcDbCircle
 10
-1.845260370323948
 20
1.748757655311018
 30
0.0
 40
0.0150000000000014
100
AcDbArc
 50
359.096983073196
 51
172.5941420617296
  0
LINE
  5
C90E73C08D24143C
330
C90E73C08D2413E7
100
AcDbEntity
  8
THIN
 48
0.25
100
AcDbLine
 10
-1.860135240160424
 20
1.750691110081089
 30
0.0
 11
-1.868852814685345
 21
1.683623191888534
 31
0.0
  0
LINE
  5
C90E73C08D24143D
330
C90E73C08D2413E7
100
AcDbEntity
  8
THIN
 48
0.25
100
AcDbLine
 10
-1.83133847068537
 20
1.680240413680992
 30
0.0
 11
-1.830262233263617
 21
1.748521255819515
 31
0.0
  0
ARC
  5
C90E73C08D24143E
330
C90E73C08D2413E7
100
AcDbEntity
  8
THIN
 48
0.25
100
AcDbCircle
 10
-1.918435714140264
 20
1.690068041122095
 30
0.0
 40
0.05
100
AcDbArc
 50
303.6202238007758
 51
352.5941420617438
  0
ARC
  5
C90E73C08D24143F
330
C90E73C08D2413E7
100
AcDbEntity
  8
THIN
 48
0.25
100
AcDbCircle
 10
-1.931326051087564
 20
1.68181641029101
 30
0.0
 40
0.1
100
AcDbArc
 50
310.123064812223
 51
359.0969830731916
  0
ARC
  5
C90E73C08D241440
330
C90E73C08D2413E7
100
AcDbEntity
  8
THIN
 48
0.25
100
AcDbCircle
 10
-1.845260370323948
 20
1.431314986835054
 30
0.0
 40
0.0150000000000014
100
AcDbArc
 50
359.096983073196
 51
172.5941420617296
  0
ENDBLK
  5
C90E73C08D2413F6
330
C90E73C08D2413E7
100
AcDbEntity
  8
0
100
AcDbBlockEnd
  0
BLOCK
  5
C90E73C08D2414AF
330
C90E73C08D2414AB
100
AcDbEntity
  8
0
100
AcDbBlockBegin
  2
B3369 DS Glazing Bead
 70
     0
 10
0.0
 20
0.0
 30
0.0
  3
B3369 DS Glazing Bead
  1

  0
LWPOLYLINE
  5
C90E73C08D2414AC
330
C90E73C08D2414AB
100
AcDbEntity
  8
0
100
AcDbPolyline
 90
       33
 70
     1
 43
0.0
 10
0.0161084930037783
 20
-0.0601177143234644
 10
0.0050594931982824
 20
-0.0188822856765381
 42
-0.4931454260312981
 10
0.0195483805926182
 20
0.0
 10
0.1075483805926192
 20
0.0
 42
0.4142135623730951
 10
0.1225483805926197
 20
0.0150000000000006
 10
0.1225483805926197
 20
0.7519999999999989
 42
0.4142135623730951
 10
0.0925483805926186
 20
0.7819999999999965
 10
-0.4754516194073794
 20
0.7819999999999965
 10
-0.4754516194073215
 20
0.1869999999999949
 42
0.4142135623730795
 10
-0.4454516194073214
 20
0.1569999999999965
 10
-0.3644516194073821
 20
0.1569999999999965
 42
-0.4142135623730951
 10
-0.3494516194073816
 20
0.1419999999999959
 10
-0.3494516194073816
 20
0.0150000000000006
 42
-0.4142135623730951
 10
-0.3644516194073821
 20
0.0
 10
-0.4669516194073813
 20
-0.0000000000000036
 42
0.9999999999999998
 10
-0.4669516194073813
 20
-0.0790000000000006
 10
-0.3004516194073821
 20
-0.0790000000000006
 42
0.4142135623730951
 10
-0.2704516194073827
 20
-0.0490000000000031
 10
-0.2704516194073809
 20
0.205999999999996
 42
0.4142135623730951
 10
-0.3004516194073821
 20
0.2359999999999971
 10
-0.3814516194073567
 20
0.2359999999999935
 42
-0.4142135623730951
 10
-0.3964516194073573
 20
0.2509999999999941
 10
-0.3964516194073573
 20
0.6879999999999953
 42
-0.4142135623730951
 10
-0.3814516194073567
 20
0.7029999999999959
 10
0.0285483805926186
 20
0.7029999999999959
 42
-0.4142135623730951
 10
0.0435483805926174
 20
0.687999999999999
 10
0.0435483805926191
 20
0.0940000000000012
 42
-0.4142135623730951
 10
0.0285483805926186
 20
0.0790000000000006
 10
-0.0444516194073819
 20
0.0790000000000006
 42
0.4142135623730951
 10
-0.074451619407383
 20
0.0489999999999995
 10
-0.074451619407383
 20
-0.0640000000000036
 42
0.4142135623730951
 10
-0.0594516194073824
 20
-0.0790000000000042
 10
0.0016196056094424
 20
-0.0790000000000006
 42
0.4931454260313336
  0
ARC
  5
C90E73C08D2414AD
330
C90E73C08D2414AB
100
AcDbEntity
  8
THIN
 48
0.25
100
AcDbCircle
 10
-0.5056558888191787
 20
0.5071541443119463
 30
0.0
 40
0.0710669616789257
100
AcDbArc
 50
64.84861452616449
 51
295.1513854738503
  0
LINE
  5
C90E73C08D2414CB
330
C90E73C08D2414AB
100
AcDbEntity
  8
THIN
 48
0.25
100
AcDbLine
 10
-0.5392428093388788
 20
0.8413241273155103
 30
0.0
 11
-0.546820986209569
 21
0.9043903074238626
 31
0.0
  0
ARC
  5
C90E73C08D2414CC
330
C90E73C08D2414AB
100
AcDbEntity
  8
THIN
 48
0.25
100
AcDbCircle
 10
-0.5617138526709887
 20
0.9026007464267891
 30
0.0
 40
0.0149999999999975
100
AcDbArc
 50
6.851939992038833
 51
181.3200600495578
  0
LINE
  5
C90E73C08D2414CD
330
C90E73C08D2414AB
100
AcDbEntity
  8
THIN
 48
0.25
100
AcDbLine
 10
-0.5767098717444511
 20
0.9022551860872097
 30
0.0
 11
-0.575309121163738
 21
0.8414678791547443
 31
0.0
  0
LINE
  5
C90E73C08D2414CE
330
C90E73C08D2414AB
100
AcDbEntity
  8
THIN
 48
0.25
100
AcDbLine
 10
-0.4754516194073794
 20
0.7219999999999942
 30
0.0
 11
-0.4754516194073794
 21
0.7819999999999965
 31
0.0
  0
LINE
  5
C90E73C08D2414CF
330
C90E73C08D2414AB
100
AcDbEntity
  8
THIN
 48
0.25
100
AcDbLine
 10
-0.4754516194073794
 20
0.7819999999999965
 30
0.0
 11
-0.5140817293702047
 21
0.8036929882983272
 31
0.0
  0
LINE
  5
C90E73C08D2414D0
330
C90E73C08D2414AB
100
AcDbEntity
  8
THIN
 48
0.25
100
AcDbLine
 10
-0.5324765783244727
 20
0.7617050836319894
 30
0.0
 11
-0.4754516194073794
 21
0.7219999999999942
 31
0.0
  0
ARC
  5
C90E73C08D2414D1
330
C90E73C08D2414AB
100
AcDbEntity
  8
THIN
 48
0.25
100
AcDbCircle
 10
-0.4895999211341377
 20
0.8472893306390842
 30
0.0
 40
0.05
100
AcDbArc
 50
186.8519399920328
 51
240.6833294555319
  0
ARC
  5
C90E73C08D2414D2
330
C90E73C08D2414AB
100
AcDbEntity
  8
THIN
 48
0.25
100
AcDbCircle
 10
-0.4753356606739745
 20
0.8437716147519225
 30
0.0
 40
0.1
100
AcDbArc
 50
181.3200600495471
 51
235.1514495130464
  0
ENDBLK
  5
C90E73C08D2414B0
330
C90E73C08D2414AB
100
AcDbEntity
  8
0
100
AcDbBlockEnd
  0
BLOCK
  5
C90E73C08D241526
330
C90E73C08D241525
100
AcDbEntity
  8
0
100
AcDbBlockBegin
  2
*D4
 70
     1
 10
0.0
 20
0.0
 30
0.0
  3
*D4
  1

  0
LINE
  5
C90E73C08D241584
330
C90E73C08D241525
100
AcDbEntity
  8
THIN
 62
     9
440
 16777216
370
    -2
100
AcDbLine
 10
4.914357979649407
 20
2.556255541725609
 30
0.0
 11
4.914357979649407
 21
2.051309939354001
 31
0.0
  0
LINE
  5
C90E73C08D241585
330
C90E73C08D241525
100
AcDbEntity
  8
THIN
 62
     9
440
 16777216
370
    -2
100
AcDbLine
 10
6.542357979649408
 20
2.827255541725611
 30
0.0
 11
6.542357979649408
 21
2.051309939354001
 31
0.0
  0
LINE
  5
C90E73C08D241586
330
C90E73C08D241525
100
AcDbEntity
  8
THIN
 62
   112
440
 16777216
370
    -2
100
AcDbLine
 10
4.664357979649407
 20
2.211309939354001
 30
0.0
 11
4.414357979649407
 21
2.211309939354001
 31
0.0
  0
LINE
  5
C90E73C08D241587
330
C90E73C08D241525
100
AcDbEntity
  8
THIN
 62
   112
440
 16777216
370
    -2
100
AcDbLine
 10
6.792357979649408
 20
2.211309939354001
 30
0.0
 11
7.042357979649408
 21
2.211309939354001
 31
0.0
  0
SOLID
  5
C90E73C08D241588
330
C90E73C08D241525
100
AcDbEntity
  8
THIN
 62
   112
440
 16777216
100
AcDbTrace
 10
4.664357979649407
 20
2.252976606020669
 30
0.0
 11
4.664357979649407
 21
2.169643272687336
 31
0.0
 12
4.914357979649407
 22
2.211309939354001
 32
0.0
 13
4.914357979649407
 23
2.211309939354001
 33
0.0
  0
SOLID
  5
C90E73C08D241589
330
C90E73C08D241525
100
AcDbEntity
  8
THIN
 62
   112
440
 16777216
100
AcDbTrace
 10
6.792357979649408
 20
2.252976606020669
 30
0.0
 11
6.792357979649408
 21
2.169643272687336
 31
0.0
 12
6.542357979649408
 22
2.211309939354001
 32
0.0
 13
6.542357979649408
 23
2.211309939354001
 33
0.0
  0
MTEXT
  5
C90E73C08D24158A
330
C90E73C08D241525
100
AcDbEntity
  8
THIN
440
 16777216
100
AcDbMText
 10
5.728357979649406
 20
2.211309939354001
 30
0.0
 40
0.16
 41
0.0
 46
0.0
 71
     5
 72
     1
  1
\A1;1 5/8
  7
ROMANS
 73
     1
 44
1.0
  0
POINT
  5
C90E73C08D24158B
330
C90E73C08D241525
100
AcDbEntity
  8
DEFPOINTS
 62
     0
440
 16777216
100
AcDbPoint
 10
4.914357979649407
 20
2.646255541725609
 30
0.0
  0
POINT
  5
C90E73C08D24158C
330
C90E73C08D241525
100
AcDbEntity
  8
DEFPOINTS
 62
     0
440
 16777216
100
AcDbPoint
 10
6.542357979649408
 20
2.91725554172561
 30
0.0
  0
POINT
  5
C90E73C08D24158D
330
C90E73C08D241525
100
AcDbEntity
  8
DEFPOINTS
 62
     0
440
 16777216
100
AcDbPoint
 10
6.542357979649408
 20
2.211309939354001
 30
0.0
  0
ENDBLK
  5
C90E73C08D241527
330
C90E73C08D241525
100
AcDbEntity
  8
0
100
AcDbBlockEnd
  0
BLOCK
  5
C90E73C08D241534
330
C90E73C08D241533
100
AcDbEntity
  8
0
100
AcDbBlockBegin
  2
*D5
 70
     1
 10
0.0
 20
0.0
 30
0.0
  3
*D5
  1

  0
LINE
  5
C90E73C08D24158E
330
C90E73C08D241533
100
AcDbEntity
  8
THIN
 62
     9
440
 16777216
370
    -2
100
AcDbLine
 10
3.619357979649438
 20
4.888255541725545
 30
0.0
 11
3.128882586442752
 21
4.888255541725545
 31
0.0
  0
LINE
  5
C90E73C08D24158F
330
C90E73C08D241533
100
AcDbEntity
  8
THIN
 62
     9
440
 16777216
370
    -2
100
AcDbLine
 10
4.839357979649422
 20
2.631255541725602
 30
0.0
 11
3.128882586442752
 21
2.631255541725602
 31
0.0
  0
LINE
  5
C90E73C08D241590
330
C90E73C08D241533
100
AcDbEntity
  8
THIN
 62
   112
440
 16777216
370
    -2
100
AcDbLine
 10
3.288882586442753
 20
4.638255541725545
 30
0.0
 11
3.288882586442753
 21
4.061660303630334
 31
0.0
  0
LINE
  5
C90E73C08D241591
330
C90E73C08D241533
100
AcDbEntity
  8
THIN
 62
   112
440
 16777216
370
    -2
100
AcDbLine
 10
3.288882586442751
 20
2.881255541725602
 30
0.0
 11
3.288882586442753
 21
3.457850779820811
 31
0.0
  0
SOLID
  5
C90E73C08D241592
330
C90E73C08D241533
100
AcDbEntity
  8
THIN
 62
   112
440
 16777216
100
AcDbTrace
 10
3.247215919776086
 20
4.638255541725545
 30
0.0
 11
3.330549253109418
 21
4.638255541725545
 31
0.0
 12
3.288882586442753
 22
4.888255541725545
 32
0.0
 13
3.288882586442753
 23
4.888255541725545
 33
0.0
  0
SOLID
  5
C90E73C08D241593
330
C90E73C08D241533
100
AcDbEntity
  8
THIN
 62
   112
440
 16777216
100
AcDbTrace
 10
3.247215919776086
 20
2.881255541725602
 30
0.0
 11
3.330549253109418
 21
2.881255541725602
 31
0.0
 12
3.288882586442751
 22
2.631255541725602
 32
0.0
 13
3.288882586442751
 23
2.631255541725602
 33
0.0
  0
MTEXT
  5
C90E73C08D241594
330
C90E73C08D241533
100
AcDbEntity
  8
THIN
440
 16777216
100
AcDbMText
 10
3.288882586442751
 20
3.759755541725573
 30
0.0
 40
0.16
 41
0.0
 46
0.0
 71
     5
 72
     1
  1
\A1;2 1/4
  7
ROMANS
 73
     1
 44
1.0
  0
POINT
  5
C90E73C08D241595
330
C90E73C08D241533
100
AcDbEntity
  8
DEFPOINTS
 62
     0
440
 16777216
100
AcDbPoint
 10
3.709357979649438
 20
4.888255541725545
 30
0.0
  0
POINT
  5
C90E73C08D241596
330
C90E73C08D241533
100
AcDbEntity
  8
DEFPOINTS
 62
     0
440
 16777216
100
AcDbPoint
 10
4.929357979649422
 20
2.631255541725602
 30
0.0
  0
POINT
  5
C90E73C08D241597
330
C90E73C08D241533
100
AcDbEntity
  8
DEFPOINTS
 62
     0
440
 16777216
100
AcDbPoint
 10
3.288882586442751
 20
2.631255541725602
 30
0.0
  0
ENDBLK
  5
C90E73C08D241535
330
C90E73C08D241533
100
AcDbEntity
  8
0
100
AcDbBlockEnd
  0
BLOCK
  5
C90E73C08D241542
330
C90E73C08D241541
100
AcDbEntity
  8
0
100
AcDbBlockBegin
  2
*D6
 70
     1
 10
0.0
 20
0.0
 30
0.0
  3
*D6
  1

  0
LINE
  5
C90E73C08D241598
330
C90E73C08D241541
100
AcDbEntity
  8
THIN
 62
     9
440
 16777216
370
    -2
100
AcDbLine
 10
4.839357979649422
 20
2.631255541725602
 30
0.0
 11
2.289466001543355
 21
2.631255541725602
 31
0.0
  0
LINE
  5
C90E73C08D241599
330
C90E73C08D241541
100
AcDbEntity
  8
THIN
 62
     9
440
 16777216
370
    -2
100
AcDbLine
 10
4.638432389816571
 20
5.881226957271896
 30
0.0
 11
2.289466001543355
 21
5.881226957271896
 31
0.0
  0
LINE
  5
C90E73C08D24159A
330
C90E73C08D241541
100
AcDbEntity
  8
THIN
 62
   112
440
 16777216
370
    -2
100
AcDbLine
 10
2.449466001543355
 20
2.881255541725602
 30
0.0
 11
2.449466001543355
 21
3.954336487593987
 31
0.0
  0
LINE
  5
C90E73C08D24159B
330
C90E73C08D241541
100
AcDbEntity
  8
THIN
 62
   112
440
 16777216
370
    -2
100
AcDbLine
 10
2.449466001543357
 20
5.631226957271896
 30
0.0
 11
2.449466001543355
 21
4.558146011403509
 31
0.0
  0
SOLID
  5
C90E73C08D24159C
330
C90E73C08D241541
100
AcDbEntity
  8
THIN
 62
   112
440
 16777216
100
AcDbTrace
 10
2.407799334876688
 20
2.881255541725602
 30
0.0
 11
2.491132668210021
 21
2.881255541725602
 31
0.0
 12
2.449466001543355
 22
2.631255541725602
 32
0.0
 13
2.449466001543355
 23
2.631255541725602
 33
0.0
  0
SOLID
  5
C90E73C08D24159D
330
C90E73C08D241541
100
AcDbEntity
  8
THIN
 62
   112
440
 16777216
100
AcDbTrace
 10
2.407799334876689
 20
5.631226957271896
 30
0.0
 11
2.491132668210023
 21
5.631226957271896
 31
0.0
 12
2.449466001543357
 22
5.881226957271896
 32
0.0
 13
2.449466001543357
 23
5.881226957271896
 33
0.0
  0
MTEXT
  5
C90E73C08D24159E
330
C90E73C08D241541
100
AcDbEntity
  8
THIN
440
 16777216
100
AcDbMText
 10
2.449466001543355
 20
4.256241249498748
 30
0.0
 40
0.16
 41
0.0
 46
0.0
 71
     5
 72
     1
  1
\A1;3 1/4
  7
ROMANS
 73
     1
 44
1.0
  0
POINT
  5
C90E73C08D24159F
330
C90E73C08D241541
100
AcDbEntity
  8
DEFPOINTS
 62
     0
440
 16777216
100
AcDbPoint
 10
4.929357979649422
 20
2.631255541725602
 30
0.0
  0
POINT
  5
C90E73C08D2415A0
330
C90E73C08D241541
100
AcDbEntity
  8
DEFPOINTS
 62
     0
440
 16777216
100
AcDbPoint
 10
4.728432389816571
 20
5.881226957271896
 30
0.0
  0
POINT
  5
C90E73C08D2415A1
330
C90E73C08D241541
100
AcDbEntity
  8
DEFPOINTS
 62
     0
440
 16777216
100
AcDbPoint
 10
2.449466001543357
 20
5.881226957271896
 30
0.0
  0
ENDBLK
  5
C90E73C08D241543
330
C90E73C08D241541
100
AcDbEntity
  8
0
100
AcDbBlockEnd
  0
BLOCK
  5
C90E73C08D241552
330
C90E73C08D241551
100
AcDbEntity
  8
0
100
AcDbBlockBegin
  2
*D7
 70
     1
 10
0.0
 20
0.0
 30
0.0
  3
*D7
  1

  0
LINE
  5
C90E73C08D2415A2
330
C90E73C08D241551
100
AcDbEntity
  8
THIN
 62
     9
440
 16777216
370
    -2
100
AcDbLine
 10
13.17435797964932
 20
5.781255541725617
 30
0.0
 11
14.92924981189674
 21
5.781255541725617
 31
0.0
  0
LINE
  5
C90E73C08D2415A3
330
C90E73C08D241551
100
AcDbEntity
  8
THIN
 62
     9
440
 16777216
370
    -2
100
AcDbLine
 10
14.2093579796493
 20
4.968255541725556
 30
0.0
 11
14.92924981189674
 21
4.968255541725556
 31
0.0
  0
LINE
  5
C90E73C08D2415A4
330
C90E73C08D241551
100
AcDbEntity
  8
THIN
 62
   112
440
 16777216
370
    -2
100
AcDbLine
 10
14.76924981189674
 20
6.031255541725617
 30
0.0
 11
14.76924981189674
 21
6.281255541725617
 31
0.0
  0
LINE
  5
C90E73C08D2415A5
330
C90E73C08D241551
100
AcDbEntity
  8
THIN
 62
   112
440
 16777216
370
    -2
100
AcDbLine
 10
14.76924981189674
 20
4.718255541725556
 30
0.0
 11
14.76924981189674
 21
4.468255541725556
 31
0.0
  0
SOLID
  5
C90E73C08D2415A6
330
C90E73C08D241551
100
AcDbEntity
  8
THIN
 62
   112
440
 16777216
100
AcDbTrace
 10
14.72758314523007
 20
6.031255541725617
 30
0.0
 11
14.81091647856341
 21
6.031255541725617
 31
0.0
 12
14.76924981189674
 22
5.781255541725617
 32
0.0
 13
14.76924981189674
 23
5.781255541725617
 33
0.0
  0
SOLID
  5
C90E73C08D2415A7
330
C90E73C08D241551
100
AcDbEntity
  8
THIN
 62
   112
440
 16777216
100
AcDbTrace
 10
14.72758314523007
 20
4.718255541725556
 30
0.0
 11
14.81091647856341
 21
4.718255541725556
 31
0.0
 12
14.76924981189674
 22
4.968255541725556
 32
0.0
 13
14.76924981189674
 23
4.968255541725556
 33
0.0
  0
MTEXT
  5
C90E73C08D2415A8
330
C90E73C08D241551
100
AcDbEntity
  8
THIN
440
 16777216
100
AcDbMText
 10
14.76924981189674
 20
5.37475554172559
 30
0.0
 40
0.16
 41
0.0
 46
0.0
 71
     5
 72
     1
  1
\A1;13/16
  7
ROMANS
 73
     1
 44
1.0
  0
POINT
  5
C90E73C08D2415A9
330
C90E73C08D241551
100
AcDbEntity
  8
DEFPOINTS
 62
     0
440
 16777216
100
AcDbPoint
 10
13.08435797964932
 20
5.781255541725617
 30
0.0
  0
POINT
  5
C90E73C08D2415AA
330
C90E73C08D241551
100
AcDbEntity
  8
DEFPOINTS
 62
     0
440
 16777216
100
AcDbPoint
 10
14.1193579796493
 20
4.968255541725556
 30
0.0
  0
POINT
  5
C90E73C08D2415AB
330
C90E73C08D241551
100
AcDbEntity
  8
DEFPOINTS
 62
     0
440
 16777216
100
AcDbPoint
 10
14.76924981189674
 20
4.968255541725556
 30
0.0
  0
ENDBLK
  5
C90E73C08D241553
330
C90E73C08D241551
100
AcDbEntity
  8
0
100
AcDbBlockEnd
  0
BLOCK
  5
C90E73C08D24156A
330
C90E73C08D241569
100
AcDbEntity
  8
0
100
AcDbBlockBegin
  2
*D8
 70
     1
 10
0.0
 20
0.0
 30
0.0
  3
*D8
  1

  0
LINE
  5
C90E73C08D2415AC
330
C90E73C08D241569
100
AcDbEntity
  8
THIN
 62
     9
440
 16777216
370
    -2
100
AcDbLine
 10
12.55235797964934
 20
5.858255541725553
 30
0.0
 11
12.55235797964934
 21
6.713978996401624
 31
0.0
  0
LINE
  5
C90E73C08D2415AD
330
C90E73C08D241569
100
AcDbEntity
  8
THIN
 62
     9
440
 16777216
370
    -2
100
AcDbLine
 10
13.11435797964932
 20
5.956255541725551
 30
0.0
 11
13.11435797964932
 21
6.713978996401624
 31
0.0
  0
LINE
  5
C90E73C08D2415AE
330
C90E73C08D241569
100
AcDbEntity
  8
THIN
 62
   112
440
 16777216
370
    -2
100
AcDbLine
 10
12.30235797964933
 20
6.553978996401625
 30
0.0
 11
12.05235797964933
 21
6.553978996401625
 31
0.0
  0
LINE
  5
C90E73C08D2415AF
330
C90E73C08D241569
100
AcDbEntity
  8
THIN
 62
   112
440
 16777216
370
    -2
100
AcDbLine
 10
13.36435797964932
 20
6.553978996401625
 30
0.0
 11
13.61435797964932
 21
6.553978996401625
 31
0.0
  0
SOLID
  5
C90E73C08D2415B0
330
C90E73C08D241569
100
AcDbEntity
  8
THIN
 62
   112
440
 16777216
100
AcDbTrace
 10
12.30235797964933
 20
6.595645663068292
 30
0.0
 11
12.30235797964933
 21
6.512312329734957
 31
0.0
 12
12.55235797964934
 22
6.553978996401625
 32
0.0
 13
12.55235797964934
 23
6.553978996401625
 33
0.0
  0
SOLID
  5
C90E73C08D2415B1
330
C90E73C08D241569
100
AcDbEntity
  8
THIN
 62
   112
440
 16777216
100
AcDbTrace
 10
13.36435797964932
 20
6.595645663068292
 30
0.0
 11
13.36435797964932
 21
6.512312329734957
 31
0.0
 12
13.11435797964932
 22
6.553978996401625
 32
0.0
 13
13.11435797964932
 23
6.553978996401625
 33
0.0
  0
MTEXT
  5
C90E73C08D2415B2
330
C90E73C08D241569
100
AcDbEntity
  8
THIN
440
 16777216
100
AcDbMText
 10
14.08633856902314
 20
6.553978996401625
 30
0.0
 40
0.16
 41
0.0
 46
0.0
 71
     5
 72
     1
  1
\A1;9/16
  7
ROMANS
 73
     1
 44
1.0
  0
POINT
  5
C90E73C08D2415B3
330
C90E73C08D241569
100
AcDbEntity
  8
DEFPOINTS
 62
     0
440
 16777216
100
AcDbPoint
 10
12.55235797964934
 20
5.768255541725553
 30
0.0
  0
POINT
  5
C90E73C08D2415B4
330
C90E73C08D241569
100
AcDbEntity
  8
DEFPOINTS
 62
     0
440
 16777216
100
AcDbPoint
 10
13.11435797964932
 20
5.866255541725551
 30
0.0
  0
POINT
  5
C90E73C08D2415B5
330
C90E73C08D241569
100
AcDbEntity
  8
DEFPOINTS
 62
     0
440
 16777216
100
AcDbPoint
 10
13.11435797964932
 20
6.553978996401625
 30
0.0
  0
ENDBLK
  5
C90E73C08D24156B
330
C90E73C08D241569
100
AcDbEntity
  8
0
100
AcDbBlockEnd
  0
BLOCK
  5
C90E73C08D2415F4
330
C90E73C08D2415F3
100
AcDbEntity
  8
0
100
AcDbBlockBegin
  2
*D9
 70
     1
 10
0.0
 20
0.0
 30
0.0
  3
*D9
  1

  0
LINE
  5
C90E73C08D2415F6
330
C90E73C08D2415F3
100
AcDbEntity
  8
THIN
 62
     9
440
 16777216
370
    -2
100
AcDbLine
 10
2.715052947631614
 20
9.387041819030132
 30
0.0
 11
3.559808797583191
 21
9.387041819030132
 31
0.0
  0
LINE
  5
C90E73C08D2415F7
330
C90E73C08D2415F3
100
AcDbEntity
  8
THIN
 62
     9
440
 16777216
370
    -2
100
AcDbLine
 10
2.715052947631614
 20
8.142041819030142
 30
0.0
 11
3.55980879758319
 21
8.142041819030142
 31
0.0
  0
LINE
  5
C90E73C08D2415F8
330
C90E73C08D2415F3
100
AcDbEntity
  8
THIN
 62
   112
440
 16777216
370
    -2
100
AcDbLine
 10
3.399808797583191
 20
9.637041819030132
 30
0.0
 11
3.399808797583191
 21
9.887041819030132
 31
0.0
  0
LINE
  5
C90E73C08D2415F9
330
C90E73C08D2415F3
100
AcDbEntity
  8
THIN
 62
   112
440
 16777216
370
    -2
100
AcDbLine
 10
3.39980879758319
 20
7.892041819030143
 30
0.0
 11
3.39980879758319
 21
7.642041819030143
 31
0.0
  0
SOLID
  5
C90E73C08D2415FA
330
C90E73C08D2415F3
100
AcDbEntity
  8
THIN
 62
   112
440
 16777216
100
AcDbTrace
 10
3.358142130916523
 20
9.637041819030132
 30
0.0
 11
3.441475464249857
 21
9.637041819030132
 31
0.0
 12
3.399808797583191
 22
9.387041819030132
 32
0.0
 13
3.399808797583191
 23
9.387041819030132
 33
0.0
  0
SOLID
  5
C90E73C08D2415FB
330
C90E73C08D2415F3
100
AcDbEntity
  8
THIN
 62
   112
440
 16777216
100
AcDbTrace
 10
3.358142130916523
 20
7.892041819030143
 30
0.0
 11
3.441475464249857
 21
7.892041819030143
 31
0.0
 12
3.39980879758319
 22
8.142041819030142
 32
0.0
 13
3.39980879758319
 23
8.142041819030142
 33
0.0
  0
MTEXT
  5
C90E73C08D2415FC
330
C90E73C08D2415F3
100
AcDbEntity
  8
THIN
440
 16777216
100
AcDbMText
 10
3.399808797583188
 20
8.764541819030137
 30
0.0
 40
0.16
 41
0.0
 46
0.0
 71
     5
 72
     1
  1
\A1;1 1/4
  7
ROMANS
 73
     1
 44
1.0
  0
POINT
  5
C90E73C08D2415FD
330
C90E73C08D2415F3
100
AcDbEntity
  8
DEFPOINTS
 62
     0
440
 16777216
100
AcDbPoint
 10
2.625052947631615
 20
9.387041819030132
 30
0.0
  0
POINT
  5
C90E73C08D2415FE
330
C90E73C08D2415F3
100
AcDbEntity
  8
DEFPOINTS
 62
     0
440
 16777216
100
AcDbPoint
 10
2.625052947631614
 20
8.142041819030142
 30
0.0
  0
POINT
  5
C90E73C08D2415FF
330
C90E73C08D2415F3
100
AcDbEntity
  8
DEFPOINTS
 62
     0
440
 16777216
100
AcDbPoint
 10
3.39980879758319
 20
8.142041819030142
 30
0.0
  0
ENDBLK
  5
C90E73C08D2415F5
330
C90E73C08D2415F3
100
AcDbEntity
  8
0
100
AcDbBlockEnd
  0
BLOCK
  5
C90E73C08D241786
330
C90E73C08D241776
100
AcDbEntity
  8
0
100
AcDbBlockBegin
  2
A$C1C0E0B9C
 70
     0
 10
0.0
 20
0.0
 30
0.0
  3
A$C1C0E0B9C
  1

  0
LINE
  5
C90E73C08D241777
330
C90E73C08D241776
100
AcDbEntity
  8
XTHIN
100
AcDbLine
 10
0.115100033661875
 20
0.0310000157692656
 30
0.0
 11
0.0155000336618798
 21
0.0310000157692656
 31
0.0
  0
LINE
  5
C90E73C08D241778
330
C90E73C08D241776
100
AcDbEntity
  8
XTHIN
100
AcDbLine
 10
0.115100033661875
 20
0.0000000157692668
 30
0.0
 11
0.0155000336618798
 21
0.0000000157692668
 31
0.0
  0
ARC
  5
C90E73C08D241779
330
C90E73C08D241776
100
AcDbEntity
  8
XTHIN
100
AcDbCircle
 10
0.0155000336618798
 20
0.0155000157692662
 30
0.0
 40
0.0155000000000001
100
AcDbArc
 50
90.00000000000531
 51
270.0
  0
ARC
  5
C90E73C08D24177A
330
C90E73C08D241776
100
AcDbEntity
  8
XTHIN
100
AcDbCircle
 10
0.115100033661875
 20
0.0155000157692626
 30
0.0
 40
0.0155000000000001
100
AcDbArc
 50
270.0
 51
90.0
  0
LINE
  5
C90E73C08D24177B
330
C90E73C08D241776
100
AcDbEntity
  8
XTHIN
100
AcDbLine
 10
0.1103000336618791
 20
0.0240000157692642
 30
0.0
 11
0.1103000336618791
 21
0.003800015769265
 31
0.0
  0
LINE
  5
C90E73C08D24177C
330
C90E73C08D241776
100
AcDbEntity
  8
XTHIN
100
AcDbLine
 10
0.0203000336618757
 20
0.0240000157692642
 30
0.0
 11
0.0203000336618757
 21
0.003800015769265
 31
0.0
  0
LINE
  5
C90E73C08D24177D
330
C90E73C08D241776
100
AcDbEntity
  8
XTHIN
100
AcDbLine
 10
0.1103000336618791
 20
0.0240000157692642
 30
0.0
 11
0.0203000336618757
 21
0.0240000157692677
 31
0.0
  0
LINE
  5
C90E73C08D24177E
330
C90E73C08D241776
100
AcDbEntity
  8
XTHIN
100
AcDbLine
 10
0.1103000336618791
 20
0.003800015769265
 30
0.0
 11
0.0203000336618757
 21
0.003800015769265
 31
0.0
  0
LINE
  5
C90E73C08D24177F
330
C90E73C08D241776
100
AcDbEntity
  8
XTHIN
100
AcDbLine
 10
0.1103000336618791
 20
0.0208000157692645
 30
0.0
 11
0.0203000336618757
 21
0.0208000157692645
 31
0.0
  0
LINE
  5
C90E73C08D241780
330
C90E73C08D241776
100
AcDbEntity
  8
XTHIN
100
AcDbLine
 10
0.1103000336618791
 20
0.0170000157692627
 30
0.0
 11
0.0203000336618757
 21
0.0170000157692627
 31
0.0
  0
LINE
  5
C90E73C08D241781
330
C90E73C08D241776
100
AcDbEntity
  8
XTHIN
100
AcDbLine
 10
0.1103000336618791
 20
0.0150000157692674
 30
0.0
 11
0.0203000336618757
 21
0.0150000157692674
 31
0.0
  0
ARC
  5
C90E73C08D241782
330
C90E73C08D241776
100
AcDbEntity
  8
XTHIN
100
AcDbCircle
 10
0.0653000336618774
 20
0.003800015769265
 30
0.0
 40
0.005
100
AcDbArc
 50
0.0
 51
180.0
  0
LINE
  5
C90E73C08D241783
330
C90E73C08D241776
100
AcDbEntity
  8
XTHIN
100
AcDbLine
 10
0.0603000336618749
 20
0.003800015769265
 30
0.0
 11
0.07030003366188
 21
0.003800015769265
 31
0.0
  0
ENDBLK
  5
C90E73C08D241787
330
C90E73C08D241776
100
AcDbEntity
  8
0
100
AcDbBlockEnd
  0
ENDSEC
  0
SECTION
  2
ENTITIES
  0
LWPOLYLINE
  5
C70
330
C90E73C08D241001
100
AcDbEntity
  8
10
100
AcDbPolyline
 90
        6
 70
     1
 43
0.0
 10
11.98935797964936
 20
3.589017774989216
 42
-0.4142135623730951
 10
11.92435797964937
 20
3.524017774989213
 10
11.86435797964937
 20
3.524017774989213
 10
11.86435797964937
 20
4.524017774989214
 10
11.92435797964937
 20
4.524017774989214
 42
-0.4142135623730951
 10
11.98935797964936
 20
4.459017774989214
  0
LWPOLYLINE
  5
C78
330
C90E73C08D241001
100
AcDbEntity
  8
10
100
AcDbPolyline
 90
        6
 70
     1
 43
0.0
 10
5.839357979649371
 20
3.589017774989216
 42
0.4142135623730951
 10
5.904357979649372
 20
3.524017774989213
 10
5.964357979649371
 20
3.524017774989213
 10
5.964357979649371
 20
4.524017774989214
 10
5.904357979649372
 20
4.524017774989214
 42
0.4142135623730951
 10
5.839357979649371
 20
4.459017774989214
  0
LINE
  5
102E
330
C90E73C08D241001
100
AcDbEntity
  8
DIM
100
AcDbLine
 10
11.54686940059148
 20
11.06613672032257
 30
0.0
 11
11.54686940059148
 21
10.09866965042761
 31
0.0
  0
LINE
  5
102F
330
C90E73C08D241001
100
AcDbEntity
  8
DIM
100
AcDbLine
 10
10.27912451090664
 20
15.48725161525173
 30
0.0
 11
10.96322703660405
 21
14.80314908955432
 31
0.0
  0
CIRCLE
  5
1030
330
C90E73C08D241001
100
AcDbEntity
  8
DIM
100
AcDbCircle
 10
8.648375572832684
 20
12.24545353675441
 30
0.0
 40
0.24
  0
TEXT
  5
1031
330
C90E73C08D241001
100
AcDbEntity
  8
DIM
100
AcDbText
 10
8.581708906166017
 20
12.14545353675441
 30
0.0
 40
0.2
  1
3
 51
10.0
  7
SIMPLEX
 72
     1
 11
8.648375572832684
 21
12.24545353675441
 31
0.0
100
AcDbText
 73
     2
  0
CIRCLE
  5
1032
330
C90E73C08D241001
100
AcDbEntity
  8
DIM
100
AcDbCircle
 10
11.54686940059148
 20
11.30613672032257
 30
0.0
 40
0.24
  0
TEXT
  5
1033
330
C90E73C08D241001
100
AcDbEntity
  8
DIM
100
AcDbText
 10
11.48020273392481
 20
11.20613672032257
 30
0.0
 40
0.2
  1
2
 51
10.0
  7
SIMPLEX
 72
     1
 11
11.54686940059148
 21
11.30613672032257
 31
0.0
100
AcDbText
 73
     2
  0
CIRCLE
  5
1034
330
C90E73C08D241001
100
AcDbEntity
  8
DIM
100
AcDbCircle
 10
10.10941888342187
 20
15.65695724273649
 30
0.0
 40
0.24
  0
TEXT
  5
1035
330
C90E73C08D241001
100
AcDbEntity
  8
DIM
100
AcDbText
 10
10.05906945999866
 20
15.5512264435488
 30
0.0
 40
0.2
  1
1
 51
10.0
  7
SIMPLEX
 72
     1
 11
10.08287898380819
 21
15.6512264435488
 31
0.0
100
AcDbText
 73
     2
  0
LINE
  5
103A
330
C90E73C08D241001
100
AcDbEntity
  8
DIM
100
AcDbLine
 10
9.855842642727637
 20
12.24545353675441
 30
0.0
 11
8.888375572832686
 21
12.24545353675441
 31
0.0
  0
TEXT
  5
104B
330
C90E73C08D241001
100
AcDbEntity
  8
DIM
100
AcDbText
 10
5.157058546462735
 20
10.99032501733178
 30
0.0
 40
0.2
  1
2
 51
10.0
  7
SIMPLEX
 72
     1
 11
5.223725213129402
 21
11.09032501733178
 31
0.0
100
AcDbText
 73
     2
  0
CIRCLE
  5
104C
330
C90E73C08D241001
100
AcDbEntity
  8
DIM
100
AcDbCircle
 10
5.223725213129402
 20
11.09032501733178
 30
0.0
 40
0.24
  0
TEXT
  5
104D
330
C90E73C08D241001
100
AcDbEntity
  8
DIM
100
AcDbText
 10
5.337906271585387
 20
16.00362774560895
 30
0.0
 40
0.2
  1
1
 51
10.0
  7
SIMPLEX
 72
     1
 11
5.361715795394911
 21
16.10362774560895
 31
0.0
100
AcDbText
 73
     2
  0
CIRCLE
  5
104E
330
C90E73C08D241001
100
AcDbEntity
  8
DIM
100
AcDbCircle
 10
5.361715795394911
 20
16.10362774560895
 30
0.0
 40
0.24
  0
TEXT
  5
105B
330
C90E73C08D241001
100
AcDbEntity
  8
DIM
100
AcDbText
 10
6.733786136518529
 20
5.01127772668575
 30
0.0
 40
0.2
  1
3
 51
10.0
  7
SIMPLEX
 72
     1
 11
6.800452803185195
 21
5.11127772668575
 31
0.0
100
AcDbText
 73
     2
  0
CIRCLE
  5
105C
330
C90E73C08D241001
100
AcDbEntity
  8
DIM
100
AcDbCircle
 10
6.800452803185195
 20
5.11127772668575
 30
0.0
 40
0.24
  0
TEXT
  5
16B7
330
C90E73C08D241001
100
AcDbEntity
  8
ADCADD_FRZ
100
AcDbText
 10
0.5
 20
8.5
 30
0.0
 40
0.125
  1
TOOLBOX_DEFAULT_VALUES
100
AcDbText
1001
TB_S_MPD
1070
   100
1000
TOOLBOX
1070
   101
1000
TOOLBOX 12.0 TOOLBOX 12.0
1070
   102
1000
0
1070
   103
1000
ANSI-Fraction
1070
   199
1000
Converted
  0
TEXT
  5
16B8
330
C90E73C08D241001
100
AcDbEntity
  8
ADCADD_FRZ
100
AcDbText
 10
0.5
 20
8.25
 30
0.0
 40
0.125
  1
CBORE_DEFAULT_VALUES
100
AcDbText
1001
TB_S_MPD
1070
   100
1000
CBORE
1070
   101
1000
TOOLBOX 12.0 CBORE 1.0
1070
   102
1000
Near side
1070
   103
1000
ANSI-Fraction
1070
   104
1000
shcs
1070
   105
1000
<Current>
1070
   106
1000
HIDDEN
1070
   107
1000
CENTER
1070
   300
1040
0.125
1070
   108
1000
1
1070
   109
1000
1
1070
   301
1040
0.03
1070
   110
1000
1
1070
   302
1040
0.0
1070
   303
1040
0.0
1070
   113
1000
1
1070
   117
1000
1
1070
   199
1000
Converted
  0
TEXT
  5
16BB
330
C90E73C08D241001
100
AcDbEntity
  8
ADCADD_FRZ
100
AcDbText
 10
0.5
 20
7.25
 30
0.0
 40
0.125
  1
RECT_DEFAULT_VALUES
100
AcDbText
1001
TB_S_MPD
1070
   100
1000
RECT
1070
   101
1000
TOOLBOX 12.0 RECT 12.0
1070
   102
1000
0
1070
   103
1000
0
1070
   301
1040
0.0
1070
   105
1000
0
1070
   302
1040
0.0
1070
   104
1000
0
1070
   303
1040
0.0
1070
   304
1040
0.0
1070
   305
1040
0.0
1070
   306
1040
0.0
1070
   307
1040
0.0
  0
TEXT
  5
16BE
330
C90E73C08D241001
100
AcDbEntity
  8
ADCADD_FRZ
100
AcDbText
 10
0.5
 20
6.5
 30
0.0
 40
0.125
  1
CALC_DEFAULT_VALUES
100
AcDbText
1001
TB_S_MPD
1070
   100
1000
CALC
1070
   101
1000
TOOLBOX 12.0 CALC 12.0
1070
   102
1000
0
  0
TEXT
  5
16BF
330
C90E73C08D241001
100
AcDbEntity
  8
ADCADD_FRZ
100
AcDbText
 10
0.5
 20
6.25
 30
0.0
 40
0.125
  1
CSINK_DEFAULT_VALUES
100
AcDbText
1001
TB_S_MPD
1070
   100
1000
CSINK
1070
   101
1000
TOOLBOX 12.0 CSINK 1.0
1070
   102
1000
Near side
1070
   103
1000
ANSI-Fraction
1070
   104
1000
fhcs
1070
   105
1000
<Current>
1070
   106
1000
HIDDEN
1070
   107
1000
CENTER
1070
   300
1040
0.125
1070
   108
1000
1
1070
   109
1000
1
1070
   301
1040
0.03
1070
   110
1000
1
1070
   302
1040
0.0
1070
   303
1040
0.0
1070
   113
1000
1
1070
   117
1000
1
1070
   199
1000
Converted
  0
TEXT
  5
16C0
330
C90E73C08D241001
100
AcDbEntity
  8
ADCADD_FRZ
100
AcDbText
 10
0.5
 20
6.0
 30
0.0
 40
0.125
  1
HOLE_DEFAULT_VALUES
100
AcDbText
1001
TB_S_MPD
1070
   100
1000
HOLE
1070
   101
1000
TOOLBOX 12.0 HOLE 1.0
1070
   102
1000
Near side
1070
   103
1000
ANSI-Fraction
1070
   104
1000
hole
1070
   110
1000
1
1070
   116
1000
1
1070
   117
1000
1
1070
   310
1040
118.0
1070
   105
1000
<Current>
1070
   106
1000
HIDDEN
1070
   107
1000
CENTER
1070
   300
1040
0.125
1070
   113
1000
1
1070
   108
1000
1
1070
   109
1000
1
1070
   302
1040
0.0
1070
   303
1040
0.0
1070
   304
1040
0.0
1070
   305
1040
0.0
1070
   199
1000
Converted
  0
TEXT
  5
16C1
330
C90E73C08D241001
100
AcDbEntity
  8
ADCADD_FRZ
100
AcDbText
 10
0.5
 20
5.75
 30
0.0
 40
0.125
  1
PTAP_DEFAULT_VALUES
100
AcDbText
1001
TB_S_MPD
1070
   100
1000
PTAP
1070
   101
1000
TOOLBOX 12.0 PTAP 1.0
1070
   102
1000
Near side
1070
   103
1000
ANSI-Fraction
1070
   104
1000
ptap
1070
   116
1000
1
1070
   117
1000
1
1070
   310
1040
118.0
1070
   105
1000
<Current>
1070
   106
1000
HIDDEN
1070
   107
1000
CENTER
1070
   300
1040
0.125
1070
   113
1000
1
1070
   108
1000
1
1070
   109
1000
1
1070
   302
1040
0.0
1070
   303
1040
0.0
1070
   304
1040
0.0
1070
   305
1040
0.0
1070
   199
1000
Converted
  0
TEXT
  5
16C2
330
C90E73C08D241001
100
AcDbEntity
  8
ADCADD_FRZ
100
AcDbText
 10
0.5
 20
5.5
 30
0.0
 40
0.125
  1
TAP_DEFAULT_VALUES
100
AcDbText
1001
TB_S_MPD
1070
   100
1000
TAP
1070
   101
1000
TOOLBOX 12.0 TAP 1.0
1070
   102
1000
Near side
1070
   103
1000
ANSI-Fraction
1070
   104
1000
tap_
1070
   110
1000
Plug
1070
   116
1000
1
1070
   117
1000
1
1070
   310
1040
118.0
1070
   105
1000
<Current>
1070
   106
1000
HIDDEN
1070
   107
1000
CENTER
1070
   300
1040
0.125
1070
   113
1000
1
1070
   108
1000
1
1070
   109
1000
1
1070
   302
1040
0.0
1070
   303
1040
0.0
1070
   304
1040
0.0
1070
   305
1040
0.0
1070
   199
1000
Converted
  0
TEXT
  5
16C3
330
C90E73C08D241001
100
AcDbEntity
  8
ADCADD_FRZ
100
AcDbText
 10
0.5
 20
5.25
 30
0.0
 40
0.125
  1
HCOIL_DEFAULT_VALUES
100
AcDbText
1001
TB_S_MPD
1070
   100
1000
HCOIL
1070
   101
1000
TOOLBOX 12.0 HCOIL 1.0
1070
   102
1000
Near side
1070
   103
1000
ANSI-Fraction
1070
   104
1000
hc10
1070
   116
1000
1
1070
   119
1000
1
1070
   117
1000
1
1070
   118
1000
1
1070
   310
1040
118.0
1070
   105
1000
<Current>
1070
   106
1000
HIDDEN
1070
   107
1000
CENTER
1070
   300
1040
0.125
1070
   113
1000
1
1070
   108
1000
1
1070
   109
1000
1
1070
   302
1040
0.0
1070
   303
1040
0.0
1070
   304
1040
0.0
1070
   305
1040
120.0
1070
   199
1000
Converted
  0
TEXT
  5
16C4
330
C90E73C08D241001
100
AcDbEntity
  8
ADCADD_FRZ
100
AcDbText
 10
0.4695575471589253
 20
5.000842800147283
 30
0.0
 40
0.125
  1
BMAT_DEFAULT_VALUES
100
AcDbText
1001
TB_S_MPD
1070
   100
1000
BMAT
1070
   101
1000
TOOLBOX 12.0 BMAT 12.0
1070
   104
1000
Plain
1070
   300
1040
0.12
1070
   105
1000
0
1070
   301
1040
0.0
1070
   106
1000
DEFAULT
1070
   107
1000
TOOLBOX
1070
   302
1040
0.045
1070
   303
1040
0.02
1070
   108
1000
1
1070
   109
1000
1
1070
   110
1000
1
1070
   111
1000
1
1070
   199
1000
Converted
1070
   112
1000
0
  0
TEXT
  5
16C5
330
C90E73C08D241001
100
AcDbEntity
  8
ADCADD_FRZ
100
AcDbText
 10
0.4710021509630132
 20
4.758782586510267
 30
0.0
 40
0.125
  1
TOLERANCE_DEFAULT_VALUES
100
AcDbText
1001
TB_S_MPD
1070
   100
1000
TOLERANCE
1070
   101
1000
TOOLBOX 12.0 TOLERANCE 12.0
1070
   102
1000
(0.005 0.0 0.01 0.0 0.01 0.0 0.01 0.005)
1070
   103
1000
(0.005 0.0 0.01 0.0 0.01 0.005)
  0
TEXT
  5
16C6
330
C90E73C08D241001
100
AcDbEntity
  8
ADCADD_FRZ
100
AcDbText
 10
4.72175633421155
 20
7.75
 30
0.0
 40
0.125
  1
HARDWARE1_DEFAULT_VALUES
100
AcDbText
1001
TB_S_MPD
1070
   100
1000
HARDWARE1
1070
   101
1000
TOOLBOX 12.0 HARDWARE1 1.0
1070
   102
1000
Near side
1070
   103
1000
ANSI-Fraction
1070
   104
1000
shcs
1070
   105
1000
<Current>
1070
   106
1000
HIDDEN
1070
   107
1000
CENTER
1070
   300
1040
0.125
1070
   108
1000
1
1070
   109
1000
1
1070
   113
1000
1
1070
   114
1000
1
1070
   117
1000
1
1070
   118
1000
1
1070
   119
1000
Hex
1070
   199
1000
Converted
  0
TEXT
  5
16C7
330
C90E73C08D241001
100
AcDbEntity
  8
ADCADD_FRZ
100
AcDbText
 10
4.75
 20
8.5
 30
0.0
 40
0.125
  1
USERLIB_DEFAULT_VALUES
100
AcDbText
1001
TB_S_MPD
1070
   100
1000
USERLIB
1070
   101
1000
TOOLBOX 12.0 USERLIB 12.0
1070
   110
1000
1
1070
   111
1000
1
1070
   112
1000
1
1070
   113
1000
0
1070
   118
1000
1
1070
   114
1000
1
  0
TEXT
  5
16C8
330
C90E73C08D241001
100
AcDbEntity
  8
ADCADD_FRZ
100
AcDbText
 10
4.72175633421155
 20
8.239130433871542
 30
0.0
 40
0.125
  1
PTDIM_DEFAULT_VALUES
100
AcDbText
1001
TB_S_MPD
1070
   100
1000
PTDIM
1070
   101
1000
TOOLBOX 12.0 PTDIM 12.0
1070
   102
1000
(
1070
   103
1000
0
1070
   105
1000
PTDIM
1070
   301
1040
0.2
1070
   108
1000
4
1070
   109
1000
0
1070
   110
1000
1
1070
   199
1000
Converted
  0
TEXT
  5
16C9
330
C90E73C08D241001
100
AcDbEntity
  8
ADCADD_FRZ
100
AcDbText
 10
4.72175633421155
 20
8.0
 30
0.0
 40
0.125
  1
SLINE_DEFAULT_VALUES
100
AcDbText
1001
TB_S_MPD
1070
   100
1000
SLINE
1070
   101
1000
TOOLBOX 12.0 SLINE 12.0
1070
   102
1000
SECTION
1070
   301
1040
0.188
1070
   302
1040
0.188
1070
   303
1040
0.75
1070
   103
1000
BYLAYER
1070
   104
1000
BYLAYER
1070
   304
1040
0.0
1070
   199
1000
Converted
  0
TEXT
  5
16CA
330
C90E73C08D241001
100
AcDbEntity
  8
ADCADD_FRZ
100
AcDbText
 10
4.72175633421155
 20
7.5
 30
0.0
 40
0.125
  1
HARDWARE2_DEFAULT_VALUES
100
AcDbText
1001
TB_S_MPD
1070
   100
1000
HARDWARE2
1070
   101
1000
TOOLBOX 12.0 HARDWARE2 1.0
1070
   102
1000
Near side
1070
   103
1000
ANSI-Fraction
1070
   104
1000
hnr_
1070
   105
1000
<Current>
1070
   106
1000
HIDDEN
1070
   107
1000
CENTER
1070
   300
1040
0.125
1070
   108
1000
1
1070
   109
1000
1
1070
   113
1000
1
1070
   117
1000
1
1070
   118
1000
1
1070
   119
1000
Bearing
1070
   199
1000
Converted
  0
TEXT
  5
16CD
330
C90E73C08D241001
100
AcDbEntity
  8
ADCADD_FRZ
100
AcDbText
 10
4.72175633421155
 20
7.25
 30
0.0
 40
0.125
  1
HARDWARE3_DEFAULT_VALUES
100
AcDbText
1001
TB_S_MPD
1070
   100
1000
HARDWARE3
1070
   101
1000
TOOLBOX 12.0 HARDWARE3 1.0
1070
   102
1000
Near side
1070
   103
1000
ANSI-Fraction
1070
   104
1000
dpm_
1070
   105
1000
<Current>
1070
   106
1000
HIDDEN
1070
   107
1000
CENTER
1070
   300
1040
0.125
1070
   108
1000
1
1070
   109
1000
1
1070
   113
1000
1
1070
   117
1000
1
1070
   118
1000
1
1070
   119
1000
No options
1070
   199
1000
Converted
  0
TEXT
  5
16CE
330
C90E73C08D241001
100
AcDbEntity
  8
ADCADD_FRZ
100
AcDbText
 10
4.72175633421155
 20
7.0
 30
0.0
 40
0.125
  1
HARDWARE4_DEFAULT_VALUES
100
AcDbText
1001
TB_S_MPD
1070
   100
1000
HARDWARE4
1070
   101
1000
TOOLBOX 12.0 HARDWARE4 1.0
1070
   102
1000
Near side
1070
   103
1000
ANSI-Fraction
1070
   104
1000
ss2_
1070
   105
1000
<Current>
1070
   106
1000
HIDDEN
1070
   107
1000
CENTER
1070
   300
1040
0.125
1070
   108
1000
1
1070
   109
1000
1
1070
   113
1000
1
1070
   114
1000
1
1070
   117
1000
1
1070
   118
1000
1
1070
   119
1000
Hex
1070
   199
1000
Converted
  0
TEXT
  5
16CF
330
C90E73C08D241001
100
AcDbEntity
  8
ADCADD_FRZ
100
AcDbText
 10
4.72175633421155
 20
6.75
 30
0.0
 40
0.125
  1
HARDWARE5_DEFAULT_VALUES
100
AcDbText
1001
TB_S_MPD
1070
   100
1000
HARDWARE5
1070
   101
1000
TOOLBOX 12.0 HARDWARE5 1.0
1070
   102
1000
Near side
1070
   103
1000
ANSI-Fraction
1070
   104
1000
fw1_
1070
   105
1000
<Current>
1070
   106
1000
HIDDEN
1070
   107
1000
CENTER
1070
   300
1040
0.125
1070
   108
1000
1
1070
   109
1000
1
1070
   113
1000
1
1070
   117
1000
1
1070
   118
1000
1
1070
   119
1000
No options
1070
   199
1000
Converted
  0
TEXT
  5
16D0
330
C90E73C08D241001
100
AcDbEntity
  8
ADCADD_FRZ
100
AcDbText
 10
4.72175633421155
 20
6.5
 30
0.0
 40
0.125
  1
GEAR_DEFAULT_VALUES
100
AcDbText
1001
TB_S_MPD
1070
   100
1000
GEAR
1070
   101
1000
TOOLBOX 12.0 GEAR 12.0
1070
   103
1000
0
1070
   104
1000
0
1070
   105
1000
100
1070
   106
1000
6
1070
   300
1040
8.0
1070
   301
1040
14.5
1070
   107
1000
20000
  0
TEXT
  5
16D1
330
C90E73C08D241001
100
AcDbEntity
  8
ADCADD_FRZ
100
AcDbText
 10
4.72175633421155
 20
6.0
 30
0.0
 40
0.125
  1
CIRCAM_DEFAULT_VALUES
100
AcDbText
1001
TB_S_MPD
1070
   300
1040
1.0
1070
   100
1000
CIRCAM
1070
   101
1000
TOOLBOX 12.0 CIRCAM 12.0
1070
   103
1000
1
1070
   104
1000
1
1070
   105
1000
CT
1070
   106
1000
0
1070
   301
1040
1.0
1070
   302
1040
0.0005
  0
TEXT
  5
16D2
330
C90E73C08D241001
100
AcDbEntity
  8
ADCADD_FRZ
100
AcDbText
 10
4.72175633421155
 20
5.75
 30
0.0
 40
0.125
  1
LINCAM_DEFAULT_VALUES
100
AcDbText
1001
TB_S_MPD
1070
   300
1040
1.0
1070
   100
1000
LINCAM
1070
   101
1000
TOOLBOX 12.0 LINCAM 12.0
1070
   103
1000
1
1070
   104
1000
1
1070
   105
1000
LT
  0
TEXT
  5
16D4
330
C90E73C08D241001
100
AcDbEntity
  8
ADCADD_FRZ
100
AcDbText
 10
4.72175633421155
 20
6.25
 30
0.0
 40
0.125
  1
CAM_DEFAULT_VALUES
100
AcDbText
1001
TB_S_MPD
1070
   100
1000
CAM
1070
   101
1000
TOOLBOX 12.0 CAM 12.0
1070
   102
1000
0
  0
TEXT
  5
16D5
330
C90E73C08D241001
100
AcDbEntity
  8
ADCADD_FRZ
100
AcDbText
 10
4.72175633421155
 20
5.5
 30
0.0
 40
0.125
  1
THREAD_DEFAULT_VALUES
100
AcDbText
1001
TB_S_MPD
1070
   100
1000
THREAD
1070
   101
1000
TOOLBOX 12.0 THREAD 12.0
1070
   102
1000
0
1070
   103
1000
ANSI-Fraction
1070
   114
1000
1
  0
TEXT
  5
16D7
330
C90E73C08D241001
100
AcDbEntity
  8
ADCADD_FRZ
100
AcDbText
 10
0.5
 20
6.75
 30
0.0
 40
0.125
  1
VERTEX_DEFAULT_VALUES
100
AcDbText
1001
TB_S_MPD
1070
   100
1000
VERTEX
1070
   101
1000
TOOLBOX 12.0 VERTEX 12.0
1070
   109
1000
1
1070
   110
1000
4
1070
   111
1000
0
1070
   112
1000
1
1070
   113
1000
0
1070
   114
1000
1
1070
   115
1000
0
1070
   116
1000
1
1070
   199
1000
Converted
  0
TEXT
  5
16D8
330
C90E73C08D241001
100
AcDbEntity
  8
ADCADD_FRZ
100
AcDbText
 10
4.72175633421155
 20
5.250842800147283
 30
0.0
 40
0.125
  1
SFINISH_DEFAULT_VALUES
100
AcDbText
1001
TB_S_MPD
1070
   100
1000
SFINISH
1070
   101
1000
TOOLBOX 12.0 SFINISH 12.0
1070
   102
1000
0
1070
   301
1040
0.0
1070
   302
1040
0.0
1070
   303
1040
0.0
  0
TEXT
  5
16D9
330
C90E73C08D241001
100
AcDbEntity
  8
ADCADD_FRZ
100
AcDbText
 10
4.72175633421155
 20
5.008782586510267
 30
0.0
 40
0.125
  1
DDIM_DEFAULT_VALUES
100
AcDbText
1001
TB_S_MPD
1070
   100
1000
DDIM
1070
   101
1000
TOOLBOX 12.0 DDIM 12.0
1070
   104
1000
0
1070
   105
1000
0
1070
   106
1000
1
1070
   107
1000
0
1070
   108
1000
0
1070
   300
1040
4.0
1070
   109
1000
0
1070
   110
1000
1
1070
   301
1040
1.0
1070
   302
1040
0.0625
1070
   303
1040
0.0625
1070
   304
1040
0.25
1070
   305
1040
0.25
1070
   111
1000
1
1070
   112
1000
0
1070
   113
1000
0
1070
   114
1000
0
1070
   115
1000
DDIM
1070
   306
1040
0.125
1070
   307
1040
0.0625
1070
   116
1000
0
1070
   120
1000

1070
   121
1000

1070
   122
1000

1070
   123
1000
0
1070
   199
1000
Converted
  0
TEXT
  5
16DA
330
C90E73C08D241001
100
AcDbEntity
  8
ADCADD_FRZ
100
AcDbText
 10
0.5
 20
7.0
 30
0.0
 40
0.125
  1
SLOT_DEFAULT_VALUES
100
AcDbText
1001
TB_S_MPD
1070
   100
1000
SLOT
1070
   101
1000
TOOLBOX 12.0 SLOT 12.0
1070
   102
1000
Near side
1070
   120
1000
2
1070
   104
1000
0
1070
   116
1000
1
1070
   310
1040
0.0
1070
   306
1040
0.0
1070
   311
1040
0.0
1070
   308
1040
0.0
1070
   117
1000
1
1070
   105
1000
<Current>
1070
   106
1000
HIDDEN
1070
   107
1000
CENTER
1070
   300
1040
0.125
1070
   113
1000
1
1070
   108
1000
1
1070
   109
1000
1
1070
   199
1000
Converted
  0
TEXT
  5
16DC
330
C90E73C08D241001
100
AcDbEntity
  8
ADCADD_FRZ
100
AcDbText
 10
0.4405596981219384
 20
4.509625386657549
 30
0.0
 40
0.125
  1
KWAY_DEFAULT_VALUES
100
AcDbText
1001
TB_S_MPD
1070
   100
1000
KWAY
1070
   101
1000
TOOLBOX 12.0 KWAY 1.0
1070
   102
1000
Near side
1070
   103
1000
ANSI-Fraction
1070
   104
1000
kws_
1070
   117
1000
1
1070
   110
1000
0
1070
   105
1000
<Current>
1070
   106
1000
HIDDEN
1070
   107
1000
CENTER
1070
   300
1040
0.125
1070
   113
1000
1
1070
   108
1000
1
1070
   109
1000
1
1070
   302
1040
0.0
1070
   303
1040
0.0
1070
   304
1040
0.0
1070
   305
1040
0.0
1070
   199
1000
Converted
  0
TEXT
  5
16DD
330
C90E73C08D241001
100
AcDbEntity
  8
ADCADD_FRZ
100
AcDbText
 10
4.72175633421155
 20
4.759625386657549
 30
0.0
 40
0.125
  1
KSEAT_DEFAULT_VALUES
100
AcDbText
1001
TB_S_MPD
1070
   100
1000
KSEAT
1070
   101
1000
TOOLBOX 12.0 KSEAT 1.0
1070
   102
1000
Near end1
1070
   103
1000
ANSI-Fraction
1070
   104
1000
kws_
1070
   117
1000
1
1070
   105
1000
<Current>
1070
   106
1000
HIDDEN
1070
   107
1000
CENTER
1070
   300
1040
0.125
1070
   113
1000
1
1070
   108
1000
1
1070
   120
1000
2
1070
   121
1000
0
1070
   199
1000
Converted
  0
TEXT
  5
16DE
330
C90E73C08D241001
100
AcDbEntity
  8
ADCADD_FRZ
100
AcDbText
 10
0.5
 20
7.75
 30
0.0
 40
0.125
  1
HDIM_DEFAULT_VALUES
100
AcDbText
1001
TB_S_MPD
1070
   100
1000
HDIM
1070
   101
1000
TOOLBOX 12.0 HDIM 12.0
1070
   102
1000
0
1070
   105
1000
HDIM
1070
   106
1000
3
1070
   107
1000
0
1070
   108
1000
1
1070
   109
1000
1
1070
   110
1000
0
1070
   111
1000
0
1070
   199
1000
Converted
  0
TEXT
  5
16DF
330
C90E73C08D241001
100
AcDbEntity
  8
ADCADD_FRZ
100
AcDbText
 10
0.5
 20
7.5
 30
0.0
 40
0.125
  1
HCHART_DEFAULT_VALUES
100
AcDbText
1001
TB_S_MPD
1070
   100
1000
HCHART
1070
   101
1000
TOOLBOX 12.0 HCHART 12.0
1070
   102
1000
0
1070
   105
1000
0
1070
   300
1040
0.125
1070
   301
1040
0.0625
1070
   302
1040
45.0
1070
   303
1040
1.0
1070
   106
1000
4
1070
   107
1000
0
1070
   108
1000
1
1070
   109
1000
1
1070
   199
1000
Converted
  0
TEXT
  5
16E0
330
C90E73C08D241001
100
AcDbEntity
  8
ADCADD_FRZ
100
AcDbText
 10
4.72175633421155
 20
4.509625386657549
 30
0.0
 40
0.125
  1
ORINGGRV_DEFAULT_VALUES
100
AcDbText
1001
TB_S_MPD
1070
   100
1000
ORINGGRV
1070
   101
1000
TOOLBOX 12.0 ORINGGRV 12.0
1070
   301
1040
0.0
1070
   302
1040
0.0
1070
   303
1040
0.0
1070
   304
1040
0.0
1070
   305
1040
0.0
1070
   306
1040
0.0
1070
   307
1040
0.0
1070
   120
1000
1
1070
   102
1000
0
  0
TEXT
  5
16E1
330
C90E73C08D241001
100
AcDbEntity
  8
ADCADD_FRZ
100
AcDbText
 10
4.72175633421155
 20
4.259625386657549
 30
0.0
 40
0.125
  1
RRINGGRV_DEFAULT_VALUES
100
AcDbText
1001
TB_S_MPD
1070
   100
1000
RRINGGRV
1070
   101
1000
TOOLBOX 12.0 RRINGGRV 12.0
1070
   301
1040
0.0
1070
   302
1040
0.0
1070
   303
1040
0.0
1070
   304
1040
0.0
1070
   120
1000
1
1070
   102
1000
0
  0
TEXT
  5
16E2
330
C90E73C08D241001
100
AcDbEntity
  8
ADCADD_FRZ
100
AcDbText
 10
0.5
 20
8.0
 30
0.0
 40
0.125
  1
LAYMGR_DEFAULT_VALUES
100
AcDbText
1001
TB_S_MPD
1070
   100
1000
LAYMGR
1070
   101
1000
TOOLBOX 12.0 LAYMGR 12.0
1070
   150
1000
("BOM" "CONTINUOUS" "2" "1")
1070
   151
1000
("CENTER" "CENTER" "3" "1")
1070
   152
1000
("CHARTS" "CONTINUOUS" "3" "1")
1070
   153
1000
("CONSTRUCT" "CONTINUOUS" "2" "1")
1070
   154
1000
("DIMS" "CONTINUOUS" "3" "1")
1070
   155
1000
("HIDDEN" "HIDDEN" "1" "1")
1070
   156
1000
("HCHARTS" "CONTINUOUS" "3" "1")
1070
   157
1000
("DIMS" "CONTINUOUS" "3" "1")
1070
   158
1000
("OBJECT" "CONTINUOUS" "7" "1")
1070
   159
1000
("SECTION" "PHANTOM" "2" "1")
1070
   199
1000
Converted
  0
TEXT
  5
5B29
330
C90E73C08D241001
100
AcDbEntity
  8
ADCADD_FRZ
100
AcDbText
 10
0.4410000000000001
 20
3.759999999999998
 30
0.0
 40
0.125
  1
MODELER_DEFAULT_VALUES
100
AcDbText
1001
TB_S_MPD
1070
   100
1000
MODELER
1070
   101
1000
TOOLBOX 12.0 MODELER 1.0
1070
   102
1000
0
  0
TEXT
  5
5B2A
330
C90E73C08D241001
100
AcDbEntity
  8
ADCADD_FRZ
100
AcDbText
 10
0.4410000000000001
 20
4.259999999999998
 30
0.0
 40
0.125
  1
STEEL_DEFAULT_VALUES
100
AcDbText
1001
TB_S_MPD
1070
   100
1000
STEEL
1070
   101
1000
TOOLBOX 12.0 STEEL 1.0
1070
   102
1000
Section
1070
   103
1000
AISC
1070
   104
1000
C
1070
   105
1000
<Current>
1070
   106
1000
HIDDEN
1070
   116
1000
1
1070
   117
1000
1
1070
   301
1040
29000000.0
  0
TEXT
  5
5B2B
330
C90E73C08D241001
100
AcDbEntity
  8
ADCADD_FRZ
100
AcDbText
 10
0.4410000000000001
 20
4.009999999999998
 30
0.0
 40
0.125
  1
DETVIEW_DEFAULT_VALUES
100
AcDbText
1001
TB_S_MPD
1070
   100
1000
DETVIEW
1070
   101
1000
TOOLBOX 12.0 DETVIEW 12.0
1070
   301
1040
5.0
1070
   102
1000
A
1070
   302
1040
0.125
1070
   105
1000
TOOLBOX
1070
   106
1000
DETAIL {1} SCALE: {2}X
1070
   107
1000
SEE DETAIL {1}
  0
TEXT
  5
5B2C
330
C90E73C08D241001
100
AcDbEntity
  8
ADCADD_FRZ
100
AcDbText
 10
4.721999999999999
 20
4.009999999999998
 30
0.0
 40
0.125
  1
CYLPART_DEFAULT_VALUES
100
AcDbText
1001
TB_S_MPD
1070
   100
1000
CYLPART
1070
   101
1000
TOOLBOX 12.0 CYLPART 12.0
1070
   102
1000
0
1070
   103
1000
0
1070
   104
1000
0
1070
   105
1000
none
1070
   106
1000
d1d2
1070
   107
1000
chamfer
1070
   108
1000
fillet
1070
   109
1000
sharp
1070
   110
1000
1
1070
   301
1040
0.125
1070
   302
1040
0.125
1070
   303
1040
0.25
  0
LINE
  5
207A5C5C6F
330
C90E73C08D241001
100
AcDbEntity
  8
10
100
AcDbLine
 10
11.59863616274899
 20
4.461517774989218
 30
0.0
 11
11.63426141623403
 21
4.46151777498922
 31
0.0
  0
LINE
  5
207A5C5C72
330
C90E73C08D241001
100
AcDbEntity
  8
10
100
AcDbLine
 10
11.29774492849699
 20
4.461517774989218
 30
0.0
 11
11.33337018198204
 21
4.46151777498922
 31
0.0
  0
LINE
  5
207A5C5E31
330
C90E73C08D241001
100
AcDbEntity
  8
THIN
100
AcDbLine
 10
11.77060797964936
 20
4.336517774989216
 30
0.0
 11
11.77060797964936
 21
3.711517774989213
 31
0.0
  0
LINE
  5
207A5C5E32
330
C90E73C08D241001
100
AcDbEntity
  8
THIN
100
AcDbLine
 10
11.77060797964936
 20
3.711517774989213
 30
0.0
 11
11.35460797964936
 21
3.711517774989216
 31
0.0
  0
LINE
  5
207A5C5E33
330
C90E73C08D241001
100
AcDbEntity
  8
THIN
100
AcDbLine
 10
11.77060797964936
 20
4.336517774989216
 30
0.0
 11
11.35460797964936
 21
4.336517774989218
 31
0.0
  0
LINE
  5
207A5C5E40
330
C90E73C08D241001
100
AcDbEntity
  8
THIN
100
AcDbLine
 10
6.058107979649371
 20
4.336517774989216
 30
0.0
 11
6.474107979649372
 21
4.336517774989218
 31
0.0
  0
LINE
  5
207A5C5E41
330
C90E73C08D241001
100
AcDbEntity
  8
THIN
100
AcDbLine
 10
6.058107979649375
 20
3.711517774989213
 30
0.0
 11
6.474107979649372
 21
3.711517774989216
 31
0.0
  0
LINE
  5
207A5C5E42
330
C90E73C08D241001
100
AcDbEntity
  8
THIN
100
AcDbLine
 10
6.058107979649371
 20
4.336517774989216
 30
0.0
 11
6.058107979649375
 21
3.711517774989213
 31
0.0
  0
LINE
  5
207A5C5E5C
330
C90E73C08D241001
100
AcDbEntity
  8
CYAN
100
AcDbLine
 10
6.039357979649372
 20
4.336517774989218
 30
0.0
 11
6.039357979649369
 21
4.461517774989217
 31
0.0
  0
LWPOLYLINE
  5
207A5C5E5D
330
C90E73C08D241001
100
AcDbEntity
  8
CYAN
100
AcDbPolyline
 90
        2
 70
     0
 43
0.0
 10
9.117913334876536
 20
4.336517774989218
 10
6.039357979649369
 20
4.336517774989218
  0
LINE
  5
207A5C5E61
330
C90E73C08D241001
100
AcDbEntity
  8
CYAN
100
AcDbLine
 10
9.191933299415136
 20
3.711517774989218
 30
0.0
 11
11.78935797964937
 21
3.711517774989213
 31
0.0
  0
LINE
  5
207A5C5E62
330
C90E73C08D241001
100
AcDbEntity
  8
CYAN
100
AcDbLine
 10
9.185785492636492
 20
4.336517774989218
 30
0.0
 11
11.78935797964937
 21
4.336517774989218
 31
0.0
  0
LINE
  5
207A5C5E63
330
C90E73C08D241001
100
AcDbEntity
  8
CYAN
100
AcDbLine
 10
11.78935797964937
 20
4.461517774989217
 30
0.0
 11
11.78935797964936
 21
4.336517774989216
 31
0.0
  0
LINE
  5
207A5C5E64
330
C90E73C08D241001
100
AcDbEntity
  8
CYAN
100
AcDbLine
 10
9.201134855046738
 20
4.461517774989217
 30
0.0
 11
11.78935797964937
 21
4.461517774989217
 31
0.0
  0
LINE
  5
207A5C5E65
330
C90E73C08D241001
100
AcDbEntity
  8
CYAN
100
AcDbLine
 10
11.78935797964937
 20
3.586517774989213
 30
0.0
 11
11.78935797964936
 21
3.711517774989212
 31
0.0
  0
LINE
  5
207A5C5E66
330
C90E73C08D241001
100
AcDbEntity
  8
CYAN
100
AcDbLine
 10
9.177431968077275
 20
3.58651777498922
 30
0.0
 11
11.78935797964937
 21
3.586517774989213
 31
0.0
  0
LINE
  5
207A5C5E67
330
C90E73C08D241001
100
AcDbEntity
  8
CYAN
100
AcDbLine
 10
9.122894235681126
 20
3.71151777498922
 30
0.0
 11
6.039357979649369
 21
3.711517774989213
 31
0.0
  0
LINE
  5
207A5C5E68
330
C90E73C08D241001
100
AcDbEntity
  8
CYAN
100
AcDbLine
 10
6.039357979649369
 20
3.586517774989213
 30
0.0
 11
6.039357979649367
 21
3.711517774989213
 31
0.0
  0
LINE
  5
207A5C5E69
330
C90E73C08D241001
100
AcDbEntity
  8
CYAN
100
AcDbLine
 10
9.108392904343267
 20
3.58651777498922
 30
0.0
 11
6.039357979649369
 21
3.586517774989213
 31
0.0
  0
LWPOLYLINE
  5
207A5C5E6A
330
C90E73C08D241001
100
AcDbEntity
  8
THIN
100
AcDbPolyline
 90
        4
 70
     0
 43
0.0
 10
9.088206783759092
 20
3.412515470357038
 10
9.151904855062543
 20
3.961586360982471
 10
9.057532991948141
 20
3.844800746989966
 10
9.14603717445439
 20
4.565548783136217
  0
LWPOLYLINE
  5
207A5C5E70
330
C90E73C08D241001
100
AcDbEntity
  8
THIN
100
AcDbPolyline
 90
        4
 70
     0
 43
0.0
 10
9.157283562286679
 20
3.412840568038578
 10
9.240898010952806
 20
4.133588604184827
 10
9.146526147838406
 20
4.016802990192323
 10
9.213955330028452
 20
4.56592337372892
  0
LWPOLYLINE
  5
207A5C5E76
102
{ACAD_REACTORS
330
C90E73C08D241801
102
}
330
C90E73C08D241001
100
AcDbEntity
  8
CYAN
100
AcDbPolyline
 90
        2
 70
     0
 43
0.0
 10
9.133262697286779
 20
4.461517774989217
 10
6.039357979649369
 20
4.461517774989217
  0
LINE
  5
C90E73C08D241304
330
C90E73C08D241001
100
AcDbEntity
  8
THIN
100
AcDbLine
 10
6.318107979649374
 20
3.711517774989212
 30
0.0
 11
6.318107979649374
 21
4.336517774989216
 31
0.0
  0
LINE
  5
C90E73C08D241305
330
C90E73C08D241001
100
AcDbEntity
  8
THIN
100
AcDbLine
 10
6.058107979649371
 20
3.711517774989212
 30
0.0
 11
6.058107979649378
 21
4.336517774989216
 31
0.0
  0
LINE
  5
C90E73C08D241306
330
C90E73C08D241001
100
AcDbEntity
  8
THIN
100
AcDbLine
 10
6.378107979649374
 20
3.711517774989212
 30
0.0
 11
6.378107979649374
 21
4.336517774989216
 31
0.0
  0
HATCH
  5
C90E73C08D241307
330
C90E73C08D241001
100
AcDbEntity
  8
THIN
100
AcDbHatch
 10
0.0
 20
0.0
 30
0.0
210
0.0
220
0.0
230
1.0
  2
SOLID
 70
     1
 71
     0
 91
        1
 92
        7
 72
     0
 73
     1
 93
        4
 10
6.318107979649375
 20
4.336517774989212
 10
6.318107979649371
 20
3.711517774989212
 10
6.058107979649371
 20
3.711517774989212
 10
6.058107979649378
 20
4.336517774989216
 97
        0
 75
     0
 76
     1
 47
0.0034578382305586
 98
        1
 10
6.213319594345432
 20
3.952786701512396
450
        0
451
        0
460
0.0
461
0.0
452
        0
462
0.0
453
        0
470

  0
HATCH
  5
C90E73C08D241308
330
C90E73C08D241001
100
AcDbEntity
  8
DIM
100
AcDbHatch
 10
0.0
 20
0.0
 30
0.0
210
0.0
220
0.0
230
1.0
  2
SOLID
 70
     1
 71
     0
 91
        1
 92
        7
 72
     0
 73
     1
 93
        4
 10
6.378107979649374
 20
4.336517774989212
 10
6.378107979649374
 20
3.711517774989212
 10
6.318107979649374
 20
3.711517774989212
 10
6.318107979649375
 20
4.336517774989212
 97
        0
 75
     0
 76
     1
 47
0.0034578382305586
 98
        1
 10
6.337801779548994
 20
4.053120575713609
450
        0
451
        0
460
0.0
461
0.0
452
        0
462
0.0
453
        0
470

  0
LINE
  5
C90E73C08D241309
330
C90E73C08D241001
100
AcDbEntity
  8
THIN
100
AcDbLine
 10
6.058107979649371
 20
3.711517774989212
 30
0.0
 11
6.058107979649378
 21
4.336517774989216
 31
0.0
  0
LINE
  5
C90E73C08D24130A
330
C90E73C08D241001
100
AcDbEntity
  8
THIN
100
AcDbLine
 10
11.51060797964936
 20
3.711517774989212
 30
0.0
 11
11.51060797964936
 21
4.336517774989216
 31
0.0
  0
LINE
  5
C90E73C08D24130B
330
C90E73C08D241001
100
AcDbEntity
  8
THIN
100
AcDbLine
 10
11.77060797964936
 20
3.711517774989212
 30
0.0
 11
11.77060797964936
 21
4.336517774989216
 31
0.0
  0
LINE
  5
C90E73C08D24130C
330
C90E73C08D241001
100
AcDbEntity
  8
THIN
100
AcDbLine
 10
11.45060797964936
 20
3.711517774989212
 30
0.0
 11
11.45060797964936
 21
4.336517774989216
 31
0.0
  0
HATCH
  5
C90E73C08D24130D
330
C90E73C08D241001
100
AcDbEntity
  8
THIN
100
AcDbHatch
 10
0.0
 20
0.0
 30
0.0
210
0.0
220
0.0
230
1.0
  2
SOLID
 70
     1
 71
     0
 91
        1
 92
        7
 72
     0
 73
     1
 93
        4
 10
11.51060797964936
 20
4.336517774989212
 10
11.51060797964936
 20
3.711517774989212
 10
11.77060797964936
 20
3.711517774989212
 10
11.77060797964936
 20
4.336517774989216
 97
        0
 75
     0
 76
     1
 47
0.0034578382305586
 98
        1
 10
11.6153963649533
 20
3.952786701512396
450
        0
451
        0
460
0.0
461
0.0
452
        0
462
0.0
453
        0
470

  0
HATCH
  5
C90E73C08D24130E
330
C90E73C08D241001
100
AcDbEntity
  8
DIM
100
AcDbHatch
 10
0.0
 20
0.0
 30
0.0
210
0.0
220
0.0
230
1.0
  2
SOLID
 70
     1
 71
     0
 91
        1
 92
        7
 72
     0
 73
     1
 93
        4
 10
11.45060797964936
 20
4.336517774989212
 10
11.45060797964936
 20
3.711517774989212
 10
11.51060797964936
 20
3.711517774989212
 10
11.51060797964936
 20
4.336517774989212
 97
        0
 75
     0
 76
     1
 47
0.0034578382305586
 98
        1
 10
11.49091417974974
 20
4.053120575713609
450
        0
451
        0
460
0.0
461
0.0
452
        0
462
0.0
453
        0
470

  0
LINE
  5
C90E73C08D24130F
330
C90E73C08D241001
100
AcDbEntity
  8
THIN
100
AcDbLine
 10
11.77060797964936
 20
3.711517774989212
 30
0.0
 11
11.77060797964936
 21
4.336517774989216
 31
0.0
  0
INSERT
  5
C90E73C08D24138C
330
C90E73C08D241001
100
AcDbEntity
  8
THIN
100
AcDbBlockReference
  2
AS extents block
 10
0.0
 20
0.0
 30
0.0
  0
INSERT
  5
C90E73C08D2413C4
330
C90E73C08D241001
100
AcDbEntity
  8
THIN
100
AcDbBlockReference
 66
     1
  2
ASDTNUM
 10
0.0
 20
0.0
 30
0.0
  0
ATTRIB
  5
C90E73C08D2413C5
330
C90E73C08D2413C4
100
AcDbEntity
  8
THIN
100
AcDbText
 10
1.645491964163355
 20
0.7077964671298738
 30
0.0
 40
0.18
  1
04/16
 51
10.0
  7
ROMANS
100
AcDbAttribute
280
     0
  2
REV:
 70
     0
280
     0
  0
ATTRIB
  5
C90E73C08D2413C7
330
C90E73C08D2413C4
100
AcDbEntity
  8
THIN
100
AcDbText
 10
14.18958977281909
 20
0.6570000000000002
 30
0.0
 40
0.25
  1
542
 51
10.0
  7
ROMANS
100
AcDbAttribute
280
     0
  2
AS#
 70
     0
280
     0
  0
SEQEND
  5
C90E73C08D2413C8
330
C90E73C08D2413C4
100
AcDbEntity
  8
THIN
  0
INSERT
  5
C90E73C08D2413F9
102
{ACAD_REACTORS
330
C90E73C08D241801
102
}
330
C90E73C08D241001
100
AcDbEntity
  8
THIN
100
AcDbBlockReference
  2
B3363 DS Integral J-fin frame
 10
4.914357979649407
 20
2.631255541725601
 30
0.0
 50
270.0
  0
INSERT
  5
C90E73C08D2414B1
330
C90E73C08D241001
100
AcDbEntity
  8
THIN
100
AcDbBlockReference
  2
B3369 DS Glazing Bead
 10
5.760357979649412
 20
3.009803922318228
 30
0.0
 50
270.0
  0
DIMENSION
  5
C90E73C08D241524
330
C90E73C08D241001
100
AcDbEntity
  8
THIN
100
AcDbDimension
280
     0
  2
*D4
 10
6.542357979649408
 20
2.211309939354001
 30
0.0
 11
5.728357979649406
 21
2.211309939354001
 31
0.0
 70
    32
 71
     5
 42
1.628000000000001
 73
     0
 74
     0
 75
     0
  3
ASWhite
100
AcDbAlignedDimension
 13
4.914357979649407
 23
2.646255541725609
 33
0.0
 14
6.542357979649408
 24
2.91725554172561
 34
0.0
100
AcDbRotatedDimension
  0
DIMENSION
  5
C90E73C08D241532
330
C90E73C08D241001
100
AcDbEntity
  8
THIN
100
AcDbDimension
280
     0
  2
*D5
 10
3.288882586442751
 20
2.631255541725602
 30
0.0
 11
3.288882586442751
 21
3.759755541725573
 31
0.0
 70
    32
 71
     5
 42
2.256999999999943
 73
     0
 74
     0
 75
     0
  3
ASWhite
100
AcDbAlignedDimension
 13
3.709357979649438
 23
4.888255541725545
 33
0.0
 14
4.929357979649422
 24
2.631255541725602
 34
0.0
 50
90.0
100
AcDbRotatedDimension
  0
DIMENSION
  5
C90E73C08D241540
330
C90E73C08D241001
100
AcDbEntity
  8
THIN
100
AcDbDimension
280
     0
  2
*D6
 10
2.449466001543357
 20
5.881226957271896
 30
0.0
 11
2.449466001543355
 21
4.256241249498748
 31
0.0
 70
    32
 71
     5
 42
3.249971415546293
 73
     0
 74
     0
 75
     0
  3
ASWhite
100
AcDbAlignedDimension
 13
4.929357979649422
 23
2.631255541725602
 33
0.0
 14
4.728432389816571
 24
5.881226957271896
 34
0.0
 50
90.0
100
AcDbRotatedDimension
  0
INSERT
  5
C90E73C08D24154E
330
C90E73C08D241001
100
AcDbEntity
  8
THIN
100
AcDbBlockReference
  2
B3363 DS Integral J-fin frame
 10
12.91435797964933
 20
2.631255541725601
 30
0.0
 41
-1.0
 50
90.0
  0
INSERT
  5
C90E73C08D24154F
330
C90E73C08D241001
100
AcDbEntity
  8
THIN
100
AcDbBlockReference
  2
B3369 DS Glazing Bead
 10
12.06835797964933
 20
3.009803922318228
 30
0.0
 41
-1.0
 50
90.0
  0
DIMENSION
  5
C90E73C08D241550
330
C90E73C08D241001
100
AcDbEntity
  8
THIN
100
AcDbDimension
280
     0
  2
*D7
 10
14.76924981189674
 20
4.968255541725556
 30
0.0
 11
14.76924981189674
 21
5.37475554172559
 31
0.0
 70
    32
 71
     5
 42
0.8130000000000592
 73
     0
 74
     0
 75
     0
  3
ASWhite
100
AcDbAlignedDimension
 13
13.08435797964932
 23
5.781255541725617
 33
0.0
 14
14.1193579796493
 24
4.968255541725556
 34
0.0
 50
90.0
100
AcDbRotatedDimension
  0
DIMENSION
  5
C90E73C08D241568
330
C90E73C08D241001
100
AcDbEntity
  8
THIN
100
AcDbDimension
280
     0
  2
*D8
 10
13.11435797964932
 20
6.553978996401625
 30
0.0
 11
14.08633856902314
 21
6.553978996401625
 31
0.0
 70
    32
 71
     5
 42
0.5619999999999834
 73
     0
 74
     0
 75
     0
  3
ASWhite
100
AcDbAlignedDimension
 13
12.55235797964934
 23
5.768255541725553
 33
0.0
 14
13.11435797964932
 24
5.866255541725551
 34
0.0
100
AcDbRotatedDimension
  0
LWPOLYLINE
  5
C90E73C08D2415C1
330
C90E73C08D241001
100
AcDbEntity
  8
10
100
AcDbPolyline
 90
        6
 70
     1
 43
0.0
 10
3.909290714367953
 20
16.46204181903008
 42
-0.4142135623730951
 10
3.974290714367955
 20
16.39704181903008
 10
3.974290714367955
 20
16.33704181903008
 10
2.974290714367955
 20
16.33704181903008
 10
2.974290714367955
 20
16.39704181903008
 42
-0.4142135623730951
 10
3.039290714367957
 20
16.46204181903008
  0
LWPOLYLINE
  5
C90E73C08D2415C2
330
C90E73C08D241001
100
AcDbEntity
  8
10
100
AcDbPolyline
 90
        6
 70
     1
 43
0.0
 10
3.909290714367953
 20
10.31204181903008
 42
0.4142135623730951
 10
3.974290714367955
 20
10.37704181903008
 10
3.974290714367955
 20
10.43704181903008
 10
2.974290714367955
 20
10.43704181903008
 10
2.974290714367955
 20
10.37704181903008
 42
0.4142135623730951
 10
3.039290714367957
 20
10.31204181903008
  0
LINE
  5
C90E73C08D2415C3
330
C90E73C08D241001
100
AcDbEntity
  8
10
100
AcDbLine
 10
3.036790714367951
 20
16.0713200021297
 30
0.0
 11
3.03679071436795
 21
16.10694525561475
 31
0.0
  0
LINE
  5
C90E73C08D2415C4
330
C90E73C08D241001
100
AcDbEntity
  8
10
100
AcDbLine
 10
3.036790714367951
 20
15.7704287678777
 30
0.0
 11
3.03679071436795
 21
15.80605402136275
 31
0.0
  0
LINE
  5
C90E73C08D2415C5
330
C90E73C08D241001
100
AcDbEntity
  8
THIN
100
AcDbLine
 10
3.161790714367953
 20
16.24329181903007
 30
0.0
 11
3.786790714367955
 21
16.24329181903007
 31
0.0
  0
LINE
  5
C90E73C08D2415C6
330
C90E73C08D241001
100
AcDbEntity
  8
THIN
100
AcDbLine
 10
3.786790714367955
 20
16.24329181903007
 30
0.0
 11
3.786790714367953
 21
15.82729181903007
 31
0.0
  0
LINE
  5
C90E73C08D2415C7
330
C90E73C08D241001
100
AcDbEntity
  8
THIN
100
AcDbLine
 10
3.161790714367953
 20
16.24329181903007
 30
0.0
 11
3.161790714367951
 21
15.82729181903007
 31
0.0
  0
LINE
  5
C90E73C08D2415C8
330
C90E73C08D241001
100
AcDbEntity
  8
THIN
100
AcDbLine
 10
3.161790714367953
 20
10.53079181903008
 30
0.0
 11
3.161790714367951
 21
10.94679181903008
 31
0.0
  0
LINE
  5
C90E73C08D2415C9
330
C90E73C08D241001
100
AcDbEntity
  8
THIN
100
AcDbLine
 10
3.786790714367955
 20
10.53079181903009
 30
0.0
 11
3.786790714367953
 21
10.94679181903008
 31
0.0
  0
LINE
  5
C90E73C08D2415CA
330
C90E73C08D241001
100
AcDbEntity
  8
THIN
100
AcDbLine
 10
3.161790714367953
 20
10.53079181903008
 30
0.0
 11
3.786790714367955
 21
10.53079181903009
 31
0.0
  0
LINE
  5
C90E73C08D2415CB
330
C90E73C08D241001
100
AcDbEntity
  8
CYAN
100
AcDbLine
 10
3.161790714367951
 20
10.51204181903008
 30
0.0
 11
3.036790714367951
 21
10.51204181903008
 31
0.0
  0
LWPOLYLINE
  5
C90E73C08D2415CC
330
C90E73C08D241001
100
AcDbEntity
  8
CYAN
100
AcDbPolyline
 90
        2
 70
     0
 43
0.0
 10
3.161790714367951
 20
13.59059717425725
 10
3.161790714367951
 20
10.51204181903008
  0
LINE
  5
C90E73C08D2415CD
330
C90E73C08D241001
100
AcDbEntity
  8
CYAN
100
AcDbLine
 10
3.78679071436795
 20
13.66461713879585
 30
0.0
 11
3.786790714367955
 21
16.26204181903008
 31
0.0
  0
LINE
  5
C90E73C08D2415CE
330
C90E73C08D241001
100
AcDbEntity
  8
CYAN
100
AcDbLine
 10
3.161790714367951
 20
13.6584693320172
 30
0.0
 11
3.161790714367951
 21
16.26204181903008
 31
0.0
  0
LINE
  5
C90E73C08D2415CF
330
C90E73C08D241001
100
AcDbEntity
  8
CYAN
100
AcDbLine
 10
3.036790714367951
 20
16.26204181903008
 30
0.0
 11
3.161790714367953
 21
16.26204181903008
 31
0.0
  0
LINE
  5
C90E73C08D2415D0
330
C90E73C08D241001
100
AcDbEntity
  8
CYAN
100
AcDbLine
 10
3.036790714367951
 20
13.67381869442745
 30
0.0
 11
3.036790714367951
 21
16.26204181903008
 31
0.0
  0
LINE
  5
C90E73C08D2415D1
330
C90E73C08D241001
100
AcDbEntity
  8
CYAN
100
AcDbLine
 10
3.911790714367955
 20
16.26204181903008
 30
0.0
 11
3.786790714367957
 21
16.26204181903008
 31
0.0
  0
LINE
  5
C90E73C08D2415D2
330
C90E73C08D241001
100
AcDbEntity
  8
CYAN
100
AcDbLine
 10
3.911790714367948
 20
13.65011580745799
 30
0.0
 11
3.911790714367955
 21
16.26204181903008
 31
0.0
  0
LINE
  5
C90E73C08D2415D3
330
C90E73C08D241001
100
AcDbEntity
  8
CYAN
100
AcDbLine
 10
3.786790714367948
 20
13.59557807506184
 30
0.0
 11
3.786790714367955
 21
10.51204181903008
 31
0.0
  0
LINE
  5
C90E73C08D2415D4
330
C90E73C08D241001
100
AcDbEntity
  8
CYAN
100
AcDbLine
 10
3.911790714367955
 20
10.51204181903008
 30
0.0
 11
3.786790714367955
 21
10.51204181903008
 31
0.0
  0
LINE
  5
C90E73C08D2415D5
330
C90E73C08D241001
100
AcDbEntity
  8
CYAN
100
AcDbLine
 10
3.911790714367948
 20
13.58107674372398
 30
0.0
 11
3.911790714367955
 21
10.51204181903008
 31
0.0
  0
LWPOLYLINE
  5
C90E73C08D2415D6
330
C90E73C08D241001
100
AcDbEntity
  8
THIN
100
AcDbPolyline
 90
        4
 70
     0
 43
0.0
 10
4.085793019000131
 20
13.5608906231398
 10
3.536722128374696
 20
13.62458869444326
 10
3.653507742367201
 20
13.53021683132885
 10
2.93275970622095
 20
13.6187210138351
  0
LWPOLYLINE
  5
C90E73C08D2415D7
330
C90E73C08D241001
100
AcDbEntity
  8
THIN
100
AcDbPolyline
 90
        4
 70
     0
 43
0.0
 10
4.085467921318591
 20
13.62996740166739
 10
3.364719885172339
 20
13.71358185033352
 10
3.481505499164845
 20
13.61920998721912
 10
2.932385115628248
 20
13.68663916940916
  0
LWPOLYLINE
  5
C90E73C08D2415D8
330
C90E73C08D241001
100
AcDbEntity
  8
CYAN
100
AcDbPolyline
 90
        2
 70
     0
 43
0.0
 10
3.036790714367951
 20
13.60594653666749
 10
3.036790714367951
 20
10.51204181903008
  0
LINE
  5
C90E73C08D2415D9
330
C90E73C08D241001
100
AcDbEntity
  8
THIN
100
AcDbLine
 10
3.786790714367955
 20
10.79079181903008
 30
0.0
 11
3.161790714367951
 21
10.79079181903008
 31
0.0
  0
LINE
  5
C90E73C08D2415DA
330
C90E73C08D241001
100
AcDbEntity
  8
THIN
100
AcDbLine
 10
3.786790714367955
 20
10.53079181903008
 30
0.0
 11
3.161790714367951
 21
10.53079181903009
 31
0.0
  0
LINE
  5
C90E73C08D2415DB
330
C90E73C08D241001
100
AcDbEntity
  8
THIN
100
AcDbLine
 10
3.786790714367955
 20
10.85079181903009
 30
0.0
 11
3.161790714367951
 21
10.85079181903009
 31
0.0
  0
HATCH
  5
C90E73C08D2415DC
330
C90E73C08D241001
100
AcDbEntity
  8
THIN
100
AcDbHatch
 10
0.0
 20
0.0
 30
0.0
210
0.0
220
0.0
230
1.0
  2
SOLID
 70
     1
 71
     0
 91
        1
 92
        7
 72
     0
 73
     1
 93
        4
 10
3.161790714367955
 20
10.79079181903009
 10
3.786790714367955
 20
10.79079181903008
 10
3.786790714367955
 20
10.53079181903008
 10
3.161790714367951
 20
10.53079181903009
 97
        0
 75
     0
 76
     1
 47
0.0034578382305586
 98
        1
 10
3.545521787844771
 20
10.68600343372614
450
        0
451
        0
460
0.0
461
0.0
452
        0
462
0.0
453
        0
470

  0
HATCH
  5
C90E73C08D2415DD
330
C90E73C08D241001
100
AcDbEntity
  8
DIM
100
AcDbHatch
 10
0.0
 20
0.0
 30
0.0
210
0.0
220
0.0
230
1.0
  2
SOLID
 70
     1
 71
     0
 91
        1
 92
        7
 72
     0
 73
     1
 93
        4
 10
3.161790714367955
 20
10.85079181903009
 10
3.786790714367955
 20
10.85079181903009
 10
3.786790714367955
 20
10.79079181903008
 10
3.161790714367955
 20
10.79079181903009
 97
        0
 75
     0
 76
     1
 47
0.0034578382305586
 98
        1
 10
3.445187913643559
 20
10.81048561892971
450
        0
451
        0
460
0.0
461
0.0
452
        0
462
0.0
453
        0
470

  0
LINE
  5
C90E73C08D2415DE
330
C90E73C08D241001
100
AcDbEntity
  8
THIN
100
AcDbLine
 10
3.786790714367955
 20
10.53079181903008
 30
0.0
 11
3.161790714367951
 21
10.53079181903009
 31
0.0
  0
LINE
  5
C90E73C08D2415DF
330
C90E73C08D241001
100
AcDbEntity
  8
THIN
100
AcDbLine
 10
3.786790714367955
 20
15.98329181903007
 30
0.0
 11
3.161790714367951
 21
15.98329181903007
 31
0.0
  0
LINE
  5
C90E73C08D2415E0
330
C90E73C08D241001
100
AcDbEntity
  8
THIN
100
AcDbLine
 10
3.786790714367955
 20
16.24329181903007
 30
0.0
 11
3.161790714367951
 21
16.24329181903007
 31
0.0
  0
LINE
  5
C90E73C08D2415E1
330
C90E73C08D241001
100
AcDbEntity
  8
THIN
100
AcDbLine
 10
3.786790714367955
 20
15.92329181903007
 30
0.0
 11
3.161790714367951
 21
15.92329181903007
 31
0.0
  0
HATCH
  5
C90E73C08D2415E2
330
C90E73C08D241001
100
AcDbEntity
  8
THIN
100
AcDbHatch
 10
0.0
 20
0.0
 30
0.0
210
0.0
220
0.0
230
1.0
  2
SOLID
 70
     1
 71
     0
 91
        1
 92
        7
 72
     0
 73
     1
 93
        4
 10
3.161790714367955
 20
15.98329181903007
 10
3.786790714367955
 20
15.98329181903008
 10
3.786790714367955
 20
16.24329181903007
 10
3.161790714367951
 20
16.24329181903007
 97
        0
 75
     0
 76
     1
 47
0.0034578382305586
 98
        1
 10
3.545521787844771
 20
16.08808020433401
450
        0
451
        0
460
0.0
461
0.0
452
        0
462
0.0
453
        0
470

  0
HATCH
  5
C90E73C08D2415E3
330
C90E73C08D241001
100
AcDbEntity
  8
DIM
100
AcDbHatch
 10
0.0
 20
0.0
 30
0.0
210
0.0
220
0.0
230
1.0
  2
SOLID
 70
     1
 71
     0
 91
        1
 92
        7
 72
     0
 73
     1
 93
        4
 10
3.161790714367955
 20
15.92329181903007
 10
3.786790714367955
 20
15.92329181903007
 10
3.786790714367955
 20
15.98329181903007
 10
3.161790714367955
 20
15.98329181903007
 97
        0
 75
     0
 76
     1
 47
0.0034578382305586
 98
        1
 10
3.445187913643559
 20
15.96359801913045
450
        0
451
        0
460
0.0
461
0.0
452
        0
462
0.0
453
        0
470

  0
LINE
  5
C90E73C08D2415E4
330
C90E73C08D241001
100
AcDbEntity
  8
THIN
100
AcDbLine
 10
3.786790714367955
 20
16.24329181903007
 30
0.0
 11
3.161790714367951
 21
16.24329181903007
 31
0.0
  0
INSERT
  5
C90E73C08D2415E5
330
C90E73C08D241001
100
AcDbEntity
  8
THIN
100
AcDbBlockReference
  2
B3363 DS Integral J-fin frame
 10
4.867052947631568
 20
9.387041819030118
 30
0.0
  0
INSERT
  5
C90E73C08D2415E6
330
C90E73C08D241001
100
AcDbEntity
  8
THIN
100
AcDbBlockReference
  2
B3369 DS Glazing Bead
 10
4.48850456703894
 20
10.23304181903013
 30
0.0
  0
INSERT
  5
C90E73C08D2415E7
330
C90E73C08D241001
100
AcDbEntity
  8
THIN
100
AcDbBlockReference
  2
B3363 DS Integral J-fin frame
 10
4.867052947631568
 20
17.38704181903004
 30
0.0
 41
-1.0
 50
180.0
  0
INSERT
  5
C90E73C08D2415E8
330
C90E73C08D241001
100
AcDbEntity
  8
THIN
100
AcDbBlockReference
  2
B3369 DS Glazing Bead
 10
4.48850456703894
 20
16.54104181903004
 30
0.0
 41
-1.0
 50
180.0
  0
DIMENSION
  5
C90E73C08D2415F2
330
C90E73C08D241001
100
AcDbEntity
  8
THIN
100
AcDbDimension
280
     0
  2
*D9
 10
3.39980879758319
 20
8.142041819030142
 30
0.0
 11
3.399808797583188
 21
8.764541819030137
 31
0.0
 70
    32
 71
     5
 42
1.24499999999999
 73
     0
 74
     0
 75
     0
  3
ASWhite
100
AcDbAlignedDimension
 13
2.625052947631615
 23
9.387041819030132
 33
0.0
 14
2.625052947631614
 24
8.142041819030142
 34
0.0
 50
90.0
100
AcDbRotatedDimension
  0
LINE
  5
C90E73C08D241657
330
C90E73C08D241001
100
AcDbEntity
  8
XTHIN
100
AcDbLine
 10
9.200393779172635
 20
10.31133489101061
 30
0.0
 11
9.200393779172623
 21
13.91133489101061
 31
0.0
  0
LINE
  5
C90E73C08D241658
330
C90E73C08D241001
100
AcDbEntity
  8
XTHIN
100
AcDbLine
 10
9.304893779172635
 20
10.41583489101061
 30
0.0
 11
9.304893779172635
 21
13.86804957374262
 31
0.0
  0
LINE
  5
C90E73C08D24165B
330
C90E73C08D241001
100
AcDbEntity
  8
XTHIN
100
AcDbLine
 10
9.476636580990847
 20
10.58757769282882
 30
0.0
 11
9.476636580990847
 21
13.79691137598956
 31
0.0
  0
LINE
  5
C90E73C08D24165C
330
C90E73C08D241001
100
AcDbEntity
  8
XTHIN
100
AcDbLine
 10
9.487193779172633
 20
10.59813489101061
 30
0.0
 11
9.487193779172637
 21
13.792538441322
 31
0.0
  0
LINE
  5
C90E73C08D24165D
330
C90E73C08D241001
100
AcDbEntity
  8
XTHIN
100
AcDbLine
 10
9.501269544703736
 20
10.61221065654171
 30
0.0
 11
9.501269544703767
 21
13.78670806833823
 31
0.0
  0
LINE
  5
C90E73C08D24165E
330
C90E73C08D241001
100
AcDbEntity
  8
XTHIN
100
AcDbLine
 10
9.381093779172635
 20
10.49203489101061
 30
0.0
 11
9.381093779172617
 21
13.8364865002898
 31
0.0
  0
LINE
  5
C90E73C08D24165F
330
C90E73C08D241001
100
AcDbEntity
  8
XTHIN
100
AcDbLine
 10
9.200393779172635
 20
10.31133489101061
 30
0.0
 11
9.501269544703736
 21
10.61221065654171
 31
0.0
  0
LINE
  5
C90E73C08D241660
330
C90E73C08D241001
100
AcDbEntity
  8
XTHIN
100
AcDbLine
 10
9.405932669310999
 20
10.51687378114897
 30
0.0
 11
9.405932669310999
 21
13.82619789512018
 31
0.0
  0
LINE
  5
C90E73C08D241662
330
C90E73C08D241001
100
AcDbEntity
  8
XTHIN
100
AcDbLine
 10
9.501269544703736
 20
10.61221065654171
 30
0.0
 11
13.69951801364153
 21
10.61221065654171
 31
0.0
  0
LINE
  5
C90E73C08D241663
330
C90E73C08D241001
100
AcDbEntity
  8
XTHIN
100
AcDbLine
 10
9.487193779172633
 20
10.59813489101061
 30
0.0
 11
13.71359377917263
 21
10.59813489101061
 31
0.0
  0
LINE
  5
C90E73C08D241664
330
C90E73C08D241001
100
AcDbEntity
  8
XTHIN
100
AcDbLine
 10
9.476636580990847
 20
10.58757769282882
 30
0.0
 11
13.72415097735443
 21
10.58757769282882
 31
0.0
  0
LINE
  5
C90E73C08D241665
330
C90E73C08D241001
100
AcDbEntity
  8
XTHIN
100
AcDbLine
 10
9.405932669310999
 20
10.51687378114897
 30
0.0
 11
13.79485488903427
 21
10.51687378114897
 31
0.0
  0
LINE
  5
C90E73C08D241666
330
C90E73C08D241001
100
AcDbEntity
  8
XTHIN
100
AcDbLine
 10
9.381093779172635
 20
10.49203489101061
 30
0.0
 11
13.81969377917263
 21
10.49203489101061
 31
0.0
  0
LINE
  5
C90E73C08D241667
330
C90E73C08D241001
100
AcDbEntity
  8
XTHIN
100
AcDbLine
 10
9.304893779172635
 20
10.41583489101061
 30
0.0
 11
13.89589377917263
 21
10.41583489101061
 31
0.0
  0
LINE
  5
C90E73C08D241668
330
C90E73C08D241001
100
AcDbEntity
  8
XTHIN
100
AcDbLine
 10
9.200393779172635
 20
10.31133489101061
 30
0.0
 11
14.00039377917264
 21
10.31133489101061
 31
0.0
  0
LINE
  5
C90E73C08D241669
330
C90E73C08D241001
100
AcDbEntity
  8
XTHIN
100
AcDbLine
 10
14.00039377917264
 20
10.31133489101063
 30
0.0
 11
14.00039377917262
 21
13.91133489101061
 31
0.0
  0
LINE
  5
C90E73C08D24166A
330
C90E73C08D241001
100
AcDbEntity
  8
XTHIN
100
AcDbLine
 10
14.00039377917263
 20
10.31133489101061
 30
0.0
 11
13.69951801364153
 21
10.61221065654171
 31
0.0
  0
LINE
  5
C90E73C08D24166C
330
C90E73C08D241001
100
AcDbEntity
  8
XTHIN
100
AcDbLine
 10
9.200393779172623
 20
13.91133489101061
 30
0.0
 11
11.60039377917262
 21
16.31133489101062
 31
0.0
  0
LINE
  5
C90E73C08D24166D
330
C90E73C08D241001
100
AcDbEntity
  8
XTHIN
100
AcDbLine
 10
14.00039377917262
 20
13.91133489101061
 30
0.0
 11
11.60039377917262
 21
16.31133489101062
 31
0.0
  0
LINE
  5
C90E73C08D24166E
330
C90E73C08D241001
100
AcDbEntity
  8
XTHIN
100
AcDbLine
 10
9.200393779172623
 20
13.91133489101061
 30
0.0
 11
9.501269544703767
 21
13.78670806833823
 31
0.0
  0
LINE
  5
C90E73C08D241696
330
C90E73C08D241001
100
AcDbEntity
  8
XTHIN
100
AcDbLine
 10
13.89589377917264
 20
10.41583489101061
 30
0.0
 11
13.89589377917264
 21
13.86804957374262
 31
0.0
  0
LINE
  5
C90E73C08D241697
330
C90E73C08D241001
100
AcDbEntity
  8
XTHIN
100
AcDbLine
 10
13.79485488903428
 20
10.51687378114897
 30
0.0
 11
13.79485488903428
 21
13.82619789512018
 31
0.0
  0
LINE
  5
C90E73C08D241698
330
C90E73C08D241001
100
AcDbEntity
  8
XTHIN
100
AcDbLine
 10
13.72415097735443
 20
10.58757769282882
 30
0.0
 11
13.72415097735443
 21
13.79691137598956
 31
0.0
  0
LINE
  5
C90E73C08D241699
330
C90E73C08D241001
100
AcDbEntity
  8
XTHIN
100
AcDbLine
 10
13.71359377917264
 20
10.59813489101061
 30
0.0
 11
13.71359377917264
 21
13.792538441322
 31
0.0
  0
LINE
  5
C90E73C08D24169A
330
C90E73C08D241001
100
AcDbEntity
  8
XTHIN
100
AcDbLine
 10
13.69951801364154
 20
10.61221065654171
 30
0.0
 11
13.6995180136415
 21
13.78670806833823
 31
0.0
  0
LINE
  5
C90E73C08D24169B
330
C90E73C08D241001
100
AcDbEntity
  8
XTHIN
100
AcDbLine
 10
13.81969377917264
 20
10.49203489101061
 30
0.0
 11
13.81969377917266
 21
13.8364865002898
 31
0.0
  0
LINE
  5
C90E73C08D24169C
330
C90E73C08D241001
100
AcDbEntity
  8
XTHIN
100
AcDbLine
 10
14.00039377917265
 20
13.91133489101061
 30
0.0
 11
13.6995180136415
 21
13.78670806833823
 31
0.0
  0
LINE
  5
C90E73C08D24169D
330
C90E73C08D241001
100
AcDbEntity
  8
XTHIN
100
AcDbLine
 10
11.60039377917262
 20
16.31133489101062
 30
0.0
 11
11.60039377917262
 21
15.88583230280709
 31
0.0
  0
LINE
  5
C90E73C08D24169E
330
C90E73C08D241001
100
AcDbEntity
  8
XTHIN
100
AcDbLine
 10
9.501269544703767
 20
13.78670806833823
 30
0.0
 11
11.60039377917262
 21
15.88583230280709
 31
0.0
  0
LINE
  5
C90E73C08D24169F
330
C90E73C08D241001
100
AcDbEntity
  8
XTHIN
100
AcDbLine
 10
9.487193779172637
 20
13.792538441322
 30
0.0
 11
11.60039377917262
 21
15.905738441322
 31
0.0
  0
LINE
  5
C90E73C08D2416A0
330
C90E73C08D241001
100
AcDbEntity
  8
XTHIN
100
AcDbLine
 10
9.476636580990847
 20
13.79691137598956
 30
0.0
 11
11.60039377917262
 21
15.92066857417134
 31
0.0
  0
LINE
  5
C90E73C08D2416A1
330
C90E73C08D241001
100
AcDbEntity
  8
XTHIN
100
AcDbLine
 10
9.405932669310999
 20
13.82619789512019
 30
0.0
 11
11.60039377917262
 21
16.02065900498182
 31
0.0
  0
LINE
  5
C90E73C08D2416A2
330
C90E73C08D241001
100
AcDbEntity
  8
XTHIN
100
AcDbLine
 10
9.381093779172617
 20
13.8364865002898
 30
0.0
 11
11.60039377917262
 21
16.05578650028981
 31
0.0
  0
LINE
  5
C90E73C08D2416A3
330
C90E73C08D241001
100
AcDbEntity
  8
XTHIN
100
AcDbLine
 10
9.304893779172635
 20
13.86804957374262
 30
0.0
 11
11.60039377917262
 21
16.16354957374261
 31
0.0
  0
LINE
  5
C90E73C08D2416A4
330
C90E73C08D241001
100
AcDbEntity
  8
XTHIN
100
AcDbLine
 10
13.69951801364147
 20
13.78670806833823
 30
0.0
 11
11.60039377917262
 21
15.88583230280709
 31
0.0
  0
LINE
  5
C90E73C08D2416A5
330
C90E73C08D241001
100
AcDbEntity
  8
XTHIN
100
AcDbLine
 10
13.71359377917261
 20
13.792538441322
 30
0.0
 11
11.60039377917262
 21
15.905738441322
 31
0.0
  0
LINE
  5
C90E73C08D2416A6
330
C90E73C08D241001
100
AcDbEntity
  8
XTHIN
100
AcDbLine
 10
13.72415097735439
 20
13.79691137598956
 30
0.0
 11
11.60039377917262
 21
15.92066857417134
 31
0.0
  0
LINE
  5
C90E73C08D2416A7
330
C90E73C08D241001
100
AcDbEntity
  8
XTHIN
100
AcDbLine
 10
13.79485488903424
 20
13.82619789512019
 30
0.0
 11
11.60039377917262
 21
16.02065900498182
 31
0.0
  0
LINE
  5
C90E73C08D2416A8
330
C90E73C08D241001
100
AcDbEntity
  8
XTHIN
100
AcDbLine
 10
13.81969377917263
 20
13.8364865002898
 30
0.0
 11
11.60039377917262
 21
16.05578650028981
 31
0.0
  0
LINE
  5
C90E73C08D2416A9
330
C90E73C08D241001
100
AcDbEntity
  8
XTHIN
100
AcDbLine
 10
13.89589377917261
 20
13.86804957374262
 30
0.0
 11
11.60039377917262
 21
16.16354957374261
 31
0.0
  0
MTEXT
  5
C90E73C08D24171E
330
C90E73C08D241001
100
AcDbEntity
  8
DIM
100
AcDbMText
 10
11.92604757744478
 20
18.74090163068288
 30
0.0
 40
0.3
 41
6.1844782
 46
0.0
 71
     5
 72
     5
  1
Harvey Building Products\PN.C. Designer Shape\PPentagon\P{\H0.8333x;(1/2 Scale)}
  7
TAHOMA
 73
     1
 44
1.0
1001
ACAD
1000
ACAD_MTEXT_DEFINED_HEIGHT_BEGIN
1070
    46
1040
0.0
1000
ACAD_MTEXT_DEFINED_HEIGHT_END
  0
INSERT
  5
C90E73C08D241788
330
C90E73C08D241001
100
AcDbEntity
  8
THIN
100
AcDbBlockReference
  2
A$C1C0E0B9C
 10
13.26979374551076
 20
10.51926164003369
 30
0.0
  0
INSERT
  5
C90E73C08D24178B
330
C90E73C08D241001
100
AcDbEntity
  8
THIN
100
AcDbBlockReference
  2
A$C1C0E0B9C
 10
9.930993812834511
 20
10.51926164003369
 30
0.0
 41
-1.0
  0
HATCH
  5
C90E73C08D241801
330
C90E73C08D241001
100
AcDbEntity
  8
THIN
100
AcDbHatch
 10
0.0
 20
0.0
 30
0.0
210
0.0
220
0.0
230
1.0
  2
CROSS
 70
     0
 71
     1
 91
        1
 92
        7
 72
     1
 73
     1
 93
       10
 10
6.596174389940419
 20
4.462581592813165
 42
-0.221131366745576
 10
6.519708185687833
 20
4.498138442617028
 42
0.0
 10
6.467357979649374
 20
4.560255541725592
 42
0.0
 10
6.435900913969219
 20
4.560255541725592
 42
0.0
 10
6.427862438196289
 20
4.590255541725586
 42
0.0
 10
6.222357979649382
 20
4.590255541725597
 42
0.0
 10
6.26905343465336
 20
4.51914460001269
 42
0.2185060092799701
 10
6.304403188049372
 20
4.497006393870615
 42
0.0
 10
6.347606421254532
 20
4.491390781886027
 42
-0.9299985694556859
 10
6.345909365975852
 20
4.461517774989217
 42
0.0
 97
        2
330
C90E73C08D2413F9
330
207A5C5E76
 75
     1
 76
     1
 52
0.0
 41
0.1
 77
     0
 78
     2
 53
0.0
 43
0.0
 44
0.0
 45
0.025
 46
0.025
 79
     2
 49
0.0125
 49
-0.0375
 53
90.0
 43
0.00625
 44
-0.00625
 45
-0.025
 46
0.025
 79
     2
 49
0.0125
 49
-0.0375
 47
0.0061761463896456
 98
        1
 10
6.41032452790749
 20
4.501616232170412
1001
GradientColor1ACI
1070
     5
1001
GradientColor2ACI
1070
     2
1001
ACAD
1010
0.0
1020
0.0
1030
0.0
  0
INSERT
  5
C90E73C08D241802
330
C90E73C08D241001
100
AcDbEntity
  8
THIN
100
AcDbBlockReference
  2
B3363 DS Integral J-fin frame
 10
12.91435797964934
 20
2.631255541725601
 30
0.0
 41
-1.0
 50
90.0
  0
HATCH
  5
C90E73C08D241815
330
C90E73C08D241001
100
AcDbEntity
  8
THIN
100
AcDbHatch
 10
0.0
 20
0.0
 30
0.0
210
0.0
220
0.0
230
1.0
  2
CROSS
 70
     0
 71
     0
 91
        1
 92
        7
 72
     1
 73
     1
 93
       10
 10
11.23254156935832
 20
4.462581592813165
 42
0.221131366745576
 10
11.30900777361091
 20
4.498138442617028
 42
0.0
 10
11.36135797964937
 20
4.560255541725592
 42
0.0
 10
11.39281504532952
 20
4.560255541725592
 42
0.0
 10
11.40085352110245
 20
4.590255541725586
 42
0.0
 10
11.60635797964936
 20
4.590255541725597
 42
0.0
 10
11.55966252464538
 20
4.51914460001269
 42
-0.2185060092799701
 10
11.52431277124937
 20
4.497006393870615
 42
0.0
 10
11.48110953804421
 20
4.491390781886027
 42
0.9299985694556859
 10
11.48280659332289
 20
4.461517774989217
 42
0.0
 97
        0
 75
     1
 76
     1
 52
0.0
 41
0.1
 77
     0
 78
     2
 53
0.0
 43
0.0
 44
0.0
 45
0.025
 46
0.025
 79
     2
 49
0.0125
 49
-0.0375
 53
90.0
 43
0.00625
 44
-0.00625
 45
-0.025
 46
0.025
 79
     2
 49
0.0125
 49
-0.0375
 47
0.0061761463896456
 98
        1
 10
11.41839143139125
 20
4.501616232170412
1001
GradientColor1ACI
1070
     5
1001
GradientColor2ACI
1070
     2
1001
ACAD
1010
0.0
1020
0.0
1030
0.0
  0
HATCH
  5
C90E73C08D241816
330
C90E73C08D241001
100
AcDbEntity
  8
THIN
100
AcDbHatch
 10
0.0
 20
0.0
 30
0.0
210
0.0
220
0.0
230
1.0
  2
CROSS
 70
     0
 71
     0
 91
        1
 92
        7
 72
     1
 73
     1
 93
       10
 10
3.035726896544004
 20
15.70522540873904
 42
0.221131366745576
 10
3.000170046740143
 20
15.78169161299162
 42
0.0
 10
2.938052947631578
 20
15.83404181903008
 42
0.0
 10
2.938052947631578
 20
15.86549888471024
 42
0.0
 10
2.908052947631584
 20
15.87353736048317
 42
0.0
 10
2.908052947631571
 20
16.07904181903007
 42
0.0
 10
2.97916388934448
 20
16.0323463640261
 42
-0.2185060092799701
 10
3.001302095486553
 20
15.99699661063008
 42
0.0
 10
3.006917707471141
 20
15.95379337742492
 42
0.9299985694556859
 10
3.036790714367953
 20
15.9554904327036
 42
0.0
 97
        0
 75
     1
 76
     1
 52
90.0
 41
0.1
 77
     0
 78
     2
 53
90.0
 43
7.498308489357171
 44
4.472683839380711
 45
-0.025
 46
0.025
 79
     2
 49
0.0125
 49
-0.0375
 53
180.0
 43
7.504558489357171
 44
4.478933839380712
 45
-0.025
 46
-0.025
 79
     2
 49
0.0125
 49
-0.0375
 47
0.0061761463896456
 98
        1
 10
2.996692257186758
 20
15.89107527077197
1001
GradientColor1ACI
1070
     5
1001
GradientColor2ACI
1070
     2
1001
ACAD
1010
0.0
1020
0.0
1030
0.0
  0
HATCH
  5
C90E73C08D241817
330
C90E73C08D241001
100
AcDbEntity
  8
THIN
100
AcDbHatch
 10
0.0
 20
0.0
 30
0.0
210
0.0
220
0.0
230
1.0
  2
CROSS
 70
     0
 71
     0
 91
        1
 92
        7
 72
     1
 73
     1
 93
       10
 10
3.035726896544004
 20
11.06885822932112
 42
-0.221131366745576
 10
3.000170046740143
 20
10.99239202506854
 42
0.0
 10
2.938052947631578
 20
10.94004181903008
 42
0.0
 10
2.938052947631578
 20
10.90858475334993
 42
0.0
 10
2.908052947631584
 20
10.90054627757699
 42
0.0
 10
2.908052947631571
 20
10.69504181903009
 42
0.0
 10
2.97916388934448
 20
10.74173727403407
 42
0.2185060092799701
 10
3.001302095486553
 20
10.77708702743008
 42
0.0
 10
3.006917707471141
 20
10.82029026063524
 42
-0.9299985694556859
 10
3.036790714367953
 20
10.81859320535656
 42
0.0
 97
        0
 75
     1
 76
     1
 52
90.0
 41
0.1
 77
     0
 78
     2
 53
90.0
 43
7.498308489357171
 44
4.472683839380711
 45
-0.025
 46
0.025
 79
     2
 49
0.0125
 49
-0.0375
 53
180.0
 43
7.504558489357171
 44
4.478933839380712
 45
-0.025
 46
-0.025
 79
     2
 49
0.0125
 49
-0.0375
 47
0.0061761463896456
 98
        1
 10
2.996692257186758
 20
10.8830083672882
1001
GradientColor1ACI
1070
     5
1001
GradientColor2ACI
1070
     2
1001
ACAD
1010
0.0
1020
0.0
1030
0.0
  0
MTEXT
  5
C90E73C08D241921
330
C90E73C08D241001
100
AcDbEntity
  8
THIN
100
AcDbMText
 10
11.33704493098925
 20
9.868778741685527
 30
0.0
 40
0.15
 41
0.5513510052979527
 46
0.0
 71
     1
 72
     5
  1
(1/20)
  7
SIMPLEX
 73
     1
 44
1.0
101
Embedded Object
 70
     1
 10
1.0
 20
0.0
 30
0.0
 11
11.33704493098925
 21
9.868778741685527
 31
0.0
 40
0.5513510052979527
 41
0.0
 42
0.7121807708773847
 43
0.2285714285714286
 71
     2
 72
     1
 44
0.5513510052979527
 45
0.225
 73
     0
 74
     0
 46
0.0
  0
ENDSEC
  0
SECTION
  2
OBJECTS
  0
DICTIONARY
  5
C90E73C08D240FEF
330
0
100
AcDbDictionary
281
     1
  3
ACAD_CIP_PREVIOUS_PRODUCT_INFO
350
C90E73C08D241382
  3
ACAD_COLOR
350
C90E73C08D241362
  3
ACAD_DETAILVIEWSTYLE
350
C90E73C08D24137C
  3
ACAD_GROUP
350
C90E73C08D240FF0
  3
ACAD_LAYOUT
350
C90E73C08D240FFC
  3
ACAD_MATERIAL
350
C90E73C08D241330
  3
ACAD_MLEADERSTYLE
350
C90E73C08D241377
  3
ACAD_MLINESTYLE
350
C90E73C08D240FF9
  3
ACAD_PLOTSETTINGS
350
C90E73C08D240FFB
  3
ACAD_PLOTSTYLENAME
350
C90E73C08D240FF1
  3
ACAD_SCALELIST
350
C90E73C08D241365
  3
ACAD_SECTIONVIEWSTYLE
350
C90E73C08D241379
  3
ACAD_TABLESTYLE
350
C90E73C08D241363
  3
ACAD_VISUALSTYLE
350
C90E73C08D241349
  3
ACDB_RECOMPOSE_DATA
350
C90E73C08D241993
  3
AcDbVariableDictionary
350
C90E73C08D241264
  0
DICTIONARY
  5
C90E73C08D241385
330
C90E73C08D240FE5
100
AcDbDictionary
280
     1
281
     1
  3
ACAD_LAYERSTATES
360
C90E73C08D241386
  0
DICTIONARY
  5
C90E73C08D24144D
330
C90E73C08D240FF3
100
AcDbDictionary
280
     1
281
     1
  3
ADSK_XREC_LAYER_RECONCILED
360
C90E73C08D24144E
  0
DICTIONARY
  5
C90E73C08D24144F
330
C90E73C08D241026
100
AcDbDictionary
280
     1
281
     1
  3
ADSK_XREC_LAYER_RECONCILED
360
C90E73C08D241450
  0
DICTIONARY
  5
C90E73C08D241451
330
C90E73C08D241027
100
AcDbDictionary
280
     1
281
     1
  3
ADSK_XREC_LAYER_RECONCILED
360
C90E73C08D241452
  0
DICTIONARY
  5
C90E73C08D241459
330
C90E73C08D24102B
100
AcDbDictionary
280
     1
281
     1
  3
ADSK_XREC_LAYER_RECONCILED
360
C90E73C08D24145A
  0
DICTIONARY
  5
C90E73C08D24145B
330
C90E73C08D24102C
100
AcDbDictionary
280
     1
281
     1
  3
ADSK_XREC_LAYER_RECONCILED
360
C90E73C08D24145C
  0
DICTIONARY
  5
C90E73C08D24145F
330
C90E73C08D24102E
100
AcDbDictionary
280
     1
281
     1
  3
ADSK_XREC_LAYER_RECONCILED
360
C90E73C08D241460
  0
DICTIONARY
  5
C90E73C08D241461
330
C90E73C08D24102F
100
AcDbDictionary
280
     1
281
     1
  3
ADSK_XREC_LAYER_RECONCILED
360
C90E73C08D241462
  0
DICTIONARY
  5
C90E73C08D24146D
330
C90E73C08D241383
100
AcDbDictionary
280
     1
281
     1
  3
ADSK_XREC_LAYER_RECONCILED
360
C90E73C08D24146E
  0
DICTIONARY
  5
C90E73C08D241407
330
C90E73C08D241001
100
AcDbDictionary
280
     1
281
     1
  3
ACAD_SORTENTS
360
C90E73C08D241661
  0
DICTIONARY
  5
C90E73C08D2413C3
330
C90E73C08D241009
100
AcDbDictionary
280
     1
281
     1
  0
DICTIONARY
  5
C90E73C08D241389
330
C90E73C08D241387
100
AcDbDictionary
280
     1
281
     1
  0
DICTIONARY
  5
C90E73C08D2413F4
330
C90E73C08D2413E7
100
AcDbDictionary
280
     1
281
     1
  3
ACAD_SORTENTS
360
C90E73C08D241441
  0
DICTIONARY
  5
C90E73C08D2414D3
330
C90E73C08D2414AB
100
AcDbDictionary
280
     1
281
     1
  3
ACAD_SORTENTS
360
C90E73C08D2414D4
  0
DICTIONARY
  5
C90E73C08D241784
330
C90E73C08D241776
100
AcDbDictionary
280
     1
281
     1
  3
ACAD_SORTENTS
360
C90E73C08D241785
  0
XRECORD
  5
C90E73C08D241382
102
{ACAD_REACTORS
330
C90E73C08D240FEF
102
}
330
C90E73C08D240FEF
100
AcDbXrecord
280
     1
300
ACDLT
300
2019
300

  0
DICTIONARY
  5
C90E73C08D241362
102
{ACAD_REACTORS
330
C90E73C08D240FEF
102
}
330
C90E73C08D240FEF
100
AcDbDictionary
281
     1
  0
DICTIONARY
  5
C90E73C08D24137C
102
{ACAD_REACTORS
330
C90E73C08D240FEF
102
}
330
C90E73C08D240FEF
100
AcDbDictionary
281
     1
  3
Imperial24
350
C90E73C08D24137D
  0
DICTIONARY
  5
C90E73C08D240FF0
102
{ACAD_REACTORS
330
C90E73C08D240FEF
102
}
330
C90E73C08D240FEF
100
AcDbDictionary
281
     1
  0
DICTIONARY
  5
C90E73C08D240FFC
102
{ACAD_REACTORS
330
C90E73C08D240FEF
102
}
330
C90E73C08D240FEF
100
AcDbDictionary
281
     1
  3
Layout1
350
C90E73C08D241000
  3
Model
350
C90E73C08D241004
  0
DICTIONARY
  5
C90E73C08D241330
102
{ACAD_REACTORS
330
C90E73C08D240FEF
102
}
330
C90E73C08D240FEF
100
AcDbDictionary
281
     1
  3
ByBlock
350
C90E73C08D241339
  3
ByLayer
350
C90E73C08D241331
  3
Global
350
C90E73C08D241341
  0
DICTIONARY
  5
C90E73C08D241377
102
{ACAD_REACTORS
330
C90E73C08D240FEF
102
}
330
C90E73C08D240FEF
100
AcDbDictionary
281
     1
  3
Standard
350
C90E73C08D241378
  0
DICTIONARY
  5
C90E73C08D240FF9
102
{ACAD_REACTORS
330
C90E73C08D240FEF
102
}
330
C90E73C08D240FEF
100
AcDbDictionary
281
     1
  3
Standard
350
C90E73C08D240FFA
  0
DICTIONARY
  5
C90E73C08D240FFB
102
{ACAD_REACTORS
330
C90E73C08D240FEF
102
}
330
C90E73C08D240FEF
100
AcDbDictionary
281
     1
  0
ACDBDICTIONARYWDFLT
  5
C90E73C08D240FF1
102
{ACAD_REACTORS
330
C90E73C08D240FEF
102
}
330
C90E73C08D240FEF
100
AcDbDictionary
281
     1
  3
Normal
350
C90E73C08D240FF2
100
AcDbDictionaryWithDefault
340
C90E73C08D240FF2
  0
DICTIONARY
  5
C90E73C08D241365
102
{ACAD_REACTORS
330
C90E73C08D240FEF
102
}
330
C90E73C08D240FEF
100
AcDbDictionary
281
     1
  3
A0
350
C90E73C08D241366
  3
A1
350
C90E73C08D241367
  3
A2
350
C90E73C08D241368
  3
A3
350
C90E73C08D241369
  3
A4
350
C90E73C08D24136A
  3
A5
350
C90E73C08D24136B
  3
A6
350
C90E73C08D24136C
  3
A7
350
C90E73C08D24136D
  3
A8
350
C90E73C08D24136E
  3
A9
350
C90E73C08D24136F
  3
B0
350
C90E73C08D241370
  3
B1
350
C90E73C08D241371
  3
B2
350
C90E73C08D241372
  3
B3
350
C90E73C08D241373
  3
B4
350
C90E73C08D241374
  3
B5
350
C90E73C08D241375
  3
B6
350
C90E73C08D241376
  0
DICTIONARY
  5
C90E73C08D241379
102
{ACAD_REACTORS
330
C90E73C08D240FEF
102
}
330
C90E73C08D240FEF
100
AcDbDictionary
281
     1
  3
Imperial24
350
C90E73C08D24137B
  0
DICTIONARY
  5
C90E73C08D241363
102
{ACAD_REACTORS
330
C90E73C08D240FEF
102
}
330
C90E73C08D240FEF
100
AcDbDictionary
281
     1
  3
Standard
350
C90E73C08D241364
  0
DICTIONARY
  5
C90E73C08D241349
102
{ACAD_REACTORS
330
C90E73C08D240FEF
102
}
330
C90E73C08D240FEF
100
AcDbDictionary
281
     1
  3
2dWireframe
350
C90E73C08D24134F
  3
Basic
350
C90E73C08D24134E
  3
Brighten
350
C90E73C08D241355
  3
ColorChange
350
C90E73C08D241359
  3
Conceptual
350
C90E73C08D241352
  3
Dim
350
C90E73C08D241354
  3
EdgeColorOff
350
C90E73C08D241361
  3
Facepattern
350
C90E73C08D241358
  3
Flat
350
C90E73C08D24134A
  3
FlatWithEdges
350
C90E73C08D24134B
  3
Gouraud
350
C90E73C08D24134C
  3
GouraudWithEdges
350
C90E73C08D24134D
  3
Hidden
350
C90E73C08D241351
  3
JitterOff
350
C90E73C08D24135F
  3
Linepattern
350
C90E73C08D241357
  3
OverhangOff
350
C90E73C08D241360
  3
Realistic
350
C90E73C08D241353
  3
Shaded
350
C90E73C08D24135E
  3
Shaded with edges
350
C90E73C08D24135D
  3
Shades of Gray
350
C90E73C08D24135A
  3
Sketchy
350
C90E73C08D24135B
  3
Thicken
350
C90E73C08D241356
  3
Wireframe
350
C90E73C08D241350
  3
X-Ray
350
C90E73C08D24135C
  0
XRECORD
  5
C90E73C08D241993
102
{ACAD_REACTORS
330
C90E73C08D240FEF
102
}
330
C90E73C08D240FEF
100
AcDbXrecord
280
     1
 90
        1
330
C90E73C08D241364
  0
DICTIONARY
  5
C90E73C08D241264
102
{ACAD_REACTORS
330
C90E73C08D240FEF
102
}
330
C90E73C08D240FEF
100
AcDbDictionary
281
     1
  3
CANNOSCALE
350
C90E73C08D241768
  3
CMLEADERSTYLE
350
C90E73C08D241764
  3
CTABLESTYLE
350
C90E73C08D241763
  3
CVIEWDETAILSTYLE
350
C90E73C08D241765
  3
CVIEWSECTIONSTYLE
350
C90E73C08D241766
  3
LAYEREVAL
350
C90E73C08D24176A
  3
LAYERNOTIFY
350
C90E73C08D24176B
  3
LIGHTINGUNITS
350
C90E73C08D241769
  3
MSLTSCALE
350
C90E73C08D241767
  3
SORTENTS
350
C90E73C08D241265
  0
DICTIONARY
  5
C90E73C08D241386
102
{ACAD_REACTORS
330
C90E73C08D241385
102
}
330
C90E73C08D241385
100
AcDbDictionary
281
     1
  0
XRECORD
  5
C90E73C08D24144E
102
{ACAD_REACTORS
330
C90E73C08D24144D
102
}
330
C90E73C08D24144D
100
AcDbXrecord
280
     1
290
     1
  0
XRECORD
  5
C90E73C08D241450
102
{ACAD_REACTORS
330
C90E73C08D24144F
102
}
330
C90E73C08D24144F
100
AcDbXrecord
280
     1
290
     1
  0
XRECORD
  5
C90E73C08D241452
102
{ACAD_REACTORS
330
C90E73C08D241451
102
}
330
C90E73C08D241451
100
AcDbXrecord
280
     1
290
     1
  0
XRECORD
  5
C90E73C08D24145A
102
{ACAD_REACTORS
330
C90E73C08D241459
102
}
330
C90E73C08D241459
100
AcDbXrecord
280
     1
290
     1
  0
XRECORD
  5
C90E73C08D24145C
102
{ACAD_REACTORS
330
C90E73C08D24145B
102
}
330
C90E73C08D24145B
100
AcDbXrecord
280
     1
290
     1
  0
XRECORD
  5
C90E73C08D241460
102
{ACAD_REACTORS
330
C90E73C08D24145F
102
}
330
C90E73C08D24145F
100
AcDbXrecord
280
     1
290
     1
  0
XRECORD
  5
C90E73C08D241462
102
{ACAD_REACTORS
330
C90E73C08D241461
102
}
330
C90E73C08D241461
100
AcDbXrecord
280
     1
290
     1
  0
XRECORD
  5
C90E73C08D24146E
102
{ACAD_REACTORS
330
C90E73C08D24146D
102
}
330
C90E73C08D24146D
100
AcDbXrecord
280
     1
290
     1
  0
SORTENTSTABLE
  5
C90E73C08D241661
102
{ACAD_REACTORS
330
C90E73C08D241407
102
}
330
C90E73C08D241407
100
AcDbSortentsTable
330
C90E73C08D241001
331
207A5C5E76
  5
C90E73C08D241306
331
C90E73C08D241304
  5
C90E73C08D241307
331
C90E73C08D241305
  5
C90E73C08D241308
331
C90E73C08D241306
  5
C90E73C08D241309
331
C90E73C08D241307
  5
C90E73C08D24130A
331
C90E73C08D241308
  5
C90E73C08D24130B
331
C90E73C08D241309
  5
C90E73C08D24130C
331
C90E73C08D24130A
  5
C90E73C08D24130D
331
C90E73C08D24130B
  5
C90E73C08D24130E
331
C90E73C08D24130C
  5
C90E73C08D24130F
331
C90E73C08D24130D
  5
C90E73C08D24138C
331
C90E73C08D24130E
  5
C90E73C08D2413C4
331
C90E73C08D24130F
  5
C90E73C08D2413F9
331
C90E73C08D24138C
  5
C90E73C08D2414B1
331
C90E73C08D2413C4
  5
C90E73C08D241524
331
C90E73C08D2413F9
  5
C90E73C08D241532
331
C90E73C08D2414B1
  5
C90E73C08D241540
331
C90E73C08D241524
  5
C90E73C08D24154E
331
C90E73C08D241532
  5
C90E73C08D24154F
331
C90E73C08D241540
  5
C90E73C08D241550
331
C90E73C08D24154E
  5
C90E73C08D241568
331
C90E73C08D24154F
  5
C90E73C08D2415C1
331
C90E73C08D241550
  5
C90E73C08D2415C2
331
C90E73C08D241568
  5
C90E73C08D2415C3
331
C90E73C08D2415C1
  5
C90E73C08D2415C4
331
C90E73C08D2415C2
  5
C90E73C08D2415C5
331
C90E73C08D2415C3
  5
C90E73C08D2415C6
331
C90E73C08D2415C4
  5
C90E73C08D2415C7
331
C90E73C08D2415C5
  5
C90E73C08D2415C8
331
C90E73C08D2415C6
  5
C90E73C08D2415C9
331
C90E73C08D2415C7
  5
C90E73C08D2415CA
331
C90E73C08D2415C8
  5
C90E73C08D2415CB
331
C90E73C08D2415C9
  5
C90E73C08D2415CC
331
C90E73C08D2415CA
  5
C90E73C08D2415CD
331
C90E73C08D2415CB
  5
C90E73C08D2415CE
331
C90E73C08D2415CC
  5
C90E73C08D2415CF
331
C90E73C08D2415CD
  5
C90E73C08D2415D0
331
C90E73C08D2415CE
  5
C90E73C08D2415D1
331
C90E73C08D2415CF
  5
C90E73C08D2415D2
331
C90E73C08D2415D0
  5
C90E73C08D2415D3
331
C90E73C08D2415D1
  5
C90E73C08D2415D4
331
C90E73C08D2415D2
  5
C90E73C08D2415D5
331
C90E73C08D2415D3
  5
C90E73C08D2415D6
331
C90E73C08D2415D4
  5
C90E73C08D2415D7
331
C90E73C08D2415D5
  5
C90E73C08D2415DA
331
C90E73C08D2415D6
  5
C90E73C08D2415DB
331
C90E73C08D2415D7
  5
C90E73C08D2415DC
331
C90E73C08D2415D8
  5
C90E73C08D2415DD
331
C90E73C08D2415D9
  5
C90E73C08D2415DE
331
C90E73C08D2415DA
  5
C90E73C08D2415DF
331
C90E73C08D2415DB
  5
C90E73C08D2415E0
331
C90E73C08D2415DC
  5
C90E73C08D2415E1
331
C90E73C08D2415DD
  5
C90E73C08D2415E2
331
C90E73C08D2415DE
  5
C90E73C08D2415E3
331
C90E73C08D2415DF
  5
C90E73C08D2415E4
331
C90E73C08D2415E0
  5
C90E73C08D2415E5
331
C90E73C08D2415E1
  5
C90E73C08D2415E6
331
C90E73C08D2415E2
  5
C90E73C08D2415E7
331
C90E73C08D2415E3
  5
C90E73C08D2415E8
331
C90E73C08D2415E4
  5
C90E73C08D2415F2
331
C90E73C08D2415E5
  5
C90E73C08D241657
331
C90E73C08D2415E6
  5
C90E73C08D241658
331
C90E73C08D2415E7
  5
C90E73C08D24165B
331
C90E73C08D2415E8
  5
C90E73C08D24165C
331
C90E73C08D2415F2
  5
C90E73C08D24165D
331
C90E73C08D241657
  5
C90E73C08D24165E
331
C90E73C08D241658
  5
C90E73C08D241660
331
C90E73C08D24165B
  5
C90E73C08D241663
331
C90E73C08D24165C
  5
C90E73C08D241664
331
C90E73C08D24165D
  5
C90E73C08D241665
331
C90E73C08D24165E
  5
C90E73C08D241666
331
C90E73C08D24165F
  5
C90E73C08D241667
331
C90E73C08D241660
  5
C90E73C08D241662
331
C90E73C08D241662
  5
C90E73C08D241668
331
C90E73C08D241663
  5
C90E73C08D241669
331
C90E73C08D241664
  5
C90E73C08D24166B
331
C90E73C08D241665
  5
C90E73C08D24166C
331
C90E73C08D241666
  5
C90E73C08D24166D
331
C90E73C08D241667
  5
C90E73C08D24166E
331
C90E73C08D241668
  5
C90E73C08D241696
331
C90E73C08D241669
  5
C90E73C08D24165F
331
C90E73C08D24166A
  5
C90E73C08D241697
331
C90E73C08D24166C
  5
C90E73C08D241698
331
C90E73C08D24166D
  5
C90E73C08D241699
331
C90E73C08D24166E
  5
C90E73C08D24169A
331
C90E73C08D241696
  5
C90E73C08D24169B
331
C90E73C08D241697
  5
C90E73C08D24169C
331
C90E73C08D241698
  5
C90E73C08D24169D
331
C90E73C08D241699
  5
C90E73C08D24169E
331
C90E73C08D24169A
  5
C90E73C08D24169F
331
C90E73C08D24169B
  5
C90E73C08D2416A0
331
C90E73C08D24169C
  5
C90E73C08D2416A1
331
C90E73C08D24169D
  5
C90E73C08D2416A2
331
C90E73C08D24169E
  5
C90E73C08D2416A3
331
C90E73C08D24169F
  5
C90E73C08D2416A4
331
C90E73C08D2416A0
  5
C90E73C08D2416A5
331
C90E73C08D2416A1
  5
C90E73C08D2416A6
331
C90E73C08D2416A2
  5
C90E73C08D2416A7
331
C90E73C08D2416A3
  5
C90E73C08D2416A8
331
C90E73C08D2416A4
  5
C90E73C08D2416A9
331
C90E73C08D2416A5
  5
C90E73C08D24171E
331
C90E73C08D2416A6
  5
C90E73C08D241788
331
C90E73C08D2416A7
  5
C90E73C08D24178B
331
C90E73C08D2416A8
  5
C90E73C08D241792
331
C90E73C08D2416A9
  5
C90E73C08D241793
331
C90E73C08D24178B
  5
C90E73C08D241795
331
C90E73C08D241801
  5
C90E73C08D241305
  0
SORTENTSTABLE
  5
C90E73C08D241441
102
{ACAD_REACTORS
330
C90E73C08D2413F4
102
}
330
C90E73C08D2413F4
100
AcDbSortentsTable
330
C90E73C08D2413E7
331
C90E73C08D2413F1
  5
C90E73C08D24143A
331
C90E73C08D2413ED
  5
C90E73C08D2413F2
331
C90E73C08D2413F0
  5
C90E73C08D241439
331
C90E73C08D2413F3
  5
C90E73C08D24143C
331
C90E73C08D2413F2
  5
C90E73C08D24143B
331
C90E73C08D2413EF
  5
C90E73C08D241438
331
C90E73C08D24143D
  5
C90E73C08D24143F
331
C90E73C08D2413EE
  5
C90E73C08D2413F3
331
C90E73C08D24143C
  5
C90E73C08D24143E
331
C90E73C08D24143F
  5
C90E73C08D2413F1
331
C90E73C08D24143E
  5
C90E73C08D2413EE
331
C90E73C08D241439
  5
C90E73C08D2413EF
331
C90E73C08D241438
  5
C90E73C08D2413ED
331
C90E73C08D24143B
  5
C90E73C08D24143D
331
C90E73C08D24143A
  5
C90E73C08D2413F0
  0
SORTENTSTABLE
  5
C90E73C08D2414D4
102
{ACAD_REACTORS
330
C90E73C08D2414D3
102
}
330
C90E73C08D2414D3
100
AcDbSortentsTable
330
C90E73C08D2414AB
331
C90E73C08D2414D1
  5
C90E73C08D2414CD
331
C90E73C08D2414D0
  5
C90E73C08D2414CE
331
C90E73C08D2414D2
  5
C90E73C08D2414CF
331
C90E73C08D2414CD
  5
C90E73C08D2414D2
331
C90E73C08D2414CC
  5
C90E73C08D2414D1
331
C90E73C08D2414CF
  5
C90E73C08D2414CC
331
C90E73C08D2414CE
  5
C90E73C08D2414CB
331
C90E73C08D2414CB
  5
C90E73C08D2414D0
  0
SORTENTSTABLE
  5
C90E73C08D241785
102
{ACAD_REACTORS
330
C90E73C08D241784
102
}
330
C90E73C08D241784
100
AcDbSortentsTable
330
C90E73C08D241776
  0
ACDBDETAILVIEWSTYLE
  5
C90E73C08D24137D
102
{ACAD_REACTORS
330
C90E73C08D24137C
102
}
330
C90E73C08D24137C
100
AcDbModelDocViewStyle
 70
     0
  3
Imperial24
290
     0
300
Imperial24
 90
        0
100
AcDbDetailViewStyle
 70
     0
 71
     0
 90
        3
 71
     1
340
C90E73C08D240FF4
 62
   256
 40
0.24
340
0
 62
   256
 40
0.24
300

 40
0.36
280
     3
 71
     2
340
C90E73C08D240FF8
 90
       25
 62
   256
 71
     3
340
C90E73C08D240FF4
 62
   256
 40
0.24
 90
        1
 40
0.75
 90
        1
300
%<\AcVar ViewType \f "%tc1">% %<\AcVar ViewDetailId>%\PSCALE %<\AcVar ViewScale \f "%sn">%
 71
     4
340
C90E73C08D240FF8
 90
       25
 62
   256
340
C90E73C08D240FF8
 90
       25
 62
   256
280
     0
  0
LAYOUT
  5
C90E73C08D241000
102
{ACAD_REACTORS
330
C90E73C08D240FFC
102
}
330
C90E73C08D240FFC
100
AcDbPlotSettings
  1

  2
C:\Program Files\ACAD2000\plotters\LaserJet 4V.pc3
  4

  6

 40
0.0
 41
0.0
 42
0.0
 43
0.0
 44
0.0
 45
0.0
 46
0.0
 47
0.0
 48
0.0
 49
0.0
140
0.0
141
0.0
142
1.0
143
1.0
 70
   688
 72
     0
 73
     0
 74
     5
  7
Harvey Std Plot Style.ctb
 75
    16
147
1.0
 76
     0
 77
     2
 78
   300
148
0.0
149
0.0
100
AcDbLayout
  1
Layout1
 70
     0
 71
     1
 10
0.0
 20
0.0
 11
12.0
 21
9.0
 12
0.0
 22
0.0
 32
0.0
 14
1.000000000000000E+20
 24
1.000000000000000E+20
 34
1.000000000000000E+20
 15
-1.000000000000000E+20
 25
-1.000000000000000E+20
 35
-1.000000000000000E+20
146
0.0
 13
0.0
 23
0.0
 33
0.0
 16
1.0
 26
0.0
 36
0.0
 17
0.0
 27
1.0
 37
0.0
 76
     0
330
C90E73C08D240FFD
  0
LAYOUT
  5
C90E73C08D241004
102
{ACAD_XDICTIONARY
360
C90E73C08D24172F
102
}
102
{ACAD_REACTORS
330
C90E73C08D240FFC
102
}
330
C90E73C08D240FFC
100
AcDbPlotSettings
  1

  2
LaserJet 4V.pc3
  4
ANSI_B_(11.00_x_17.00_Inches)
  6
A
 40
5.027082920074462
 41
5.027082920074462
 42
9.26043701171875
 43
5.027069091796875
 44
279.3999938964844
 45
431.7999877929686
 46
0.0
 47
44.70399999999999
 48
-0.0056512370320974
 49
-0.3833980371725261
140
15.48858910402249
141
19.03910464688798
142
1.0
143
1.484478262291051
 70
 11956
 72
     0
 73
     0
 74
     4
  7
Harvey Std Plot Style.ctb
 75
     0
147
0.6736373481526511
 76
     0
 77
     2
 78
   300
148
0.1435414206152728
149
9.738310144182159
100
AcDbLayout
  1
Model
 70
     1
 71
     0
 10
0.0
 20
0.0
 11
12.0
 21
9.0
 12
0.0
 22
0.0
 32
0.0
 14
0.0
 24
0.0
 34
0.0
 15
0.0
 25
0.0
 35
0.0
146
0.0
 13
0.0
 23
0.0
 33
0.0
 16
1.0
 26
0.0
 36
0.0
 17
0.0
 27
1.0
 37
0.0
 76
     0
330
C90E73C08D241001
331
C90E73C08D24132E
  0
MATERIAL
  5
C90E73C08D241339
102
{ACAD_XDICTIONARY
360
C90E73C08D24133A
102
}
102
{ACAD_REACTORS
330
C90E73C08D241330
102
}
330
C90E73C08D241330
100
AcDbMaterial
  1
ByBlock
 72
     0
 43
0.0208333333333333
 43
0.0
 43
0.0
 43
0.0
 43
0.0
 43
0.0208333333333333
 43
0.0
 43
0.0
 43
0.0
 43
0.0
 43
1.0
 43
0.0
 43
0.0
 43
0.0
 43
0.0
 43
1.0
 77
     0
 47
0.0208333333333333
 47
0.0
 47
0.0
 47
0.0
 47
0.0
 47
0.0208333333333333
 47
0.0
 47
0.0
 47
0.0
 47
0.0
 47
1.0
 47
0.0
 47
0.0
 47
0.0
 47
0.0
 47
1.0
171
     0
 49
0.0208333333333333
 49
0.0
 49
0.0
 49
0.0
 49
0.0
 49
0.0208333333333333
 49
0.0
 49
0.0
 49
0.0
 49
0.0
 49
1.0
 49
0.0
 49
0.0
 49
0.0
 49
0.0
 49
1.0
175
     0
142
0.0208333333333333
142
0.0
142
0.0
142
0.0
142
0.0
142
0.0208333333333333
142
0.0
142
0.0
142
0.0
142
0.0
142
1.0
142
0.0
142
0.0
142
0.0
142
0.0
142
1.0
179
     0
144
0.0208333333333333
144
0.0
144
0.0
144
0.0
144
0.0
144
0.0208333333333333
144
0.0
144
0.0
144
0.0
144
0.0
144
1.0
144
0.0
144
0.0
144
0.0
144
0.0
144
1.0
147
0.0208333333333333
147
0.0
147
0.0
147
0.0
147
0.0
147
0.0208333333333333
147
0.0
147
0.0
147
0.0
147
0.0
147
1.0
147
0.0
147
0.0
147
0.0
147
0.0
147
1.0
  0
MATERIAL
  5
C90E73C08D241331
102
{ACAD_XDICTIONARY
360
C90E73C08D241332
102
}
102
{ACAD_REACTORS
330
C90E73C08D241330
102
}
330
C90E73C08D241330
100
AcDbMaterial
  1
ByLayer
 72
     0
 43
0.0208333333333333
 43
0.0
 43
0.0
 43
0.0
 43
0.0
 43
0.0208333333333333
 43
0.0
 43
0.0
 43
0.0
 43
0.0
 43
1.0
 43
0.0
 43
0.0
 43
0.0
 43
0.0
 43
1.0
 77
     0
 47
0.0208333333333333
 47
0.0
 47
0.0
 47
0.0
 47
0.0
 47
0.0208333333333333
 47
0.0
 47
0.0
 47
0.0
 47
0.0
 47
1.0
 47
0.0
 47
0.0
 47
0.0
 47
0.0
 47
1.0
171
     0
 49
0.0208333333333333
 49
0.0
 49
0.0
 49
0.0
 49
0.0
 49
0.0208333333333333
 49
0.0
 49
0.0
 49
0.0
 49
0.0
 49
1.0
 49
0.0
 49
0.0
 49
0.0
 49
0.0
 49
1.0
175
     0
142
0.0208333333333333
142
0.0
142
0.0
142
0.0
142
0.0
142
0.0208333333333333
142
0.0
142
0.0
142
0.0
142
0.0
142
1.0
142
0.0
142
0.0
142
0.0
142
0.0
142
1.0
179
     0
144
0.0208333333333333
144
0.0
144
0.0
144
0.0
144
0.0
144
0.0208333333333333
144
0.0
144
0.0
144
0.0
144
0.0
144
1.0
144
0.0
144
0.0
144
0.0
144
0.0
144
1.0
147
0.0208333333333333
147
0.0
147
0.0
147
0.0
147
0.0
147
0.0208333333333333
147
0.0
147
0.0
147
0.0
147
0.0
147
1.0
147
0.0
147
0.0
147
0.0
147
0.0
147
1.0
  0
MATERIAL
  5
C90E73C08D241341
102
{ACAD_XDICTIONARY
360
C90E73C08D241342
102
}
102
{ACAD_REACTORS
330
C90E73C08D241330
102
}
330
C90E73C08D241330
100
AcDbMaterial
  1
Global
 72
     0
 43
0.0208333333333333
 43
0.0
 43
0.0
 43
0.0
 43
0.0
 43
0.0208333333333333
 43
0.0
 43
0.0
 43
0.0
 43
0.0
 43
1.0
 43
0.0
 43
0.0
 43
0.0
 43
0.0
 43
1.0
 77
     0
 47
0.0208333333333333
 47
0.0
 47
0.0
 47
0.0
 47
0.0
 47
0.0208333333333333
 47
0.0
 47
0.0
 47
0.0
 47
0.0
 47
1.0
 47
0.0
 47
0.0
 47
0.0
 47
0.0
 47
1.0
171
     0
 49
0.0208333333333333
 49
0.0
 49
0.0
 49
0.0
 49
0.0
 49
0.0208333333333333
 49
0.0
 49
0.0
 49
0.0
 49
0.0
 49
1.0
 49
0.0
 49
0.0
 49
0.0
 49
0.0
 49
1.0
175
     0
142
0.0208333333333333
142
0.0
142
0.0
142
0.0
142
0.0
142
0.0208333333333333
142
0.0
142
0.0
142
0.0
142
0.0
142
1.0
142
0.0
142
0.0
142
0.0
142
0.0
142
1.0
179
     0
144
0.0208333333333333
144
0.0
144
0.0
144
0.0
144
0.0
144
0.0208333333333333
144
0.0
144
0.0
144
0.0
144
0.0
144
1.0
144
0.0
144
0.0
144
0.0
144
0.0
144
1.0
147
0.0208333333333333
147
0.0
147
0.0
147
0.0
147
0.0
147
0.0208333333333333
147
0.0
147
0.0
147
0.0
147
0.0
147
1.0
147
0.0
147
0.0
147
0.0
147
0.0
147
1.0
  0
MLEADERSTYLE
  5
C90E73C08D241378
102
{ACAD_REACTORS
330
C90E73C08D241377
102
}
330
C90E73C08D241377
100
AcDbMLeaderStyle
179
     2
170
     2
171
     1
172
     0
 90
        2
 40
0.0
 41
0.0
173
     1
 91
-1056964608
340
C90E73C08D240FF6
 92
       -2
290
     1
 42
0.09
291
     1
 43
0.36
  3
Standard
 44
0.18
300

342
C90E73C08D240FF4
174
     1
178
     6
175
     1
176
     0
 93
-1056964608
 45
0.18
292
     0
297
     0
 46
0.18
 94
-1056964608
 47
1.0
 49
1.0
140
1.0
293
     1
141
0.0
294
     1
177
     0
142
1.0
295
     0
296
     0
143
0.125
271
     0
272
     9
273
     9
298
     1
  0
MLINESTYLE
  5
C90E73C08D240FFA
102
{ACAD_REACTORS
330
C90E73C08D240FF9
102
}
330
C90E73C08D240FF9
100
AcDbMlineStyle
  2
STANDARD
 70
     0
  3

 62
   256
 51
90.0
 52
90.0
 71
     2
 49
0.5
 62
   256
  6
BYLAYER
 49
-0.5
 62
   256
  6
BYLAYER
  0
ACDBPLACEHOLDER
  5
C90E73C08D240FF2
102
{ACAD_REACTORS
330
C90E73C08D240FF1
102
}
330
C90E73C08D240FF1
  0
SCALE
  5
C90E73C08D241366
102
{ACAD_REACTORS
330
C90E73C08D241365
102
}
330
C90E73C08D241365
100
AcDbScale
 70
     0
300
1:1
140
1.0
141
1.0
290
     1
  0
SCALE
  5
C90E73C08D241367
102
{ACAD_REACTORS
330
C90E73C08D241365
102
}
330
C90E73C08D241365
100
AcDbScale
 70
     0
300
1/128" = 1'-0"
140
0.0078125
141
12.0
290
     0
  0
SCALE
  5
C90E73C08D241368
102
{ACAD_REACTORS
330
C90E73C08D241365
102
}
330
C90E73C08D241365
100
AcDbScale
 70
     0
300
1/64" = 1'-0"
140
0.015625
141
12.0
290
     0
  0
SCALE
  5
C90E73C08D241369
102
{ACAD_REACTORS
330
C90E73C08D241365
102
}
330
C90E73C08D241365
100
AcDbScale
 70
     0
300
1/32" = 1'-0"
140
0.03125
141
12.0
290
     0
  0
SCALE
  5
C90E73C08D24136A
102
{ACAD_REACTORS
330
C90E73C08D241365
102
}
330
C90E73C08D241365
100
AcDbScale
 70
     0
300
1/16" = 1'-0"
140
0.0625
141
12.0
290
     0
  0
SCALE
  5
C90E73C08D24136B
102
{ACAD_REACTORS
330
C90E73C08D241365
102
}
330
C90E73C08D241365
100
AcDbScale
 70
     0
300
3/32" = 1'-0"
140
0.09375
141
12.0
290
     0
  0
SCALE
  5
C90E73C08D24136C
102
{ACAD_REACTORS
330
C90E73C08D241365
102
}
330
C90E73C08D241365
100
AcDbScale
 70
     0
300
1/8" = 1'-0"
140
0.125
141
12.0
290
     0
  0
SCALE
  5
C90E73C08D24136D
102
{ACAD_REACTORS
330
C90E73C08D241365
102
}
330
C90E73C08D241365
100
AcDbScale
 70
     0
300
3/16" = 1'-0"
140
0.1875
141
12.0
290
     0
  0
SCALE
  5
C90E73C08D24136E
102
{ACAD_REACTORS
330
C90E73C08D241365
102
}
330
C90E73C08D241365
100
AcDbScale
 70
     0
300
1/4" = 1'-0"
140
0.25
141
12.0
290
     0
  0
SCALE
  5
C90E73C08D24136F
102
{ACAD_REACTORS
330
C90E73C08D241365
102
}
330
C90E73C08D241365
100
AcDbScale
 70
     0
300
3/8" = 1'-0"
140
0.375
141
12.0
290
     0
  0
SCALE
  5
C90E73C08D241370
102
{ACAD_REACTORS
330
C90E73C08D241365
102
}
330
C90E73C08D241365
100
AcDbScale
 70
     0
300
1/2" = 1'-0"
140
0.5
141
12.0
290
     0
  0
SCALE
  5
C90E73C08D241371
102
{ACAD_REACTORS
330
C90E73C08D241365
102
}
330
C90E73C08D241365
100
AcDbScale
 70
     0
300
3/4" = 1'-0"
140
0.75
141
12.0
290
     0
  0
SCALE
  5
C90E73C08D241372
102
{ACAD_REACTORS
330
C90E73C08D241365
102
}
330
C90E73C08D241365
100
AcDbScale
 70
     0
300
1" = 1'-0"
140
1.0
141
12.0
290
     0
  0
SCALE
  5
C90E73C08D241373
102
{ACAD_REACTORS
330
C90E73C08D241365
102
}
330
C90E73C08D241365
100
AcDbScale
 70
     0
300
1-1/2" = 1'-0"
140
1.5
141
12.0
290
     0
  0
SCALE
  5
C90E73C08D241374
102
{ACAD_REACTORS
330
C90E73C08D241365
102
}
330
C90E73C08D241365
100
AcDbScale
 70
     0
300
3" = 1'-0"
140
3.0
141
12.0
290
     0
  0
SCALE
  5
C90E73C08D241375
102
{ACAD_REACTORS
330
C90E73C08D241365
102
}
330
C90E73C08D241365
100
AcDbScale
 70
     0
300
6" = 1'-0"
140
6.0
141
12.0
290
     0
  0
SCALE
  5
C90E73C08D241376
102
{ACAD_REACTORS
330
C90E73C08D241365
102
}
330
C90E73C08D241365
100
AcDbScale
 70
     0
300
1'-0" = 1'-0"
140
12.0
141
12.0
290
     0
  0
ACDBSECTIONVIEWSTYLE
  5
C90E73C08D24137B
102
{ACAD_REACTORS
330
C90E73C08D241379
102
}
330
C90E73C08D241379
100
AcDbModelDocViewStyle
 70
     0
  3
Imperial24
290
     0
300
Imperial24
 90
        0
100
AcDbSectionViewStyle
 70
     0
 71
     0
 90
       78
 71
     1
340
C90E73C08D240FF4
 62
   256
 40
0.24
340
0
340
0
 62
   256
 40
0.24
300
I, O, Q, S, X, Z
 40
0.48
 90
        3
 40
0.18
 90
        1
 71
     2
340
C90E73C08D24137A
 90
       25
 62
   256
340
C90E73C08D240FF8
 90
       50
 62
   256
 40
0.24
 40
0.0
 40
0.24
 71
     3
340
C90E73C08D240FF4
 62
   256
 40
0.24
 90
        1
 40
0.75
 90
        1
300
%<\AcVar ViewType \f "%tc1">% %<\AcVar ViewSectionStartId>%-%<\AcVar ViewSectionEndId>%\PSCALE %<\AcVar ViewScale \f "%sn">%
 71
     4
 62
   256
 62
   257
300
ANSI31
 40
1.0
 90
        0
290
     0
290
     0
 90
        6
 40
0.0
 40
1.570796326794896
 40
0.2617993877991494
 40
1.308996938995747
 40
-0.2617993877991494
 40
1.832595714594045
  0
TABLESTYLE
  5
C90E73C08D241364
102
{ACAD_XDICTIONARY
360
C90E73C08D2418DC
102
}
102
{ACAD_REACTORS
330
C90E73C08D241363
102
}
330
C90E73C08D241363
100
AcDbTableStyle
280
     0
  3
Standard
 70
     0
 71
     0
 40
0.06
 41
0.06
280
     0
281
     0
  7
STANDARD
140
0.18
170
     2
 62
     0
 63
     7
283
     0
 90
      512
 91
        0
  1

274
    -2
284
     1
 64
     0
275
    -2
285
     1
 65
     0
276
    -2
286
     1
 66
     0
277
    -2
287
     1
 67
     0
278
    -2
288
     1
 68
     0
279
    -2
289
     1
 69
     0
  7
STANDARD
140
0.25
170
     5
 62
     0
 63
     7
283
     0
 90
      512
 91
        0
  1

274
    -2
284
     1
 64
     0
275
    -2
285
     1
 65
     0
276
    -2
286
     1
 66
     0
277
    -2
287
     1
 67
     0
278
    -2
288
     1
 68
     0
279
    -2
289
     1
 69
     0
  7
STANDARD
140
0.18
170
     5
 62
     0
 63
     7
283
     0
 90
      512
 91
        0
  1

274
    -2
284
     1
 64
     0
275
    -2
285
     1
 65
     0
276
    -2
286
     1
 66
     0
277
    -2
287
     1
 67
     0
278
    -2
288
     1
 68
     0
279
    -2
289
     1
 69
     0
  0
VISUALSTYLE
  5
C90E73C08D24134F
102
{ACAD_REACTORS
330
C90E73C08D241349
102
}
330
C90E73C08D241349
100
AcDbVisualStyle
  2
2dWireframe
 70
     4
177
     3
291
     0
 70
    58
 90
        0
176
     1
 90
        2
176
     1
 90
        0
176
     1
 90
        0
176
     1
 40
0.6
176
     1
 40
30.0
176
     1
 62
     7
420
 16777215
176
     1
 90
        1
176
     1
 90
        4
176
     1
 62
     7
176
     1
 62
   257
176
     1
 90
        1
176
     1
 90
        1
176
     1
 40
1.0
176
     1
 90
        0
176
     1
 62
   257
176
     1
 40
1.0
176
     1
 90
        1
176
     1
 90
        6
176
     1
 90
        2
176
     1
 62
     7
176
     1
 90
        5
176
     1
 90
        0
176
     1
 90
        0
176
     1
290
     0
176
     1
 90
        1
176
     1
 40
0.0
176
     1
 90
        0
176
     1
290
     1
176
     1
290
     1
176
     1
290
     0
176
     1
290
     0
176
     1
290
     0
176
     1
290
     0
176
     1
290
     0
176
     1
290
     0
176
     1
290
     0
176
     1
 90
       50
176
     1
 40
0.0
176
     1
 40
1.0
176
     1
 90
        0
176
     1
 62
    18
420
        0
176
     1
 90
       50
176
     1
 90
        3
176
     1
 62
     5
420
      255
176
     1
290
     0
176
     1
 90
       50
176
     1
 90
       50
176
     1
 90
       50
176
     1
290
     0
176
     1
 90
       50
176
     1
 62
   256
176
     0
 40
1.0
176
     0
 90
        2
176
     1
  1
strokes_ogs.tif
176
     1
290
     0
176
     1
 40
1.0
176
     1
 40
1.0
176
     1
  0
VISUALSTYLE
  5
C90E73C08D24134E
102
{ACAD_REACTORS
330
C90E73C08D241349
102
}
330
C90E73C08D241349
100
AcDbVisualStyle
  2
Basic
 70
     7
177
     3
291
     1
 70
    58
 90
        1
176
     1
 90
        0
176
     1
 90
        1
176
     1
 90
        0
176
     1
 40
0.6
176
     1
 40
30.0
176
     1
 62
     7
420
 16777215
176
     1
 90
        0
176
     1
 90
        4
176
     1
 62
     7
176
     1
 62
   257
176
     1
 90
        1
176
     1
 90
        1
176
     1
 40
1.0
176
     1
 90
        8
176
     1
 62
     7
176
     1
 40
1.0
176
     1
 90
        1
176
     1
 90
        6
176
     1
 90
        2
176
     1
 62
     7
176
     1
 90
        5
176
     1
 90
        0
176
     1
 90
        0
176
     1
290
     0
176
     1
 90
        1
176
     1
 40
0.0
176
     1
 90
        0
176
     1
290
     0
176
     1
290
     1
176
     1
290
     1
176
     1
290
     0
176
     1
290
     0
176
     1
290
     0
176
     1
290
     0
176
     1
290
     0
176
     1
290
     0
176
     1
 90
       50
176
     1
 40
0.0
176
     1
 40
1.0
176
     1
 90
        0
176
     1
 62
    18
420
        0
176
     1
 90
       50
176
     1
 90
        3
176
     1
 62
     5
420
      255
176
     1
290
     0
176
     1
 90
       50
176
     1
 90
       50
176
     1
 90
       50
176
     1
290
     0
176
     1
 90
       50
176
     1
 62
   256
176
     0
 40
1.0
176
     0
 90
        2
176
     1
  1
strokes_ogs.tif
176
     1
290
     0
176
     1
 40
1.0
176
     1
 40
1.0
176
     1
  0
VISUALSTYLE
  5
C90E73C08D241355
102
{ACAD_REACTORS
330
C90E73C08D241349
102
}
330
C90E73C08D241349
100
AcDbVisualStyle
  2
Brighten
 70
    12
177
     3
291
     1
 70
    58
 90
        2
176
     1
 90
        2
176
     1
 90
        0
176
     1
 90
        0
176
     1
 40
0.6
176
     1
 40
30.0
176
     1
 62
     7
420
 16777215
176
     1
 90
        1
176
     1
 90
        4
176
     1
 62
     7
176
     1
 62
   257
176
     1
 90
        1
176
     1
 90
        1
176
     1
 40
1.0
176
     1
 90
        8
176
     1
 62
     7
176
     1
 40
1.0
176
     1
 90
        1
176
     1
 90
        6
176
     1
 90
        2
176
     1
 62
     7
176
     1
 90
        5
176
     1
 90
        0
176
     1
 90
        0
176
     1
290
     0
176
     1
 90
        1
176
     1
 40
50.0
176
     1
 90
        0
176
     1
290
     0
176
     1
290
     1
176
     1
290
     1
176
     1
290
     0
176
     1
290
     0
176
     1
290
     0
176
     1
290
     0
176
     1
290
     0
176
     1
290
     0
176
     1
 90
       50
176
     1
 40
0.0
176
     1
 40
1.0
176
     1
 90
        0
176
     1
 62
    18
420
        0
176
     1
 90
       50
176
     1
 90
        3
176
     1
 62
     5
420
      255
176
     1
290
     0
176
     1
 90
       50
176
     1
 90
       50
176
     1
 90
       50
176
     1
290
     0
176
     1
 90
       50
176
     1
 62
   256
176
     0
 40
1.0
176
     0
 90
        2
176
     1
  1
strokes_ogs.tif
176
     1
290
     0
176
     1
 40
1.0
176
     1
 40
1.0
176
     1
  0
VISUALSTYLE
  5
C90E73C08D241359
102
{ACAD_REACTORS
330
C90E73C08D241349
102
}
330
C90E73C08D241349
100
AcDbVisualStyle
  2
ColorChange
 70
    16
177
     3
291
     1
 70
    58
 90
        2
176
     1
 90
        2
176
     1
 90
        3
176
     1
 90
        0
176
     1
 40
0.6
176
     1
 40
30.0
176
     1
 62
     8
420
  8421504
176
     1
 90
        1
176
     1
 90
        4
176
     1
 62
     7
176
     1
 62
   257
176
     1
 90
        1
176
     1
 90
        1
176
     1
 40
1.0
176
     1
 90
        8
176
     1
 62
     8
420
  8421504
176
     1
 40
1.0
176
     1
 90
        1
176
     1
 90
        6
176
     1
 90
        2
176
     1
 62
     7
176
     1
 90
        5
176
     1
 90
        0
176
     1
 90
        0
176
     1
290
     0
176
     1
 90
        1
176
     1
 40
0.0
176
     1
 90
        0
176
     1
290
     0
176
     1
290
     1
176
     1
290
     1
176
     1
290
     0
176
     1
290
     0
176
     1
290
     0
176
     1
290
     0
176
     1
290
     0
176
     1
290
     0
176
     1
 90
       50
176
     1
 40
0.0
176
     1
 40
1.0
176
     1
 90
        0
176
     1
 62
    18
420
        0
176
     1
 90
       50
176
     1
 90
        3
176
     1
 62
     5
420
      255
176
     1
290
     0
176
     1
 90
       50
176
     1
 90
       50
176
     1
 90
       50
176
     1
290
     0
176
     1
 90
       50
176
     1
 62
   256
176
     0
 40
1.0
176
     0
 90
        2
176
     1
  1
strokes_ogs.tif
176
     1
290
     0
176
     1
 40
1.0
176
     1
 40
1.0
176
     1
  0
VISUALSTYLE
  5
C90E73C08D241352
102
{ACAD_REACTORS
330
C90E73C08D241349
102
}
330
C90E73C08D241349
100
AcDbVisualStyle
  2
Conceptual
 70
     9
177
     3
291
     0
 70
    58
 90
        3
176
     1
 90
        2
176
     1
 90
        0
176
     1
 90
        0
176
     1
 40
0.6
176
     1
 40
30.0
176
     1
 62
     7
420
 16777215
176
     1
 90
        2
176
     1
 90
        2
176
     1
 62
     7
176
     1
 62
   257
176
     1
 90
        1
176
     1
 90
        1
176
     1
 40
179.0
176
     1
 90
        8
176
     1
 62
     7
176
     1
 40
1.0
176
     1
 90
        1
176
     1
 90
        6
176
     1
 90
        2
176
     1
 62
     7
176
     1
 90
        3
176
     1
 90
        0
176
     1
 90
        0
176
     1
290
     0
176
     1
 90
        1
176
     1
 40
0.0
176
     1
 90
        0
176
     1
290
     0
176
     1
290
     1
176
     1
290
     1
176
     1
290
     0
176
     1
290
     0
176
     1
290
     0
176
     1
290
     0
176
     1
290
     0
176
     1
290
     0
176
     1
 90
       50
176
     1
 40
0.0
176
     1
 40
1.0
176
     1
 90
        0
176
     1
 62
    18
420
        0
176
     1
 90
       50
176
     1
 90
        3
176
     1
 62
     5
420
      255
176
     1
290
     0
176
     1
 90
       50
176
     1
 90
       50
176
     1
 90
       50
176
     1
290
     0
176
     1
 90
       50
176
     1
 62
   256
176
     0
 40
1.0
176
     0
 90
        2
176
     1
  1
strokes_ogs.tif
176
     1
290
     0
176
     1
 40
1.0
176
     1
 40
1.0
176
     1
  0
VISUALSTYLE
  5
C90E73C08D241354
102
{ACAD_REACTORS
330
C90E73C08D241349
102
}
330
C90E73C08D241349
100
AcDbVisualStyle
  2
Dim
 70
    11
177
     3
291
     1
 70
    58
 90
        2
176
     1
 90
        2
176
     1
 90
        0
176
     1
 90
        0
176
     1
 40
0.6
176
     1
 40
30.0
176
     1
 62
     7
420
 16777215
176
     1
 90
        1
176
     1
 90
        4
176
     1
 62
     7
176
     1
 62
   257
176
     1
 90
        1
176
     1
 90
        1
176
     1
 40
1.0
176
     1
 90
        8
176
     1
 62
     7
176
     1
 40
1.0
176
     1
 90
        1
176
     1
 90
        6
176
     1
 90
        2
176
     1
 62
     7
176
     1
 90
        5
176
     1
 90
        0
176
     1
 90
        0
176
     1
290
     0
176
     1
 90
        1
176
     1
 40
-50.0
176
     1
 90
        0
176
     1
290
     0
176
     1
290
     1
176
     1
290
     1
176
     1
290
     0
176
     1
290
     0
176
     1
290
     0
176
     1
290
     0
176
     1
290
     0
176
     1
290
     0
176
     1
 90
       50
176
     1
 40
0.0
176
     1
 40
1.0
176
     1
 90
        0
176
     1
 62
    18
420
        0
176
     1
 90
       50
176
     1
 90
        3
176
     1
 62
     5
420
      255
176
     1
290
     0
176
     1
 90
       50
176
     1
 90
       50
176
     1
 90
       50
176
     1
290
     0
176
     1
 90
       50
176
     1
 62
   256
176
     0
 40
1.0
176
     0
 90
        2
176
     1
  1
strokes_ogs.tif
176
     1
290
     0
176
     1
 40
1.0
176
     1
 40
1.0
176
     1
  0
VISUALSTYLE
  5
C90E73C08D241361
102
{ACAD_REACTORS
330
C90E73C08D241349
102
}
330
C90E73C08D241349
100
AcDbVisualStyle
  2
EdgeColorOff
 70
    22
177
     3
291
     1
 70
    58
 90
        2
176
     0
 90
        2
176
     0
 90
        0
176
     0
 90
        0
176
     0
 40
0.6
176
     0
 40
30.0
176
     0
 62
     7
420
 16777215
176
     0
 90
        1
176
     0
 90
        4
176
     0
 62
     7
176
     0
 62
   257
176
     0
 90
        1
176
     0
 90
        1
176
     0
 40
1.0
176
     0
 90
        8
176
     2
 62
     7
176
     0
 40
1.0
176
     0
 90
        1
176
     0
 90
        6
176
     0
 90
        2
176
     0
 62
     7
176
     0
 90
        5
176
     0
 90
        0
176
     0
 90
        0
176
     0
290
     0
176
     0
 90
        1
176
     0
 40
0.0
176
     0
 90
        0
176
     0
290
     0
176
     0
290
     1
176
     0
290
     1
176
     0
290
     0
176
     0
290
     0
176
     0
290
     0
176
     0
290
     0
176
     0
290
     0
176
     0
290
     0
176
     0
 90
       50
176
     0
 40
0.0
176
     0
 40
1.0
176
     0
 90
        0
176
     0
 62
    18
420
        0
176
     0
 90
       50
176
     0
 90
        3
176
     0
 62
     5
420
      255
176
     0
290
     0
176
     0
 90
       50
176
     0
 90
       50
176
     0
 90
       50
176
     0
290
     0
176
     0
 90
       50
176
     0
 62
   256
176
     0
 40
1.0
176
     0
 90
        2
176
     0
  1
strokes_ogs.tif
176
     0
290
     0
176
     0
 40
1.0
176
     0
 40
1.0
176
     0
  0
VISUALSTYLE
  5
C90E73C08D241358
102
{ACAD_REACTORS
330
C90E73C08D241349
102
}
330
C90E73C08D241349
100
AcDbVisualStyle
  2
Facepattern
 70
    15
177
     3
291
     1
 70
    58
 90
        2
176
     1
 90
        2
176
     1
 90
        0
176
     1
 90
        0
176
     1
 40
0.6
176
     1
 40
30.0
176
     1
 62
     7
420
 16777215
176
     1
 90
        1
176
     1
 90
        4
176
     1
 62
     7
176
     1
 62
   257
176
     1
 90
        1
176
     1
 90
        1
176
     1
 40
1.0
176
     1
 90
        8
176
     1
 62
     7
176
     1
 40
1.0
176
     1
 90
        1
176
     1
 90
        6
176
     1
 90
        2
176
     1
 62
     7
176
     1
 90
        5
176
     1
 90
        0
176
     1
 90
        0
176
     1
290
     0
176
     1
 90
        1
176
     1
 40
0.0
176
     1
 90
        0
176
     1
290
     0
176
     1
290
     1
176
     1
290
     1
176
     1
290
     0
176
     1
290
     0
176
     1
290
     0
176
     1
290
     0
176
     1
290
     0
176
     1
290
     0
176
     1
 90
       50
176
     1
 40
0.0
176
     1
 40
1.0
176
     1
 90
        0
176
     1
 62
    18
420
        0
176
     1
 90
       50
176
     1
 90
        3
176
     1
 62
     5
420
      255
176
     1
290
     0
176
     1
 90
       50
176
     1
 90
       50
176
     1
 90
       50
176
     1
290
     0
176
     1
 90
       50
176
     1
 62
   256
176
     0
 40
1.0
176
     0
 90
        2
176
     1
  1
strokes_ogs.tif
176
     1
290
     0
176
     1
 40
1.0
176
     1
 40
1.0
176
     1
  0
VISUALSTYLE
  5
C90E73C08D24134A
102
{ACAD_REACTORS
330
C90E73C08D241349
102
}
330
C90E73C08D241349
100
AcDbVisualStyle
  2
Flat
 70
     0
177
     3
291
     1
 70
    58
 90
        2
176
     1
 90
        1
176
     1
 90
        1
176
     1
 90
        2
176
     1
 40
0.6
176
     1
 40
30.0
176
     1
 62
     7
420
 16777215
176
     1
 90
        0
176
     1
 90
        0
176
     1
 62
     7
176
     1
 62
   257
176
     1
 90
        1
176
     1
 90
        1
176
     1
 40
1.0
176
     1
 90
        8
176
     1
 62
     7
176
     1
 40
1.0
176
     1
 90
        1
176
     1
 90
        6
176
     1
 90
        2
176
     1
 62
     7
176
     1
 90
        5
176
     1
 90
        0
176
     1
 90
        0
176
     1
290
     0
176
     1
 90
       13
176
     1
 40
0.0
176
     1
 90
        0
176
     1
290
     0
176
     1
290
     1
176
     1
290
     1
176
     1
290
     0
176
     1
290
     0
176
     1
290
     0
176
     1
290
     0
176
     1
290
     0
176
     1
290
     0
176
     1
 90
       50
176
     1
 40
0.0
176
     1
 40
1.0
176
     1
 90
        0
176
     1
 62
    18
420
        0
176
     1
 90
       50
176
     1
 90
        3
176
     1
 62
     5
420
      255
176
     1
290
     0
176
     1
 90
       50
176
     1
 90
       50
176
     1
 90
       50
176
     1
290
     0
176
     1
 90
       50
176
     1
 62
   256
176
     0
 40
1.0
176
     0
 90
        2
176
     1
  1
strokes_ogs.tif
176
     1
290
     0
176
     1
 40
1.0
176
     1
 40
1.0
176
     1
  0
VISUALSTYLE
  5
C90E73C08D24134B
102
{ACAD_REACTORS
330
C90E73C08D241349
102
}
330
C90E73C08D241349
100
AcDbVisualStyle
  2
FlatWithEdges
 70
     1
177
     3
291
     1
 70
    58
 90
        2
176
     1
 90
        1
176
     1
 90
        1
176
     1
 90
        2
176
     1
 40
0.6
176
     1
 40
30.0
176
     1
 62
     7
420
 16777215
176
     1
 90
        1
176
     1
 90
        0
176
     1
 62
     7
176
     1
 62
   257
176
     1
 90
        1
176
     1
 90
        1
176
     1
 40
1.0
176
     1
 90
        0
176
     1
 62
   257
176
     1
 40
1.0
176
     1
 90
        1
176
     1
 90
        6
176
     1
 90
        2
176
     1
 62
     7
176
     1
 90
        5
176
     1
 90
        0
176
     1
 90
        0
176
     1
290
     0
176
     1
 90
       13
176
     1
 40
0.0
176
     1
 90
        0
176
     1
290
     0
176
     1
290
     1
176
     1
290
     1
176
     1
290
     0
176
     1
290
     0
176
     1
290
     0
176
     1
290
     0
176
     1
290
     0
176
     1
290
     0
176
     1
 90
       50
176
     1
 40
0.0
176
     1
 40
1.0
176
     1
 90
        0
176
     1
 62
    18
420
        0
176
     1
 90
       50
176
     1
 90
        3
176
     1
 62
     5
420
      255
176
     1
290
     0
176
     1
 90
       50
176
     1
 90
       50
176
     1
 90
       50
176
     1
290
     0
176
     1
 90
       50
176
     1
 62
   256
176
     0
 40
1.0
176
     0
 90
        2
176
     1
  1
strokes_ogs.tif
176
     1
290
     0
176
     1
 40
1.0
176
     1
 40
1.0
176
     1
  0
VISUALSTYLE
  5
C90E73C08D24134C
102
{ACAD_REACTORS
330
C90E73C08D241349
102
}
330
C90E73C08D241349
100
AcDbVisualStyle
  2
Gouraud
 70
     2
177
     3
291
     1
 70
    58
 90
        2
176
     1
 90
        2
176
     1
 90
        1
176
     1
 90
        2
176
     1
 40
0.6
176
     1
 40
30.0
176
     1
 62
     7
420
 16777215
176
     1
 90
        0
176
     1
 90
        0
176
     1
 62
     7
176
     1
 62
   257
176
     1
 90
        1
176
     1
 90
        1
176
     1
 40
1.0
176
     1
 90
        0
176
     1
 62
     7
176
     1
 40
1.0
176
     1
 90
        1
176
     1
 90
        6
176
     1
 90
        2
176
     1
 62
     7
176
     1
 90
        5
176
     1
 90
        0
176
     1
 90
        0
176
     1
290
     0
176
     1
 90
       13
176
     1
 40
0.0
176
     1
 90
        0
176
     1
290
     0
176
     1
290
     1
176
     1
290
     1
176
     1
290
     0
176
     1
290
     0
176
     1
290
     0
176
     1
290
     0
176
     1
290
     0
176
     1
290
     0
176
     1
 90
       50
176
     1
 40
0.0
176
     1
 40
1.0
176
     1
 90
        0
176
     1
 62
    18
420
        0
176
     1
 90
       50
176
     1
 90
        3
176
     1
 62
     5
420
      255
176
     1
290
     0
176
     1
 90
       50
176
     1
 90
       50
176
     1
 90
       50
176
     1
290
     0
176
     1
 90
       50
176
     1
 62
   256
176
     0
 40
1.0
176
     0
 90
        2
176
     1
  1
strokes_ogs.tif
176
     1
290
     0
176
     1
 40
1.0
176
     1
 40
1.0
176
     1
  0
VISUALSTYLE
  5
C90E73C08D24134D
102
{ACAD_REACTORS
330
C90E73C08D241349
102
}
330
C90E73C08D241349
100
AcDbVisualStyle
  2
GouraudWithEdges
 70
     3
177
     3
291
     1
 70
    58
 90
        2
176
     1
 90
        2
176
     1
 90
        1
176
     1
 90
        2
176
     1
 40
0.6
176
     1
 40
30.0
176
     1
 62
     7
420
 16777215
176
     1
 90
        1
176
     1
 90
        0
176
     1
 62
     7
176
     1
 62
   257
176
     1
 90
        1
176
     1
 90
        1
176
     1
 40
1.0
176
     1
 90
        0
176
     1
 62
   257
176
     1
 40
1.0
176
     1
 90
        1
176
     1
 90
        6
176
     1
 90
        2
176
     1
 62
     7
176
     1
 90
        5
176
     1
 90
        0
176
     1
 90
        0
176
     1
290
     0
176
     1
 90
       13
176
     1
 40
0.0
176
     1
 90
        0
176
     1
290
     0
176
     1
290
     1
176
     1
290
     1
176
     1
290
     0
176
     1
290
     0
176
     1
290
     0
176
     1
290
     0
176
     1
290
     0
176
     1
290
     0
176
     1
 90
       50
176
     1
 40
0.0
176
     1
 40
1.0
176
     1
 90
        0
176
     1
 62
    18
420
        0
176
     1
 90
       50
176
     1
 90
        3
176
     1
 62
     5
420
      255
176
     1
290
     0
176
     1
 90
       50
176
     1
 90
       50
176
     1
 90
       50
176
     1
290
     0
176
     1
 90
       50
176
     1
 62
   256
176
     0
 40
1.0
176
     0
 90
        2
176
     1
  1
strokes_ogs.tif
176
     1
290
     0
176
     1
 40
1.0
176
     1
 40
1.0
176
     1
  0
VISUALSTYLE
  5
C90E73C08D241351
102
{ACAD_REACTORS
330
C90E73C08D241349
102
}
330
C90E73C08D241349
100
AcDbVisualStyle
  2
Hidden
 70
     6
177
     3
291
     0
 70
    58
 90
        1
176
     1
 90
        2
176
     1
 90
        2
176
     1
 90
        0
176
     1
 40
0.6
176
     1
 40
30.0
176
     1
 62
     7
420
 16777215
176
     1
 90
        2
176
     1
 90
        2
176
     1
 62
     7
176
     1
 62
   257
176
     1
 90
        2
176
     1
 90
        1
176
     1
 40
40.0
176
     1
 90
        0
176
     1
 62
   257
176
     1
 40
1.0
176
     1
 90
        1
176
     1
 90
        6
176
     1
 90
        2
176
     1
 62
     7
176
     1
 90
        3
176
     1
 90
        0
176
     1
 90
        0
176
     1
290
     0
176
     1
 90
        1
176
     1
 40
0.0
176
     1
 90
        0
176
     1
290
     0
176
     1
290
     1
176
     1
290
     1
176
     1
290
     0
176
     1
290
     0
176
     1
290
     0
176
     1
290
     0
176
     1
290
     0
176
     1
290
     0
176
     1
 90
       50
176
     1
 40
0.0
176
     1
 40
1.0
176
     1
 90
        0
176
     1
 62
    18
420
        0
176
     1
 90
       50
176
     1
 90
        3
176
     1
 62
     5
420
      255
176
     1
290
     0
176
     1
 90
       50
176
     1
 90
       50
176
     1
 90
       50
176
     1
290
     0
176
     1
 90
       50
176
     1
 62
   256
176
     0
 40
1.0
176
     0
 90
        2
176
     1
  1
strokes_ogs.tif
176
     1
290
     0
176
     1
 40
1.0
176
     1
 40
1.0
176
     1
  0
VISUALSTYLE
  5
C90E73C08D24135F
102
{ACAD_REACTORS
330
C90E73C08D241349
102
}
330
C90E73C08D241349
100
AcDbVisualStyle
  2
JitterOff
 70
    20
177
     3
291
     1
 70
    58
 90
        2
176
     0
 90
        2
176
     0
 90
        0
176
     0
 90
        0
176
     0
 40
0.6
176
     0
 40
30.0
176
     0
 62
     7
420
 16777215
176
     0
 90
        1
176
     0
 90
        4
176
     0
 62
     7
176
     0
 62
   257
176
     0
 90
        1
176
     0
 90
        1
176
     0
 40
1.0
176
     0
 90
       10
176
     2
 62
     7
176
     0
 40
1.0
176
     0
 90
        1
176
     0
 90
        6
176
     0
 90
        2
176
     0
 62
     7
176
     0
 90
        5
176
     0
 90
        0
176
     0
 90
        0
176
     0
290
     0
176
     0
 90
        1
176
     0
 40
0.0
176
     0
 90
        0
176
     0
290
     0
176
     0
290
     1
176
     0
290
     1
176
     0
290
     0
176
     0
290
     0
176
     0
290
     0
176
     0
290
     0
176
     0
290
     0
176
     0
290
     0
176
     0
 90
       50
176
     0
 40
0.0
176
     0
 40
1.0
176
     0
 90
        0
176
     0
 62
    18
420
        0
176
     0
 90
       50
176
     0
 90
        3
176
     0
 62
     5
420
      255
176
     0
290
     0
176
     0
 90
       50
176
     0
 90
       50
176
     0
 90
       50
176
     0
290
     0
176
     0
 90
       50
176
     0
 62
   256
176
     0
 40
1.0
176
     0
 90
        2
176
     0
  1
strokes_ogs.tif
176
     0
290
     0
176
     0
 40
1.0
176
     0
 40
1.0
176
     0
  0
VISUALSTYLE
  5
C90E73C08D241357
102
{ACAD_REACTORS
330
C90E73C08D241349
102
}
330
C90E73C08D241349
100
AcDbVisualStyle
  2
Linepattern
 70
    14
177
     3
291
     1
 70
    58
 90
        2
176
     1
 90
        2
176
     1
 90
        0
176
     1
 90
        0
176
     1
 40
0.6
176
     1
 40
30.0
176
     1
 62
     7
420
 16777215
176
     1
 90
        1
176
     1
 90
        4
176
     1
 62
     7
176
     1
 62
   257
176
     1
 90
        7
176
     1
 90
        7
176
     1
 40
1.0
176
     1
 90
        8
176
     1
 62
     7
176
     1
 40
1.0
176
     1
 90
        1
176
     1
 90
        6
176
     1
 90
        2
176
     1
 62
     7
176
     1
 90
        5
176
     1
 90
        0
176
     1
 90
        0
176
     1
290
     0
176
     1
 90
        1
176
     1
 40
0.0
176
     1
 90
        0
176
     1
290
     0
176
     1
290
     1
176
     1
290
     1
176
     1
290
     0
176
     1
290
     0
176
     1
290
     0
176
     1
290
     0
176
     1
290
     0
176
     1
290
     0
176
     1
 90
       50
176
     1
 40
0.0
176
     1
 40
1.0
176
     1
 90
        0
176
     1
 62
    18
420
        0
176
     1
 90
       50
176
     1
 90
        3
176
     1
 62
     5
420
      255
176
     1
290
     0
176
     1
 90
       50
176
     1
 90
       50
176
     1
 90
       50
176
     1
290
     0
176
     1
 90
       50
176
     1
 62
   256
176
     0
 40
1.0
176
     0
 90
        2
176
     1
  1
strokes_ogs.tif
176
     1
290
     0
176
     1
 40
1.0
176
     1
 40
1.0
176
     1
  0
VISUALSTYLE
  5
C90E73C08D241360
102
{ACAD_REACTORS
330
C90E73C08D241349
102
}
330
C90E73C08D241349
100
AcDbVisualStyle
  2
OverhangOff
 70
    21
177
     3
291
     1
 70
    58
 90
        2
176
     0
 90
        2
176
     0
 90
        0
176
     0
 90
        0
176
     0
 40
0.6
176
     0
 40
30.0
176
     0
 62
     7
420
 16777215
176
     0
 90
        1
176
     0
 90
        4
176
     0
 62
     7
176
     0
 62
   257
176
     0
 90
        1
176
     0
 90
        1
176
     0
 40
1.0
176
     0
 90
        9
176
     2
 62
     7
176
     0
 40
1.0
176
     0
 90
        1
176
     0
 90
        6
176
     0
 90
        2
176
     0
 62
     7
176
     0
 90
        5
176
     0
 90
        0
176
     0
 90
        0
176
     0
290
     0
176
     0
 90
        1
176
     0
 40
0.0
176
     0
 90
        0
176
     0
290
     0
176
     0
290
     1
176
     0
290
     1
176
     0
290
     0
176
     0
290
     0
176
     0
290
     0
176
     0
290
     0
176
     0
290
     0
176
     0
290
     0
176
     0
 90
       50
176
     0
 40
0.0
176
     0
 40
1.0
176
     0
 90
        0
176
     0
 62
    18
420
        0
176
     0
 90
       50
176
     0
 90
        3
176
     0
 62
     5
420
      255
176
     0
290
     0
176
     0
 90
       50
176
     0
 90
       50
176
     0
 90
       50
176
     0
290
     0
176
     0
 90
       50
176
     0
 62
   256
176
     0
 40
1.0
176
     0
 90
        2
176
     0
  1
strokes_ogs.tif
176
     0
290
     0
176
     0
 40
1.0
176
     0
 40
1.0
176
     0
  0
VISUALSTYLE
  5
C90E73C08D241353
102
{ACAD_REACTORS
330
C90E73C08D241349
102
}
330
C90E73C08D241349
100
AcDbVisualStyle
  2
Realistic
 70
     8
177
     3
291
     0
 70
    58
 90
        2
176
     1
 90
        3
176
     1
 90
        0
176
     1
 90
        2
176
     1
 40
0.6
176
     1
 40
30.0
176
     1
 62
     7
420
 16777215
176
     1
 90
        0
176
     1
 90
        0
176
     1
 62
     7
176
     1
 62
   257
176
     1
 90
        1
176
     1
 90
        1
176
     1
 40
1.0
176
     1
 90
        8
176
     1
 62
   257
176
     1
 40
1.0
176
     1
 90
        1
176
     1
 90
        6
176
     1
 90
        2
176
     1
 62
     7
176
     1
 90
        3
176
     1
 90
        0
176
     1
 90
        0
176
     1
290
     0
176
     1
 90
       13
176
     1
 40
0.0
176
     1
 90
        0
176
     1
290
     0
176
     1
290
     1
176
     1
290
     1
176
     1
290
     0
176
     1
290
     0
176
     1
290
     0
176
     1
290
     0
176
     1
290
     0
176
     1
290
     0
176
     1
 90
       50
176
     1
 40
0.0
176
     1
 40
1.0
176
     1
 90
        0
176
     1
 62
    18
420
        0
176
     1
 90
       50
176
     1
 90
        3
176
     1
 62
     5
420
      255
176
     1
290
     0
176
     1
 90
       50
176
     1
 90
       50
176
     1
 90
       50
176
     1
290
     0
176
     1
 90
       50
176
     1
 62
   256
176
     0
 40
1.0
176
     0
 90
        2
176
     1
  1
strokes_ogs.tif
176
     1
290
     0
176
     1
 40
1.0
176
     1
 40
1.0
176
     1
  0
VISUALSTYLE
  5
C90E73C08D24135E
102
{ACAD_REACTORS
330
C90E73C08D241349
102
}
330
C90E73C08D241349
100
AcDbVisualStyle
  2
Shaded
 70
    27
177
     3
291
     0
 70
    58
 90
        2
176
     1
 90
        2
176
     1
 90
        1
176
     1
 90
        2
176
     1
 40
0.6
176
     1
 40
30.0
176
     1
 62
     7
420
 16777215
176
     1
 90
        0
176
     1
 90
        4
176
     1
 62
     7
176
     1
 62
   257
176
     1
 90
        1
176
     1
 90
        1
176
     1
 40
1.0
176
     1
 90
        8
176
     1
 62
   257
176
     1
 40
1.0
176
     1
 90
        1
176
     1
 90
        6
176
     1
 90
        2
176
     1
 62
     8
420
  7895160
176
     1
 90
        3
176
     1
 90
        0
176
     1
 90
        0
176
     1
290
     0
176
     1
 90
        5
176
     1
 40
0.0
176
     1
 90
        0
176
     1
290
     0
176
     1
290
     1
176
     1
290
     1
176
     1
290
     0
176
     1
290
     0
176
     1
290
     0
176
     1
290
     0
176
     1
290
     0
176
     1
290
     0
176
     1
 90
       50
176
     1
 40
0.0
176
     1
 40
1.0
176
     1
 90
        0
176
     1
 62
    18
420
        0
176
     1
 90
       50
176
     1
 90
        3
176
     1
 62
     5
420
      255
176
     1
290
     0
176
     1
 90
       50
176
     1
 90
       50
176
     1
 90
       50
176
     1
290
     0
176
     1
 90
       50
176
     1
 62
   256
176
     0
 40
1.0
176
     0
 90
        2
176
     1
  1
strokes_ogs.tif
176
     1
290
     0
176
     1
 40
1.0
176
     1
 40
1.0
176
     1
  0
VISUALSTYLE
  5
C90E73C08D24135D
102
{ACAD_REACTORS
330
C90E73C08D241349
102
}
330
C90E73C08D241349
100
AcDbVisualStyle
  2
Shaded with edges
 70
    26
177
     3
291
     0
 70
    58
 90
        2
176
     1
 90
        2
176
     1
 90
        1
176
     1
 90
        2
176
     1
 40
0.6
176
     1
 40
30.0
176
     1
 62
     7
420
 16777215
176
     1
 90
        1
176
     1
 90
        2
176
     1
 62
     7
176
     1
 62
   257
176
     1
 90
        2
176
     1
 90
        1
176
     1
 40
1.0
176
     1
 90
        8
176
     1
 62
   257
176
     1
 40
1.0
176
     1
 90
        1
176
     1
 90
        6
176
     1
 90
        2
176
     1
 62
     7
176
     1
 90
        3
176
     1
 90
        0
176
     1
 90
        0
176
     1
290
     0
176
     1
 90
        5
176
     1
 40
0.0
176
     1
 90
        0
176
     1
290
     0
176
     1
290
     1
176
     1
290
     1
176
     1
290
     0
176
     1
290
     0
176
     1
290
     0
176
     1
290
     0
176
     1
290
     0
176
     1
290
     0
176
     1
 90
       50
176
     1
 40
0.0
176
     1
 40
1.0
176
     1
 90
        0
176
     1
 62
    18
420
        0
176
     1
 90
       50
176
     1
 90
        3
176
     1
 62
     5
420
      255
176
     1
290
     0
176
     1
 90
       50
176
     1
 90
       50
176
     1
 90
       50
176
     1
290
     0
176
     1
 90
       50
176
     1
 62
   256
176
     0
 40
1.0
176
     0
 90
        2
176
     1
  1
strokes_ogs.tif
176
     1
290
     0
176
     1
 40
1.0
176
     1
 40
1.0
176
     1
  0
VISUALSTYLE
  5
C90E73C08D24135A
102
{ACAD_REACTORS
330
C90E73C08D241349
102
}
330
C90E73C08D241349
100
AcDbVisualStyle
  2
Shades of Gray
 70
    23
177
     3
291
     0
 70
    58
 90
        2
176
     1
 90
        2
176
     1
 90
        3
176
     1
 90
        0
176
     1
 40
0.6
176
     1
 40
30.0
176
     1
 62
     7
420
 16777215
176
     1
 90
        2
176
     1
 90
        2
176
     1
 62
     7
176
     1
 62
     7
176
     1
 90
        1
176
     1
 90
        1
176
     1
 40
40.0
176
     1
 90
        8
176
     1
 62
     7
176
     1
 40
1.0
176
     1
 90
        1
176
     1
 90
        6
176
     1
 90
        2
176
     1
 62
     7
176
     1
 90
        3
176
     1
 90
        0
176
     1
 90
        0
176
     1
290
     0
176
     1
 90
        1
176
     1
 40
0.0
176
     1
 90
        0
176
     1
290
     0
176
     1
290
     1
176
     1
290
     1
176
     1
290
     0
176
     1
290
     0
176
     1
290
     0
176
     1
290
     0
176
     1
290
     0
176
     1
290
     0
176
     1
 90
       50
176
     1
 40
0.0
176
     1
 40
1.0
176
     1
 90
        0
176
     1
 62
    18
420
        0
176
     1
 90
       50
176
     1
 90
        3
176
     1
 62
     5
420
      255
176
     1
290
     0
176
     1
 90
       50
176
     1
 90
       50
176
     1
 90
       50
176
     1
290
     0
176
     1
 90
       50
176
     1
 62
   256
176
     0
 40
1.0
176
     0
 90
        2
176
     1
  1
strokes_ogs.tif
176
     1
290
     0
176
     1
 40
1.0
176
     1
 40
1.0
176
     1
  0
VISUALSTYLE
  5
C90E73C08D24135B
102
{ACAD_REACTORS
330
C90E73C08D241349
102
}
330
C90E73C08D241349
100
AcDbVisualStyle
  2
Sketchy
 70
    24
177
     3
291
     0
 70
    58
 90
        1
176
     1
 90
        2
176
     1
 90
        2
176
     1
 90
        0
176
     1
 40
0.6
176
     1
 40
30.0
176
     1
 62
     7
420
 16777215
176
     1
 90
        2
176
     1
 90
        2
176
     1
 62
     7
176
     1
 62
     7
176
     1
 90
        1
176
     1
 90
        1
176
     1
 40
40.0
176
     1
 90
       11
176
     1
 62
     7
176
     1
 40
1.0
176
     1
 90
        1
176
     1
 90
        6
176
     1
 90
        2
176
     1
 62
     7
176
     1
 90
        6
176
     1
 90
        0
176
     1
 90
        0
176
     1
290
     0
176
     1
 90
        1
176
     1
 40
0.0
176
     1
 90
        0
176
     1
290
     0
176
     1
290
     1
176
     1
290
     1
176
     1
290
     0
176
     1
290
     0
176
     1
290
     0
176
     1
290
     0
176
     1
290
     0
176
     1
290
     0
176
     1
 90
       50
176
     1
 40
0.0
176
     1
 40
1.0
176
     1
 90
        0
176
     1
 62
    18
420
        0
176
     1
 90
       50
176
     1
 90
        3
176
     1
 62
     5
420
      255
176
     1
290
     0
176
     1
 90
       50
176
     1
 90
       50
176
     1
 90
       50
176
     1
290
     0
176
     1
 90
       50
176
     1
 62
   256
176
     0
 40
1.0
176
     0
 90
        2
176
     1
  1
strokes_ogs.tif
176
     1
290
     0
176
     1
 40
1.0
176
     1
 40
1.0
176
     1
  0
VISUALSTYLE
  5
C90E73C08D241356
102
{ACAD_REACTORS
330
C90E73C08D241349
102
}
330
C90E73C08D241349
100
AcDbVisualStyle
  2
Thicken
 70
    13
177
     3
291
     1
 70
    58
 90
        2
176
     1
 90
        2
176
     1
 90
        0
176
     1
 90
        0
176
     1
 40
0.6
176
     1
 40
30.0
176
     1
 62
     7
420
 16777215
176
     1
 90
        1
176
     1
 90
        4
176
     1
 62
     7
176
     1
 62
   257
176
     1
 90
        1
176
     1
 90
        1
176
     1
 40
1.0
176
     1
 90
       12
176
     1
 62
     7
176
     1
 40
1.0
176
     1
 90
        1
176
     1
 90
        6
176
     1
 90
        2
176
     1
 62
     7
176
     1
 90
        5
176
     1
 90
        0
176
     1
 90
        0
176
     1
290
     0
176
     1
 90
        1
176
     1
 40
0.0
176
     1
 90
        0
176
     1
290
     0
176
     1
290
     1
176
     1
290
     1
176
     1
290
     0
176
     1
290
     0
176
     1
290
     0
176
     1
290
     0
176
     1
290
     0
176
     1
290
     0
176
     1
 90
       50
176
     1
 40
0.0
176
     1
 40
1.0
176
     1
 90
        0
176
     1
 62
    18
420
        0
176
     1
 90
       50
176
     1
 90
        3
176
     1
 62
     5
420
      255
176
     1
290
     0
176
     1
 90
       50
176
     1
 90
       50
176
     1
 90
       50
176
     1
290
     0
176
     1
 90
       50
176
     1
 62
   256
176
     0
 40
1.0
176
     0
 90
        2
176
     1
  1
strokes_ogs.tif
176
     1
290
     0
176
     1
 40
1.0
176
     1
 40
1.0
176
     1
  0
VISUALSTYLE
  5
C90E73C08D241350
102
{ACAD_REACTORS
330
C90E73C08D241349
102
}
330
C90E73C08D241349
100
AcDbVisualStyle
  2
Wireframe
 70
     5
177
     3
291
     0
 70
    58
 90
        0
176
     1
 90
        2
176
     1
 90
        0
176
     1
 90
        0
176
     1
 40
0.6
176
     1
 40
30.0
176
     1
 62
     7
420
 16777215
176
     1
 90
        1
176
     1
 90
        4
176
     1
 62
     7
176
     1
 62
   257
176
     1
 90
        1
176
     1
 90
        1
176
     1
 40
1.0
176
     1
 90
        0
176
     1
 62
   257
176
     1
 40
1.0
176
     1
 90
        1
176
     1
 90
        6
176
     1
 90
        2
176
     1
 62
     7
176
     1
 90
        3
176
     1
 90
        0
176
     1
 90
        0
176
     1
290
     0
176
     1
 90
        1
176
     1
 40
0.0
176
     1
 90
        0
176
     1
290
     0
176
     1
290
     1
176
     1
290
     1
176
     1
290
     0
176
     1
290
     0
176
     1
290
     0
176
     1
290
     0
176
     1
290
     0
176
     1
290
     0
176
     1
 90
       50
176
     1
 40
0.0
176
     1
 40
1.0
176
     1
 90
        0
176
     1
 62
    18
420
        0
176
     1
 90
       50
176
     1
 90
        3
176
     1
 62
     5
420
      255
176
     1
290
     0
176
     1
 90
       50
176
     1
 90
       50
176
     1
 90
       50
176
     1
290
     0
176
     1
 90
       50
176
     1
 62
   256
176
     0
 40
1.0
176
     0
 90
        2
176
     1
  1
strokes_ogs.tif
176
     1
290
     0
176
     1
 40
1.0
176
     1
 40
1.0
176
     1
  0
VISUALSTYLE
  5
C90E73C08D24135C
102
{ACAD_REACTORS
330
C90E73C08D241349
102
}
330
C90E73C08D241349
100
AcDbVisualStyle
  2
X-Ray
 70
    25
177
     3
291
     0
 70
    58
 90
        2
176
     1
 90
        2
176
     1
 90
        1
176
     1
 90
        1
176
     1
 40
0.5
176
     1
 40
30.0
176
     1
 62
     7
420
 16777215
176
     1
 90
        1
176
     1
 90
        0
176
     1
 62
     7
176
     1
 62
   257
176
     1
 90
        1
176
     1
 90
        1
176
     1
 40
1.0
176
     1
 90
        8
176
     1
 62
     7
176
     1
 40
1.0
176
     1
 90
        1
176
     1
 90
        6
176
     1
 90
        2
176
     1
 62
     7
176
     1
 90
        3
176
     1
 90
        0
176
     1
 90
        0
176
     1
290
     0
176
     1
 90
       13
176
     1
 40
0.0
176
     1
 90
        0
176
     1
290
     0
176
     1
290
     1
176
     1
290
     1
176
     1
290
     0
176
     1
290
     0
176
     1
290
     0
176
     1
290
     0
176
     1
290
     0
176
     1
290
     0
176
     1
 90
       50
176
     1
 40
0.0
176
     1
 40
1.0
176
     1
 90
        0
176
     1
 62
    18
420
        0
176
     1
 90
       50
176
     1
 90
        3
176
     1
 62
     5
420
      255
176
     1
290
     0
176
     1
 90
       50
176
     1
 90
       50
176
     1
 90
       50
176
     1
290
     0
176
     1
 90
       50
176
     1
 62
   256
176
     0
 40
1.0
176
     0
 90
        2
176
     1
  1
strokes_ogs.tif
176
     1
290
     0
176
     1
 40
1.0
176
     1
 40
1.0
176
     1
  0
DICTIONARYVAR
  5
C90E73C08D241768
102
{ACAD_REACTORS
330
C90E73C08D241264
102
}
330
C90E73C08D241264
100
DictionaryVariables
280
     0
  1
1:1
  0
DICTIONARYVAR
  5
C90E73C08D241764
102
{ACAD_REACTORS
330
C90E73C08D241264
102
}
330
C90E73C08D241264
100
DictionaryVariables
280
     0
  1
STANDARD
  0
DICTIONARYVAR
  5
C90E73C08D241763
102
{ACAD_REACTORS
330
C90E73C08D241264
102
}
330
C90E73C08D241264
100
DictionaryVariables
280
     0
  1
STANDARD
  0
DICTIONARYVAR
  5
C90E73C08D241765
102
{ACAD_REACTORS
330
C90E73C08D241264
102
}
330
C90E73C08D241264
100
DictionaryVariables
280
     0
  1
Imperial24
  0
DICTIONARYVAR
  5
C90E73C08D241766
102
{ACAD_REACTORS
330
C90E73C08D241264
102
}
330
C90E73C08D241264
100
DictionaryVariables
280
     0
  1
Imperial24
  0
DICTIONARYVAR
  5
C90E73C08D24176A
102
{ACAD_REACTORS
330
C90E73C08D241264
102
}
330
C90E73C08D241264
100
DictionaryVariables
280
     0
  1
1
  0
DICTIONARYVAR
  5
C90E73C08D24176B
102
{ACAD_REACTORS
330
C90E73C08D241264
102
}
330
C90E73C08D241264
100
DictionaryVariables
280
     0
  1
15
  0
DICTIONARYVAR
  5
C90E73C08D241769
102
{ACAD_REACTORS
330
C90E73C08D241264
102
}
330
C90E73C08D241264
100
DictionaryVariables
280
     0
  1
0
  0
DICTIONARYVAR
  5
C90E73C08D241767
102
{ACAD_REACTORS
330
C90E73C08D241264
102
}
330
C90E73C08D241264
100
DictionaryVariables
280
     0
  1
0
  0
DICTIONARYVAR
  5
C90E73C08D241265
102
{ACAD_REACTORS
330
C90E73C08D241264
102
}
330
C90E73C08D241264
100
DictionaryVariables
280
     0
  1
96
  0
DICTIONARY
  5
C90E73C08D24172F
330
C90E73C08D241004
100
AcDbDictionary
280
     1
281
     1
  0
DICTIONARY
  5
C90E73C08D24133A
330
C90E73C08D241339
100
AcDbDictionary
280
     1
281
     1
  3
BUMPTILE
360
C90E73C08D24133C
  3
DIFFUSETILE
360
C90E73C08D24133B
  3
OPACITYTILE
360
C90E73C08D24133F
  3
REFLECTIONTILE
360
C90E73C08D24133E
  3
REFRACTIONTILE
360
C90E73C08D241340
  3
SPECULARTILE
360
C90E73C08D24133D
  0
DICTIONARY
  5
C90E73C08D241332
330
C90E73C08D241331
100
AcDbDictionary
280
     1
281
     1
  3
BUMPTILE
360
C90E73C08D241334
  3
DIFFUSETILE
360
C90E73C08D241333
  3
OPACITYTILE
360
C90E73C08D241337
  3
REFLECTIONTILE
360
C90E73C08D241336
  3
REFRACTIONTILE
360
C90E73C08D241338
  3
SPECULARTILE
360
C90E73C08D241335
  0
DICTIONARY
  5
C90E73C08D241342
330
C90E73C08D241341
100
AcDbDictionary
280
     1
281
     1
  3
BUMPTILE
360
C90E73C08D241344
  3
DIFFUSETILE
360
C90E73C08D241343
  3
OPACITYTILE
360
C90E73C08D241347
  3
REFLECTIONTILE
360
C90E73C08D241346
  3
REFRACTIONTILE
360
C90E73C08D241348
  3
SPECULARTILE
360
C90E73C08D241345
  0
DICTIONARY
  5
C90E73C08D2418DC
330
C90E73C08D241364
100
AcDbDictionary
280
     1
281
     1
  3
ACAD_ROUNDTRIP_2008_TABLESTYLE_CELLSTYLEMAP
360
C90E73C08D241992
  0
XRECORD
  5
C90E73C08D24133C
102
{ACAD_REACTORS
330
C90E73C08D24133A
102
}
330
C90E73C08D24133A
100
AcDbXrecord
280
     1
270
     1
271
     1
  0
XRECORD
  5
C90E73C08D24133B
102
{ACAD_REACTORS
330
C90E73C08D24133A
102
}
330
C90E73C08D24133A
100
AcDbXrecord
280
     1
270
     1
271
     1
  0
XRECORD
  5
C90E73C08D24133F
102
{ACAD_REACTORS
330
C90E73C08D24133A
102
}
330
C90E73C08D24133A
100
AcDbXrecord
280
     1
270
     1
271
     1
  0
XRECORD
  5
C90E73C08D24133E
102
{ACAD_REACTORS
330
C90E73C08D24133A
102
}
330
C90E73C08D24133A
100
AcDbXrecord
280
     1
270
     1
271
     1
  0
XRECORD
  5
C90E73C08D241340
102
{ACAD_REACTORS
330
C90E73C08D24133A
102
}
330
C90E73C08D24133A
100
AcDbXrecord
280
     1
270
     1
271
     1
  0
XRECORD
  5
C90E73C08D24133D
102
{ACAD_REACTORS
330
C90E73C08D24133A
102
}
330
C90E73C08D24133A
100
AcDbXrecord
280
     1
270
     1
271
     1
  0
XRECORD
  5
C90E73C08D241334
102
{ACAD_REACTORS
330
C90E73C08D241332
102
}
330
C90E73C08D241332
100
AcDbXrecord
280
     1
270
     1
271
     1
  0
XRECORD
  5
C90E73C08D241333
102
{ACAD_REACTORS
330
C90E73C08D241332
102
}
330
C90E73C08D241332
100
AcDbXrecord
280
     1
270
     1
271
     1
  0
XRECORD
  5
C90E73C08D241337
102
{ACAD_REACTORS
330
C90E73C08D241332
102
}
330
C90E73C08D241332
100
AcDbXrecord
280
     1
270
     1
271
     1
  0
XRECORD
  5
C90E73C08D241336
102
{ACAD_REACTORS
330
C90E73C08D241332
102
}
330
C90E73C08D241332
100
AcDbXrecord
280
     1
270
     1
271
     1
  0
XRECORD
  5
C90E73C08D241338
102
{ACAD_REACTORS
330
C90E73C08D241332
102
}
330
C90E73C08D241332
100
AcDbXrecord
280
     1
270
     1
271
     1
  0
XRECORD
  5
C90E73C08D241335
102
{ACAD_REACTORS
330
C90E73C08D241332
102
}
330
C90E73C08D241332
100
AcDbXrecord
280
     1
270
     1
271
     1
  0
XRECORD
  5
C90E73C08D241344
102
{ACAD_REACTORS
330
C90E73C08D241342
102
}
330
C90E73C08D241342
100
AcDbXrecord
280
     1
270
     1
271
     1
  0
XRECORD
  5
C90E73C08D241343
102
{ACAD_REACTORS
330
C90E73C08D241342
102
}
330
C90E73C08D241342
100
AcDbXrecord
280
     1
270
     1
271
     1
  0
XRECORD
  5
C90E73C08D241347
102
{ACAD_REACTORS
330
C90E73C08D241342
102
}
330
C90E73C08D241342
100
AcDbXrecord
280
     1
270
     1
271
     1
  0
XRECORD
  5
C90E73C08D241346
102
{ACAD_REACTORS
330
C90E73C08D241342
102
}
330
C90E73C08D241342
100
AcDbXrecord
280
     1
270
     1
271
     1
  0
XRECORD
  5
C90E73C08D241348
102
{ACAD_REACTORS
330
C90E73C08D241342
102
}
330
C90E73C08D241342
100
AcDbXrecord
280
     1
270
     1
271
     1
  0
XRECORD
  5
C90E73C08D241345
102
{ACAD_REACTORS
330
C90E73C08D241342
102
}
330
C90E73C08D241342
100
AcDbXrecord
280
     1
270
     1
271
     1
  0
CELLSTYLEMAP
  5
C90E73C08D241992
102
{ACAD_REACTORS
330
C90E73C08D2418DC
102
}
330
C90E73C08D2418DC
100
AcDbCellStyleMap
 90
        3
300
CELLSTYLE
  1
TABLEFORMAT_BEGIN
 90
        5
170
     1
 91
        0
 92
    32768
 62
   257
 93
        1
300
CONTENTFORMAT
  1
CONTENTFORMAT_BEGIN
 90
        0
 91
        0
 92
      512
 93
        0
300

 40
0.0
140
1.0
 94
        5
 62
     0
340
C90E73C08D240FF4
144
0.25
309
CONTENTFORMAT_END
171
     1
301
MARGIN
  1
CELLMARGIN_BEGIN
 40
0.06
 40
0.06
 40
0.06
 40
0.06
 40
0.18
 40
0.18
309
CELLMARGIN_END
 94
        6
 95
        1
302
GRIDFORMAT
  1
GRIDFORMAT_BEGIN
 90
        0
 91
        1
 62
     0
 92
       -2
340
0
 93
        0
 40
0.045
309
GRIDFORMAT_END
 95
        2
302
GRIDFORMAT
  1
GRIDFORMAT_BEGIN
 90
        0
 91
        1
 62
     0
 92
       -2
340
0
 93
        0
 40
0.045
309
GRIDFORMAT_END
 95
        4
302
GRIDFORMAT
  1
GRIDFORMAT_BEGIN
 90
        0
 91
        1
 62
     0
 92
       -2
340
0
 93
        0
 40
0.045
309
GRIDFORMAT_END
 95
        8
302
GRIDFORMAT
  1
GRIDFORMAT_BEGIN
 90
        0
 91
        1
 62
     0
 92
       -2
340
0
 93
        0
 40
0.045
309
GRIDFORMAT_END
 95
       16
302
GRIDFORMAT
  1
GRIDFORMAT_BEGIN
 90
        0
 91
        1
 62
     0
 92
       -2
340
0
 93
        0
 40
0.045
309
GRIDFORMAT_END
 95
       32
302
GRIDFORMAT
  1
GRIDFORMAT_BEGIN
 90
        0
 91
        1
 62
     0
 92
       -2
340
0
 93
        0
 40
0.045
309
GRIDFORMAT_END
309
TABLEFORMAT_END
  1
CELLSTYLE_BEGIN
 90
        1
 91
        1
300
_TITLE
309
CELLSTYLE_END
300
CELLSTYLE
  1
TABLEFORMAT_BEGIN
 90
        5
170
     1
 91
        0
 92
        0
 62
   257
 93
        1
300
CONTENTFORMAT
  1
CONTENTFORMAT_BEGIN
 90
        0
 91
        0
 92
      512
 93
        0
300

 40
0.0
140
1.0
 94
        5
 62
     0
340
C90E73C08D240FF4
144
0.18
309
CONTENTFORMAT_END
171
     1
301
MARGIN
  1
CELLMARGIN_BEGIN
 40
0.06
 40
0.06
 40
0.06
 40
0.06
 40
0.18
 40
0.18
309
CELLMARGIN_END
 94
        6
 95
        1
302
GRIDFORMAT
  1
GRIDFORMAT_BEGIN
 90
        0
 91
        1
 62
     0
 92
       -2
340
0
 93
        0
 40
0.045
309
GRIDFORMAT_END
 95
        2
302
GRIDFORMAT
  1
GRIDFORMAT_BEGIN
 90
        0
 91
        1
 62
     0
 92
       -2
340
0
 93
        0
 40
0.045
309
GRIDFORMAT_END
 95
        4
302
GRIDFORMAT
  1
GRIDFORMAT_BEGIN
 90
        0
 91
        1
 62
     0
 92
       -2
340
0
 93
        0
 40
0.045
309
GRIDFORMAT_END
 95
        8
302
GRIDFORMAT
  1
GRIDFORMAT_BEGIN
 90
        0
 91
        1
 62
     0
 92
       -2
340
0
 93
        0
 40
0.045
309
GRIDFORMAT_END
 95
       16
302
GRIDFORMAT
  1
GRIDFORMAT_BEGIN
 90
        0
 91
        1
 62
     0
 92
       -2
340
0
 93
        0
 40
0.045
309
GRIDFORMAT_END
 95
       32
302
GRIDFORMAT
  1
GRIDFORMAT_BEGIN
 90
        0
 91
        1
 62
     0
 92
       -2
340
0
 93
        0
 40
0.045
309
GRIDFORMAT_END
309
TABLEFORMAT_END
  1
CELLSTYLE_BEGIN
 90
        2
 91
        1
300
_HEADER
309
CELLSTYLE_END
300
CELLSTYLE
  1
TABLEFORMAT_BEGIN
 90
        5
170
     1
 91
        0
 92
        0
 62
   257
 93
        1
300
CONTENTFORMAT
  1
CONTENTFORMAT_BEGIN
 90
        0
 91
        0
 92
      512
 93
        0
300

 40
0.0
140
1.0
 94
        2
 62
     0
340
C90E73C08D240FF4
144
0.18
309
CONTENTFORMAT_END
171
     1
301
MARGIN
  1
CELLMARGIN_BEGIN
 40
0.06
 40
0.06
 40
0.06
 40
0.06
 40
0.18
 40
0.18
309
CELLMARGIN_END
 94
        6
 95
        1
302
GRIDFORMAT
  1
GRIDFORMAT_BEGIN
 90
        0
 91
        1
 62
     0
 92
       -2
340
0
 93
        0
 40
0.045
309
GRIDFORMAT_END
 95
        2
302
GRIDFORMAT
  1
GRIDFORMAT_BEGIN
 90
        0
 91
        1
 62
     0
 92
       -2
340
0
 93
        0
 40
0.045
309
GRIDFORMAT_END
 95
        4
302
GRIDFORMAT
  1
GRIDFORMAT_BEGIN
 90
        0
 91
        1
 62
     0
 92
       -2
340
0
 93
        0
 40
0.045
309
GRIDFORMAT_END
 95
        8
302
GRIDFORMAT
  1
GRIDFORMAT_BEGIN
 90
        0
 91
        1
 62
     0
 92
       -2
340
0
 93
        0
 40
0.045
309
GRIDFORMAT_END
 95
       16
302
GRIDFORMAT
  1
GRIDFORMAT_BEGIN
 90
        0
 91
        1
 62
     0
 92
       -2
340
0
 93
        0
 40
0.045
309
GRIDFORMAT_END
 95
       32
302
GRIDFORMAT
  1
GRIDFORMAT_BEGIN
 90
        0
 91
        1
 62
     0
 92
       -2
340
0
 93
        0
 40
0.045
309
GRIDFORMAT_END
309
TABLEFORMAT_END
  1
CELLSTYLE_BEGIN
 90
        3
 91
        2
300
_DATA
309
CELLSTYLE_END
  0
ENDSEC
  0
SECTION
  2
ACDSDATA
 70
     2
 71
     8
  0
ACDSSCHEMA
 90
        0
  1
AcDb_Thumbnail_Schema
  2
AcDbDs::ID
280
    10
 91
        8
  2
Thumbnail_Data
280
    15
 91
        0
101
ACDSRECORD
 95
        0
 90
        1
  2
AcDbDs::TreatedAsObjectData
280
     1
291
     1
101
ACDSRECORD
 95
        0
 90
        2
  2
AcDbDs::Legacy
280
     1
291
     1
101
ACDSRECORD
  1
AcDbDs::ID
 90
        3
  2
AcDs:Indexable
280
     1
291
     1
101
ACDSRECORD
  1
AcDbDs::ID
 90
        4
  2
AcDbDs::HandleAttribute
280
     7
282
     1
  0
ACDSSCHEMA
 90
        1
  1
AcDbDs::TreatedAsObjectDataSchema
  2
AcDbDs::TreatedAsObjectData
280
     1
 91
        0
  0
ACDSSCHEMA
 90
        2
  1
AcDbDs::LegacySchema
  2
AcDbDs::Legacy
280
     1
 91
        0
  0
ACDSSCHEMA
 90
        3
  1
AcDbDs::IndexedPropertySchema
  2
AcDs:Indexable
280
     1
 91
        0
  0
ACDSSCHEMA
 90
        4
  1
AcDbDs::HandleAttributeSchema
  2
AcDbDs::HandleAttribute
280
     7
 91
        1
284
     1
  0
ACDSRECORD
 90
        0
  2
AcDbDs::ID
280
    10
320
C90E73C08D241004
  2
Thumbnail_Data
280
    15
 94
     1597
310
89504E470D0A1A0A0000000D494844520000010000000085080300000083A6D68B00000300504C54450000000000FFFFFFFF0000000000000000000000000000000000000000000000000000330000660000990000CC0000FF0033000033330033660033990033CC0033FF0066000066330066660066990066CC0066FF0099
310
000099330099660099990099CC0099FF00CC0000CC3300CC6600CC9900CCCC00CCFF00FF0000FF3300FF6600FF9900FFCC00FFFF3300003300333300663300993300CC3300FF3333003333333333663333993333CC3333FF3366003366333366663366993366CC3366FF3399003399333399663399993399CC3399FF33CC00
310
33CC3333CC6633CC9933CCCC33CCFF33FF0033FF3333FF6633FF9933FFCC33FFFF6600006600336600666600996600CC6600FF6633006633336633666633996633CC6633FF6666006666336666666666996666CC6666FF6699006699336699666699996699CC6699FF66CC0066CC3366CC6666CC9966CCCC66CCFF66FF0066
310
FF3366FF6666FF9966FFCC66FFFF9900009900339900669900999900CC9900FF9933009933339933669933999933CC9933FF9966009966339966669966999966CC9966FF9999009999339999669999999999CC9999FF99CC0099CC3399CC6699CC9999CCCC99CCFF99FF0099FF3399FF6699FF9999FFCC99FFFFCC0000CC00
310
33CC0066CC0099CC00CCCC00FFCC3300CC3333CC3366CC3399CC33CCCC33FFCC6600CC6633CC6666CC6699CC66CCCC66FFCC9900CC9933CC9966CC9999CC99CCCC99FFCCCC00CCCC33CCCC66CCCC99CCCCCCCCCCFFCCFF00CCFF33CCFF66CCFF99CCFFCCCCFFFFFF0000FF0033FF0066FF0099FF00CCFF00FFFF3300FF3333
310
FF3366FF3399FF33CCFF33FFFF6600FF6633FF6666FF6699FF66CCFF66FFFF9900FF9933FF9966FF9999FF99CCFF99FFFFCC00FFCC33FFCC66FFCC99FFCCCCFFCCFFFFFF00FFFF33FFFF66FFFF99FFFFCCFFFFFF0000000D0D0D1A1A1A2828283535354343435050505D5D5D6B6B6B787878868686939393A1A1A1AEAEAEBB
310
BBBBC9C9C9D6D6D6E4E4E4F1F1F1FFFFFF000000000000000000000000000000000000000000000000000000000000565614B7000002F84944415478DAEDDC4B8E83300C06E01CC6DBDCFF00BD9037EC0792500279103AB4C2F61F692A753A52F157E33CA7CEDDD95E3F69EEB9EDA5E64D0000000000000000000000000000
310
000000003FB8B6A9D30000001B35602C7A0088026000FC230F347483000000000060742EC00C80F0B86B0030051043E6B51600C0184096FF19872D80A204D803C805C2CDD01BDE6C8D5401780E0FA10E4C430044A42A0396A8F90200D1998040009F2A400F20BD46742A206A496C4E7FE7FC48098CE911823F1190B526E87D
310
FC199A06AEA1F70594022C02EFC0BB025A017661F70454038C74866A019698A70101AD0045C02D01A50095701B023A01AAC1D6055402343EECEAAF3502340B5EED0585009D514FE5255973013FB216A21860FEF4C39A806500DBB7000000000000F401E242985D80B412661B60226AAE175B004011040000E87853E80418AA
310
7493D30510B7C6B61EEF1C40530684ADF1F7DEE018C03E011400ECB7C7472A9D3280754588BB45B0D38403A413226C1660E888945200FEF094D8744DF99900EBC930CE29BED6D73E1520DEF964F4A86C78340FB034B27E5CDE34C08F261CCF1D070060A983CCC6011CE316008055805BBB3F810071AAE7000000D3000E0000
310
0000000070B1112DF30822571949590088CBE133001905586792D5B10400002004802B6D38FC7D23169901C5BEDE250005DD205D09ABF39787DC510070FA45027C00707A00F80300D1B740B631B4B52E00F349F51496015B25647E47D74B80EDBB779CF4714001D0E80D77CFAB7F257620C4F9B5A70C88A786F2963F4B478A
310
584106702CDE3500EF9B00E9DFECB833681003107BBD3D406D7A7B08B55603640F84D8320067839814D6D02DA02903F850DF7DD16A45B0331492D60DBACA38A0E82B8A6E504F069400FD4961785D35803B05706A00686C24D89A0AE804286EFAB6827480EA44D0128073AD62CFDF7B93C702A4AD8E54DF4EBF36531FC04CC0
310
EF612E93BD0C90F626000000000000800FAF6D9DF1DD724856E2BEC09D009237466E3923CD697980510300000011003F69B75EF21FD724A8D14A0939910000000049454E44AE426082
  0
ENDSEC
  0
EOF
