  0
SECTION
  2
HEADER
  9
$ACADVER
  1
AC1032
  9
$ACADMAINTVER
 90
       55
  9
$DWGCODEPAGE
  3
ANSI_1252
  9
$LASTSAVEDBY
  1
Administrator
  9
$REQUIREDVERSIONS
160
                 0
  9
$INSBASE
 10
0.0
 20
0.0
 30
0.0
  9
$EXTMIN
 10
0.4334369096252713
 20
0.1554865515127757
 30
0.0
  9
$EXTMAX
 10
15.18986828442013
 20
18.55849968190435
 30
0.0
  9
$LIMMIN
 10
0.0
 20
0.0
  9
$LIMMAX
 10
16.1
 20
10.0
  9
$ORTHOMODE
 70
     1
  9
$REGENMODE
 70
     0
  9
$FILLMODE
 70
     1
  9
$QTEXTMODE
 70
     0
  9
$MIRRTEXT
 70
     0
  9
$LTSCALE
 40
0.2
  9
$ATTMODE
 70
     1
  9
$TEXTSIZE
 40
0.045
  9
$TRACEWID
 40
0.05
  9
$TEXTSTYLE
  7
SIMPLEX
  9
$CLAYER
  8
THIN
  9
$CELTYPE
  6
ByLayer
  9
$CECOLOR
 62
   256
  9
$CELTSCALE
 40
1.0
  9
$DISPSILH
 70
     0
  9
$DIMSCALE
 40
4.0
  9
$DIMASZ
 40
0.045
  9
$DIMEXO
 40
0.05
  9
$DIMDLI
 40
0.3799999999999999
  9
$DIMRND
 40
0.001
  9
$DIMDLE
 40
0.0
  9
$DIMEXE
 40
0.05
  9
$DIMTP
 40
0.0
  9
$DIMTM
 40
0.0
  9
$DIMTXT
 40
0.045
  9
$DIMCEN
 40
0.0
  9
$DIMTSZ
 40
0.0
  9
$DIMTOL
 70
     0
  9
$DIMLIM
 70
     0
  9
$DIMTIH
 70
     1
  9
$DIMTOH
 70
     1
  9
$DIMSE1
 70
     0
  9
$DIMSE2
 70
     0
  9
$DIMTAD
 70
     0
  9
$DIMZIN
 70
     0
  9
$DIMBLK
  1

  9
$DIMASO
 70
     1
  9
$DIMSHO
 70
     0
  9
$DIMPOST
  1

  9
$DIMAPOST
  1

  9
$DIMALT
 70
     0
  9
$DIMALTD
 70
     2
  9
$DIMALTF
 40
25.4
  9
$DIMLFAC
 40
1.0
  9
$DIMTOFL
 70
     0
  9
$DIMTVP
 40
0.0
  9
$DIMTIX
 70
     1
  9
$DIMSOXD
 70
     0
  9
$DIMSAH
 70
     0
  9
$DIMBLK1
  1

  9
$DIMBLK2
  1

  9
$DIMSTYLE
  2
Standard
  9
$DIMCLRD
 70
     0
  9
$DIMCLRE
 70
     0
  9
$DIMCLRT
 70
     0
  9
$DIMTFAC
 40
1.0
  9
$DIMGAP
 40
0.045
  9
$DIMJUST
 70
     0
  9
$DIMSD1
 70
     0
  9
$DIMSD2
 70
     0
  9
$DIMTOLJ
 70
     1
  9
$DIMTZIN
 70
     0
  9
$DIMALTZ
 70
     0
  9
$DIMALTTZ
 70
     0
  9
$DIMUPT
 70
     0
  9
$DIMDEC
 70
     4
  9
$DIMTDEC
 70
     4
  9
$DIMALTU
 70
     2
  9
$DIMALTTD
 70
     2
  9
$DIMTXSTY
  7
STANDARD
  9
$DIMAUNIT
 70
     0
  9
$DIMADEC
 70
     2
  9
$DIMALTRND
 40
0.0
  9
$DIMAZIN
 70
     0
  9
$DIMDSEP
 70
    46
  9
$DIMATFIT
 70
     3
  9
$DIMFRAC
 70
     2
  9
$DIMLDRBLK
  1

  9
$DIMLUNIT
 70
     4
  9
$DIMLWD
 70
    -2
  9
$DIMLWE
 70
    -2
  9
$DIMTMOVE
 70
     2
  9
$DIMFXL
 40
1.0
  9
$DIMFXLON
 70
     0
  9
$DIMJOGANG
 40
0.7853981633974483
  9
$DIMTFILL
 70
     0
  9
$DIMTFILLCLR
 70
     0
  9
$DIMARCSYM
 70
     0
  9
$DIMLTYPE
  6

  9
$DIMLTEX1
  6

  9
$DIMLTEX2
  6

  9
$DIMTXTDIRECTION
 70
     0
  9
$LUNITS
 70
     2
  9
$LUPREC
 70
     3
  9
$SKETCHINC
 40
0.1
  9
$FILLETRAD
 40
0.05
  9
$AUNITS
 70
     0
  9
$AUPREC
 70
     2
  9
$MENU
  1
TB
  9
$ELEVATION
 40
0.0
  9
$PELEVATION
 40
0.0
  9
$THICKNESS
 40
0.0
  9
$LIMCHECK
 70
     0
  9
$CHAMFERA
 40
0.0
  9
$CHAMFERB
 40
0.0
  9
$CHAMFERC
 40
0.0
  9
$CHAMFERD
 40
0.0
  9
$SKPOLY
 70
     0
  9
$TDCREATE
 40
2448967.715925926
  9
$TDUCREATE
 40
2448967.924259722
  9
$TDUPDATE
 40
2459264.425960649
  9
$TDUUPDATE
 40
2459264.634293981
  9
$TDINDWG
 40
0.4617262153
  9
$TDUSRTIMER
 40
0.4617262153
  9
$USRTIMER
 70
     1
  9
$ANGBASE
 50
0.0
  9
$ANGDIR
 70
     0
  9
$PDMODE
 70
     0
  9
$PDSIZE
 40
0.0
  9
$PLINEWID
 40
0.0
  9
$SPLFRAME
 70
     0
  9
$SPLINETYPE
 70
     6
  9
$SPLINESEGS
 70
     8
  9
$HANDSEED
  5
C90E73C08D2413D0
  9
$SURFTAB1
 70
     6
  9
$SURFTAB2
 70
     6
  9
$SURFTYPE
 70
     6
  9
$SURFU
 70
     6
  9
$SURFV
 70
     6
  9
$UCSBASE
  2

  9
$UCSNAME
  2

  9
$UCSORG
 10
0.0
 20
0.0
 30
0.0
  9
$UCSXDIR
 10
1.0
 20
0.0
 30
0.0
  9
$UCSYDIR
 10
0.0
 20
1.0
 30
0.0
  9
$UCSORTHOREF
  2

  9
$UCSORTHOVIEW
 70
     0
  9
$UCSORGTOP
 10
0.0
 20
0.0
 30
0.0
  9
$UCSORGBOTTOM
 10
0.0
 20
0.0
 30
0.0
  9
$UCSORGLEFT
 10
0.0
 20
0.0
 30
0.0
  9
$UCSORGRIGHT
 10
0.0
 20
0.0
 30
0.0
  9
$UCSORGFRONT
 10
0.0
 20
0.0
 30
0.0
  9
$UCSORGBACK
 10
0.0
 20
0.0
 30
0.0
  9
$PUCSBASE
  2

  9
$PUCSNAME
  2

  9
$PUCSORG
 10
0.0
 20
0.0
 30
0.0
  9
$PUCSXDIR
 10
1.0
 20
0.0
 30
0.0
  9
$PUCSYDIR
 10
0.0
 20
1.0
 30
0.0
  9
$PUCSORTHOREF
  2

  9
$PUCSORTHOVIEW
 70
     0
  9
$PUCSORGTOP
 10
0.0
 20
0.0
 30
0.0
  9
$PUCSORGBOTTOM
 10
0.0
 20
0.0
 30
0.0
  9
$PUCSORGLEFT
 10
0.0
 20
0.0
 30
0.0
  9
$PUCSORGRIGHT
 10
0.0
 20
0.0
 30
0.0
  9
$PUCSORGFRONT
 10
0.0
 20
0.0
 30
0.0
  9
$PUCSORGBACK
 10
0.0
 20
0.0
 30
0.0
  9
$USERI1
 70
     0
  9
$USERI2
 70
     0
  9
$USERI3
 70
     0
  9
$USERI4
 70
     0
  9
$USERI5
 70
     0
  9
$USERR1
 40
0.0
  9
$USERR2
 40
0.0
  9
$USERR3
 40
0.0
  9
$USERR4
 40
0.0
  9
$USERR5
 40
0.0
  9
$WORLDVIEW
 70
     1
  9
$SHADEDGE
 70
     3
  9
$SHADEDIF
 70
    70
  9
$TILEMODE
 70
     1
  9
$MAXACTVP
 70
    16
  9
$PINSBASE
 10
0.0
 20
0.0
 30
0.0
  9
$PLIMCHECK
 70
     0
  9
$PEXTMIN
 10
1.000000000000000E+20
 20
1.000000000000000E+20
 30
1.000000000000000E+20
  9
$PEXTMAX
 10
-1.000000000000000E+20
 20
-1.000000000000000E+20
 30
-1.000000000000000E+20
  9
$PLIMMIN
 10
0.0
 20
0.0
  9
$PLIMMAX
 10
12.0
 20
9.0
  9
$UNITMODE
 70
     0
  9
$VISRETAIN
 70
     0
  9
$PLINEGEN
 70
     0
  9
$PSLTSCALE
 70
     0
  9
$TREEDEPTH
 70
  3020
  9
$CMLSTYLE
  2
Standard
  9
$CMLJUST
 70
     0
  9
$CMLSCALE
 40
1.0
  9
$PROXYGRAPHICS
 70
     1
  9
$MEASUREMENT
 70
     0
  9
$CELWEIGHT
370
    -1
  9
$ENDCAPS
280
     0
  9
$JOINSTYLE
280
     0
  9
$LWDISPLAY
290
     0
  9
$INSUNITS
 70
     0
  9
$HYPERLINKBASE
  1

  9
$STYLESHEET
  1
Harvey Std Plot Style.ctb
  9
$XEDIT
290
     1
  9
$CEPSNTYPE
380
     0
  9
$PSTYLEMODE
290
     1
  9
$FINGERPRINTGUID
  2
{F804FE4C-B95E-11D4-8F2B-005004E2E84A}
  9
$VERSIONGUID
  2
{93E86856-C7CA-7746-BE80-F854F0F48FD1}
  9
$EXTNAMES
290
     1
  9
$PSVPSCALE
 40
0.0
  9
$OLESTARTUP
290
     0
  9
$SORTENTS
280
    96
  9
$INDEXCTL
280
     0
  9
$HIDETEXT
280
     0
  9
$XCLIPFRAME
280
     2
  9
$HALOGAP
280
     0
  9
$OBSCOLOR
 70
   257
  9
$OBSLTYPE
280
     0
  9
$INTERSECTIONDISPLAY
280
     0
  9
$INTERSECTIONCOLOR
 70
   257
  9
$DIMASSOC
280
     1
  9
$PROJECTNAME
  1

  9
$CAMERADISPLAY
290
     0
  9
$LENSLENGTH
 40
50.0
  9
$CAMERAHEIGHT
 40
0.0
  9
$STEPSPERSEC
 40
2.0
  9
$STEPSIZE
 40
6.0
  9
$3DDWFPREC
 40
2.0
  9
$PSOLWIDTH
 40
0.25
  9
$PSOLHEIGHT
 40
4.0
  9
$LOFTANG1
 40
1.570796326794896
  9
$LOFTANG2
 40
1.570796326794896
  9
$LOFTMAG1
 40
0.0
  9
$LOFTMAG2
 40
0.0
  9
$LOFTPARAM
 70
     7
  9
$LOFTNORMALS
280
     1
  9
$LATITUDE
 40
37.795
  9
$LONGITUDE
 40
-122.394
  9
$NORTHDIRECTION
 40
0.0
  9
$TIMEZONE
 70
 -8000
  9
$LIGHTGLYPHDISPLAY
280
     1
  9
$TILEMODELIGHTSYNCH
280
     1
  9
$CMATERIAL
347
C90E73C08D241331
  9
$SOLIDHIST
280
     0
  9
$SHOWHIST
280
     1
  9
$DWFFRAME
280
     2
  9
$DGNFRAME
280
     0
  9
$REALWORLDSCALE
290
     1
  9
$INTERFERECOLOR
 62
     1
  9
$INTERFEREOBJVS
345
C90E73C08D241353
  9
$INTERFEREVPVS
346
C90E73C08D241350
  9
$CSHADOW
280
     0
  9
$SHADOWPLANELOCATION
 40
0.0
  0
ENDSEC
  0
SECTION
  2
CLASSES
  0
CLASS
  1
ACDBDICTIONARYWDFLT
  2
AcDbDictionaryWithDefault
  3
ObjectDBX Classes
 90
        0
 91
        1
280
     0
281
     0
  0
CLASS
  1
DICTIONARYVAR
  2
AcDbDictionaryVar
  3
ObjectDBX Classes
 90
        0
 91
       10
280
     0
281
     0
  0
CLASS
  1
MATERIAL
  2
AcDbMaterial
  3
ObjectDBX Classes
 90
     1153
 91
        3
280
     0
281
     0
  0
CLASS
  1
VISUALSTYLE
  2
AcDbVisualStyle
  3
ObjectDBX Classes
 90
     4095
 91
       24
280
     0
281
     0
  0
CLASS
  1
TABLESTYLE
  2
AcDbTableStyle
  3
ObjectDBX Classes
 90
     4095
 91
        1
280
     0
281
     0
  0
CLASS
  1
SCALE
  2
AcDbScale
  3
ObjectDBX Classes
 90
     1153
 91
       17
280
     0
281
     0
  0
CLASS
  1
MLEADERSTYLE
  2
AcDbMLeaderStyle
  3
ACDB_MLEADERSTYLE_CLASS
 90
     4095
 91
        1
280
     0
281
     0
  0
CLASS
  1
ACDBSECTIONVIEWSTYLE
  2
AcDbSectionViewStyle
  3
ObjectDBX Classes
 90
     1025
 91
        1
280
     0
281
     0
  0
CLASS
  1
ACDBDETAILVIEWSTYLE
  2
AcDbDetailViewStyle
  3
ObjectDBX Classes
 90
     1025
 91
        1
280
     0
281
     0
  0
CLASS
  1
SORTENTSTABLE
  2
AcDbSortentsTable
  3
ObjectDBX Classes
 90
        0
 91
        0
280
     0
281
     0
  0
CLASS
  1
CELLSTYLEMAP
  2
AcDbCellStyleMap
  3
ObjectDBX Classes
 90
     1152
 91
        1
280
     0
281
     0
  0
ENDSEC
  0
SECTION
  2
TABLES
  0
TABLE
  2
VPORT
  5
C90E73C08D240FEB
330
0
100
AcDbSymbolTable
 70
     1
  0
VPORT
  5
C90E73C08D24132E
330
C90E73C08D240FEB
100
AcDbSymbolTableRecord
100
AcDbViewportTableRecord
  2
*Active
 70
     0
 10
0.0
 20
0.0
 11
1.0
 21
1.0
 12
13.36941881873997
 22
10.41898262999649
 13
0.0
 23
0.0
 14
1.0
 24
1.0
 15
0.0
 25
0.0
 16
0.0
 26
0.0
 36
1.0
 17
0.0
 27
0.0
 37
0.0
 40
20.15283507174026
 41
2.292712066905615
 42
50.0
 43
0.0
 44
0.0
 50
0.0
 51
0.0
 71
     0
 72
  2000
 73
     1
 74
     3
 75
     0
 76
     0
 77
     0
 78
     0
281
     0
 65
     1
110
0.0
120
0.0
130
0.0
111
1.0
121
0.0
131
0.0
112
0.0
122
1.0
132
0.0
 79
     0
146
0.0
348
C90E73C08D24134F
 60
     3
 61
     5
292
     1
282
     1
141
0.0
142
0.0
 63
   250
421
  3355443
1001
ACAD_NAV_VCDISPLAY
1070
     3
  0
ENDTAB
  0
TABLE
  2
LTYPE
  5
C90E73C08D240FE8
330
0
100
AcDbSymbolTable
 70
    10
  0
LTYPE
  5
C90E73C08D240FF6
330
C90E73C08D240FE8
100
AcDbSymbolTableRecord
100
AcDbLinetypeTableRecord
  2
ByBlock
 70
     0
  3

 72
    65
 73
     0
 40
0.0
  0
LTYPE
  5
C90E73C08D240FF7
330
C90E73C08D240FE8
100
AcDbSymbolTableRecord
100
AcDbLinetypeTableRecord
  2
ByLayer
 70
     0
  3

 72
    65
 73
     0
 40
0.0
  0
LTYPE
  5
C90E73C08D240FF8
330
C90E73C08D240FE8
100
AcDbSymbolTableRecord
100
AcDbLinetypeTableRecord
  2
CONTINUOUS
 70
     0
  3
Solid line
 72
    65
 73
     0
 40
0.0
  0
LTYPE
  5
C90E73C08D241017
330
C90E73C08D240FE8
100
AcDbSymbolTableRecord
100
AcDbLinetypeTableRecord
  2
DASHED
 70
     0
  3
__ __ __ __ __ __ __ __ __ __ __ __ __ __ __
 72
    65
 73
     2
 40
0.75
 49
0.5
 74
     0
 49
-0.25
 74
     0
  0
LTYPE
  5
C90E73C08D241018
330
C90E73C08D240FE8
100
AcDbSymbolTableRecord
100
AcDbLinetypeTableRecord
  2
HIDDEN
 70
     0
  3
_ _ _ _ _ _ _ _ _ _ _ _ _ _ _ _ _ _ _ _ _ _ _
 72
    65
 73
     2
 40
0.375
 49
0.25
 74
     0
 49
-0.125
 74
     0
  0
LTYPE
  5
C90E73C08D241019
330
C90E73C08D240FE8
100
AcDbSymbolTableRecord
100
AcDbLinetypeTableRecord
  2
CENTER
 70
     0
  3
____ _ ____ _ ____ _ ____ _ ____ _ ____ _ ____
 72
    65
 73
     4
 40
2.0
 49
1.25
 74
     0
 49
-0.25
 74
     0
 49
0.25
 74
     0
 49
-0.25
 74
     0
  0
LTYPE
  5
C90E73C08D24101A
330
C90E73C08D240FE8
100
AcDbSymbolTableRecord
100
AcDbLinetypeTableRecord
  2
PHANTOM
 70
     0
  3
_____ _ _ _____ _ _ _____ _ _ _____ _ _ ____
 72
    65
 73
     6
 40
2.5
 49
1.25
 74
     0
 49
-0.25
 74
     0
 49
0.25
 74
     0
 49
-0.25
 74
     0
 49
0.25
 74
     0
 49
-0.25
 74
     0
  0
LTYPE
  5
C90E73C08D24101B
330
C90E73C08D240FE8
100
AcDbSymbolTableRecord
100
AcDbLinetypeTableRecord
  2
DOT
 70
     0
  3
...............................................
 72
    65
 73
     2
 40
0.25
 49
0.0
 74
     0
 49
-0.25
 74
     0
  0
LTYPE
  5
C90E73C08D24101C
330
C90E73C08D240FE8
100
AcDbSymbolTableRecord
100
AcDbLinetypeTableRecord
  2
DASHDOT
 70
     0
  3
__ . __ . __ . __ . __ . __ . __ . __ . __ . __
 72
    65
 73
     4
 40
1.0
 49
0.5
 74
     0
 49
-0.25
 74
     0
 49
0.0
 74
     0
 49
-0.25
 74
     0
  0
LTYPE
  5
C90E73C08D24101D
330
C90E73C08D240FE8
100
AcDbSymbolTableRecord
100
AcDbLinetypeTableRecord
  2
BORDER
 70
     0
  3
__ __ . __ __ . __ __ . __ __ . __ __ . __ __
 72
    65
 73
     6
 40
1.75
 49
0.5
 74
     0
 49
-0.25
 74
     0
 49
0.5
 74
     0
 49
-0.25
 74
     0
 49
0.0
 74
     0
 49
-0.25
 74
     0
  0
LTYPE
  5
C90E73C08D24101E
330
C90E73C08D240FE8
100
AcDbSymbolTableRecord
100
AcDbLinetypeTableRecord
  2
DIVIDE
 70
     0
  3
__ . . __ . . __ . . __ . . __ . . __ . . __
 72
    65
 73
     6
 40
1.25
 49
0.5
 74
     0
 49
-0.25
 74
     0
 49
0.0
 74
     0
 49
-0.25
 74
     0
 49
0.0
 74
     0
 49
-0.25
 74
     0
  0
LTYPE
  5
C90E73C08D241052
330
C90E73C08D240FE8
100
AcDbSymbolTableRecord
100
AcDbLinetypeTableRecord
  2
DOT2
 70
     0
  3
...............................................
 72
    65
 73
     2
 40
0.125
 49
0.0
 74
     0
 49
-0.125
 74
     0
  0
ENDTAB
  0
TABLE
  2
LAYER
  5
C90E73C08D240FE5
102
{ACAD_XDICTIONARY
360
C90E73C08D241385
102
}
330
0
100
AcDbSymbolTable
 70
    17
  0
LAYER
  5
C90E73C08D240FF3
102
{ACAD_XDICTIONARY
360
C90E73C08D241394
102
}
330
C90E73C08D240FE5
100
AcDbSymbolTableRecord
100
AcDbLayerTableRecord
  2
0
 70
     0
 62
     6
  6
CONTINUOUS
370
    -3
390
C90E73C08D240FF2
347
C90E73C08D241341
348
0
  0
LAYER
  5
C90E73C08D241026
102
{ACAD_XDICTIONARY
360
C90E73C08D241396
102
}
330
C90E73C08D240FE5
100
AcDbSymbolTableRecord
100
AcDbLayerTableRecord
  2
10
 70
     0
 62
     9
  6
CONTINUOUS
370
    -3
390
C90E73C08D240FF2
347
C90E73C08D241341
348
0
  0
LAYER
  5
C90E73C08D241027
102
{ACAD_XDICTIONARY
360
C90E73C08D241398
102
}
330
C90E73C08D240FE5
100
AcDbSymbolTableRecord
100
AcDbLayerTableRecord
  2
DIM
 70
     0
 62
     7
  6
CONTINUOUS
370
    -3
390
C90E73C08D240FF2
347
C90E73C08D241341
348
0
  0
LAYER
  5
C90E73C08D241028
102
{ACAD_XDICTIONARY
360
C90E73C08D24139A
102
}
330
C90E73C08D240FE5
100
AcDbSymbolTableRecord
100
AcDbLayerTableRecord
  2
HIDDEN
 70
     0
 62
     1
  6
HIDDEN
370
    -3
390
C90E73C08D240FF2
347
C90E73C08D241341
348
0
  0
LAYER
  5
C90E73C08D241029
102
{ACAD_XDICTIONARY
360
C90E73C08D24139C
102
}
330
C90E73C08D240FE5
100
AcDbSymbolTableRecord
100
AcDbLayerTableRecord
  2
CENTER
 70
     0
 62
    30
  6
CENTER
370
    -3
390
C90E73C08D240FF2
347
C90E73C08D241341
348
0
  0
LAYER
  5
C90E73C08D24102A
102
{ACAD_XDICTIONARY
360
C90E73C08D24139E
102
}
330
C90E73C08D240FE5
100
AcDbSymbolTableRecord
100
AcDbLayerTableRecord
  2
CONSTRUCT
 70
     0
 62
     2
  6
DASHED
370
    -3
390
C90E73C08D240FF2
347
C90E73C08D241341
348
0
  0
LAYER
  5
C90E73C08D24102B
102
{ACAD_XDICTIONARY
360
C90E73C08D2413A0
102
}
330
C90E73C08D240FE5
100
AcDbSymbolTableRecord
100
AcDbLayerTableRecord
  2
ADCADD_FRZ
 70
     1
 62
     7
  6
CONTINUOUS
370
    -3
390
C90E73C08D240FF2
347
C90E73C08D241341
348
0
  0
LAYER
  5
C90E73C08D24102C
102
{ACAD_XDICTIONARY
360
C90E73C08D2413A2
102
}
330
C90E73C08D240FE5
100
AcDbSymbolTableRecord
100
AcDbLayerTableRecord
  2
CYAN
 70
     0
 62
     4
  6
CONTINUOUS
370
    -3
390
C90E73C08D240FF2
347
C90E73C08D241341
348
0
  0
LAYER
  5
C90E73C08D24102D
102
{ACAD_XDICTIONARY
360
C90E73C08D2413A4
102
}
330
C90E73C08D240FE5
100
AcDbSymbolTableRecord
100
AcDbLayerTableRecord
  2
MED
 70
     0
 62
   241
  6
CONTINUOUS
370
    -3
390
C90E73C08D240FF2
347
C90E73C08D241341
348
0
  0
LAYER
  5
C90E73C08D24102E
102
{ACAD_XDICTIONARY
360
C90E73C08D2413A6
102
}
330
C90E73C08D240FE5
100
AcDbSymbolTableRecord
100
AcDbLayerTableRecord
  2
THIN
 70
     0
 62
     9
  6
CONTINUOUS
370
    -3
390
C90E73C08D240FF2
347
C90E73C08D241341
348
0
  0
LAYER
  5
C90E73C08D24102F
102
{ACAD_XDICTIONARY
360
C90E73C08D2413A8
102
}
330
C90E73C08D240FE5
100
AcDbSymbolTableRecord
100
AcDbLayerTableRecord
  2
XTHIN
 70
     0
 62
     7
  6
CONTINUOUS
370
    -3
390
C90E73C08D240FF2
347
C90E73C08D241341
348
0
  0
LAYER
  5
C90E73C08D241030
102
{ACAD_XDICTIONARY
360
C90E73C08D2413AA
102
}
330
C90E73C08D240FE5
100
AcDbSymbolTableRecord
100
AcDbLayerTableRecord
  2
ZPAPER
 70
     0
 62
     7
  6
CONTINUOUS
370
    -3
390
C90E73C08D240FF2
347
C90E73C08D241341
348
0
  0
LAYER
  5
C90E73C08D241031
102
{ACAD_XDICTIONARY
360
C90E73C08D2413AC
102
}
330
C90E73C08D240FE5
100
AcDbSymbolTableRecord
100
AcDbLayerTableRecord
  2
2
 70
     0
 62
     7
  6
CONTINUOUS
370
    -3
390
C90E73C08D240FF2
347
C90E73C08D241341
348
0
  0
LAYER
  5
C90E73C08D241032
102
{ACAD_XDICTIONARY
360
C90E73C08D2413AE
102
}
330
C90E73C08D240FE5
100
AcDbSymbolTableRecord
100
AcDbLayerTableRecord
  2
4
 70
     0
 62
     7
  6
CONTINUOUS
370
    -3
390
C90E73C08D240FF2
347
C90E73C08D241341
348
0
  0
LAYER
  5
C90E73C08D241033
102
{ACAD_XDICTIONARY
360
C90E73C08D2413B0
102
}
330
C90E73C08D240FE5
100
AcDbSymbolTableRecord
100
AcDbLayerTableRecord
  2
5
 70
     0
 62
     7
  6
CONTINUOUS
370
    -3
390
C90E73C08D240FF2
347
C90E73C08D241341
348
0
  0
LAYER
  5
C90E73C08D241034
102
{ACAD_XDICTIONARY
360
C90E73C08D2413B2
102
}
330
C90E73C08D240FE5
100
AcDbSymbolTableRecord
100
AcDbLayerTableRecord
  2
6
 70
     0
 62
     7
  6
CONTINUOUS
370
    -3
390
C90E73C08D240FF2
347
C90E73C08D241341
348
0
  0
LAYER
  5
C90E73C08D241035
330
C90E73C08D240FE5
100
AcDbSymbolTableRecord
100
AcDbLayerTableRecord
  2
DEFPOINTS
 70
     0
 62
     7
  6
CONTINUOUS
290
     0
370
    -3
390
C90E73C08D240FF2
347
C90E73C08D241341
348
0
  0
ENDTAB
  0
TABLE
  2
STYLE
  5
C90E73C08D240FE6
330
0
100
AcDbSymbolTable
 70
    15
  0
STYLE
  5
C90E73C08D240FF4
330
C90E73C08D240FE6
100
AcDbSymbolTableRecord
100
AcDbTextStyleTableRecord
  2
STANDARD
 70
     0
 40
0.0
 41
1.0
 50
0.0
 71
     0
 42
0.05
  3
txt
  4

  0
STYLE
  5
C90E73C08D24100A
330
C90E73C08D240FE6
100
AcDbSymbolTableRecord
100
AcDbTextStyleTableRecord
  2
SIMPLEX
 70
     0
 40
0.0
 41
1.0
 50
10.0
 71
     0
 42
0.045
  3
SIMPLEX
  4

  0
STYLE
  5
C90E73C08D24100B
330
C90E73C08D240FE6
100
AcDbSymbolTableRecord
100
AcDbTextStyleTableRecord
  2
COMPLEX
 70
     0
 40
0.0
 41
1.0
 50
10.0
 71
     0
 42
0.05
  3
COMPLEX
  4

  0
STYLE
  5
C90E73C08D24100C
330
C90E73C08D240FE6
100
AcDbSymbolTableRecord
100
AcDbTextStyleTableRecord
  2
GEOTOL
 70
     0
 40
0.0
 41
1.0
 50
0.0
 71
     0
 42
0.2
  3
romans
  4

  0
STYLE
  5
C90E73C08D24100D
330
C90E73C08D240FE6
100
AcDbSymbolTableRecord
100
AcDbTextStyleTableRecord
  2
BMAT
 70
     0
 40
0.0
 41
1.0
 50
0.0
 71
     0
 42
0.2
  3
ROMANS
  4

  0
STYLE
  5
C90E73C08D24100E
330
C90E73C08D240FE6
100
AcDbSymbolTableRecord
100
AcDbTextStyleTableRecord
  2
DDIM
 70
     0
 40
0.0
 41
1.0
 50
0.0
 71
     0
 42
0.2
  3
ROMANS
  4

  0
STYLE
  5
C90E73C08D24100F
330
C90E73C08D240FE6
100
AcDbSymbolTableRecord
100
AcDbTextStyleTableRecord
  2
HCHART
 70
     0
 40
0.0
 41
1.0
 50
0.0
 71
     0
 42
0.2
  3
ROMANS
  4

  0
STYLE
  5
C90E73C08D241010
330
C90E73C08D240FE6
100
AcDbSymbolTableRecord
100
AcDbTextStyleTableRecord
  2
PTDIM
 70
     0
 40
0.0
 41
1.0
 50
0.0
 71
     0
 42
0.2
  3
romans
  4

  0
STYLE
  5
C90E73C08D241011
330
C90E73C08D240FE6
100
AcDbSymbolTableRecord
100
AcDbTextStyleTableRecord
  2
SECTION
 70
     0
 40
0.0
 41
1.0
 50
0.0
 71
     0
 42
0.2
  3
ROMANS
  4

  0
STYLE
  5
C90E73C08D241012
330
C90E73C08D240FE6
100
AcDbSymbolTableRecord
100
AcDbTextStyleTableRecord
  2
LNOTE
 70
     0
 40
0.0
 41
1.0
 50
0.0
 71
     0
 42
0.2
  3
ROMANS
  4

  0
STYLE
  5
C90E73C08D241013
330
C90E73C08D240FE6
100
AcDbSymbolTableRecord
100
AcDbTextStyleTableRecord
  2
HDIM
 70
     0
 40
0.0
 41
1.0
 50
0.0
 71
     0
 42
0.2
  3
romans
  4

  0
STYLE
  5
C90E73C08D241014
330
C90E73C08D240FE6
100
AcDbSymbolTableRecord
100
AcDbTextStyleTableRecord
  2
CHARTRC
 70
     0
 40
0.0
 41
1.0
 50
0.0
 71
     0
 42
0.2
  3
romans
  4

  0
STYLE
  5
C90E73C08D241015
330
C90E73C08D240FE6
100
AcDbSymbolTableRecord
100
AcDbTextStyleTableRecord
  2
TOOLBOX
 70
     0
 40
0.0
 41
1.0
 50
0.0
 71
     0
 42
0.2
  3
ROMANS.SHX
  4

  0
STYLE
  5
C90E73C08D241016
330
C90E73C08D240FE6
100
AcDbSymbolTableRecord
100
AcDbTextStyleTableRecord
  2
ROMANS
 70
     0
 40
0.0
 41
1.0
 50
10.0
 71
     0
 42
0.18
  3
romans
  4

  0
STYLE
  5
C90E73C08D241382
330
C90E73C08D240FE6
100
AcDbSymbolTableRecord
100
AcDbTextStyleTableRecord
  2
TAHOMA
 70
     0
 40
0.0
 41
1.0
 50
0.0
 71
     0
 42
0.045
  3
tahoma.ttf
  4

1001
ACAD
1000
Tahoma
1071
       34
  0
ENDTAB
  0
TABLE
  2
VIEW
  5
C90E73C08D240FE9
330
0
100
AcDbSymbolTable
 70
     4
  0
VIEW
  5
C90E73C08D24101F
330
C90E73C08D240FE9
100
AcDbSymbolTableRecord
100
AcDbViewTableRecord
  2
X
 70
     0
 40
4.883763142233683
 10
4.003678815158994
 20
2.516881571116841
 41
0.0
 11
0.0
 21
0.0
 31
1.0
 12
0.0
 22
0.0
 32
0.0
 42
0.0
 43
0.0
 44
0.0
 50
0.0
 71
     0
281
     0
 72
     0
 73
     0
348
C90E73C08D24134F
  0
VIEW
  5
C90E73C08D241020
330
C90E73C08D240FE9
100
AcDbSymbolTableRecord
100
AcDbViewTableRecord
  2
A
 70
     0
 40
5.086925965388944
 10
4.01425529195963
 20
2.577963992275071
 41
0.0
 11
0.0
 21
0.0
 31
1.0
 12
0.0
 22
0.0
 32
0.0
 42
0.0
 43
0.0
 44
0.0
 50
0.0
 71
     0
281
     0
 72
     0
 73
     0
348
C90E73C08D24134F
  0
VIEW
  5
C90E73C08D241021
330
C90E73C08D240FE9
100
AcDbSymbolTableRecord
100
AcDbViewTableRecord
  2
B
 70
     0
 40
5.334674714956404
 10
4.099999999999999
 20
2.667337357478202
 41
0.0
 11
0.0
 21
0.0
 31
1.0
 12
0.0
 22
0.0
 32
0.0
 42
0.0
 43
0.0
 44
0.0
 50
0.0
 71
     0
281
     0
 72
     0
 73
     0
348
C90E73C08D24134F
  0
VIEW
  5
C90E73C08D241022
330
C90E73C08D240FE9
100
AcDbSymbolTableRecord
100
AcDbViewTableRecord
  2
C
 70
     0
 40
5.334674714956404
 10
4.099999999999999
 20
2.667337357478202
 41
0.0
 11
0.0
 21
0.0
 31
1.0
 12
0.0
 22
0.0
 32
0.0
 42
0.0
 43
0.0
 44
0.0
 50
0.0
 71
     0
281
     0
 72
     0
 73
     0
348
C90E73C08D24134F
  0
ENDTAB
  0
TABLE
  2
UCS
  5
C90E73C08D240FEA
330
0
100
AcDbSymbolTable
 70
     0
  0
ENDTAB
  0
TABLE
  2
APPID
  5
C90E73C08D240FEC
330
0
100
AcDbSymbolTable
 70
     4
  0
APPID
  5
C90E73C08D240FF5
330
C90E73C08D240FEC
100
AcDbSymbolTableRecord
100
AcDbRegAppTableRecord
  2
ACAD
 70
     0
  0
APPID
  5
C90E73C08D241025
330
C90E73C08D240FEC
100
AcDbSymbolTableRecord
100
AcDbRegAppTableRecord
  2
TB_S_MPD
 70
     0
  0
APPID
  5
C90E73C08D241384
330
C90E73C08D240FEC
100
AcDbSymbolTableRecord
100
AcDbRegAppTableRecord
  2
ACAD_NAV_VCDISPLAY
 70
     0
  0
APPID
  5
C90E73C08D241392
330
C90E73C08D240FEC
100
AcDbSymbolTableRecord
100
AcDbRegAppTableRecord
  2
ACAD_EXEMPT_FROM_CAD_STANDARDS
 70
     0
  0
ENDTAB
  0
TABLE
  2
DIMSTYLE
  5
C90E73C08D240FED
330
0
100
AcDbSymbolTable
 70
     6
100
AcDbDimStyleTable
 71
     1
340
C90E73C08D24103D
  0
DIMSTYLE
105
C90E73C08D24103D
102
{ACAD_REACTORS
330
C90E73C08D2410D2
330
C90E73C08D24114C
330
C90E73C08D24116E
330
C90E73C08D2411C6
330
C90E73C08D241320
102
}
330
C90E73C08D240FED
100
AcDbSymbolTableRecord
100
AcDbDimStyleTableRecord
  2
Standard
 70
     0
340
C90E73C08D240FF4
  0
DIMSTYLE
105
C90E73C08D241053
102
{ACAD_REACTORS
330
C90E73C08D241061
102
}
330
C90E73C08D240FED
100
AcDbSymbolTableRecord
100
AcDbDimStyleTableRecord
  2
HSTANDARD
 70
     0
 40
0.5
 41
0.125
 42
0.075
 44
0.08
140
0.08
141
0.0
146
0.4444444444444445
176
   112
177
     9
178
   256
271
     3
272
     3
340
C90E73C08D241016
  0
DIMSTYLE
105
C90E73C08D241054
330
C90E73C08D240FED
100
AcDbSymbolTableRecord
100
AcDbDimStyleTableRecord
  2
2XSCALE
 70
     0
 40
0.5
 41
0.125
 42
0.09
 44
0.08
140
0.08
141
-0.09
144
4.0
146
0.4444440000000001
176
   112
177
     9
178
   256
271
     3
272
     3
340
C90E73C08D241016
  0
DIMSTYLE
105
C90E73C08D241055
330
C90E73C08D240FED
100
AcDbSymbolTableRecord
100
AcDbDimStyleTableRecord
  2
Copy of HSTANDARD
 70
     0
 41
0.125
 42
0.045
 44
0.08
140
0.08
141
-0.09
144
0.5
146
0.4444444444444445
176
   112
177
     9
178
   256
271
     3
272
     3
340
C90E73C08D241016
  0
DIMSTYLE
105
C90E73C08D241056
330
C90E73C08D240FED
100
AcDbSymbolTableRecord
100
AcDbDimStyleTableRecord
  2
half scale
 70
     0
 40
0.5
 41
0.125
 42
0.045
 44
0.08
140
0.08
141
0.0
146
0.4444444444444445
176
   112
177
     9
178
   256
271
     3
272
     3
340
C90E73C08D241016
  0
DIMSTYLE
105
C90E73C08D241383
330
C90E73C08D240FED
100
AcDbSymbolTableRecord
100
AcDbDimStyleTableRecord
  2
ASWhite
 70
     0
  3
"
 40
2.0
 41
0.125
 42
0.045
 44
0.08
140
0.08
141
-0.09
146
0.4444440000000001
176
     7
177
     7
178
   256
276
     2
277
     5
289
     1
340
C90E73C08D241016
  0
ENDTAB
  0
TABLE
  2
BLOCK_RECORD
  5
C90E73C08D240FE4
330
0
100
AcDbSymbolTable
 70
    12
  0
BLOCK_RECORD
  5
C90E73C08D241001
330
C90E73C08D240FE4
100
AcDbSymbolTableRecord
100
AcDbBlockTableRecord
  2
*Model_Space
340
C90E73C08D241004
 70
     0
280
     1
281
     0
  0
BLOCK_RECORD
  5
C90E73C08D240FFD
330
C90E73C08D240FE4
100
AcDbSymbolTableRecord
100
AcDbBlockTableRecord
  2
*Paper_Space
340
C90E73C08D241000
 70
     0
280
     1
281
     0
  0
BLOCK_RECORD
  5
C90E73C08D241005
330
C90E73C08D240FE4
100
AcDbSymbolTableRecord
100
AcDbBlockTableRecord
  2
FIN
340
0
 70
     0
280
     1
281
     0
  0
BLOCK_RECORD
  5
C90E73C08D241006
330
C90E73C08D240FE4
100
AcDbSymbolTableRecord
100
AcDbBlockTableRecord
  2
*X1
340
0
102
{BLKREFS
331
C5C
331
C6F
102
}
 70
     0
280
     1
281
     0
  0
BLOCK_RECORD
  5
C90E73C08D241007
330
C90E73C08D240FE4
100
AcDbSymbolTableRecord
100
AcDbBlockTableRecord
  2
*X2
340
0
102
{BLKREFS
331
C65
331
C6E
102
}
 70
     0
280
     1
281
     0
  0
BLOCK_RECORD
  5
C90E73C08D241009
330
C90E73C08D240FE4
100
AcDbSymbolTableRecord
100
AcDbBlockTableRecord
  2
ASDTNUM
340
0
102
{BLKREFS
331
C90E73C08D240FE0
102
}
 70
     0
280
     1
281
     0
  0
BLOCK_RECORD
  5
C90E73C08D241045
330
C90E73C08D240FE4
100
AcDbSymbolTableRecord
100
AcDbBlockTableRecord
  2
*D4
340
0
 70
     0
280
     1
281
     0
  0
BLOCK_RECORD
  5
C90E73C08D241058
330
C90E73C08D240FE4
100
AcDbSymbolTableRecord
100
AcDbBlockTableRecord
  2
B3363
340
0
 70
     0
280
     1
281
     0
  0
BLOCK_RECORD
  5
C90E73C08D2410D3
330
C90E73C08D240FE4
100
AcDbSymbolTableRecord
100
AcDbBlockTableRecord
  2
*D6
340
0
 70
     0
280
     1
281
     0
  0
BLOCK_RECORD
  5
C90E73C08D24114D
330
C90E73C08D240FE4
100
AcDbSymbolTableRecord
100
AcDbBlockTableRecord
  2
*D7
340
0
 70
     0
280
     1
281
     0
  0
BLOCK_RECORD
  5
C90E73C08D24116F
330
C90E73C08D240FE4
100
AcDbSymbolTableRecord
100
AcDbBlockTableRecord
  2
*D8
340
0
 70
     0
280
     1
281
     0
  0
BLOCK_RECORD
  5
C90E73C08D2411C7
330
C90E73C08D240FE4
100
AcDbSymbolTableRecord
100
AcDbBlockTableRecord
  2
*D9
340
0
 70
     0
280
     1
281
     0
  0
BLOCK_RECORD
  5
C90E73C08D241211
330
C90E73C08D240FE4
100
AcDbSymbolTableRecord
100
AcDbBlockTableRecord
  2
SWIGGLE SPACER
340
0
 70
     0
280
     1
281
     0
  0
BLOCK_RECORD
  5
C90E73C08D241321
330
C90E73C08D240FE4
100
AcDbSymbolTableRecord
100
AcDbBlockTableRecord
  2
*D11
340
0
 70
     0
280
     1
281
     0
  0
ENDTAB
  0
ENDSEC
  0
SECTION
  2
BLOCKS
  0
BLOCK
  5
C90E73C08D241038
330
C90E73C08D241001
100
AcDbEntity
  8
0
100
AcDbBlockBegin
  2
*Model_Space
 70
     0
 10
0.0
 20
0.0
 30
0.0
  3
*Model_Space
  1

  0
ENDBLK
  5
C90E73C08D241039
330
C90E73C08D241001
100
AcDbEntity
  8
0
100
AcDbBlockEnd
  0
BLOCK
  5
C90E73C08D241036
330
C90E73C08D240FFD
100
AcDbEntity
 67
     1
  8
0
100
AcDbBlockBegin
  2
*Paper_Space
 70
     0
 10
0.0
 20
0.0
 30
0.0
  3
*Paper_Space
  1

  0
ENDBLK
  5
C90E73C08D241037
330
C90E73C08D240FFD
100
AcDbEntity
 67
     1
  8
0
100
AcDbBlockEnd
  0
BLOCK
  5
1D9D
330
C90E73C08D241005
100
AcDbEntity
  8
0
100
AcDbBlockBegin
  2
FIN
 70
     0
 10
0.0
 20
0.0
 30
0.0
  3
FIN
  1

  0
LWPOLYLINE
  5
1D9E
330
C90E73C08D241005
100
AcDbEntity
  8
0
100
AcDbPolyline
 90
       26
 70
     1
 43
0.0
 10
-0.0236034413648962
 20
0.1493906489076351
 42
0.7786786991716762
 10
-0.0800000000000001
 20
0.1351350643098903
 10
-0.0800000000000001
 20
-0.0851350643098896
 42
0.4142135623730951
 10
-0.0449999999999999
 20
-0.1201350643098897
 10
0.2320000000000011
 20
-0.1201350643098897
 42
0.4142135623730951
 10
0.2670000000000012
 20
-0.0851350643098896
 10
0.2670000000000012
 20
0.8098649356901098
 42
-0.414213562373095
 10
0.282
 20
0.8248649356901086
 10
1.502
 20
0.8248649356901104
 42
0.414213562373096
 10
1.517000000000001
 20
0.8398649356901092
 10
1.517000000000001
 20
0.8798649356901083
 42
0.4142135623730941
 10
1.502
 20
0.8948649356901089
 10
0.282
 20
0.8948649356901089
 42
-0.4142135623730951
 10
0.2670000000000012
 20
0.9098649356901095
 10
0.2670000000000012
 20
1.024864935690109
 10
0.2469999999999999
 20
1.044864935690109
 10
0.2670000000000012
 20
1.064864935690108
 10
0.2669999999999995
 20
1.259864935690109
 42
0.4142135623730951
 10
0.2520000000000007
 20
1.274864935690109
 10
0.2119999999999997
 20
1.274864935690109
 42
0.4142135623730951
 10
0.1970000000000009
 20
1.259864935690109
 10
0.1970000000000009
 20
-0.0351350643098925
 42
-0.4142135623730959
 10
0.1820000000000004
 20
-0.0501350643098912
 10
0.0
 20
-0.0501350643098895
 10
0.0
 20
0.0501350643098895
 10
0.0299999999999994
 20
0.0501350643098895
  0
ENDBLK
  5
1DBA
330
C90E73C08D241005
100
AcDbEntity
  8
0
100
AcDbBlockEnd
  0
BLOCK
  5
C5B
330
C90E73C08D241006
100
AcDbEntity
  8
0
100
AcDbBlockBegin
  2
*X1
 70
     1
 10
0.0
 20
0.0
 30
0.0
  3
*X1
  1

  0
LINE
  5
C5D
330
C90E73C08D241006
100
AcDbEntity
  8
0
 62
     0
100
AcDbLine
 10
2.063727321994233
 20
5.245707837333696
 30
0.0
 11
2.126227321994232
 21
5.308207837333696
 31
0.0
  0
LINE
  5
C5E
330
C90E73C08D241006
100
AcDbEntity
  8
0
 62
     0
100
AcDbLine
 10
2.063727321994233
 20
5.334096184982015
 30
0.0
 11
2.126227321994232
 21
5.396596184982014
 31
0.0
  0
LINE
  5
C5F
330
C90E73C08D241006
100
AcDbEntity
  8
0
 62
     0
100
AcDbLine
 10
2.063727321994233
 20
5.422484532630333
 30
0.0
 11
2.126227321994232
 21
5.484984532630332
 31
0.0
  0
LINE
  5
C60
330
C90E73C08D241006
100
AcDbEntity
  8
0
 62
     0
100
AcDbLine
 10
2.063727321994233
 20
5.510872880278652
 30
0.0
 11
2.108558224283356
 21
5.555703782567775
 31
0.0
  0
LINE
  5
C61
330
C90E73C08D241006
100
AcDbEntity
  8
0
 62
     0
100
AcDbLine
 10
2.063727321994233
 20
5.157319489685378
 30
0.0
 11
2.126227321994232
 21
5.219819489685376
 31
0.0
  0
LINE
  5
C62
330
C90E73C08D241006
100
AcDbEntity
  8
0
 62
     0
100
AcDbLine
 10
2.067604911256471
 20
5.072808731299298
 30
0.0
 11
2.126227321994232
 21
5.131431142037058
 31
0.0
  0
ENDBLK
  5
C63
330
C90E73C08D241006
100
AcDbEntity
  8
0
100
AcDbBlockEnd
  0
BLOCK
  5
C64
330
C90E73C08D241007
100
AcDbEntity
  8
0
100
AcDbBlockBegin
  2
*X2
 70
     1
 10
0.0
 20
0.0
 30
0.0
  3
*X2
  1

  0
LINE
  5
C66
330
C90E73C08D241007
100
AcDbEntity
  8
0
 62
     0
100
AcDbLine
 10
4.229155100125058
 20
5.201426924256561
 30
0.0
 11
4.291655100125058
 21
5.263926924256561
 31
0.0
  0
LINE
  5
C67
330
C90E73C08D241007
100
AcDbEntity
  8
0
 62
     0
100
AcDbLine
 10
4.229155100125058
 20
5.289815271904879
 30
0.0
 11
4.291655100125058
 21
5.352315271904879
 31
0.0
  0
LINE
  5
C68
330
C90E73C08D241007
100
AcDbEntity
  8
0
 62
     0
100
AcDbLine
 10
4.229155100125058
 20
5.378203619553198
 30
0.0
 11
4.291655100125058
 21
5.440703619553198
 31
0.0
  0
LINE
  5
C69
330
C90E73C08D241007
100
AcDbEntity
  8
0
 62
     0
100
AcDbLine
 10
4.229155100125058
 20
5.466591967201517
 30
0.0
 11
4.291198078569826
 21
5.528634945646285
 31
0.0
  0
LINE
  5
C6A
330
C90E73C08D241007
100
AcDbEntity
  8
0
 62
     0
100
AcDbLine
 10
4.229155100125058
 20
5.554980314849835
 30
0.0
 11
4.229878567842998
 21
5.555703782567775
 31
0.0
  0
LINE
  5
C6B
330
C90E73C08D241007
100
AcDbEntity
  8
0
 62
     0
100
AcDbLine
 10
4.229155100125058
 20
5.113038576608243
 30
0.0
 11
4.291655100125058
 21
5.175538576608242
 31
0.0
  0
LINE
  5
C6C
330
C90E73C08D241007
100
AcDbEntity
  8
0
 62
     0
100
AcDbLine
 10
4.260226312307806
 20
5.055721441142672
 30
0.0
 11
4.29163744155016
 21
5.087132570385026
 31
0.0
  0
ENDBLK
  5
C6D
330
C90E73C08D241007
100
AcDbEntity
  8
0
100
AcDbBlockEnd
  0
BLOCK
  5
207A5C5EAD
330
C90E73C08D241009
100
AcDbEntity
  8
0
100
AcDbBlockBegin
  2
ASDTNUM
 70
     2
 10
0.0
 20
0.0
 30
0.0
  3
ASDTNUM
  1

  0
TEXT
  5
207A5C9C09
330
C90E73C08D241009
100
AcDbEntity
  8
THIN
100
AcDbText
 10
13.58214084242182
 20
0.6570694486990832
 30
0.0
 40
0.25
  1
AS
 51
10.0
  7
ROMANS
100
AcDbText
  0
ATTDEF
  5
C90E73C08D240FDB
330
C90E73C08D241009
100
AcDbEntity
  8
THIN
100
AcDbText
 10
1.145491964163355
 20
0.7077964671298738
 30
0.0
 40
0.18
  1

 51
10.0
  7
ROMANS
100
AcDbAttributeDefinition
280
     0
  3
Revision date:
  2
REV:
 70
     0
280
     0
  0
TEXT
  5
C90E73C08D240FDC
330
C90E73C08D241009
100
AcDbEntity
  8
THIN
100
AcDbText
 10
0.3991511953395569
 20
0.7098478649101438
 30
0.0
 40
0.18
  1
REV.
 51
10.0
  7
ROMANS
100
AcDbText
  0
ATTDEF
  5
C90E73C08D240FDD
330
C90E73C08D241009
100
AcDbEntity
  8
THIN
100
AcDbText
 10
14.18958977281909
 20
0.6570000000000001
 30
0.0
 40
0.25
  1

 51
10.0
  7
ROMANS
100
AcDbAttributeDefinition
280
     0
  3
AS Drawing Num.:
  2
AS#
 70
     0
280
     0
  0
ENDBLK
  5
C90E73C08D240FDF
330
C90E73C08D241009
100
AcDbEntity
  8
0
100
AcDbBlockEnd
  0
BLOCK
  5
C90E73C08D241050
330
C90E73C08D241045
100
AcDbEntity
  8
0
100
AcDbBlockBegin
  2
*D4
 70
     1
 10
0.0
 20
0.0
 30
0.0
  3
*D4
  1

  0
LINE
  5
C90E73C08D241046
330
C90E73C08D241045
100
AcDbEntity
  8
DIM
 62
     9
370
    -2
100
AcDbLine
 10
5.914688952671243
 20
3.08814124668819
 30
0.0
 11
5.914688952671243
 21
3.013248962214176
 31
0.0
  0
LINE
  5
C90E73C08D241047
330
C90E73C08D241045
100
AcDbEntity
  8
DIM
 62
     9
370
    -2
100
AcDbLine
 10
5.835688952671241
 20
3.196141246688207
 30
0.0
 11
5.835688952671241
 21
3.013248962214176
 31
0.0
  0
LINE
  5
C90E73C08D241048
330
C90E73C08D241045
100
AcDbEntity
  8
DIM
 62
   112
370
    -2
100
AcDbLine
 10
5.977188952671243
 20
3.053248962214176
 30
0.0
 11
6.039688952671243
 21
3.053248962214176
 31
0.0
  0
LINE
  5
C90E73C08D241049
330
C90E73C08D241045
100
AcDbEntity
  8
DIM
 62
   112
370
    -2
100
AcDbLine
 10
5.773188952671241
 20
3.053248962214176
 30
0.0
 11
5.710688952671241
 21
3.053248962214176
 31
0.0
  0
SOLID
  5
C90E73C08D24104A
330
C90E73C08D241045
100
AcDbEntity
  8
DIM
 62
   112
100
AcDbTrace
 10
5.977188952671243
 20
3.063665628880843
 30
0.0
 11
5.977188952671243
 21
3.04283229554751
 31
0.0
 12
5.914688952671243
 22
3.053248962214176
 32
0.0
 13
5.914688952671243
 23
3.053248962214176
 33
0.0
  0
SOLID
  5
C90E73C08D24104B
330
C90E73C08D241045
100
AcDbEntity
  8
DIM
 62
   112
100
AcDbTrace
 10
5.773188952671241
 20
3.063665628880843
 30
0.0
 11
5.773188952671241
 21
3.04283229554751
 31
0.0
 12
5.835688952671241
 22
3.053248962214176
 32
0.0
 13
5.835688952671241
 23
3.053248962214176
 33
0.0
  0
MTEXT
  5
C90E73C08D24104C
330
C90E73C08D241045
100
AcDbEntity
  8
DIM
100
AcDbMText
 10
5.585801681334534
 20
3.053248962214176
 30
0.0
 40
0.04
 41
0.0
 46
0.0
 71
     5
 72
     1
  1
\A1;0.079
  7
ROMANS
 73
     1
 44
1.0
  0
POINT
  5
C90E73C08D24104D
330
C90E73C08D241045
100
AcDbEntity
  8
DEFPOINTS
 62
     0
100
AcDbPoint
 10
5.914688952671243
 20
3.12564124668819
 30
0.0
  0
POINT
  5
C90E73C08D24104E
330
C90E73C08D241045
100
AcDbEntity
  8
DEFPOINTS
 62
     0
100
AcDbPoint
 10
5.835688952671241
 20
3.233641246688208
 30
0.0
  0
POINT
  5
C90E73C08D24104F
330
C90E73C08D241045
100
AcDbEntity
  8
DEFPOINTS
 62
     0
100
AcDbPoint
 10
5.835688952671241
 20
3.053248962214176
 30
0.0
  0
ENDBLK
  5
C90E73C08D241051
330
C90E73C08D241045
100
AcDbEntity
  8
0
100
AcDbBlockEnd
  0
BLOCK
  5
C90E73C08D241063
330
C90E73C08D241058
100
AcDbEntity
  8
0
100
AcDbBlockBegin
  2
B3363
 70
     0
 10
0.0
 20
0.0
 30
0.0
  3
B3363
  1

  0
LWPOLYLINE
  5
C90E73C08D241059
330
C90E73C08D241058
100
AcDbEntity
  8
0
100
AcDbPolyline
 90
       60
 70
     1
 43
0.0
 10
1.069499999999976
 20
0.8459999999999965
 10
0.7694999999999937
 20
0.8459999999999965
 42
0.4931454260309735
 10
0.7550111126056436
 20
0.8271177143234567
 10
0.7711511470673429
 20
0.7668822856765516
 42
-0.4931454260309734
 10
0.7566622596729929
 20
0.7480000000000118
 10
0.2184999999999775
 20
0.7480000000000118
 42
-0.4142135623732337
 10
0.2034999999999769
 20
0.7629999999999982
 10
0.2034999999999769
 20
0.8310000000000101
 42
-0.4142135623732338
 10
0.2184999999999775
 20
0.8459999999999965
 10
0.3609999999999758
 20
0.8459999999999965
 42
0.9999999999999998
 10
0.3609999999999758
 20
0.9250000000000042
 10
-0.6119900951803317
 20
0.9250000000000042
 42
0.3394542588633359
 10
-0.6264789825746675
 20
0.9138822856765429
 10
-0.6467800382836373
 20
0.8381177143234239
 42
-0.3394542588633352
 10
-0.6612689256779732
 20
0.8269999999999626
 10
-0.7855000000000274
 20
0.8269999999999768
 42
-0.4142135623730951
 10
-0.8005000000000279
 20
0.8419999999999774
 10
-0.8005000000000279
 20
1.489000000000011
 42
0.4931454260313179
 10
-0.8105705523608506
 20
1.496727406610325
 10
-1.150770323661085
 20
1.405571152625149
 42
0.3394542588633682
 10
-1.194500000000033
 20
1.348581528874099
 10
-1.194500000000033
 20
0.821898806203329
 42
-0.3394542588633769
 10
-1.205617714323494
 20
0.8074099188089931
 10
-2.077770323661113
 20
0.57371733146028
 42
0.33945425886342
 10
-2.121500000000061
 20
0.5167277077092152
 10
-2.121499999999969
 20
-0.1849999999999952
 42
0.4142135623730951
 10
-2.106499999999968
 20
-0.1999999999999957
 10
-1.97349999999993
 20
-0.1999999999999957
 42
0.4142135623729564
 10
-1.958499999999929
 20
-0.1849999999999809
 10
-1.958499999999943
 20
-0.1169999999999831
 42
0.4142135623730951
 10
-1.973499999999944
 20
-0.1019999999999825
 10
-2.008500000000012
 20
-0.1019999999999968
 42
-0.4142135623730951
 10
-2.023500000000012
 20
-0.0869999999999962
 10
-2.02349999999997
 20
0.3470000000000013
 42
-0.4142135623732338
 10
-2.008499999999969
 20
0.3619999999999877
 10
-1.223499999999987
 20
0.3620000000000019
 42
-0.4142135623730951
 10
-1.208499999999986
 20
0.3470000000000013
 10
-1.208499999999972
 20
-1.204999999999976
 42
0.9999999999999998
 10
-1.128499999999959
 20
-1.204999999999976
 10
-1.128499999999974
 20
-0.0149999999999935
 42
-0.4142135623730951
 10
-1.113499999999973
 20
0.0000000000000071
 10
1.113499999999973
 20
-0.0000000000000071
 42
0.4142135623729564
 10
1.128499999999981
 20
0.0150000000000077
 10
1.128499999999974
 20
0.1820000000000093
 42
0.4142135623732338
 10
1.113499999999973
 20
0.1969999999999956
 10
1.045499999999975
 20
0.1969999999999956
 42
0.4142135623732338
 10
1.030499999999982
 20
0.1820000000000093
 10
1.030499999999975
 20
0.1129999999999924
 42
-0.4142135623732337
 10
1.015499999999974
 20
0.0980000000000061
 10
0.8484999999999729
 20
0.0980000000000061
 42
-0.4142135623732337
 10
0.8334999999999794
 20
0.1129999999999924
 10
0.8334999999999723
 20
0.3989999999999938
 42
-0.4142135623729563
 10
0.8484999999999729
 20
0.4140000000000086
 10
1.015499999999974
 20
0.4140000000000086
 42
-0.4142135623729563
 10
1.030499999999982
 20
0.3989999999999938
 10
1.030499999999975
 20
0.3300000000000054
 42
0.4142135623729564
 10
1.045499999999975
 20
0.3149999999999906
 10
1.113499999999973
 20
0.3149999999999906
 42
0.4142135623729564
 10
1.128499999999981
 20
0.3300000000000054
 10
1.128499999999977
 20
0.7869999999999991
 42
0.4142135623730951
  0
LWPOLYLINE
  5
C90E73C08D24105A
330
C90E73C08D241058
100
AcDbEntity
  8
0
100
AcDbPolyline
 90
        8
 70
     1
 43
0.0
 10
-2.015500000000024
 20
0.4600000000000151
 10
-1.209500000000005
 20
0.4599999999999867
 42
0.4142135623731505
 10
-1.194500000000005
 20
0.4749999999999872
 10
-1.19450000000004
 20
0.6893834551108356
 42
0.4931454260312541
 10
-1.21338228567658
 20
0.7038723425051714
 10
-2.017570552360844
 20
0.4883907458845372
 42
0.3394542588634479
 10
-2.023500000000026
 20
0.4806633392742228
 10
-2.023500000000026
 20
0.4680000000000107
 42
0.4142135623729894
  0
LWPOLYLINE
  5
C90E73C08D24105B
330
C90E73C08D241058
100
AcDbEntity
  8
0
100
AcDbPolyline
 90
        8
 70
     1
 43
0.0
 10
-0.8985000000000269
 20
0.8420000000000058
 42
-0.4142135623730951
 10
-0.9135000000000275
 20
0.826999999999991
 10
-1.081500000000019
 20
0.8270000000000052
 42
-0.4142135623730951
 10
-1.09650000000002
 20
0.8420000000000058
 10
-1.09650000000002
 20
1.307145871523239
 42
-0.339454258863349
 10
-1.085382285676558
 20
1.321634758917589
 10
-0.9173822856765667
 20
1.366650223246018
 42
-0.4931454260313339
 10
-0.8985000000000269
 20
1.352161335851668
  0
LWPOLYLINE
  5
C90E73C08D24105C
330
C90E73C08D241058
100
AcDbEntity
  8
MED
100
AcDbPolyline
 90
        6
 70
     1
 43
0.0
 10
-0.8085000000000279
 20
1.497000000000005
 10
-0.8085000000000279
 20
1.497000000000005
 10
-0.6260000000000199
 20
1.61299038105678
 42
-0.9074790381357148
 10
-0.6086378593392264
 20
1.58869786827247
 10
-0.8005000000000279
 20
1.399000000000008
 10
-0.8005000000000279
 20
1.489000000000006
 42
0.4142135623730951
  0
LWPOLYLINE
  5
C90E73C08D24105D
330
C90E73C08D241058
100
AcDbEntity
  8
MED
100
AcDbPolyline
 90
        4
 70
     1
 43
0.0
 10
-0.8005000000000279
 20
1.202000000000005
 10
-0.8005000000000279
 20
1.104000000000006
 10
-0.6490319696946463
 20
1.263564877154809
 42
0.9232674871893902
 10
-0.6660000000000315
 20
1.288189535246974
  0
LWPOLYLINE
  5
C90E73C08D24105E
330
C90E73C08D241058
100
AcDbEntity
  8
0
100
AcDbPolyline
 90
       12
 70
     1
 43
0.0
 10
-0.800500000000035
 20
0.7140000000000058
 42
-0.4142135623731131
 10
-0.7855000000000345
 20
0.7290000000000063
 10
-0.5860708808560489
 20
0.7289999999999779
 42
0.3394542588633565
 10
-0.5715819934617131
 20
0.7401177143234392
 10
-0.5512809377527433
 20
0.8158822856765581
 42
-0.3394542588633316
 10
-0.5367920503584074
 20
0.8270000000000194
 10
0.0904999999999774
 20
0.8270000000000052
 42
-0.4142135623730951
 10
0.1054999999999779
 20
0.8120000000000047
 10
0.1054999999999815
 20
0.1130000000000066
 42
-0.4142135623730951
 10
0.090499999999981
 20
0.0980000000000061
 10
-0.7855000000000345
 20
0.0979999999999919
 42
-0.4142135623730951
 10
-0.800500000000035
 20
0.1129999999999924
  0
LWPOLYLINE
  5
C90E73C08D24105F
330
C90E73C08D241058
100
AcDbEntity
  8
0
100
AcDbPolyline
 90
        8
 70
     1
 43
0.0
 10
-1.095499999999972
 20
0.0980000000000061
 42
-0.4142135623730951
 10
-1.110499999999973
 20
0.1130000000000066
 10
-1.110500000000016
 20
0.7330000000000112
 42
-0.4142135623731151
 10
-1.095500000000015
 20
0.7480000000000118
 10
-0.8945000000000078
 20
0.7480000000000118
 42
-0.4142135623729563
 10
-0.8795000000000001
 20
0.732999999999997
 10
-0.8795000000000214
 20
0.1129999999999924
 42
-0.4142135623732337
 10
-0.894500000000022
 20
0.0980000000000061
  0
LWPOLYLINE
  5
C90E73C08D241060
330
C90E73C08D241058
100
AcDbEntity
  8
0
100
AcDbPolyline
 90
       12
 70
     1
 43
0.0
 10
1.030499999999978
 20
0.5270000000000224
 10
1.030499999999967
 20
0.7329999999999828
 42
0.4142135623730906
 10
1.015499999999967
 20
0.7479999999999834
 10
0.8974999999999759
 20
0.7479999999999976
 42
0.4142135623731157
 10
0.8824999999999754
 20
0.732999999999997
 10
0.8824999999999789
 20
0.6650000000000134
 42
-0.4142135623730701
 10
0.8674999999999783
 20
0.6500000000000128
 10
0.8294999999999852
 20
0.6499999999999986
 42
0.414213562373009
 10
0.8144999999999882
 20
0.634999999999998
 10
0.8144999999999775
 20
0.5269999999999797
 42
0.4142135623731397
 10
0.8294999999999781
 20
0.5119999999999792
 10
1.015499999999978
 20
0.5120000000000218
 42
0.4142135623730836
  0
DIMENSION
  5
C90E73C08D241061
330
C90E73C08D241058
100
AcDbEntity
  8
DIM
100
AcDbDimension
280
     0
  2
*D4
 10
0.735499999999977
 20
0.4546077155259667
 30
0.0
 11
0.4856127286632699
 21
0.4546077155259667
 31
0.0
 12
-5.100188952671264
 22
-2.59864124668821
 32
0.0
 71
     5
 42
0.0790000000000015
 73
     0
 74
     0
 75
     0
  3
HSTANDARD
100
AcDbAlignedDimension
 13
0.8144999999999784
 23
0.5269999999999802
 33
0.0
 14
0.735499999999977
 24
0.634999999999998
 34
0.0
100
AcDbRotatedDimension
  0
LWPOLYLINE
  5
C90E73C08D241062
330
C90E73C08D241058
100
AcDbEntity
  8
0
100
AcDbPolyline
 90
        8
 70
     1
 43
0.0
 10
0.7354999999999805
 20
0.1129999999999924
 10
0.735499999999977
 20
0.634999999999998
 42
0.4142135623730857
 10
0.7204999999999764
 20
0.6499999999999986
 10
0.1994999999999827
 20
0.6499999999999986
 42
0.4142135623730953
 10
0.1844999999999821
 20
0.634999999999998
 10
0.1844999999999821
 20
0.1130000000000351
 42
0.4142135623730839
 10
0.1994999999999827
 20
0.0980000000000345
 10
0.72049999999998
 20
0.0979999999999919
 42
0.4142135623731205
  0
ENDBLK
  5
C90E73C08D241064
330
C90E73C08D241058
100
AcDbEntity
  8
0
100
AcDbBlockEnd
  0
BLOCK
  5
C90E73C08D2410DE
330
C90E73C08D2410D3
100
AcDbEntity
  8
0
100
AcDbBlockBegin
  2
*D6
 70
     1
 10
0.0
 20
0.0
 30
0.0
  3
*D6
  1

  0
LINE
  5
C90E73C08D241141
330
C90E73C08D2410D3
100
AcDbEntity
  8
DIM
 62
     0
440
 16777216
370
    -2
100
AcDbLine
 10
14.31935797964935
 20
3.601895381069143
 30
0.0
 11
15.08986828442013
 21
3.601895381069142
 31
0.0
  0
LINE
  5
C90E73C08D241142
330
C90E73C08D2410D3
100
AcDbEntity
  8
DIM
 62
     0
440
 16777216
370
    -2
100
AcDbLine
 10
13.29935797964935
 20
4.3518953810691
 30
0.0
 11
15.08986828442013
 21
4.351895381069099
 31
0.0
  0
LINE
  5
C90E73C08D241143
330
C90E73C08D2410D3
100
AcDbEntity
  8
DIM
 62
     0
440
 16777216
370
    -2
100
AcDbLine
 10
14.88986828442013
 20
3.421895381069143
 30
0.0
 11
14.88986828442013
 21
3.241895381069143
 31
0.0
  0
LINE
  5
C90E73C08D241144
330
C90E73C08D2410D3
100
AcDbEntity
  8
DIM
 62
     0
440
 16777216
370
    -2
100
AcDbLine
 10
14.88986828442013
 20
4.531895381069099
 30
0.0
 11
14.88986828442013
 21
4.711895381069099
 31
0.0
  0
MTEXT
  5
C90E73C08D241145
330
C90E73C08D2410D3
100
AcDbEntity
  8
DIM
 62
     0
440
 16777216
100
AcDbMText
 10
14.88986828442013
 20
3.976895381069121
 30
0.0
 40
0.18
 41
0.0
 46
0.0
 71
     5
 72
     1
  1
\A1;3/4"
 73
     1
 44
1.0
  0
SOLID
  5
C90E73C08D241146
330
C90E73C08D2410D3
100
AcDbEntity
  8
DIM
 62
     0
440
 16777216
100
AcDbTrace
 10
14.85986828442013
 20
3.421895381069143
 30
0.0
 11
14.91986828442013
 21
3.421895381069143
 31
0.0
 12
14.88986828442013
 22
3.601895381069143
 32
0.0
 13
14.88986828442013
 23
3.601895381069143
 33
0.0
  0
SOLID
  5
C90E73C08D241147
330
C90E73C08D2410D3
100
AcDbEntity
  8
DIM
 62
     0
440
 16777216
100
AcDbTrace
 10
14.85986828442013
 20
4.531895381069099
 30
0.0
 11
14.91986828442013
 21
4.531895381069099
 31
0.0
 12
14.88986828442013
 22
4.351895381069099
 32
0.0
 13
14.88986828442013
 23
4.351895381069099
 33
0.0
  0
POINT
  5
C90E73C08D241148
330
C90E73C08D2410D3
100
AcDbEntity
  8
DEFPOINTS
 62
     0
440
 16777216
100
AcDbPoint
 10
14.11935797964934
 20
3.601895381069143
 30
0.0
  0
POINT
  5
C90E73C08D241149
330
C90E73C08D2410D3
100
AcDbEntity
  8
DEFPOINTS
 62
     0
440
 16777216
100
AcDbPoint
 10
13.09935797964935
 20
4.3518953810691
 30
0.0
  0
POINT
  5
C90E73C08D24114A
330
C90E73C08D2410D3
100
AcDbEntity
  8
DEFPOINTS
 62
     0
440
 16777216
100
AcDbPoint
 10
14.88986828442013
 20
4.351895381069099
 30
0.0
  0
ENDBLK
  5
C90E73C08D2410DF
330
C90E73C08D2410D3
100
AcDbEntity
  8
0
100
AcDbBlockEnd
  0
BLOCK
  5
C90E73C08D241158
330
C90E73C08D24114D
100
AcDbEntity
  8
0
100
AcDbBlockBegin
  2
*D7
 70
     1
 10
0.0
 20
0.0
 30
0.0
  3
*D7
  1

  0
LINE
  5
C90E73C08D241164
330
C90E73C08D24114D
100
AcDbEntity
  8
DIM
 62
     0
440
 16777216
370
    -2
100
AcDbLine
 10
4.529357979649375
 20
4.514895381069139
 30
0.0
 11
2.981127818006758
 21
4.514895381069139
 31
0.0
  0
LINE
  5
C90E73C08D241165
330
C90E73C08D24114D
100
AcDbEntity
  8
DIM
 62
     0
440
 16777216
370
    -2
100
AcDbLine
 10
4.729357979649378
 20
1.264895381069189
 30
0.0
 11
2.981127818006757
 21
1.26489538106919
 31
0.0
  0
LINE
  5
C90E73C08D241166
330
C90E73C08D24114D
100
AcDbEntity
  8
DIM
 62
     0
440
 16777216
370
    -2
100
AcDbLine
 10
3.181127818006757
 20
4.33489538106914
 30
0.0
 11
3.181127818006757
 21
3.159895381069164
 31
0.0
  0
LINE
  5
C90E73C08D241167
330
C90E73C08D24114D
100
AcDbEntity
  8
DIM
 62
     0
440
 16777216
370
    -2
100
AcDbLine
 10
3.181127818006757
 20
1.44489538106919
 30
0.0
 11
3.181127818006757
 21
2.619895381069164
 31
0.0
  0
MTEXT
  5
C90E73C08D241168
330
C90E73C08D24114D
100
AcDbEntity
  8
DIM
 62
     0
440
 16777216
100
AcDbMText
 10
3.311905128617368
 20
2.889895381069165
 30
0.0
 40
0.18
 41
0.0
 46
0.0
 71
     5
 72
     1
  1
\A1;3 1/4"
 73
     1
 44
1.0
  0
SOLID
  5
C90E73C08D241169
330
C90E73C08D24114D
100
AcDbEntity
  8
DIM
 62
     0
440
 16777216
100
AcDbTrace
 10
3.151127818006758
 20
4.33489538106914
 30
0.0
 11
3.211127818006757
 21
4.33489538106914
 31
0.0
 12
3.181127818006757
 22
4.514895381069139
 32
0.0
 13
3.181127818006757
 23
4.514895381069139
 33
0.0
  0
SOLID
  5
C90E73C08D24116A
330
C90E73C08D24114D
100
AcDbEntity
  8
DIM
 62
     0
440
 16777216
100
AcDbTrace
 10
3.151127818006757
 20
1.44489538106919
 30
0.0
 11
3.211127818006757
 21
1.44489538106919
 31
0.0
 12
3.181127818006757
 22
1.26489538106919
 32
0.0
 13
3.181127818006757
 23
1.26489538106919
 33
0.0
  0
POINT
  5
C90E73C08D24116B
330
C90E73C08D24114D
100
AcDbEntity
  8
DEFPOINTS
 62
     0
440
 16777216
100
AcDbPoint
 10
4.729357979649375
 20
4.514895381069139
 30
0.0
  0
POINT
  5
C90E73C08D24116C
330
C90E73C08D24114D
100
AcDbEntity
  8
DEFPOINTS
 62
     0
440
 16777216
100
AcDbPoint
 10
4.929357979649378
 20
1.264895381069189
 30
0.0
  0
POINT
  5
C90E73C08D24116D
330
C90E73C08D24114D
100
AcDbEntity
  8
DEFPOINTS
 62
     0
440
 16777216
100
AcDbPoint
 10
3.181127818006757
 20
1.26489538106919
 30
0.0
  0
ENDBLK
  5
C90E73C08D241159
330
C90E73C08D24114D
100
AcDbEntity
  8
0
100
AcDbBlockEnd
  0
BLOCK
  5
C90E73C08D24117A
330
C90E73C08D24116F
100
AcDbEntity
  8
0
100
AcDbBlockBegin
  2
*D8
 70
     1
 10
0.0
 20
0.0
 30
0.0
  3
*D8
  1

  0
LINE
  5
C90E73C08D241190
330
C90E73C08D24116F
100
AcDbEntity
  8
DIM
 62
     0
440
 16777216
370
    -2
100
AcDbLine
 10
4.914357979649363
 20
1.079895381069197
 30
0.0
 11
4.914357979649363
 21
0.1554865515127759
 31
0.0
  0
LINE
  5
C90E73C08D241191
330
C90E73C08D24116F
100
AcDbEntity
  8
DIM
 62
     0
440
 16777216
370
    -2
100
AcDbLine
 10
6.524843811824054
 20
2.002814304256805
 30
0.0
 11
6.524843811824054
 21
0.1554865515127757
 31
0.0
  0
LINE
  5
C90E73C08D241192
330
C90E73C08D24116F
100
AcDbEntity
  8
DIM
 62
     0
440
 16777216
370
    -2
100
AcDbLine
 10
4.734357979649363
 20
0.3554865515127759
 30
0.0
 11
4.554357979649362
 21
0.3554865515127759
 31
0.0
  0
LINE
  5
C90E73C08D241193
330
C90E73C08D24116F
100
AcDbEntity
  8
DIM
 62
     0
440
 16777216
370
    -2
100
AcDbLine
 10
6.704843811824054
 20
0.3554865515127759
 30
0.0
 11
6.884843811824055
 21
0.3554865515127759
 31
0.0
  0
MTEXT
  5
C90E73C08D241194
330
C90E73C08D24116F
100
AcDbEntity
  8
DIM
 62
     0
440
 16777216
100
AcDbMText
 10
5.719600895736709
 20
0.3128419676685041
 30
0.0
 40
0.18
 41
0.0
 46
0.0
 71
     5
 72
     1
  1
\A1;1 5/8"
 73
     1
 44
1.0
  0
SOLID
  5
C90E73C08D241195
330
C90E73C08D24116F
100
AcDbEntity
  8
DIM
 62
     0
440
 16777216
100
AcDbTrace
 10
4.734357979649363
 20
0.3854865515127759
 30
0.0
 11
4.734357979649363
 21
0.3254865515127758
 31
0.0
 12
4.914357979649363
 22
0.3554865515127759
 32
0.0
 13
4.914357979649363
 23
0.3554865515127759
 33
0.0
  0
SOLID
  5
C90E73C08D241196
330
C90E73C08D24116F
100
AcDbEntity
  8
DIM
 62
     0
440
 16777216
100
AcDbTrace
 10
6.704843811824054
 20
0.3854865515127759
 30
0.0
 11
6.704843811824054
 21
0.3254865515127758
 31
0.0
 12
6.524843811824054
 22
0.3554865515127759
 32
0.0
 13
6.524843811824054
 23
0.3554865515127759
 33
0.0
  0
POINT
  5
C90E73C08D241197
330
C90E73C08D24116F
100
AcDbEntity
  8
DEFPOINTS
 62
     0
440
 16777216
100
AcDbPoint
 10
4.914357979649363
 20
1.279895381069197
 30
0.0
  0
POINT
  5
C90E73C08D241198
330
C90E73C08D24116F
100
AcDbEntity
  8
DEFPOINTS
 62
     0
440
 16777216
100
AcDbPoint
 10
6.524843811824054
 20
2.202814304256805
 30
0.0
  0
POINT
  5
C90E73C08D241199
330
C90E73C08D24116F
100
AcDbEntity
  8
DEFPOINTS
 62
     0
440
 16777216
100
AcDbPoint
 10
6.524843811824054
 20
0.3554865515127759
 30
0.0
  0
ENDBLK
  5
C90E73C08D24117B
330
C90E73C08D24116F
100
AcDbEntity
  8
0
100
AcDbBlockEnd
  0
BLOCK
  5
C90E73C08D2411D2
330
C90E73C08D2411C7
100
AcDbEntity
  8
0
100
AcDbBlockBegin
  2
*D9
 70
     1
 10
0.0
 20
0.0
 30
0.0
  3
*D9
  1

  0
LINE
  5
C90E73C08D241316
330
C90E73C08D2411C7
100
AcDbEntity
  8
DIM
 62
     0
440
 16777216
370
    -2
100
AcDbLine
 10
5.158878356903738
 20
6.628499681904374
 30
0.0
 11
5.158878356903738
 21
4.786744108124449
 31
0.0
  0
LINE
  5
C90E73C08D241317
330
C90E73C08D2411C7
100
AcDbEntity
  8
DIM
 62
     0
440
 16777216
370
    -2
100
AcDbLine
 10
2.901878356903797
 20
5.408499681904389
 30
0.0
 11
2.901878356903797
 21
4.786744108124449
 31
0.0
  0
LINE
  5
C90E73C08D241318
330
C90E73C08D2411C7
100
AcDbEntity
  8
DIM
 62
     0
440
 16777216
370
    -2
100
AcDbLine
 10
4.978878356903738
 20
4.986744108124449
 30
0.0
 11
4.640378356903764
 21
4.986744108124449
 31
0.0
  0
LINE
  5
C90E73C08D241319
330
C90E73C08D2411C7
100
AcDbEntity
  8
DIM
 62
     0
440
 16777216
370
    -2
100
AcDbLine
 10
3.081878356903797
 20
4.986744108124449
 30
0.0
 11
3.380378356903764
 21
4.986744108124449
 31
0.0
  0
MTEXT
  5
C90E73C08D24131A
330
C90E73C08D2411C7
100
AcDbEntity
  8
DIM
 62
     0
440
 16777216
100
AcDbMText
 10
4.010378356903764
 20
5.007182285632516
 30
0.0
 40
0.18
 41
0.0
 46
0.0
 71
     5
 72
     1
  1
\A1;2 1/4"
 73
     1
 44
1.0
  0
SOLID
  5
C90E73C08D24131B
330
C90E73C08D2411C7
100
AcDbEntity
  8
DIM
 62
     0
440
 16777216
100
AcDbTrace
 10
4.978878356903738
 20
5.016744108124449
 30
0.0
 11
4.978878356903738
 21
4.956744108124449
 31
0.0
 12
5.158878356903738
 22
4.986744108124449
 32
0.0
 13
5.158878356903738
 23
4.986744108124449
 33
0.0
  0
SOLID
  5
C90E73C08D24131C
330
C90E73C08D2411C7
100
AcDbEntity
  8
DIM
 62
     0
440
 16777216
100
AcDbTrace
 10
3.081878356903797
 20
5.016744108124449
 30
0.0
 11
3.081878356903797
 21
4.956744108124449
 31
0.0
 12
2.901878356903797
 22
4.986744108124449
 32
0.0
 13
2.901878356903797
 23
4.986744108124449
 33
0.0
  0
POINT
  5
C90E73C08D24131D
330
C90E73C08D2411C7
100
AcDbEntity
  8
DEFPOINTS
 62
     0
440
 16777216
100
AcDbPoint
 10
5.158878356903738
 20
6.828499681904374
 30
0.0
  0
POINT
  5
C90E73C08D24131E
330
C90E73C08D2411C7
100
AcDbEntity
  8
DEFPOINTS
 62
     0
440
 16777216
100
AcDbPoint
 10
2.901878356903797
 20
5.608499681904389
 30
0.0
  0
POINT
  5
C90E73C08D24131F
330
C90E73C08D2411C7
100
AcDbEntity
  8
DEFPOINTS
 62
     0
440
 16777216
100
AcDbPoint
 10
2.901878356903797
 20
4.986744108124449
 30
0.0
  0
ENDBLK
  5
C90E73C08D2411D3
330
C90E73C08D2411C7
100
AcDbEntity
  8
0
100
AcDbBlockEnd
  0
BLOCK
  5
C90E73C08D241256
330
C90E73C08D241211
100
AcDbEntity
  8
0
100
AcDbBlockBegin
  2
SWIGGLE SPACER
 70
     0
 10
0.0
 20
0.0
 30
0.0
  3
SWIGGLE SPACER
  1

  0
LINE
  5
C90E73C08D241212
330
C90E73C08D241211
100
AcDbEntity
  8
DIM
100
AcDbLine
 10
-0.4650000000000052
 20
-0.3434999999999961
 30
0.0
 11
-0.5000000000000054
 21
-0.3434999999999961
 31
0.0
  0
LWPOLYLINE
  5
C90E73C08D241213
330
C90E73C08D241211
100
AcDbEntity
  8
DIM
100
AcDbPolyline
 90
        4
 70
     1
 43
0.0
 10
-0.1250000000000053
 20
-0.0279999999999987
 10
-0.5000000000000054
 20
-0.0279999999999969
 10
-0.5000000000000054
 20
-0.6589999999999963
 10
-0.1250000000000053
 20
-0.6589999999999981
  0
ARC
  5
C90E73C08D241214
330
C90E73C08D241211
100
AcDbEntity
  8
DIM
100
AcDbCircle
 10
-0.2919105173912992
 20
-0.3169259598364134
 30
0.0
 40
0.0307819080754444
100
AcDbArc
 50
235.7692349330013
 51
333.2713653137915
  0
CIRCLE
  5
C90E73C08D241215
330
C90E73C08D241211
100
AcDbEntity
  8
DIM
100
AcDbCircle
 10
-0.2071977918669408
 20
-0.3767379600805691
 30
0.0
 40
0.0307819080754444
  0
ARC
  5
C90E73C08D241216
330
C90E73C08D241211
100
AcDbEntity
  8
DIM
100
AcDbCircle
 10
-0.4004601570242432
 20
-0.3584690227675003
 30
0.0
 40
0.0410425441005919
100
AcDbArc
 50
37.6673615328979
 51
11.00747097241324
  0
CIRCLE
  5
C90E73C08D241217
330
C90E73C08D241211
100
AcDbEntity
  8
DIM
100
AcDbCircle
 10
-0.3373840150753704
 20
-0.3299394494292835
 30
0.0
 40
0.0307819080754444
  0
LWPOLYLINE
  5
C90E73C08D241218
330
C90E73C08D241211
100
AcDbEntity
  8
DIM
100
AcDbPolyline
 90
        4
 70
     1
 43
0.0
 10
-0.1600000000000055
 20
-0.6239999999999979
 10
-0.1600000000000019
 20
-0.0629999999999988
 10
-0.4650000000000052
 20
-0.0629999999999971
 10
-0.4650000000000052
 20
-0.6239999999999962
  0
SOLID
  5
C90E73C08D241219
330
C90E73C08D241211
100
AcDbEntity
  8
DIM
100
AcDbTrace
 10
-0.1250000000000053
 20
-0.0279999999999987
 30
0.0
 11
-0.0271374099082404
 21
0.0
 31
0.0
 12
-0.1250000000000053
 22
-0.6589999999999981
 32
0.0
 13
-0.0271374099082404
 23
-0.6869999999999985
 33
0.0
  0
ARC
  5
C90E73C08D24121A
330
C90E73C08D241211
100
AcDbEntity
  8
DIM
100
AcDbCircle
 10
-0.185561208291455
 20
-0.5799486052615502
 30
0.0
 40
0.0307819080754444
100
AcDbArc
 50
33.86044494374199
 51
326.1395550562572
  0
SOLID
  5
C90E73C08D24121B
330
C90E73C08D241211
100
AcDbEntity
  8
DIM
100
AcDbTrace
 10
-0.1250000000000053
 20
-0.6589999999999981
 30
0.0
 11
-0.0271374099082404
 21
-0.6869999999999985
 31
0.0
 12
-0.4650000000000052
 22
-0.6589999999999963
 32
0.0
 13
-0.4650000000000052
 23
-0.6869999999999968
 33
0.0
  0
ARC
  5
C90E73C08D24121C
330
C90E73C08D241211
100
AcDbEntity
  8
DIM
100
AcDbCircle
 10
-0.430898062732128
 20
-0.5584262955502615
 30
0.0
 40
0.0307819080754444
100
AcDbArc
 50
104.1744047068857
 51
349.4368795631178
  0
ARC
  5
C90E73C08D24121D
330
C90E73C08D241211
100
AcDbEntity
  8
DIM
100
AcDbCircle
 10
-0.1954626956904075
 20
-0.5268936092290782
 30
0.0
 40
0.0307819080754444
100
AcDbArc
 50
309.328313496991
 51
251.8143255632475
  0
CIRCLE
  5
C90E73C08D24121E
330
C90E73C08D241211
100
AcDbEntity
  8
DIM
100
AcDbCircle
 10
-0.2790752559482161
 20
-0.5584262955502633
 30
0.0
 40
0.0307819080754444
  0
CIRCLE
  5
C90E73C08D24121F
330
C90E73C08D241211
100
AcDbEntity
  8
DIM
100
AcDbCircle
 10
-0.3656215902501589
 20
-0.5426599523896689
 30
0.0
 40
0.0410425441005919
  0
ARC
  5
C90E73C08D241220
330
C90E73C08D241211
100
AcDbEntity
  8
DIM
100
AcDbCircle
 10
-0.3208815360771187
 20
-0.5959652078373887
 30
0.0
 40
0.0307819080754444
100
AcDbArc
 50
66.04640448306506
 51
245.6099660643645
  0
ARC
  5
C90E73C08D241221
330
C90E73C08D241211
100
AcDbEntity
  8
DIM
100
AcDbCircle
 10
-0.3872581738256411
 20
-0.5999693584813484
 30
0.0
 40
0.0307819080754444
100
AcDbArc
 50
106.2233974518434
 51
231.3223462018138
  0
ARC
  5
C90E73C08D241222
330
C90E73C08D241211
100
AcDbEntity
  8
DIM
100
AcDbCircle
 10
-0.3872581738256411
 20
-0.5999693584813484
 30
0.0
 40
0.0307819080754444
100
AcDbArc
 50
308.6776537981868
 51
32.40956410978891
  0
ARC
  5
C90E73C08D241223
330
C90E73C08D241211
100
AcDbEntity
  8
DIM
100
AcDbCircle
 10
-0.2427698021520594
 20
-0.5414086553134334
 30
0.0
 40
0.0307819080754444
100
AcDbArc
 50
254.4751245387739
 51
255.6303275925459
  0
ARC
  5
C90E73C08D241224
330
C90E73C08D241211
100
AcDbEntity
  8
DIM
100
AcDbCircle
 10
-0.2427698021520594
 20
-0.5414086553134334
 30
0.0
 40
0.0307819080754444
100
AcDbArc
 50
288.5959220689079
 51
340.5500618661721
  0
ARC
  5
C90E73C08D241225
330
C90E73C08D241211
100
AcDbEntity
  8
DIM
100
AcDbCircle
 10
-0.2402027498634442
 20
-0.6109807727522414
 30
0.0
 40
0.0410425441005919
100
AcDbArc
 50
341.50553950822
 51
4.879106550887695
  0
ARC
  5
C90E73C08D241226
330
C90E73C08D241211
100
AcDbEntity
  8
DIM
100
AcDbCircle
 10
-0.2402027498634442
 20
-0.6109807727522414
 30
0.0
 40
0.0410425441005919
100
AcDbArc
 50
147.4703930060139
 51
198.4944604917799
  0
ARC
  5
C90E73C08D241227
330
C90E73C08D241211
100
AcDbEntity
  8
DIM
100
AcDbCircle
 10
-0.2402027498634442
 20
-0.6109807727522414
 30
0.0
 40
0.0410425441005919
100
AcDbArc
 50
54.3073391962607
 51
105.5073965926514
  0
ARC
  5
C90E73C08D241228
330
C90E73C08D241211
100
AcDbEntity
  8
DIM
100
AcDbCircle
 10
-0.3208815360771187
 20
-0.5959652078373887
 30
0.0
 40
0.0307819080754444
100
AcDbArc
 50
294.3900339356354
 51
17.79652855508893
  0
ARC
  5
C90E73C08D241229
330
C90E73C08D241211
100
AcDbEntity
  8
DIM
100
AcDbCircle
 10
-0.3186812055440189
 20
-0.4881033998657119
 30
0.0
 40
0.0410425441005919
100
AcDbArc
 50
258.0344423297416
 51
350.0431214299803
  0
ARC
  5
C90E73C08D24122A
330
C90E73C08D241211
100
AcDbEntity
  8
DIM
100
AcDbCircle
 10
-0.3186812055440189
 20
-0.4881033998657119
 30
0.0
 40
0.0410425441005919
100
AcDbArc
 50
39.97244660905034
 51
104.7134489626787
  0
CIRCLE
  5
C90E73C08D24122B
330
C90E73C08D241211
100
AcDbEntity
  8
DIM
100
AcDbCircle
 10
-0.2867764128140653
 20
-0.3879996337667082
 30
0.0
 40
0.0410425441005919
  0
ARC
  5
C90E73C08D24122C
330
C90E73C08D241211
100
AcDbEntity
  8
DIM
100
AcDbCircle
 10
-0.430898062732128
 20
-0.5584262955502615
 30
0.0
 40
0.0307819080754444
100
AcDbArc
 50
37.72049938673737
 51
66.43742307334793
  0
ARC
  5
C90E73C08D24122D
330
C90E73C08D241211
100
AcDbEntity
  8
DIM
100
AcDbCircle
 10
-0.3186812055440189
 20
-0.4881033998657119
 30
0.0
 40
0.0410425441005919
100
AcDbArc
 50
148.0067266361952
 51
200.5482400663725
  0
ARC
  5
C90E73C08D24122E
330
C90E73C08D241211
100
AcDbEntity
  8
DIM
100
AcDbCircle
 10
-0.4191629665555947
 20
-0.4240369895623468
 30
0.0
 40
0.0410425441005919
100
AcDbArc
 50
13.63474438242769
 51
40.24420010970371
  0
ARC
  5
C90E73C08D24122F
330
C90E73C08D241211
100
AcDbEntity
  8
DIM
100
AcDbCircle
 10
-0.449234150507964
 20
-0.3244337422938388
 30
0.0
 40
0.0307819080754444
100
AcDbArc
 50
239.1909132321714
 51
284.9813947852039
  0
ARC
  5
C90E73C08D241230
330
C90E73C08D241211
100
AcDbEntity
  8
DIM
100
AcDbCircle
 10
-0.4191629665555947
 20
-0.4240369895623468
 30
0.0
 40
0.0410425441005919
100
AcDbArc
 50
107.9149341270269
 51
324.8729551944321
  0
CIRCLE
  5
C90E73C08D241231
330
C90E73C08D241211
100
AcDbEntity
  8
DIM
100
AcDbCircle
 10
-0.3571869898732718
 20
-0.4357991820789815
 30
0.0
 40
0.0307819080754444
  0
CIRCLE
  5
C90E73C08D241232
330
C90E73C08D241211
100
AcDbEntity
  8
DIM
100
AcDbCircle
 10
-0.426130679910413
 20
-0.5003661112128386
 30
0.0
 40
0.0307819080754444
  0
ARC
  5
C90E73C08D241233
330
C90E73C08D241211
100
AcDbEntity
  8
DIM
100
AcDbCircle
 10
-0.1804271037142211
 20
-0.4620764206799715
 30
0.0
 40
0.0307819080754444
100
AcDbArc
 50
164.8521327480649
 51
311.5755817152753
  0
ARC
  5
C90E73C08D241234
330
C90E73C08D241211
100
AcDbEntity
  8
DIM
100
AcDbCircle
 10
-0.1785934949366368
 20
-0.3427026796069077
 30
0.0
 40
0.0307819080754444
100
AcDbArc
 50
273.7220176020632
 51
307.1597720092677
  0
ARC
  5
C90E73C08D241235
330
C90E73C08D241211
100
AcDbEntity
  8
DIM
100
AcDbCircle
 10
-0.2086646788890061
 20
-0.423286211316607
 30
0.0
 40
0.0307819080754444
100
AcDbArc
 50
129.0407849961533
 51
47.34925639275405
  0
ARC
  5
C90E73C08D241236
330
C90E73C08D241211
100
AcDbEntity
  8
DIM
100
AcDbCircle
 10
-0.1804271037142211
 20
-0.4620764206799715
 30
0.0
 40
0.0307819080754444
100
AcDbArc
 50
48.42441828472468
 51
87.25382643454402
  0
ARC
  5
C90E73C08D241237
330
C90E73C08D241211
100
AcDbEntity
  8
DIM
100
AcDbCircle
 10
-0.2427698021520594
 20
-0.5414086553134334
 30
0.0
 40
0.0307819080754444
100
AcDbArc
 50
53.56467888565283
 51
155.7531446702876
  0
ARC
  5
C90E73C08D241238
330
C90E73C08D241211
100
AcDbEntity
  8
DIM
100
AcDbCircle
 10
-0.2468037414627435
 20
-0.4688334248916553
 30
0.0
 40
0.0410425441005919
100
AcDbArc
 50
79.03179807934489
 51
347.1420301974136
  0
ARC
  5
C90E73C08D241239
330
C90E73C08D241211
100
AcDbEntity
  8
DIM
100
AcDbCircle
 10
-0.1785934949366368
 20
-0.1855397668314724
 30
0.0
 40
0.0307819080754444
100
AcDbArc
 50
52.84022799074825
 51
307.1597720092515
  0
SOLID
  5
C90E73C08D24123A
330
C90E73C08D241211
100
AcDbEntity
  8
DIM
100
AcDbTrace
 10
-0.4650000000000052
 20
-0.0279999999999969
 30
0.0
 11
-0.4650000000000052
 21
0.0000000000000018
 31
0.0
 12
-0.1250000000000053
 22
-0.0279999999999987
 32
0.0
 13
-0.0271374099082404
 23
0.0
 33
0.0
  0
ARC
  5
C90E73C08D24123B
330
C90E73C08D241211
100
AcDbEntity
  8
DIM
100
AcDbCircle
 10
-0.2820090299923503
 20
-0.1840382103399873
 30
0.0
 40
0.0410425441005919
100
AcDbArc
 50
339.7028704924151
 51
249.5326563389426
  0
ARC
  5
C90E73C08D24123C
330
C90E73C08D241211
100
AcDbEntity
  8
DIM
100
AcDbCircle
 10
-0.218932888043474
 20
-0.1555086370017698
 30
0.0
 40
0.0307819080754444
100
AcDbArc
 50
137.3767063784752
 51
288.107829124608
  0
CIRCLE
  5
C90E73C08D24123D
330
C90E73C08D241211
100
AcDbEntity
  8
DIM
100
AcDbCircle
 10
-0.4187962448000793
 20
-0.1147163523164227
 30
0.0
 40
0.0410425441005919
  0
CIRCLE
  5
C90E73C08D24123E
330
C90E73C08D241211
100
AcDbEntity
  8
DIM
100
AcDbCircle
 10
-0.3425181196526044
 20
-0.1417443691631544
 30
0.0
 40
0.0307819080754444
  0
ARC
  5
C90E73C08D24123F
330
C90E73C08D241211
100
AcDbEntity
  8
DIM
100
AcDbCircle
 10
-0.218932888043474
 20
-0.1555086370017698
 30
0.0
 40
0.0307819080754444
100
AcDbArc
 50
358.5596337659528
 51
31.13807972259492
  0
ARC
  5
C90E73C08D241240
330
C90E73C08D241211
100
AcDbEntity
  8
DIM
100
AcDbCircle
 10
-0.3436182849191542
 20
-0.2726300433376023
 30
0.0
 40
0.0307819080754444
100
AcDbArc
 50
296.7551367630603
 51
57.15334751452725
  0
ARC
  5
C90E73C08D241241
330
C90E73C08D241211
100
AcDbEntity
  8
DIM
100
AcDbCircle
 10
-0.2919105173912992
 20
-0.3169259598364134
 30
0.0
 40
0.0307819080754444
100
AcDbArc
 50
52.35913893450611
 51
156.1706199022819
  0
CIRCLE
  5
C90E73C08D241242
330
C90E73C08D241211
100
AcDbEntity
  8
DIM
100
AcDbCircle
 10
-0.2856762475475154
 20
-0.251357993041565
 30
0.0
 40
0.0307819080754444
  0
ARC
  5
C90E73C08D241243
330
C90E73C08D241211
100
AcDbEntity
  8
DIM
100
AcDbCircle
 10
-0.449234150507964
 20
-0.3244337422938388
 30
0.0
 40
0.0307819080754444
100
AcDbArc
 50
86.37629299784805
 51
120.809086767829
  0
ARC
  5
C90E73C08D241244
330
C90E73C08D241211
100
AcDbEntity
  8
DIM
100
AcDbCircle
 10
-0.449234150507964
 20
-0.3244337422938388
 30
0.0
 40
0.0307819080754444
100
AcDbArc
 50
5.202690539582408
 51
13.27597298825939
  0
ARC
  5
C90E73C08D241245
330
C90E73C08D241211
100
AcDbEntity
  8
DIM
100
AcDbCircle
 10
-0.3436182849191542
 20
-0.2726300433376023
 30
0.0
 40
0.0307819080754444
100
AcDbArc
 50
140.2417610733416
 51
255.6616132961439
  0
CIRCLE
  5
C90E73C08D241246
330
C90E73C08D241211
100
AcDbEntity
  8
DIM
100
AcDbCircle
 10
-0.4173293577780104
 20
-0.2866445705914637
 30
0.0
 40
0.0307819080754444
  0
CIRCLE
  5
C90E73C08D241247
330
C90E73C08D241211
100
AcDbEntity
  8
DIM
100
AcDbCircle
 10
-0.3505859982739725
 20
-0.2270828297625558
 30
0.0
 40
0.0307819080754444
  0
CIRCLE
  5
C90E73C08D241248
330
C90E73C08D241211
100
AcDbEntity
  8
DIM
100
AcDbCircle
 10
-0.4187962448000793
 20
-0.2058107794665185
 30
0.0
 40
0.0410425441005919
  0
ARC
  5
C90E73C08D241249
330
C90E73C08D241211
100
AcDbEntity
  8
DIM
100
AcDbCircle
 10
-0.1785934949366368
 20
-0.3427026796069077
 30
0.0
 40
0.0307819080754444
100
AcDbArc
 50
167.9695050635315
 51
186.1885285926228
  0
ARC
  5
C90E73C08D24124A
330
C90E73C08D241211
100
AcDbEntity
  8
DIM
100
AcDbCircle
 10
-0.1833608777583553
 20
-0.2616186290667146
 30
0.0
 40
0.0410425441005919
100
AcDbArc
 50
256.9751400188494
 51
304.6935440962217
  0
ARC
  5
C90E73C08D24124B
330
C90E73C08D241211
100
AcDbEntity
  8
DIM
100
AcDbCircle
 10
-0.1833608777583553
 20
-0.2616186290667146
 30
0.0
 40
0.0410425441005919
100
AcDbArc
 50
171.7474047050825
 51
182.8727461726406
  0
CIRCLE
  5
C90E73C08D24124C
330
C90E73C08D241211
100
AcDbEntity
  8
DIM
100
AcDbCircle
 10
-0.2288343754424265
 20
-0.2253310138558247
 30
0.0
 40
0.0307819080754444
  0
ARC
  5
C90E73C08D24124D
330
C90E73C08D241211
100
AcDbEntity
  8
DIM
100
AcDbCircle
 10
-0.1833608777583553
 20
-0.2616186290667146
 30
0.0
 40
0.0410425441005919
100
AcDbArc
 50
55.30645590377822
 51
111.0732242385128
  0
ARC
  5
C90E73C08D24124E
330
C90E73C08D241211
100
AcDbEntity
  8
DIM
100
AcDbCircle
 10
-0.1785934949366368
 20
-0.3427026796069077
 30
0.0
 40
0.0307819080754444
100
AcDbArc
 50
52.84022799073179
 51
121.3023204636372
  0
CIRCLE
  5
C90E73C08D24124F
330
C90E73C08D241211
100
AcDbEntity
  8
DIM
100
AcDbCircle
 10
-0.233601758264145
 20
-0.3036622108282954
 30
0.0
 40
0.0410425441005919
  0
ARC
  5
C90E73C08D241250
330
C90E73C08D241211
100
AcDbEntity
  8
DIM
100
AcDbCircle
 10
-0.2820090299923503
 20
-0.1840382103399873
 30
0.0
 40
0.0410425441005919
100
AcDbArc
 50
284.2311791691711
 51
304.6348426069983
  0
ARC
  5
C90E73C08D241251
330
C90E73C08D241211
100
AcDbEntity
  8
DIM
100
AcDbCircle
 10
-0.3392176238529547
 20
-0.0881888543001868
 30
0.0
 40
0.0307819080754444
100
AcDbArc
 50
11.1490811689099
 51
54.91503880635029
  0
CIRCLE
  5
C90E73C08D241252
330
C90E73C08D241211
100
AcDbEntity
  8
DIM
100
AcDbCircle
 10
-0.2838426387699311
 20
-0.0999510468168215
 30
0.0
 40
0.0307819080754444
  0
ARC
  5
C90E73C08D241253
330
C90E73C08D241211
100
AcDbEntity
  8
DIM
100
AcDbCircle
 10
-0.3392176238529547
 20
-0.0881888543001868
 30
0.0
 40
0.0307819080754444
100
AcDbArc
 50
295.8319678076637
 51
324.8670040185642
  0
ARC
  5
C90E73C08D241254
330
C90E73C08D241211
100
AcDbEntity
  8
DIM
100
AcDbCircle
 10
-0.3392176238529547
 20
-0.0881888543001868
 30
0.0
 40
0.0307819080754444
100
AcDbArc
 50
125.0849611936489
 51
237.1149538808292
  0
CIRCLE
  5
C90E73C08D241255
330
C90E73C08D241211
100
AcDbEntity
  8
DIM
100
AcDbCircle
 10
-0.2137987834662436
 20
-0.1044557162912767
 30
0.0
 40
0.0410425441005919
  0
ENDBLK
  5
C90E73C08D241257
330
C90E73C08D241211
100
AcDbEntity
  8
0
100
AcDbBlockEnd
  0
BLOCK
  5
C90E73C08D24132C
330
C90E73C08D241321
100
AcDbEntity
  8
0
100
AcDbBlockBegin
  2
*D11
 70
     1
 10
0.0
 20
0.0
 30
0.0
  3
*D11
  1

  0
LINE
  5
C90E73C08D241322
330
C90E73C08D241321
100
AcDbEntity
  8
THIN
 62
     0
440
 16777216
370
    -2
100
AcDbLine
 10
13.09935797964936
 20
1.264895381069189
 30
0.0
 11
13.95815706711817
 21
1.264895381069189
 31
0.0
  0
LINE
  5
C90E73C08D241323
330
C90E73C08D241321
100
AcDbEntity
  8
THIN
 62
     0
440
 16777216
370
    -2
100
AcDbLine
 10
13.72435797964935
 20
3.521895381069137
 30
0.0
 11
13.95815706711817
 21
3.521895381069137
 31
0.0
  0
LINE
  5
C90E73C08D241324
330
C90E73C08D241321
100
AcDbEntity
  8
THIN
 62
     0
440
 16777216
370
    -2
100
AcDbLine
 10
13.75815706711817
 20
1.444895381069189
 30
0.0
 11
13.75815706711817
 21
2.123395381069163
 31
0.0
  0
LINE
  5
C90E73C08D241325
330
C90E73C08D241321
100
AcDbEntity
  8
THIN
 62
     0
440
 16777216
370
    -2
100
AcDbLine
 10
13.75815706711817
 20
3.341895381069137
 30
0.0
 11
13.75815706711817
 21
2.663395381069163
 31
0.0
  0
SOLID
  5
C90E73C08D241326
330
C90E73C08D241321
100
AcDbEntity
  8
THIN
 62
     0
440
 16777216
100
AcDbTrace
 10
13.72815706711818
 20
1.444895381069189
 30
0.0
 11
13.78815706711817
 21
1.444895381069189
 31
0.0
 12
13.75815706711817
 22
1.264895381069189
 32
0.0
 13
13.75815706711817
 23
1.264895381069189
 33
0.0
  0
SOLID
  5
C90E73C08D241327
330
C90E73C08D241321
100
AcDbEntity
  8
THIN
 62
     0
440
 16777216
100
AcDbTrace
 10
13.72815706711818
 20
3.341895381069137
 30
0.0
 11
13.78815706711817
 21
3.341895381069137
 31
0.0
 12
13.75815706711817
 22
3.521895381069137
 32
0.0
 13
13.75815706711817
 23
3.521895381069137
 33
0.0
  0
MTEXT
  5
C90E73C08D241328
330
C90E73C08D241321
100
AcDbEntity
  8
THIN
 62
     0
440
 16777216
100
AcDbMText
 10
13.75815706711817
 20
2.393395381069165
 30
0.0
 40
0.18
 41
0.0
 46
0.0
 71
     5
 72
     1
  1
\A1;2 1/4"
 73
     1
 44
1.0
  0
POINT
  5
C90E73C08D241329
330
C90E73C08D241321
100
AcDbEntity
  8
DEFPOINTS
 62
     0
440
 16777216
100
AcDbPoint
 10
12.89935797964936
 20
1.264895381069189
 30
0.0
  0
POINT
  5
C90E73C08D24132A
330
C90E73C08D241321
100
AcDbEntity
  8
DEFPOINTS
 62
     0
440
 16777216
100
AcDbPoint
 10
13.52435797964935
 20
3.521895381069137
 30
0.0
  0
POINT
  5
C90E73C08D24132B
330
C90E73C08D241321
100
AcDbEntity
  8
DEFPOINTS
 62
     0
440
 16777216
100
AcDbPoint
 10
13.75815706711817
 20
3.521895381069137
 30
0.0
  0
ENDBLK
  5
C90E73C08D24132D
330
C90E73C08D241321
100
AcDbEntity
  8
0
100
AcDbBlockEnd
  0
ENDSEC
  0
SECTION
  2
ENTITIES
  0
LWPOLYLINE
  5
A7E
330
C90E73C08D241001
100
AcDbEntity
  8
DIM
100
AcDbPolyline
 90
        4
 70
     0
 43
0.0
 10
4.386740434877921
 20
12.06448951121545
 10
3.66599239873167
 20
12.14810395988157
 10
3.782778012724183
 20
12.05373209676717
 10
3.233657629187586
 20
12.12116127895722
  0
LWPOLYLINE
  5
A84
330
C90E73C08D241001
100
AcDbEntity
  8
DIM
100
AcDbPolyline
 90
        4
 70
     0
 43
0.0
 10
4.387065532559461
 20
11.99541273268786
 10
3.837994641934031
 20
12.05911080399131
 10
3.954780255926543
 20
11.96473894087691
 10
3.234032219780289
 20
12.05324312338316
  0
LINE
  5
B70
330
C90E73C08D241001
100
AcDbEntity
  8
10
100
AcDbLine
 10
4.278402474890341
 20
16.16149968190437
 30
0.0
 11
4.300116431783351
 21
16.16149968190437
 31
0.0
  0
LINE
  5
B71
330
C90E73C08D241001
100
AcDbEntity
  8
10
100
AcDbLine
 10
4.278402474890341
 20
16.01149968190437
 30
0.0
 11
4.300116431783351
 21
16.01149968190437
 31
0.0
  0
ARC
  5
B72
330
C90E73C08D241001
100
AcDbEntity
  8
10
100
AcDbCircle
 10
4.278402474890341
 20
16.08649968190437
 30
0.0
 40
0.075
100
AcDbArc
 50
90.0
 51
270.0
  0
LINE
  5
B73
330
C90E73C08D241001
100
AcDbEntity
  8
10
100
AcDbLine
 10
4.300116431783351
 20
15.93866033466553
 30
0.0
 11
4.212383454756354
 21
15.74291697096511
 31
0.0
  0
ARC
  5
B74
330
C90E73C08D241001
100
AcDbEntity
  8
10
100
AcDbCircle
 10
4.22290257013267
 20
15.72240487751471
 30
0.0
 40
0.0195
100
AcDbArc
 50
143.8867193772125
 51
263.8899757419465
  0
LINE
  5
B75
330
C90E73C08D241001
100
AcDbEntity
  8
10
100
AcDbLine
 10
4.300116431783351
 20
15.82549968190437
 30
0.0
 11
4.235498450992936
 21
15.71057868936693
 31
0.0
  0
LWPOLYLINE
  5
B76
330
C90E73C08D241001
100
AcDbEntity
  8
10
100
AcDbPolyline
 90
       36
 70
     1
 43
0.0
 10
4.536116431783351
 20
16.53149968190437
 10
4.536116431783351
 20
16.26149968190437
 42
-0.414213562373096
 10
4.50611643178335
 20
16.23149968190437
 10
4.394116431783348
 20
16.23149968190437
 42
0.4142135623730955
 10
4.379116431783351
 20
16.21649968190437
 10
4.379116431783351
 20
15.90449968190437
 42
0.4142135623730947
 10
4.394116431783352
 20
15.88949968190437
 10
4.804116431783349
 20
15.88949968190437
 42
0.4142135623730951
 10
4.819116431783349
 20
15.90449968190437
 10
4.819116431783349
 20
16.37349968190436
 42
0.4142135623730951
 10
4.804116431783349
 20
16.38849968190436
 10
4.731116431783352
 20
16.38849968190436
 42
-0.4142135623730941
 10
4.701116431783351
 20
16.41849968190437
 10
4.701116431783351
 20
16.53149968190437
 42
-0.414213562373096
 10
4.716116431783348
 20
16.54649968190437
 10
4.781736037392789
 20
16.54649968190437
 42
-0.4931454260313047
 10
4.796224924787125
 20
16.52761739622783
 10
4.785175924981633
 20
16.4863819675809
 42
0.4931454260313036
 10
4.799664812375969
 20
16.46749968190437
 10
4.883116431783349
 20
16.46749968190437
 42
-0.4142135623730951
 10
4.89811643178335
 20
16.45249968190437
 10
4.89811643178335
 20
15.82549968190437
 42
-0.4142135623730945
 10
4.883116431783349
 20
15.81049968190437
 10
4.315116431783351
 20
15.81049968190437
 42
-0.4142135623730953
 10
4.300116431783351
 20
15.82549968190437
 10
4.300116431783351
 20
16.28049968190437
 42
-0.4142135623730948
 10
4.330116431783352
 20
16.31049968190437
 10
4.44211643178335
 20
16.31049968190437
 42
0.4142135623730942
 10
4.457116431783351
 20
16.32549968190437
 10
4.457116431783351
 20
16.45249968190437
 42
0.4142135623730941
 10
4.44211643178335
 20
16.46749968190437
 10
4.339116431783349
 20
16.46749968190437
 42
-0.4142135623730925
 10
4.300116431783351
 20
16.50649968190437
 10
4.300116431783351
 20
16.50749968190436
 42
-0.4142135623730956
 10
4.339116431783349
 20
16.54649968190437
 10
4.521116431783351
 20
16.54649968190437
 42
-0.4142135623730941
  0
LWPOLYLINE
  5
B9C
330
C90E73C08D241001
100
AcDbEntity
  8
10
100
AcDbPolyline
 90
       36
 70
     1
 43
0.0
 10
4.536116431783351
 20
7.595499681904369
 10
4.536116431783351
 20
7.865499681904369
 42
0.414213562373096
 10
4.50611643178335
 20
7.89549968190437
 10
4.394116431783348
 20
7.89549968190437
 42
-0.4142135623730955
 10
4.379116431783351
 20
7.910499681904369
 10
4.379116431783351
 20
8.222499681904368
 42
-0.4142135623730947
 10
4.394116431783352
 20
8.237499681904369
 10
4.804116431783349
 20
8.237499681904369
 42
-0.4142135623730951
 10
4.819116431783349
 20
8.222499681904368
 10
4.819116431783349
 20
7.753499681904369
 42
-0.4142135623730951
 10
4.804116431783349
 20
7.73849968190437
 10
4.731116431783352
 20
7.73849968190437
 42
0.4142135623730941
 10
4.701116431783351
 20
7.70849968190437
 10
4.701116431783351
 20
7.595499681904369
 42
0.414213562373096
 10
4.716116431783348
 20
7.580499681904369
 10
4.781736037392789
 20
7.580499681904369
 42
0.4931454260313047
 10
4.796224924787125
 20
7.599381967580907
 10
4.785175924981633
 20
7.640617396227831
 42
-0.4931454260313036
 10
4.799664812375969
 20
7.659499681904369
 10
4.883116431783349
 20
7.659499681904369
 42
0.4142135623730951
 10
4.89811643178335
 20
7.67449968190437
 10
4.89811643178335
 20
8.301499681904369
 42
0.4142135623730945
 10
4.883116431783349
 20
8.316499681904369
 10
4.315116431783351
 20
8.316499681904369
 42
0.4142135623730953
 10
4.300116431783351
 20
8.301499681904369
 10
4.300116431783351
 20
7.846499681904369
 42
0.4142135623730948
 10
4.330116431783352
 20
7.816499681904369
 10
4.44211643178335
 20
7.816499681904369
 42
-0.4142135623730942
 10
4.457116431783351
 20
7.801499681904369
 10
4.457116431783351
 20
7.67449968190437
 42
-0.4142135623730941
 10
4.44211643178335
 20
7.659499681904369
 10
4.339116431783349
 20
7.659499681904369
 42
0.4142135623730925
 10
4.300116431783351
 20
7.620499681904369
 10
4.300116431783351
 20
7.619499681904368
 42
0.4142135623730956
 10
4.339116431783349
 20
7.580499681904369
 10
4.521116431783351
 20
7.580499681904369
 42
0.4142135623730941
  0
LINE
  5
BC2
330
C90E73C08D241001
100
AcDbEntity
  8
10
100
AcDbLine
 10
4.300116431783351
 20
8.301499681904369
 30
0.0
 11
4.235498441065421
 21
8.416420675300244
 31
0.0
  0
ARC
  5
BC3
330
C90E73C08D241001
100
AcDbEntity
  8
10
100
AcDbCircle
 10
4.222902560271872
 20
8.404594486294028
 30
0.0
 40
0.0195
100
AcDbArc
 50
96.1100192339642
 51
216.1132817355094
  0
LINE
  5
BC4
330
C90E73C08D241001
100
AcDbEntity
  8
10
100
AcDbLine
 10
4.300116431783351
 20
8.188339029143202
 30
0.0
 11
4.212383444859897
 21
8.384082393607684
 31
0.0
  0
ARC
  5
BC5
330
C90E73C08D241001
100
AcDbEntity
  8
10
100
AcDbCircle
 10
4.278402575182412
 20
8.040499681904369
 30
0.0
 40
0.075
100
AcDbArc
 50
90.0
 51
270.0
  0
LINE
  5
BC6
330
C90E73C08D241001
100
AcDbEntity
  8
10
100
AcDbLine
 10
4.278402575182412
 20
8.115499681904369
 30
0.0
 11
4.300116431783351
 21
8.115499681904369
 31
0.0
  0
LINE
  5
BC7
330
C90E73C08D241001
100
AcDbEntity
  8
10
100
AcDbLine
 10
4.278402575182412
 20
7.965499681904368
 30
0.0
 11
4.300116431783351
 21
7.965499681904368
 31
0.0
  0
LWPOLYLINE
  5
C4A
330
C90E73C08D241001
100
AcDbEntity
  8
10
100
AcDbPolyline
 90
        6
 70
     1
 43
0.0
 10
4.200902579112348
 20
16.38849968190436
 42
-0.4142135623730951
 10
4.265902579112349
 20
16.32349968190436
 10
4.265902579112349
 20
16.26349968190436
 10
3.265902579112349
 20
16.26349968190436
 10
3.265902579112349
 20
16.32349968190436
 42
-0.4142135623730951
 10
3.33090257911235
 20
16.38849968190436
  0
LWPOLYLINE
  5
C53
330
C90E73C08D241001
100
AcDbEntity
  8
10
100
AcDbPolyline
 90
        6
 70
     1
 43
0.0
 10
4.200902579112348
 20
7.738499681904372
 42
0.4142135623730951
 10
4.265902579112349
 20
7.803499681904371
 10
4.265902579112349
 20
7.86349968190437
 10
3.265902579112349
 20
7.86349968190437
 10
3.265902579112349
 20
7.803499681904371
 42
0.4142135623730951
 10
3.33090257911235
 20
7.738499681904372
  0
INSERT
  5
C5C
330
C90E73C08D241001
100
AcDbEntity
  8
10
100
AcDbBlockReference
  2
*X1
 10
-6.8455049860232
 20
3.611045037915905
 30
0.0
 41
-2.0
 42
2.0
 43
2.0
 50
270.0
  0
INSERT
  5
C65
330
C90E73C08D241001
100
AcDbEntity
  8
10
100
AcDbBlockReference
  2
*X2
 10
-6.8455049860232
 20
7.805189481654249
 30
0.0
 41
-2.0
 42
2.0
 43
2.0
 50
270.0
  0
INSERT
  5
C6E
330
C90E73C08D241001
100
AcDbEntity
  8
10
100
AcDbBlockReference
  2
*X2
 10
14.42266817989948
 20
13.26906517946835
 30
0.0
 41
2.0
 42
2.0
 43
2.0
 50
180.0
  0
INSERT
  5
C6F
330
C90E73C08D241001
100
AcDbEntity
  8
10
100
AcDbBlockReference
  2
*X1
 10
16.11681262363783
 20
13.26906517946835
 30
0.0
 41
2.0
 42
2.0
 43
2.0
 50
180.0
  0
LWPOLYLINE
  5
C70
330
C90E73C08D241001
100
AcDbEntity
  8
10
100
AcDbPolyline
 90
        6
 70
     1
 43
0.0
 10
11.98935797964936
 20
2.222657614332803
 42
-0.4142135623730951
 10
11.92435797964937
 20
2.157657614332801
 10
11.86435797964937
 20
2.157657614332801
 10
11.86435797964937
 20
3.157657614332802
 10
11.92435797964937
 20
3.157657614332802
 42
-0.4142135623730951
 10
11.98935797964936
 20
3.092657614332801
  0
LWPOLYLINE
  5
C78
330
C90E73C08D241001
100
AcDbEntity
  8
10
100
AcDbPolyline
 90
        6
 70
     1
 43
0.0
 10
5.839357979649371
 20
2.222657614332803
 42
0.4142135623730951
 10
5.904357979649372
 20
2.157657614332801
 10
5.964357979649371
 20
2.157657614332801
 10
5.964357979649371
 20
3.157657614332802
 10
5.904357979649372
 20
3.157657614332802
 42
0.4142135623730951
 10
5.839357979649371
 20
3.092657614332801
  0
LINE
  5
CFA
330
C90E73C08D241001
100
AcDbEntity
  8
10
100
AcDbLine
 10
11.76235797964937
 20
2.145158651175911
 30
0.0
 11
11.76235797964937
 21
2.1234437616618
 31
0.0
  0
LINE
  5
CFB
330
C90E73C08D241001
100
AcDbEntity
  8
10
100
AcDbLine
 10
11.61235797964937
 20
2.145158651175911
 30
0.0
 11
11.61235797964937
 21
2.1234437616618
 31
0.0
  0
ARC
  5
CFC
330
C90E73C08D241001
100
AcDbEntity
  8
10
100
AcDbCircle
 10
11.68735797964937
 20
2.145158651175911
 30
0.0
 40
0.075
100
AcDbArc
 50
0.0
 51
180.0
  0
LINE
  5
CFD
330
C90E73C08D241001
100
AcDbEntity
  8
10
100
AcDbLine
 10
11.53951863241053
 20
2.1234437616618
 30
0.0
 11
11.34377523529525
 21
2.211177171495053
 31
0.0
  0
ARC
  5
CFE
330
C90E73C08D241001
100
AcDbEntity
  8
10
100
AcDbCircle
 10
11.32326317525971
 20
2.200658054559252
 30
0.0
 40
0.0195
100
AcDbArc
 50
53.88667071395175
 51
173.8901954624521
  0
LINE
  5
CFF
330
C90E73C08D241001
100
AcDbEntity
  8
10
100
AcDbLine
 10
11.42635797964937
 20
2.1234437616618
 30
0.0
 11
11.31143694956965
 21
2.188062176616839
 31
0.0
  0
LWPOLYLINE
  5
D00
330
C90E73C08D241001
100
AcDbEntity
  8
10
100
AcDbPolyline
 90
       36
 70
     1
 43
0.0
 10
12.13235797964937
 20
1.887443761661799
 10
11.86235797964937
 20
1.887443761661799
 42
-0.414213562373096
 10
11.83235797964937
 20
1.917443761661798
 10
11.83235797964937
 20
2.0294437616618
 42
0.4142135623730955
 10
11.81735797964937
 20
2.044443761661799
 10
11.50535797964937
 20
2.044443761661799
 42
0.4142135623730947
 10
11.49035797964937
 20
2.029443761661799
 10
11.49035797964937
 20
1.6194437616618
 42
0.4142135623730951
 10
11.50535797964937
 20
1.6044437616618
 10
11.97435797964937
 20
1.6044437616618
 42
0.4142135623730951
 10
11.98935797964937
 20
1.6194437616618
 10
11.98935797964937
 20
1.692443761661799
 42
-0.4142135623730941
 10
12.01935797964936
 20
1.7224437616618
 10
12.13235797964937
 20
1.7224437616618
 42
-0.414213562373096
 10
12.14735797964937
 20
1.707443761661801
 10
12.14735797964937
 20
1.64182415605236
 42
-0.4931454260313047
 10
12.12847569397283
 20
1.627335268658024
 10
12.0872402653259
 20
1.638384268463518
 42
0.4931454260313036
 10
12.06835797964937
 20
1.623895381069182
 10
12.06835797964937
 20
1.5404437616618
 42
-0.4142135623730951
 10
12.05335797964937
 20
1.525443761661799
 10
11.42635797964937
 20
1.525443761661801
 42
-0.4142135623730945
 10
11.41135797964937
 20
1.5404437616618
 10
11.41135797964937
 20
2.108443761661799
 42
-0.4142135623730953
 10
11.42635797964937
 20
2.1234437616618
 10
11.88135797964937
 20
2.1234437616618
 42
-0.4142135623730948
 10
11.91135797964937
 20
2.093443761661799
 10
11.91135797964937
 20
1.9814437616618
 42
0.4142135623730942
 10
11.92635797964937
 20
1.9664437616618
 10
12.05335797964937
 20
1.9664437616618
 42
0.4142135623730941
 10
12.06835797964937
 20
1.9814437616618
 10
12.06835797964937
 20
2.0844437616618
 42
-0.4142135623730925
 10
12.10735797964937
 20
2.1234437616618
 10
12.10835797964937
 20
2.1234437616618
 42
-0.4142135623730956
 10
12.14735797964937
 20
2.0844437616618
 10
12.14735797964937
 20
1.9024437616618
 42
-0.4142135623730941
  0
LWPOLYLINE
  5
D26
330
C90E73C08D241001
100
AcDbEntity
  8
10
100
AcDbPolyline
 90
       36
 70
     1
 43
0.0
 10
5.69635797964937
 20
1.887443761661799
 10
5.966357979649369
 20
1.887443761661799
 42
0.414213562373096
 10
5.996357979649371
 20
1.917443761661798
 10
5.996357979649371
 20
2.0294437616618
 42
-0.4142135623730955
 10
6.011357979649368
 20
2.044443761661799
 10
6.323357979649369
 20
2.044443761661799
 42
-0.4142135623730947
 10
6.338357979649369
 20
2.029443761661799
 10
6.338357979649369
 20
1.6194437616618
 42
-0.4142135623730951
 10
6.323357979649369
 20
1.6044437616618
 10
5.854357979649368
 20
1.6044437616618
 42
-0.4142135623730951
 10
5.839357979649371
 20
1.6194437616618
 10
5.839357979649371
 20
1.692443761661799
 42
0.4142135623730941
 10
5.809357979649369
 20
1.7224437616618
 10
5.69635797964937
 20
1.7224437616618
 42
0.414213562373096
 10
5.681357979649369
 20
1.707443761661801
 10
5.681357979649369
 20
1.64182415605236
 42
0.4931454260313047
 10
5.700240265325906
 20
1.627335268658024
 10
5.74147569397283
 20
1.638384268463518
 42
-0.4931454260313036
 10
5.76035797964937
 20
1.623895381069182
 10
5.76035797964937
 20
1.5404437616618
 42
0.4142135623730951
 10
5.775357979649371
 20
1.525443761661799
 10
6.402357979649369
 20
1.525443761661801
 42
0.4142135623730945
 10
6.41735797964937
 20
1.5404437616618
 10
6.41735797964937
 20
2.108443761661799
 42
0.4142135623730953
 10
6.402357979649369
 20
2.1234437616618
 10
5.947357979649368
 20
2.1234437616618
 42
0.4142135623730948
 10
5.91735797964937
 20
2.093443761661799
 10
5.91735797964937
 20
1.9814437616618
 42
-0.4142135623730942
 10
5.902357979649369
 20
1.9664437616618
 10
5.775357979649371
 20
1.9664437616618
 42
-0.4142135623730941
 10
5.76035797964937
 20
1.9814437616618
 10
5.76035797964937
 20
2.0844437616618
 42
0.4142135623730925
 10
5.721357979649368
 20
2.1234437616618
 10
5.720357979649367
 20
2.1234437616618
 42
0.4142135623730956
 10
5.681357979649369
 20
2.0844437616618
 10
5.681357979649369
 20
1.9024437616618
 42
0.4142135623730941
  0
LINE
  5
D4C
330
C90E73C08D241001
100
AcDbEntity
  8
10
100
AcDbLine
 10
6.402357979649369
 20
2.1234437616618
 30
0.0
 11
6.517287500045648
 21
2.188160439726785
 31
0.0
  0
ARC
  5
D4D
330
C90E73C08D241001
100
AcDbEntity
  8
10
100
AcDbCircle
 10
6.505452784039029
 20
2.200755653858989
 30
0.0
 40
0.0195
100
AcDbArc
 50
6.060112274729132
 51
128.3462976354197
  0
LINE
  5
D4E
330
C90E73C08D241001
100
AcDbEntity
  8
10
100
AcDbLine
 10
6.289197326888203
 20
2.1234437616618
 30
0.0
 11
6.48702344194592
 21
2.212206227535451
 31
0.0
  0
ARC
  5
D4F
330
C90E73C08D241001
100
AcDbEntity
  8
10
100
AcDbCircle
 10
6.14135797964937
 20
2.145159044637179
 30
0.0
 40
0.075
100
AcDbArc
 50
0.0
 51
180.0
  0
LINE
  5
D50
330
C90E73C08D241001
100
AcDbEntity
  8
10
100
AcDbLine
 10
6.216357979649369
 20
2.145159044637179
 30
0.0
 11
6.216357979649369
 21
2.1234437616618
 31
0.0
  0
LINE
  5
D51
330
C90E73C08D241001
100
AcDbEntity
  8
10
100
AcDbLine
 10
6.066357979649367
 20
2.145159044637179
 30
0.0
 11
6.066357979649367
 21
2.1234437616618
 31
0.0
  0
LINE
  5
E44
330
C90E73C08D241001
100
AcDbEntity
  8
10
100
AcDbLine
 10
13.24001603574895
 20
10.44624211856262
 30
0.0
 11
8.115016035748951
 21
10.4462421185626
 31
0.0
  0
LINE
  5
E45
330
C90E73C08D241001
100
AcDbEntity
  8
10
100
AcDbLine
 10
13.08566755714456
 20
10.59594211856261
 30
0.0
 11
13.37177564871675
 21
10.31845068038567
 31
0.0
  0
LINE
  5
E4B
330
C90E73C08D241001
100
AcDbEntity
  8
10
100
AcDbLine
 10
8.269364514353339
 20
10.59594211856261
 30
0.0
 11
13.08566755714456
 21
10.59594211856261
 31
0.0
  0
LINE
  5
E4C
330
C90E73C08D241001
100
AcDbEntity
  8
10
100
AcDbLine
 10
8.195422932574558
 20
10.52422741886249
 30
0.0
 11
13.15960913892335
 21
10.52422741886249
 31
0.0
  0
LINE
  5
E53
330
C90E73C08D241001
100
AcDbEntity
  8
10
100
AcDbLine
 10
8.269364514353341
 20
10.59594211856261
 30
0.0
 11
7.983256422781182
 21
10.31845068038567
 31
0.0
  0
LINE
  5
102E
330
C90E73C08D241001
100
AcDbEntity
  8
DIM
100
AcDbLine
 10
10.62045038198048
 20
10.94864165579643
 30
0.0
 11
10.62045038198048
 21
9.981174585901484
 31
0.0
  0
LINE
  5
102F
330
C90E73C08D241001
100
AcDbEntity
  8
DIM
100
AcDbLine
 10
10.62045038198048
 20
13.48318026288918
 30
0.0
 11
10.62045038198048
 21
12.51571319299423
 31
0.0
  0
CIRCLE
  5
1030
330
C90E73C08D241001
100
AcDbEntity
  8
DIM
100
AcDbCircle
 10
7.530705686313647
 20
10.71342760692548
 30
0.0
 40
0.24
  0
TEXT
  5
1031
330
C90E73C08D241001
100
AcDbEntity
  8
DIM
100
AcDbText
 10
7.46403901964698
 20
10.61342760692548
 30
0.0
 40
0.2
  1
3
 51
10.0
  7
SIMPLEX
 72
     1
 11
7.530705686313647
 21
10.71342760692548
 31
0.0
100
AcDbText
 73
     2
  0
CIRCLE
  5
1032
330
C90E73C08D241001
100
AcDbEntity
  8
DIM
100
AcDbCircle
 10
10.62045038198048
 20
11.18864165579644
 30
0.0
 40
0.24
  0
TEXT
  5
1033
330
C90E73C08D241001
100
AcDbEntity
  8
DIM
100
AcDbText
 10
10.55378371531382
 20
11.08864165579644
 30
0.0
 40
0.2
  1
2
 51
10.0
  7
SIMPLEX
 72
     1
 11
10.62045038198048
 21
11.18864165579644
 31
0.0
100
AcDbText
 73
     2
  0
CIRCLE
  5
1034
330
C90E73C08D241001
100
AcDbEntity
  8
DIM
100
AcDbCircle
 10
10.62045038198048
 20
13.72318026288918
 30
0.0
 40
0.24
  0
TEXT
  5
1035
330
C90E73C08D241001
100
AcDbEntity
  8
DIM
100
AcDbText
 10
10.59664085817096
 20
13.62318026288918
 30
0.0
 40
0.2
  1
1
 51
10.0
  7
SIMPLEX
 72
     1
 11
10.62045038198048
 21
13.72318026288918
 31
0.0
100
AcDbText
 73
     2
  0
LINE
  5
103A
330
C90E73C08D241001
100
AcDbEntity
  8
DIM
100
AcDbLine
 10
8.7381727562086
 20
10.71342760692548
 30
0.0
 11
7.770705686313647
 21
10.71342760692548
 31
0.0
  0
TEXT
  5
104B
330
C90E73C08D241001
100
AcDbEntity
  8
DIM
100
AcDbText
 10
4.653397359431892
 20
8.623964856675366
 30
0.0
 40
0.2
  1
2
 51
10.0
  7
SIMPLEX
 72
     1
 11
4.720064026098558
 21
8.723964856675365
 31
0.0
100
AcDbText
 73
     2
  0
CIRCLE
  5
104C
330
C90E73C08D241001
100
AcDbEntity
  8
DIM
100
AcDbCircle
 10
4.720064026098558
 20
8.723964856675365
 30
0.0
 40
0.24
  0
TEXT
  5
104D
330
C90E73C08D241001
100
AcDbEntity
  8
DIM
100
AcDbText
 10
4.696254502289034
 20
15.12227972097164
 30
0.0
 40
0.2
  1
1
 51
10.0
  7
SIMPLEX
 72
     1
 11
4.720064026098558
 21
15.22227972097164
 31
0.0
100
AcDbText
 73
     2
  0
CIRCLE
  5
104E
330
C90E73C08D241001
100
AcDbEntity
  8
DIM
100
AcDbCircle
 10
4.720064026098558
 20
15.22227972097164
 30
0.0
 40
0.24
  0
TEXT
  5
105B
330
C90E73C08D241001
100
AcDbEntity
  8
DIM
100
AcDbText
 10
6.73378613651853
 20
3.644917566029337
 30
0.0
 40
0.2
  1
3
 51
10.0
  7
SIMPLEX
 72
     1
 11
6.800452803185196
 21
3.744917566029337
 31
0.0
100
AcDbText
 73
     2
  0
CIRCLE
  5
105C
330
C90E73C08D241001
100
AcDbEntity
  8
DIM
100
AcDbCircle
 10
6.800452803185196
 20
3.744917566029337
 30
0.0
 40
0.24
  0
TEXT
  5
16B7
330
C90E73C08D241001
100
AcDbEntity
  8
ADCADD_FRZ
100
AcDbText
 10
0.5
 20
8.5
 30
0.0
 40
0.125
  1
TOOLBOX_DEFAULT_VALUES
100
AcDbText
1001
TB_S_MPD
1070
   100
1000
TOOLBOX
1070
   101
1000
TOOLBOX 12.0 TOOLBOX 12.0
1070
   102
1000
0
1070
   103
1000
ANSI-Fraction
1070
   199
1000
Converted
  0
TEXT
  5
16B8
330
C90E73C08D241001
100
AcDbEntity
  8
ADCADD_FRZ
100
AcDbText
 10
0.5
 20
8.25
 30
0.0
 40
0.125
  1
CBORE_DEFAULT_VALUES
100
AcDbText
1001
TB_S_MPD
1070
   100
1000
CBORE
1070
   101
1000
TOOLBOX 12.0 CBORE 1.0
1070
   102
1000
Near side
1070
   103
1000
ANSI-Fraction
1070
   104
1000
shcs
1070
   105
1000
<Current>
1070
   106
1000
HIDDEN
1070
   107
1000
CENTER
1070
   300
1040
0.125
1070
   108
1000
1
1070
   109
1000
1
1070
   301
1040
0.03
1070
   110
1000
1
1070
   302
1040
0.0
1070
   303
1040
0.0
1070
   113
1000
1
1070
   117
1000
1
1070
   199
1000
Converted
  0
TEXT
  5
16BB
330
C90E73C08D241001
100
AcDbEntity
  8
ADCADD_FRZ
100
AcDbText
 10
0.5
 20
7.25
 30
0.0
 40
0.125
  1
RECT_DEFAULT_VALUES
100
AcDbText
1001
TB_S_MPD
1070
   100
1000
RECT
1070
   101
1000
TOOLBOX 12.0 RECT 12.0
1070
   102
1000
0
1070
   103
1000
0
1070
   301
1040
0.0
1070
   105
1000
0
1070
   302
1040
0.0
1070
   104
1000
0
1070
   303
1040
0.0
1070
   304
1040
0.0
1070
   305
1040
0.0
1070
   306
1040
0.0
1070
   307
1040
0.0
  0
TEXT
  5
16BE
330
C90E73C08D241001
100
AcDbEntity
  8
ADCADD_FRZ
100
AcDbText
 10
0.5
 20
6.5
 30
0.0
 40
0.125
  1
CALC_DEFAULT_VALUES
100
AcDbText
1001
TB_S_MPD
1070
   100
1000
CALC
1070
   101
1000
TOOLBOX 12.0 CALC 12.0
1070
   102
1000
0
  0
TEXT
  5
16BF
330
C90E73C08D241001
100
AcDbEntity
  8
ADCADD_FRZ
100
AcDbText
 10
0.5
 20
6.25
 30
0.0
 40
0.125
  1
CSINK_DEFAULT_VALUES
100
AcDbText
1001
TB_S_MPD
1070
   100
1000
CSINK
1070
   101
1000
TOOLBOX 12.0 CSINK 1.0
1070
   102
1000
Near side
1070
   103
1000
ANSI-Fraction
1070
   104
1000
fhcs
1070
   105
1000
<Current>
1070
   106
1000
HIDDEN
1070
   107
1000
CENTER
1070
   300
1040
0.125
1070
   108
1000
1
1070
   109
1000
1
1070
   301
1040
0.03
1070
   110
1000
1
1070
   302
1040
0.0
1070
   303
1040
0.0
1070
   113
1000
1
1070
   117
1000
1
1070
   199
1000
Converted
  0
TEXT
  5
16C0
330
C90E73C08D241001
100
AcDbEntity
  8
ADCADD_FRZ
100
AcDbText
 10
0.5
 20
6.0
 30
0.0
 40
0.125
  1
HOLE_DEFAULT_VALUES
100
AcDbText
1001
TB_S_MPD
1070
   100
1000
HOLE
1070
   101
1000
TOOLBOX 12.0 HOLE 1.0
1070
   102
1000
Near side
1070
   103
1000
ANSI-Fraction
1070
   104
1000
hole
1070
   110
1000
1
1070
   116
1000
1
1070
   117
1000
1
1070
   310
1040
118.0
1070
   105
1000
<Current>
1070
   106
1000
HIDDEN
1070
   107
1000
CENTER
1070
   300
1040
0.125
1070
   113
1000
1
1070
   108
1000
1
1070
   109
1000
1
1070
   302
1040
0.0
1070
   303
1040
0.0
1070
   304
1040
0.0
1070
   305
1040
0.0
1070
   199
1000
Converted
  0
TEXT
  5
16C1
330
C90E73C08D241001
100
AcDbEntity
  8
ADCADD_FRZ
100
AcDbText
 10
0.5
 20
5.75
 30
0.0
 40
0.125
  1
PTAP_DEFAULT_VALUES
100
AcDbText
1001
TB_S_MPD
1070
   100
1000
PTAP
1070
   101
1000
TOOLBOX 12.0 PTAP 1.0
1070
   102
1000
Near side
1070
   103
1000
ANSI-Fraction
1070
   104
1000
ptap
1070
   116
1000
1
1070
   117
1000
1
1070
   310
1040
118.0
1070
   105
1000
<Current>
1070
   106
1000
HIDDEN
1070
   107
1000
CENTER
1070
   300
1040
0.125
1070
   113
1000
1
1070
   108
1000
1
1070
   109
1000
1
1070
   302
1040
0.0
1070
   303
1040
0.0
1070
   304
1040
0.0
1070
   305
1040
0.0
1070
   199
1000
Converted
  0
TEXT
  5
16C2
330
C90E73C08D241001
100
AcDbEntity
  8
ADCADD_FRZ
100
AcDbText
 10
0.5
 20
5.5
 30
0.0
 40
0.125
  1
TAP_DEFAULT_VALUES
100
AcDbText
1001
TB_S_MPD
1070
   100
1000
TAP
1070
   101
1000
TOOLBOX 12.0 TAP 1.0
1070
   102
1000
Near side
1070
   103
1000
ANSI-Fraction
1070
   104
1000
tap_
1070
   110
1000
Plug
1070
   116
1000
1
1070
   117
1000
1
1070
   310
1040
118.0
1070
   105
1000
<Current>
1070
   106
1000
HIDDEN
1070
   107
1000
CENTER
1070
   300
1040
0.125
1070
   113
1000
1
1070
   108
1000
1
1070
   109
1000
1
1070
   302
1040
0.0
1070
   303
1040
0.0
1070
   304
1040
0.0
1070
   305
1040
0.0
1070
   199
1000
Converted
  0
TEXT
  5
16C3
330
C90E73C08D241001
100
AcDbEntity
  8
ADCADD_FRZ
100
AcDbText
 10
0.5
 20
5.25
 30
0.0
 40
0.125
  1
HCOIL_DEFAULT_VALUES
100
AcDbText
1001
TB_S_MPD
1070
   100
1000
HCOIL
1070
   101
1000
TOOLBOX 12.0 HCOIL 1.0
1070
   102
1000
Near side
1070
   103
1000
ANSI-Fraction
1070
   104
1000
hc10
1070
   116
1000
1
1070
   119
1000
1
1070
   117
1000
1
1070
   118
1000
1
1070
   310
1040
118.0
1070
   105
1000
<Current>
1070
   106
1000
HIDDEN
1070
   107
1000
CENTER
1070
   300
1040
0.125
1070
   113
1000
1
1070
   108
1000
1
1070
   109
1000
1
1070
   302
1040
0.0
1070
   303
1040
0.0
1070
   304
1040
0.0
1070
   305
1040
120.0
1070
   199
1000
Converted
  0
TEXT
  5
16C4
330
C90E73C08D241001
100
AcDbEntity
  8
ADCADD_FRZ
100
AcDbText
 10
0.4695575471589253
 20
5.000842800147283
 30
0.0
 40
0.125
  1
BMAT_DEFAULT_VALUES
100
AcDbText
1001
TB_S_MPD
1070
   100
1000
BMAT
1070
   101
1000
TOOLBOX 12.0 BMAT 12.0
1070
   104
1000
Plain
1070
   300
1040
0.12
1070
   105
1000
0
1070
   301
1040
0.0
1070
   106
1000
DEFAULT
1070
   107
1000
TOOLBOX
1070
   302
1040
0.045
1070
   303
1040
0.02
1070
   108
1000
1
1070
   109
1000
1
1070
   110
1000
1
1070
   111
1000
1
1070
   199
1000
Converted
1070
   112
1000
0
  0
TEXT
  5
16C5
330
C90E73C08D241001
100
AcDbEntity
  8
ADCADD_FRZ
100
AcDbText
 10
0.4710021509630132
 20
4.758782586510267
 30
0.0
 40
0.125
  1
TOLERANCE_DEFAULT_VALUES
100
AcDbText
1001
TB_S_MPD
1070
   100
1000
TOLERANCE
1070
   101
1000
TOOLBOX 12.0 TOLERANCE 12.0
1070
   102
1000
(0.005 0.0 0.01 0.0 0.01 0.0 0.01 0.005)
1070
   103
1000
(0.005 0.0 0.01 0.0 0.01 0.005)
  0
TEXT
  5
16C6
330
C90E73C08D241001
100
AcDbEntity
  8
ADCADD_FRZ
100
AcDbText
 10
4.72175633421155
 20
7.75
 30
0.0
 40
0.125
  1
HARDWARE1_DEFAULT_VALUES
100
AcDbText
1001
TB_S_MPD
1070
   100
1000
HARDWARE1
1070
   101
1000
TOOLBOX 12.0 HARDWARE1 1.0
1070
   102
1000
Near side
1070
   103
1000
ANSI-Fraction
1070
   104
1000
shcs
1070
   105
1000
<Current>
1070
   106
1000
HIDDEN
1070
   107
1000
CENTER
1070
   300
1040
0.125
1070
   108
1000
1
1070
   109
1000
1
1070
   113
1000
1
1070
   114
1000
1
1070
   117
1000
1
1070
   118
1000
1
1070
   119
1000
Hex
1070
   199
1000
Converted
  0
TEXT
  5
16C7
330
C90E73C08D241001
100
AcDbEntity
  8
ADCADD_FRZ
100
AcDbText
 10
4.75
 20
8.5
 30
0.0
 40
0.125
  1
USERLIB_DEFAULT_VALUES
100
AcDbText
1001
TB_S_MPD
1070
   100
1000
USERLIB
1070
   101
1000
TOOLBOX 12.0 USERLIB 12.0
1070
   110
1000
1
1070
   111
1000
1
1070
   112
1000
1
1070
   113
1000
0
1070
   118
1000
1
1070
   114
1000
1
  0
TEXT
  5
16C8
330
C90E73C08D241001
100
AcDbEntity
  8
ADCADD_FRZ
100
AcDbText
 10
4.72175633421155
 20
8.239130433871544
 30
0.0
 40
0.125
  1
PTDIM_DEFAULT_VALUES
100
AcDbText
1001
TB_S_MPD
1070
   100
1000
PTDIM
1070
   101
1000
TOOLBOX 12.0 PTDIM 12.0
1070
   102
1000
(
1070
   103
1000
0
1070
   105
1000
PTDIM
1070
   301
1040
0.2
1070
   108
1000
4
1070
   109
1000
0
1070
   110
1000
1
1070
   199
1000
Converted
  0
TEXT
  5
16C9
330
C90E73C08D241001
100
AcDbEntity
  8
ADCADD_FRZ
100
AcDbText
 10
4.72175633421155
 20
8.0
 30
0.0
 40
0.125
  1
SLINE_DEFAULT_VALUES
100
AcDbText
1001
TB_S_MPD
1070
   100
1000
SLINE
1070
   101
1000
TOOLBOX 12.0 SLINE 12.0
1070
   102
1000
SECTION
1070
   301
1040
0.188
1070
   302
1040
0.188
1070
   303
1040
0.75
1070
   103
1000
BYLAYER
1070
   104
1000
BYLAYER
1070
   304
1040
0.0
1070
   199
1000
Converted
  0
TEXT
  5
16CA
330
C90E73C08D241001
100
AcDbEntity
  8
ADCADD_FRZ
100
AcDbText
 10
4.72175633421155
 20
7.5
 30
0.0
 40
0.125
  1
HARDWARE2_DEFAULT_VALUES
100
AcDbText
1001
TB_S_MPD
1070
   100
1000
HARDWARE2
1070
   101
1000
TOOLBOX 12.0 HARDWARE2 1.0
1070
   102
1000
Near side
1070
   103
1000
ANSI-Fraction
1070
   104
1000
hnr_
1070
   105
1000
<Current>
1070
   106
1000
HIDDEN
1070
   107
1000
CENTER
1070
   300
1040
0.125
1070
   108
1000
1
1070
   109
1000
1
1070
   113
1000
1
1070
   117
1000
1
1070
   118
1000
1
1070
   119
1000
Bearing
1070
   199
1000
Converted
  0
TEXT
  5
16CD
330
C90E73C08D241001
100
AcDbEntity
  8
ADCADD_FRZ
100
AcDbText
 10
4.72175633421155
 20
7.25
 30
0.0
 40
0.125
  1
HARDWARE3_DEFAULT_VALUES
100
AcDbText
1001
TB_S_MPD
1070
   100
1000
HARDWARE3
1070
   101
1000
TOOLBOX 12.0 HARDWARE3 1.0
1070
   102
1000
Near side
1070
   103
1000
ANSI-Fraction
1070
   104
1000
dpm_
1070
   105
1000
<Current>
1070
   106
1000
HIDDEN
1070
   107
1000
CENTER
1070
   300
1040
0.125
1070
   108
1000
1
1070
   109
1000
1
1070
   113
1000
1
1070
   117
1000
1
1070
   118
1000
1
1070
   119
1000
No options
1070
   199
1000
Converted
  0
TEXT
  5
16CE
330
C90E73C08D241001
100
AcDbEntity
  8
ADCADD_FRZ
100
AcDbText
 10
4.72175633421155
 20
7.0
 30
0.0
 40
0.125
  1
HARDWARE4_DEFAULT_VALUES
100
AcDbText
1001
TB_S_MPD
1070
   100
1000
HARDWARE4
1070
   101
1000
TOOLBOX 12.0 HARDWARE4 1.0
1070
   102
1000
Near side
1070
   103
1000
ANSI-Fraction
1070
   104
1000
ss2_
1070
   105
1000
<Current>
1070
   106
1000
HIDDEN
1070
   107
1000
CENTER
1070
   300
1040
0.125
1070
   108
1000
1
1070
   109
1000
1
1070
   113
1000
1
1070
   114
1000
1
1070
   117
1000
1
1070
   118
1000
1
1070
   119
1000
Hex
1070
   199
1000
Converted
  0
TEXT
  5
16CF
330
C90E73C08D241001
100
AcDbEntity
  8
ADCADD_FRZ
100
AcDbText
 10
4.72175633421155
 20
6.75
 30
0.0
 40
0.125
  1
HARDWARE5_DEFAULT_VALUES
100
AcDbText
1001
TB_S_MPD
1070
   100
1000
HARDWARE5
1070
   101
1000
TOOLBOX 12.0 HARDWARE5 1.0
1070
   102
1000
Near side
1070
   103
1000
ANSI-Fraction
1070
   104
1000
fw1_
1070
   105
1000
<Current>
1070
   106
1000
HIDDEN
1070
   107
1000
CENTER
1070
   300
1040
0.125
1070
   108
1000
1
1070
   109
1000
1
1070
   113
1000
1
1070
   117
1000
1
1070
   118
1000
1
1070
   119
1000
No options
1070
   199
1000
Converted
  0
TEXT
  5
16D0
330
C90E73C08D241001
100
AcDbEntity
  8
ADCADD_FRZ
100
AcDbText
 10
4.72175633421155
 20
6.5
 30
0.0
 40
0.125
  1
GEAR_DEFAULT_VALUES
100
AcDbText
1001
TB_S_MPD
1070
   100
1000
GEAR
1070
   101
1000
TOOLBOX 12.0 GEAR 12.0
1070
   103
1000
0
1070
   104
1000
0
1070
   105
1000
100
1070
   106
1000
6
1070
   300
1040
8.0
1070
   301
1040
14.5
1070
   107
1000
20000
  0
TEXT
  5
16D1
330
C90E73C08D241001
100
AcDbEntity
  8
ADCADD_FRZ
100
AcDbText
 10
4.72175633421155
 20
6.0
 30
0.0
 40
0.125
  1
CIRCAM_DEFAULT_VALUES
100
AcDbText
1001
TB_S_MPD
1070
   300
1040
1.0
1070
   100
1000
CIRCAM
1070
   101
1000
TOOLBOX 12.0 CIRCAM 12.0
1070
   103
1000
1
1070
   104
1000
1
1070
   105
1000
CT
1070
   106
1000
0
1070
   301
1040
1.0
1070
   302
1040
0.0005
  0
TEXT
  5
16D2
330
C90E73C08D241001
100
AcDbEntity
  8
ADCADD_FRZ
100
AcDbText
 10
4.72175633421155
 20
5.75
 30
0.0
 40
0.125
  1
LINCAM_DEFAULT_VALUES
100
AcDbText
1001
TB_S_MPD
1070
   300
1040
1.0
1070
   100
1000
LINCAM
1070
   101
1000
TOOLBOX 12.0 LINCAM 12.0
1070
   103
1000
1
1070
   104
1000
1
1070
   105
1000
LT
  0
TEXT
  5
16D4
330
C90E73C08D241001
100
AcDbEntity
  8
ADCADD_FRZ
100
AcDbText
 10
4.72175633421155
 20
6.25
 30
0.0
 40
0.125
  1
CAM_DEFAULT_VALUES
100
AcDbText
1001
TB_S_MPD
1070
   100
1000
CAM
1070
   101
1000
TOOLBOX 12.0 CAM 12.0
1070
   102
1000
0
  0
TEXT
  5
16D5
330
C90E73C08D241001
100
AcDbEntity
  8
ADCADD_FRZ
100
AcDbText
 10
4.72175633421155
 20
5.5
 30
0.0
 40
0.125
  1
THREAD_DEFAULT_VALUES
100
AcDbText
1001
TB_S_MPD
1070
   100
1000
THREAD
1070
   101
1000
TOOLBOX 12.0 THREAD 12.0
1070
   102
1000
0
1070
   103
1000
ANSI-Fraction
1070
   114
1000
1
  0
TEXT
  5
16D7
330
C90E73C08D241001
100
AcDbEntity
  8
ADCADD_FRZ
100
AcDbText
 10
0.5
 20
6.75
 30
0.0
 40
0.125
  1
VERTEX_DEFAULT_VALUES
100
AcDbText
1001
TB_S_MPD
1070
   100
1000
VERTEX
1070
   101
1000
TOOLBOX 12.0 VERTEX 12.0
1070
   109
1000
1
1070
   110
1000
4
1070
   111
1000
0
1070
   112
1000
1
1070
   113
1000
0
1070
   114
1000
1
1070
   115
1000
0
1070
   116
1000
1
1070
   199
1000
Converted
  0
TEXT
  5
16D8
330
C90E73C08D241001
100
AcDbEntity
  8
ADCADD_FRZ
100
AcDbText
 10
4.72175633421155
 20
5.250842800147283
 30
0.0
 40
0.125
  1
SFINISH_DEFAULT_VALUES
100
AcDbText
1001
TB_S_MPD
1070
   100
1000
SFINISH
1070
   101
1000
TOOLBOX 12.0 SFINISH 12.0
1070
   102
1000
0
1070
   301
1040
0.0
1070
   302
1040
0.0
1070
   303
1040
0.0
  0
TEXT
  5
16D9
330
C90E73C08D241001
100
AcDbEntity
  8
ADCADD_FRZ
100
AcDbText
 10
4.72175633421155
 20
5.008782586510267
 30
0.0
 40
0.125
  1
DDIM_DEFAULT_VALUES
100
AcDbText
1001
TB_S_MPD
1070
   100
1000
DDIM
1070
   101
1000
TOOLBOX 12.0 DDIM 12.0
1070
   104
1000
0
1070
   105
1000
0
1070
   106
1000
1
1070
   107
1000
0
1070
   108
1000
0
1070
   300
1040
4.0
1070
   109
1000
0
1070
   110
1000
1
1070
   301
1040
1.0
1070
   302
1040
0.0625
1070
   303
1040
0.0625
1070
   304
1040
0.25
1070
   305
1040
0.25
1070
   111
1000
1
1070
   112
1000
0
1070
   113
1000
0
1070
   114
1000
0
1070
   115
1000
DDIM
1070
   306
1040
0.125
1070
   307
1040
0.0625
1070
   116
1000
0
1070
   120
1000

1070
   121
1000

1070
   122
1000

1070
   123
1000
0
1070
   199
1000
Converted
  0
TEXT
  5
16DA
330
C90E73C08D241001
100
AcDbEntity
  8
ADCADD_FRZ
100
AcDbText
 10
0.5
 20
7.0
 30
0.0
 40
0.125
  1
SLOT_DEFAULT_VALUES
100
AcDbText
1001
TB_S_MPD
1070
   100
1000
SLOT
1070
   101
1000
TOOLBOX 12.0 SLOT 12.0
1070
   102
1000
Near side
1070
   120
1000
2
1070
   104
1000
0
1070
   116
1000
1
1070
   310
1040
0.0
1070
   306
1040
0.0
1070
   311
1040
0.0
1070
   308
1040
0.0
1070
   117
1000
1
1070
   105
1000
<Current>
1070
   106
1000
HIDDEN
1070
   107
1000
CENTER
1070
   300
1040
0.125
1070
   113
1000
1
1070
   108
1000
1
1070
   109
1000
1
1070
   199
1000
Converted
  0
TEXT
  5
16DC
330
C90E73C08D241001
100
AcDbEntity
  8
ADCADD_FRZ
100
AcDbText
 10
0.4405596981219384
 20
4.50962538665755
 30
0.0
 40
0.125
  1
KWAY_DEFAULT_VALUES
100
AcDbText
1001
TB_S_MPD
1070
   100
1000
KWAY
1070
   101
1000
TOOLBOX 12.0 KWAY 1.0
1070
   102
1000
Near side
1070
   103
1000
ANSI-Fraction
1070
   104
1000
kws_
1070
   117
1000
1
1070
   110
1000
0
1070
   105
1000
<Current>
1070
   106
1000
HIDDEN
1070
   107
1000
CENTER
1070
   300
1040
0.125
1070
   113
1000
1
1070
   108
1000
1
1070
   109
1000
1
1070
   302
1040
0.0
1070
   303
1040
0.0
1070
   304
1040
0.0
1070
   305
1040
0.0
1070
   199
1000
Converted
  0
TEXT
  5
16DD
330
C90E73C08D241001
100
AcDbEntity
  8
ADCADD_FRZ
100
AcDbText
 10
4.72175633421155
 20
4.75962538665755
 30
0.0
 40
0.125
  1
KSEAT_DEFAULT_VALUES
100
AcDbText
1001
TB_S_MPD
1070
   100
1000
KSEAT
1070
   101
1000
TOOLBOX 12.0 KSEAT 1.0
1070
   102
1000
Near end1
1070
   103
1000
ANSI-Fraction
1070
   104
1000
kws_
1070
   117
1000
1
1070
   105
1000
<Current>
1070
   106
1000
HIDDEN
1070
   107
1000
CENTER
1070
   300
1040
0.125
1070
   113
1000
1
1070
   108
1000
1
1070
   120
1000
2
1070
   121
1000
0
1070
   199
1000
Converted
  0
TEXT
  5
16DE
330
C90E73C08D241001
100
AcDbEntity
  8
ADCADD_FRZ
100
AcDbText
 10
0.5
 20
7.75
 30
0.0
 40
0.125
  1
HDIM_DEFAULT_VALUES
100
AcDbText
1001
TB_S_MPD
1070
   100
1000
HDIM
1070
   101
1000
TOOLBOX 12.0 HDIM 12.0
1070
   102
1000
0
1070
   105
1000
HDIM
1070
   106
1000
3
1070
   107
1000
0
1070
   108
1000
1
1070
   109
1000
1
1070
   110
1000
0
1070
   111
1000
0
1070
   199
1000
Converted
  0
TEXT
  5
16DF
330
C90E73C08D241001
100
AcDbEntity
  8
ADCADD_FRZ
100
AcDbText
 10
0.5
 20
7.5
 30
0.0
 40
0.125
  1
HCHART_DEFAULT_VALUES
100
AcDbText
1001
TB_S_MPD
1070
   100
1000
HCHART
1070
   101
1000
TOOLBOX 12.0 HCHART 12.0
1070
   102
1000
0
1070
   105
1000
0
1070
   300
1040
0.125
1070
   301
1040
0.0625
1070
   302
1040
45.0
1070
   303
1040
1.0
1070
   106
1000
4
1070
   107
1000
0
1070
   108
1000
1
1070
   109
1000
1
1070
   199
1000
Converted
  0
TEXT
  5
16E0
330
C90E73C08D241001
100
AcDbEntity
  8
ADCADD_FRZ
100
AcDbText
 10
4.72175633421155
 20
4.50962538665755
 30
0.0
 40
0.125
  1
ORINGGRV_DEFAULT_VALUES
100
AcDbText
1001
TB_S_MPD
1070
   100
1000
ORINGGRV
1070
   101
1000
TOOLBOX 12.0 ORINGGRV 12.0
1070
   301
1040
0.0
1070
   302
1040
0.0
1070
   303
1040
0.0
1070
   304
1040
0.0
1070
   305
1040
0.0
1070
   306
1040
0.0
1070
   307
1040
0.0
1070
   120
1000
1
1070
   102
1000
0
  0
TEXT
  5
16E1
330
C90E73C08D241001
100
AcDbEntity
  8
ADCADD_FRZ
100
AcDbText
 10
4.72175633421155
 20
4.25962538665755
 30
0.0
 40
0.125
  1
RRINGGRV_DEFAULT_VALUES
100
AcDbText
1001
TB_S_MPD
1070
   100
1000
RRINGGRV
1070
   101
1000
TOOLBOX 12.0 RRINGGRV 12.0
1070
   301
1040
0.0
1070
   302
1040
0.0
1070
   303
1040
0.0
1070
   304
1040
0.0
1070
   120
1000
1
1070
   102
1000
0
  0
TEXT
  5
16E2
330
C90E73C08D241001
100
AcDbEntity
  8
ADCADD_FRZ
100
AcDbText
 10
0.5
 20
8.0
 30
0.0
 40
0.125
  1
LAYMGR_DEFAULT_VALUES
100
AcDbText
1001
TB_S_MPD
1070
   100
1000
LAYMGR
1070
   101
1000
TOOLBOX 12.0 LAYMGR 12.0
1070
   150
1000
("BOM" "CONTINUOUS" "2" "1")
1070
   151
1000
("CENTER" "CENTER" "3" "1")
1070
   152
1000
("CHARTS" "CONTINUOUS" "3" "1")
1070
   153
1000
("CONSTRUCT" "CONTINUOUS" "2" "1")
1070
   154
1000
("DIMS" "CONTINUOUS" "3" "1")
1070
   155
1000
("HIDDEN" "HIDDEN" "1" "1")
1070
   156
1000
("HCHARTS" "CONTINUOUS" "3" "1")
1070
   157
1000
("DIMS" "CONTINUOUS" "3" "1")
1070
   158
1000
("OBJECT" "CONTINUOUS" "7" "1")
1070
   159
1000
("SECTION" "PHANTOM" "2" "1")
1070
   199
1000
Converted
  0
TEXT
  5
5B29
330
C90E73C08D241001
100
AcDbEntity
  8
ADCADD_FRZ
100
AcDbText
 10
0.4410000000000001
 20
3.759999999999999
 30
0.0
 40
0.125
  1
MODELER_DEFAULT_VALUES
100
AcDbText
1001
TB_S_MPD
1070
   100
1000
MODELER
1070
   101
1000
TOOLBOX 12.0 MODELER 1.0
1070
   102
1000
0
  0
TEXT
  5
5B2A
330
C90E73C08D241001
100
AcDbEntity
  8
ADCADD_FRZ
100
AcDbText
 10
0.4410000000000001
 20
4.259999999999999
 30
0.0
 40
0.125
  1
STEEL_DEFAULT_VALUES
100
AcDbText
1001
TB_S_MPD
1070
   100
1000
STEEL
1070
   101
1000
TOOLBOX 12.0 STEEL 1.0
1070
   102
1000
Section
1070
   103
1000
AISC
1070
   104
1000
C
1070
   105
1000
<Current>
1070
   106
1000
HIDDEN
1070
   116
1000
1
1070
   117
1000
1
1070
   301
1040
29000000.0
  0
TEXT
  5
5B2B
330
C90E73C08D241001
100
AcDbEntity
  8
ADCADD_FRZ
100
AcDbText
 10
0.4410000000000001
 20
4.009999999999999
 30
0.0
 40
0.125
  1
DETVIEW_DEFAULT_VALUES
100
AcDbText
1001
TB_S_MPD
1070
   100
1000
DETVIEW
1070
   101
1000
TOOLBOX 12.0 DETVIEW 12.0
1070
   301
1040
5.0
1070
   102
1000
A
1070
   302
1040
0.125
1070
   105
1000
TOOLBOX
1070
   106
1000
DETAIL {1} SCALE: {2}X
1070
   107
1000
SEE DETAIL {1}
  0
TEXT
  5
5B2C
330
C90E73C08D241001
100
AcDbEntity
  8
ADCADD_FRZ
100
AcDbText
 10
4.722
 20
4.009999999999999
 30
0.0
 40
0.125
  1
CYLPART_DEFAULT_VALUES
100
AcDbText
1001
TB_S_MPD
1070
   100
1000
CYLPART
1070
   101
1000
TOOLBOX 12.0 CYLPART 12.0
1070
   102
1000
0
1070
   103
1000
0
1070
   104
1000
0
1070
   105
1000
none
1070
   106
1000
d1d2
1070
   107
1000
chamfer
1070
   108
1000
fillet
1070
   109
1000
sharp
1070
   110
1000
1
1070
   301
1040
0.125
1070
   302
1040
0.125
1070
   303
1040
0.25
  0
ARC
  5
207A5C5C65
330
C90E73C08D241001
100
AcDbEntity
  8
10
100
AcDbCircle
 10
6.509927636604532
 20
2.201230727027687
 30
0.0
 40
0.015
100
AcDbArc
 50
299.3838104318146
 51
6.060112274729015
  0
ARC
  5
207A5C5C67
330
C90E73C08D241001
100
AcDbEntity
  8
10
100
AcDbCircle
 10
6.474742342274931
 20
2.239577281422199
 30
0.0
 40
0.03
100
AcDbArc
 50
294.1652646414903
 51
308.3462976354198
  0
LINE
  5
207A5C5C6E
330
C90E73C08D241001
100
AcDbEntity
  8
10
100
AcDbLine
 10
11.7132187503847
 20
3.193895381069198
 30
0.0
 11
11.59863616274899
 21
3.095157614332806
 31
0.0
  0
LINE
  5
207A5C5C6F
330
C90E73C08D241001
100
AcDbEntity
  8
10
100
AcDbLine
 10
11.59863616274899
 20
3.095157614332806
 30
0.0
 11
11.63426141623404
 21
3.095157614332806
 31
0.0
  0
LINE
  5
207A5C5C70
330
C90E73C08D241001
100
AcDbEntity
  8
10
100
AcDbLine
 10
11.63426141623404
 20
3.095157614332806
 30
0.0
 11
11.80859550916076
 21
3.193895381069199
 31
0.0
  0
LINE
  5
207A5C5C71
330
C90E73C08D241001
100
AcDbEntity
  8
10
100
AcDbLine
 10
11.41735797964937
 20
3.198230217134025
 30
0.0
 11
11.29774492849699
 21
3.095157614332806
 31
0.0
  0
LINE
  5
207A5C5C72
330
C90E73C08D241001
100
AcDbEntity
  8
10
100
AcDbLine
 10
11.29774492849699
 20
3.095157614332806
 30
0.0
 11
11.33337018198204
 21
3.095157614332806
 31
0.0
  0
LINE
  5
207A5C5C73
330
C90E73C08D241001
100
AcDbEntity
  8
10
100
AcDbLine
 10
11.33337018198204
 20
3.095157614332806
 30
0.0
 11
11.50770427490876
 21
3.193895381069199
 31
0.0
  0
ARC
  5
207A5C5C74
330
C90E73C08D241001
100
AcDbEntity
  8
10
100
AcDbCircle
 10
4.222423589504833
 20
8.409068923354714
 30
0.0
 40
0.015
100
AcDbArc
 50
29.34825854967364
 51
96.11001923396392
  0
ARC
  5
207A5C5C76
330
C90E73C08D241001
100
AcDbEntity
  8
10
100
AcDbCircle
 10
4.166756757272007
 20
8.363632323198093
 30
0.0
 40
0.05
100
AcDbArc
 50
24.14212024925811
 51
36.11328173550754
  0
LINE
  5
207A5C5C77
330
C90E73C08D241001
100
AcDbEntity
  8
10
100
AcDbLine
 10
3.225329976311122
 20
8.310499681904369
 30
0.0
 11
3.328402579112349
 21
8.430112733056752
 31
0.0
  0
LINE
  5
207A5C5C78
330
C90E73C08D241001
100
AcDbEntity
  8
10
100
AcDbLine
 10
3.328402579112349
 20
8.430112733056752
 30
0.0
 11
3.32840257911235
 21
8.394487479571703
 31
0.0
  0
LINE
  5
207A5C5C79
330
C90E73C08D241001
100
AcDbEntity
  8
10
100
AcDbLine
 10
3.328402579112349
 20
8.394487479571703
 30
0.0
 11
3.225329976311122
 21
8.21249968190437
 31
0.0
  0
LINE
  5
207A5C5C7A
330
C90E73C08D241001
100
AcDbEntity
  8
10
100
AcDbLine
 10
3.225329976311122
 20
8.009608447652368
 30
0.0
 11
3.328402579112349
 21
8.129221498804751
 31
0.0
  0
LINE
  5
207A5C5C7B
330
C90E73C08D241001
100
AcDbEntity
  8
10
100
AcDbLine
 10
3.328402579112349
 20
8.129221498804751
 30
0.0
 11
3.32840257911235
 21
8.093596245319702
 31
0.0
  0
LINE
  5
207A5C5C7C
330
C90E73C08D241001
100
AcDbEntity
  8
10
100
AcDbLine
 10
3.328402579112349
 20
8.093596245319702
 30
0.0
 11
3.225329976311122
 21
7.911608447652369
 31
0.0
  0
LINE
  5
207A5C5C7D
330
C90E73C08D241001
100
AcDbEntity
  8
10
100
AcDbLine
 10
3.225329976311122
 20
15.81649968190436
 30
0.0
 11
3.328402579112346
 21
15.69688663075199
 31
0.0
  0
LINE
  5
207A5C5C7E
330
C90E73C08D241001
100
AcDbEntity
  8
10
100
AcDbLine
 10
3.328402579112346
 20
15.69688663075199
 30
0.0
 11
3.328402579112346
 21
15.73251188423704
 31
0.0
  0
LINE
  5
207A5C5C7F
330
C90E73C08D241001
100
AcDbEntity
  8
10
100
AcDbLine
 10
3.328402579112346
 20
15.73251188423704
 30
0.0
 11
3.225329976311122
 21
15.91449968190437
 31
0.0
  0
LINE
  5
207A5C5C80
330
C90E73C08D241001
100
AcDbEntity
  8
10
100
AcDbLine
 10
3.225329976311122
 20
16.11739091615637
 30
0.0
 11
3.328402579112346
 21
15.99777786500399
 31
0.0
  0
LINE
  5
207A5C5C81
330
C90E73C08D241001
100
AcDbEntity
  8
10
100
AcDbLine
 10
3.328402579112346
 20
15.99777786500399
 30
0.0
 11
3.328402579112346
 21
16.03340311848904
 31
0.0
  0
LINE
  5
207A5C5C82
330
C90E73C08D241001
100
AcDbEntity
  8
10
100
AcDbLine
 10
3.328402579112346
 20
16.03340311848904
 30
0.0
 11
3.225329976311122
 21
16.21539091615637
 31
0.0
  0
ARC
  5
207A5C5C83
330
C90E73C08D241001
100
AcDbEntity
  8
10
100
AcDbCircle
 10
4.222423598973281
 20
15.71793044049602
 30
0.0
 40
0.015
100
AcDbArc
 50
263.8899757419462
 51
330.6517450280688
  0
ARC
  5
207A5C5C84
330
C90E73C08D241001
100
AcDbEntity
  8
10
100
AcDbCircle
 10
4.166756766337292
 20
15.76336703952025
 30
0.0
 40
0.05
100
AcDbArc
 50
323.8867193772139
 51
335.8578820794689
  0
ARC
  5
207A5C5C85
330
C90E73C08D241001
100
AcDbEntity
  8
10
100
AcDbCircle
 10
11.31878873640427
 20
2.20113700855986
 30
0.0
 40
0.015
100
AcDbArc
 50
173.890195462452
 51
240.6515885614434
  0
ARC
  5
207A5C5C86
330
C90E73C08D241001
100
AcDbEntity
  8
10
100
AcDbCircle
 10
11.36422538495179
 20
2.256803823564046
 30
0.0
 40
0.05
100
AcDbArc
 50
233.8866707139507
 51
245.857780236223
  0
LWPOLYLINE
  5
207A5C5D4E
330
C90E73C08D241001
100
AcDbEntity
  8
CYAN
100
AcDbPolyline
 90
        2
 70
     0
 43
0.0
 10
3.328402579112349
 20
12.04165492461378
 10
3.328402579112349
 20
7.86349968190437
  0
LINE
  5
207A5C5DAD
330
C90E73C08D241001
100
AcDbEntity
  8
CYAN
100
AcDbLine
 10
4.203402579112343
 20
12.01671959142727
 30
0.0
 11
4.203402579112353
 21
7.86349968190437
 31
0.0
  0
LINE
  5
207A5C5DAE
330
C90E73C08D241001
100
AcDbEntity
  8
CYAN
100
AcDbLine
 10
4.203402579112353
 20
7.86349968190437
 30
0.0
 11
4.078402579112353
 21
7.863499681904368
 31
0.0
  0
LINE
  5
207A5C5DB0
330
C90E73C08D241001
100
AcDbEntity
  8
CYAN
100
AcDbLine
 10
4.078402579112343
 20
12.03122092276512
 30
0.0
 11
4.078402579112353
 21
7.86349968190437
 31
0.0
  0
LINE
  5
207A5C5DB1
330
C90E73C08D241001
100
AcDbEntity
  8
CYAN
100
AcDbLine
 10
4.203402579112342
 20
12.08575865516128
 30
0.0
 11
4.203402579112353
 21
16.11349968190437
 31
0.0
  0
LINE
  5
207A5C5DB2
330
C90E73C08D241001
100
AcDbEntity
  8
CYAN
100
AcDbLine
 10
4.203402579112353
 20
16.11349968190437
 30
0.0
 11
4.078402579112356
 21
16.11349968190437
 31
0.0
  0
LINE
  5
207A5C5DB4
330
C90E73C08D241001
100
AcDbEntity
  8
CYAN
100
AcDbLine
 10
3.328402579112349
 20
12.10952708237373
 30
0.0
 11
3.328402579112349
 21
16.11349968190437
 31
0.0
  0
LINE
  5
207A5C5DB5
330
C90E73C08D241001
100
AcDbEntity
  8
CYAN
100
AcDbLine
 10
3.328402579112349
 20
16.11349968190437
 30
0.0
 11
3.453402579112349
 21
16.11349968190437
 31
0.0
  0
LINE
  5
207A5C5DB7
330
C90E73C08D241001
100
AcDbEntity
  8
CYAN
100
AcDbLine
 10
3.45340257911235
 20
12.09417771996349
 30
0.0
 11
3.453402579112349
 21
16.11349968190437
 31
0.0
  0
LINE
  5
207A5C5DB8
330
C90E73C08D241001
100
AcDbEntity
  8
CYAN
100
AcDbLine
 10
4.078402579112347
 20
12.10025998649913
 30
0.0
 11
4.078402579112353
 21
16.11349968190437
 31
0.0
  0
LWPOLYLINE
  5
207A5C5DB9
330
C90E73C08D241001
100
AcDbEntity
  8
CYAN
100
AcDbPolyline
 90
        2
 70
     0
 43
0.0
 10
3.453402579112349
 20
12.02630556220353
 10
3.453402579112349
 20
7.86349968190437
  0
LINE
  5
207A5C5DBD
330
C90E73C08D241001
100
AcDbEntity
  8
CYAN
100
AcDbLine
 10
3.453402579112349
 20
7.863499681904372
 30
0.0
 11
3.328402579112349
 21
7.86349968190437
 31
0.0
  0
LINE
  5
207A5C5DEB
102
{ACAD_REACTORS
330
C90E73C08D2412FA
102
}
330
C90E73C08D241001
100
AcDbEntity
  8
THIN
100
AcDbLine
 10
3.453402579112349
 20
7.882249681904372
 30
0.0
 11
4.078402579112353
 21
7.882249681904376
 31
0.0
  0
LINE
  5
207A5C5DEC
102
{ACAD_REACTORS
330
C90E73C08D2412B0
330
C90E73C08D2412FA
102
}
330
C90E73C08D241001
100
AcDbEntity
  8
THIN
100
AcDbLine
 10
4.078402579112353
 20
7.882249681904376
 30
0.0
 11
4.078402579112349
 21
8.298249681904373
 31
0.0
  0
LINE
  5
207A5C5DED
102
{ACAD_REACTORS
330
C90E73C08D2412B0
330
C90E73C08D2412FA
102
}
330
C90E73C08D241001
100
AcDbEntity
  8
THIN
100
AcDbLine
 10
3.453402579112349
 20
7.882249681904372
 30
0.0
 11
3.453402579112349
 21
8.298249681904373
 31
0.0
  0
LINE
  5
207A5C5DFB
330
C90E73C08D241001
100
AcDbEntity
  8
THIN
100
AcDbLine
 10
3.453402579112349
 20
16.09474968190436
 30
0.0
 11
3.453402579112349
 21
15.67874968190437
 31
0.0
  0
LINE
  5
207A5C5DFC
330
C90E73C08D241001
100
AcDbEntity
  8
THIN
100
AcDbLine
 10
4.078402579112353
 20
16.09474968190436
 30
0.0
 11
4.078402579112349
 21
15.67874968190437
 31
0.0
  0
LINE
  5
207A5C5DFD
330
C90E73C08D241001
100
AcDbEntity
  8
THIN
100
AcDbLine
 10
3.453402579112349
 20
16.09474968190436
 30
0.0
 11
4.078402579112353
 21
16.09474968190436
 31
0.0
  0
LINE
  5
207A5C5E31
330
C90E73C08D241001
100
AcDbEntity
  8
THIN
100
AcDbLine
 10
11.77060797964936
 20
2.970157614332803
 30
0.0
 11
11.77060797964936
 21
2.345157614332801
 31
0.0
  0
LINE
  5
207A5C5E32
330
C90E73C08D241001
100
AcDbEntity
  8
THIN
100
AcDbLine
 10
11.77060797964936
 20
2.345157614332801
 30
0.0
 11
11.35460797964936
 21
2.345157614332803
 31
0.0
  0
LINE
  5
207A5C5E33
330
C90E73C08D241001
100
AcDbEntity
  8
THIN
100
AcDbLine
 10
11.77060797964936
 20
2.970157614332803
 30
0.0
 11
11.35460797964936
 21
2.970157614332805
 31
0.0
  0
LINE
  5
207A5C5E40
330
C90E73C08D241001
100
AcDbEntity
  8
THIN
100
AcDbLine
 10
6.058107979649372
 20
2.970157614332803
 30
0.0
 11
6.474107979649373
 21
2.970157614332805
 31
0.0
  0
LINE
  5
207A5C5E41
330
C90E73C08D241001
100
AcDbEntity
  8
THIN
100
AcDbLine
 10
6.058107979649376
 20
2.345157614332801
 30
0.0
 11
6.474107979649373
 21
2.345157614332803
 31
0.0
  0
LINE
  5
207A5C5E42
330
C90E73C08D241001
100
AcDbEntity
  8
THIN
100
AcDbLine
 10
6.058107979649372
 20
2.970157614332803
 30
0.0
 11
6.058107979649376
 21
2.345157614332801
 31
0.0
  0
LINE
  5
207A5C5E5C
330
C90E73C08D241001
100
AcDbEntity
  8
CYAN
100
AcDbLine
 10
6.039357979649372
 20
2.970157614332805
 30
0.0
 11
6.03935797964937
 21
3.095157614332805
 31
0.0
  0
LWPOLYLINE
  5
207A5C5E5D
330
C90E73C08D241001
100
AcDbEntity
  8
CYAN
100
AcDbPolyline
 90
        2
 70
     0
 43
0.0
 10
9.117913334876535
 20
2.970157614332805
 10
6.03935797964937
 20
2.970157614332805
  0
LINE
  5
207A5C5E61
330
C90E73C08D241001
100
AcDbEntity
  8
CYAN
100
AcDbLine
 10
9.191933299415135
 20
2.345157614332806
 30
0.0
 11
11.78935797964937
 21
2.345157614332801
 31
0.0
  0
LINE
  5
207A5C5E62
330
C90E73C08D241001
100
AcDbEntity
  8
CYAN
100
AcDbLine
 10
9.185785492636492
 20
2.970157614332805
 30
0.0
 11
11.78935797964937
 21
2.970157614332805
 31
0.0
  0
LINE
  5
207A5C5E63
330
C90E73C08D241001
100
AcDbEntity
  8
CYAN
100
AcDbLine
 10
11.78935797964937
 20
3.095157614332805
 30
0.0
 11
11.78935797964936
 21
2.970157614332803
 31
0.0
  0
LINE
  5
207A5C5E64
330
C90E73C08D241001
100
AcDbEntity
  8
CYAN
100
AcDbLine
 10
9.201134855046738
 20
3.095157614332805
 30
0.0
 11
11.78935797964937
 21
3.095157614332805
 31
0.0
  0
LINE
  5
207A5C5E65
330
C90E73C08D241001
100
AcDbEntity
  8
CYAN
100
AcDbLine
 10
11.78935797964937
 20
2.220157614332801
 30
0.0
 11
11.78935797964936
 21
2.3451576143328
 31
0.0
  0
LINE
  5
207A5C5E66
330
C90E73C08D241001
100
AcDbEntity
  8
CYAN
100
AcDbLine
 10
9.177431968077277
 20
2.220157614332808
 30
0.0
 11
11.78935797964937
 21
2.220157614332801
 31
0.0
  0
LINE
  5
207A5C5E67
330
C90E73C08D241001
100
AcDbEntity
  8
CYAN
100
AcDbLine
 10
9.122894235681128
 20
2.345157614332809
 30
0.0
 11
6.03935797964937
 21
2.345157614332801
 31
0.0
  0
LINE
  5
207A5C5E68
330
C90E73C08D241001
100
AcDbEntity
  8
CYAN
100
AcDbLine
 10
6.03935797964937
 20
2.220157614332801
 30
0.0
 11
6.039357979649368
 21
2.345157614332801
 31
0.0
  0
LINE
  5
207A5C5E69
330
C90E73C08D241001
100
AcDbEntity
  8
CYAN
100
AcDbLine
 10
9.108392904343267
 20
2.220157614332809
 30
0.0
 11
6.03935797964937
 21
2.220157614332801
 31
0.0
  0
LWPOLYLINE
  5
207A5C5E6A
330
C90E73C08D241001
100
AcDbEntity
  8
THIN
100
AcDbPolyline
 90
        4
 70
     0
 43
0.0
 10
9.088206783759092
 20
2.046155309700626
 10
9.151904855062545
 20
2.595226200326059
 10
9.057532991948141
 20
2.478440586333555
 10
9.14603717445439
 20
3.199188622479805
  0
LWPOLYLINE
  5
207A5C5E70
330
C90E73C08D241001
100
AcDbEntity
  8
THIN
100
AcDbPolyline
 90
        4
 70
     0
 43
0.0
 10
9.15728356228668
 20
2.046480407382166
 10
9.240898010952809
 20
2.767228443528416
 10
9.146526147838406
 20
2.650442829535911
 10
9.213955330028452
 20
3.199563213072508
  0
LWPOLYLINE
  5
207A5C5E76
330
C90E73C08D241001
100
AcDbEntity
  8
CYAN
100
AcDbPolyline
 90
        2
 70
     0
 43
0.0
 10
9.133262697286779
 20
3.095157614332805
 10
6.03935797964937
 20
3.095157614332805
  0
INSERT
  5
C90E73C08D240FE0
330
C90E73C08D241001
100
AcDbEntity
  8
DIM
100
AcDbBlockReference
 66
     1
  2
ASDTNUM
 10
0.0
 20
0.0
 30
0.0
  0
ATTRIB
  5
C90E73C08D240FE1
330
C90E73C08D240FE0
100
AcDbEntity
  8
THIN
100
AcDbText
 10
1.145491964163355
 20
0.7077964671298738
 30
0.0
 40
0.18
  1
11/00
 51
10.0
  7
ROMANS
100
AcDbAttribute
280
     0
  2
REV:
 70
     0
280
     0
  0
ATTRIB
  5
C90E73C08D240FE2
330
C90E73C08D240FE0
100
AcDbEntity
  8
THIN
100
AcDbText
 10
14.18958977281909
 20
0.6570000000000001
 30
0.0
 40
0.25
  1
241
 51
10.0
  7
ROMANS
100
AcDbAttribute
280
     0
  2
AS#
 70
     0
280
     0
  0
SEQEND
  5
C90E73C08D240FE3
330
C90E73C08D240FE0
100
AcDbEntity
  8
DIM
  0
LWPOLYLINE
  5
C90E73C08D241066
330
C90E73C08D241001
100
AcDbEntity
  8
10
100
AcDbPolyline
 90
       60
 70
     1
 43
0.0
 10
5.099878356903733
 20
7.659499681904362
 10
4.79987835690375
 20
7.659499681904362
 42
0.4931454260309735
 10
4.7853894695094
 20
7.640617396227822
 10
4.801529503971099
 20
7.580381967580917
 42
-0.4931454260309734
 10
4.787040616576749
 20
7.561499681904377
 10
4.248878356903734
 20
7.561499681904377
 42
-0.4142135623732337
 10
4.233878356903733
 20
7.576499681904364
 10
4.233878356903733
 20
7.644499681904376
 42
-0.4142135623732338
 10
4.248878356903734
 20
7.659499681904362
 10
4.391378356903732
 20
7.659499681904362
 42
0.9999999999999998
 10
4.391378356903732
 20
7.73849968190437
 10
3.418388261723425
 20
7.73849968190437
 42
0.3394542588633359
 10
3.403899374329089
 20
7.727381967580909
 10
3.383598318620119
 20
7.65161739622779
 42
-0.3394542588633352
 10
3.369109431225783
 20
7.640499681904328
 10
3.244878356903729
 20
7.640499681904342
 42
-0.4142135623730951
 10
3.229878356903729
 20
7.655499681904343
 10
3.229878356903729
 20
8.302499681904377
 42
0.4931454260313179
 10
3.219807804542906
 20
8.310227088514691
 10
2.879608033242671
 20
8.219070834529516
 42
0.3394542588633682
 10
2.835878356903723
 20
8.162081210778465
 10
2.835878356903723
 20
7.635398488107695
 42
-0.3394542588633769
 10
2.824760642580262
 20
7.620909600713359
 10
1.952608033242643
 20
7.387217013364645
 42
0.33945425886342
 10
1.908878356903695
 20
7.330227389613581
 10
1.908878356903787
 20
6.62849968190437
 42
0.4142135623730951
 10
1.923878356903788
 20
6.61349968190437
 10
2.056878356903826
 20
6.61349968190437
 42
0.4142135623729564
 10
2.071878356903827
 20
6.628499681904385
 10
2.071878356903813
 20
6.696499681904382
 42
0.4142135623730951
 10
2.056878356903812
 20
6.711499681904383
 10
2.021878356903744
 20
6.711499681904369
 42
-0.4142135623730951
 10
2.006878356903744
 20
6.726499681904369
 10
2.006878356903786
 20
7.160499681904367
 42
-0.4142135623732338
 10
2.021878356903787
 20
7.175499681904353
 10
2.806878356903769
 20
7.175499681904367
 42
-0.4142135623730951
 10
2.82187835690377
 20
7.160499681904367
 10
2.821878356903784
 20
5.608499681904389
 42
0.9999999999999998
 10
2.901878356903797
 20
5.608499681904389
 10
2.901878356903782
 20
6.798499681904372
 42
-0.4142135623730951
 10
2.916878356903783
 20
6.813499681904373
 10
5.14387835690373
 20
6.813499681904358
 42
0.4142135623729564
 10
5.158878356903738
 20
6.828499681904373
 10
5.158878356903731
 20
6.995499681904375
 42
0.4142135623732338
 10
5.14387835690373
 20
7.010499681904361
 10
5.075878356903732
 20
7.010499681904361
 42
0.4142135623732338
 10
5.060878356903739
 20
6.995499681904375
 10
5.060878356903732
 20
6.926499681904358
 42
-0.4142135623732337
 10
5.045878356903731
 20
6.911499681904372
 10
4.878878356903729
 20
6.911499681904372
 42
-0.4142135623732337
 10
4.863878356903736
 20
6.926499681904358
 10
4.863878356903729
 20
7.212499681904359
 42
-0.4142135623729563
 10
4.878878356903729
 20
7.227499681904374
 10
5.045878356903731
 20
7.227499681904374
 42
-0.4142135623729563
 10
5.060878356903739
 20
7.212499681904359
 10
5.060878356903732
 20
7.143499681904371
 42
0.4142135623729564
 10
5.075878356903732
 20
7.128499681904356
 10
5.14387835690373
 20
7.128499681904356
 42
0.4142135623729564
 10
5.158878356903738
 20
7.143499681904371
 10
5.158878356903734
 20
7.600499681904365
 42
0.4142135623730951
  0
LWPOLYLINE
  5
C90E73C08D241067
330
C90E73C08D241001
100
AcDbEntity
  8
10
100
AcDbPolyline
 90
        8
 70
     1
 43
0.0
 10
2.014878356903732
 20
7.273499681904381
 10
2.820878356903751
 20
7.273499681904352
 42
0.4142135623731505
 10
2.835878356903752
 20
7.288499681904353
 10
2.835878356903716
 20
7.502883137015201
 42
0.4931454260312541
 10
2.816996071227176
 20
7.517372024409537
 10
2.012807804542912
 20
7.301890427788903
 42
0.3394542588634479
 10
2.00687835690373
 20
7.294163021178588
 10
2.00687835690373
 20
7.281499681904376
 42
0.4142135623729894
  0
LWPOLYLINE
  5
C90E73C08D241068
330
C90E73C08D241001
100
AcDbEntity
  8
10
100
AcDbPolyline
 90
        8
 70
     1
 43
0.0
 10
3.13187835690373
 20
7.655499681904371
 42
-0.4142135623730951
 10
3.116878356903729
 20
7.640499681904357
 10
2.948878356903737
 20
7.640499681904371
 42
-0.4142135623730951
 10
2.933878356903736
 20
7.655499681904371
 10
2.933878356903736
 20
8.120645553427605
 42
-0.339454258863349
 10
2.944996071227198
 20
8.135134440821955
 10
3.11299607122719
 20
8.180149905150384
 42
-0.4931454260313339
 10
3.13187835690373
 20
8.165661017756034
  0
LWPOLYLINE
  5
C90E73C08D24106B
330
C90E73C08D241001
100
AcDbEntity
  8
10
100
AcDbPolyline
 90
       12
 70
     1
 43
0.0
 10
3.229878356903721
 20
7.527499681904371
 42
-0.4142135623731131
 10
3.244878356903722
 20
7.542499681904372
 10
3.444307476047708
 20
7.542499681904343
 42
0.3394542588633565
 10
3.458796363442043
 20
7.553617396227805
 10
3.479097419151013
 20
7.629381967580924
 42
-0.3394542588633316
 10
3.493586306545349
 20
7.640499681904385
 10
4.120878356903734
 20
7.640499681904371
 42
-0.4142135623730951
 10
4.135878356903734
 20
7.62549968190437
 10
4.135878356903738
 20
6.926499681904372
 42
-0.4142135623730951
 10
4.120878356903737
 20
6.911499681904372
 10
3.244878356903722
 20
6.911499681904357
 42
-0.4142135623730951
 10
3.229878356903721
 20
6.926499681904358
  0
LWPOLYLINE
  5
C90E73C08D24106C
330
C90E73C08D241001
100
AcDbEntity
  8
10
100
AcDbPolyline
 90
        8
 70
     1
 43
0.0
 10
2.934878356903784
 20
6.911499681904372
 42
-0.4142135623730951
 10
2.919878356903783
 20
6.926499681904372
 10
2.91987835690374
 20
7.546499681904377
 42
-0.4142135623731151
 10
2.934878356903741
 20
7.561499681904377
 10
3.135878356903749
 20
7.561499681904377
 42
-0.4142135623729563
 10
3.150878356903756
 20
7.546499681904363
 10
3.150878356903735
 20
6.926499681904358
 42
-0.4142135623732337
 10
3.135878356903734
 20
6.911499681904372
  0
LWPOLYLINE
  5
C90E73C08D24106D
330
C90E73C08D241001
100
AcDbEntity
  8
10
100
AcDbPolyline
 90
       12
 70
     1
 43
0.0
 10
5.060878356903735
 20
7.340499681904388
 10
5.060878356903725
 20
7.546499681904348
 42
0.4142135623730906
 10
5.045878356903724
 20
7.561499681904349
 10
4.927878356903732
 20
7.561499681904363
 42
0.4142135623731157
 10
4.912878356903732
 20
7.546499681904363
 10
4.912878356903735
 20
7.478499681904379
 42
-0.4142135623730701
 10
4.897878356903735
 20
7.463499681904378
 10
4.859878356903742
 20
7.463499681904364
 42
0.414213562373009
 10
4.844878356903745
 20
7.448499681904364
 10
4.844878356903734
 20
7.340499681904345
 42
0.4142135623731397
 10
4.859878356903735
 20
7.325499681904345
 10
5.045878356903735
 20
7.325499681904387
 42
0.4142135623730836
  0
LWPOLYLINE
  5
C90E73C08D24106F
330
C90E73C08D241001
100
AcDbEntity
  8
10
100
AcDbPolyline
 90
        8
 70
     1
 43
0.0
 10
4.765878356903737
 20
6.926499681904358
 10
4.765878356903733
 20
7.448499681904364
 42
0.4142135623730857
 10
4.750878356903733
 20
7.463499681904364
 10
4.229878356903739
 20
7.463499681904364
 42
0.4142135623730953
 10
4.214878356903739
 20
7.448499681904364
 10
4.214878356903739
 20
6.926499681904401
 42
0.4142135623730839
 10
4.229878356903739
 20
6.9114996819044
 10
4.750878356903736
 20
6.911499681904357
 42
0.4142135623731205
  0
LWPOLYLINE
  5
C90E73C08D241088
330
C90E73C08D241001
100
AcDbEntity
  8
10
100
AcDbPolyline
 90
       12
 70
     1
 43
0.0
 10
5.628357979649376
 20
3.193895381069205
 42
-0.4142135623731131
 10
5.643357979649376
 20
3.178895381069205
 10
5.643357979649348
 20
2.979466261925219
 42
0.3394542588633565
 10
5.654475693972809
 20
2.964977374530883
 10
5.730240265325928
 20
2.944676318821914
 42
-0.3394542588633316
 10
5.741357979649389
 20
2.930187431427578
 10
5.741357979649375
 20
2.302895381069193
 42
-0.4142135623730951
 10
5.726357979649375
 20
2.287895381069192
 10
5.027357979649377
 20
2.287895381069189
 42
-0.4142135623730951
 10
5.012357979649376
 20
2.302895381069189
 10
5.012357979649362
 20
3.178895381069205
 42
-0.4142135623730951
 10
5.027357979649362
 20
3.193895381069205
  0
LWPOLYLINE
  5
C90E73C08D241089
330
C90E73C08D241001
100
AcDbEntity
  8
10
100
AcDbPolyline
 90
       60
 70
     1
 43
0.0
 10
5.760357979649366
 20
1.323895381069194
 10
5.760357979649366
 20
1.623895381069177
 42
0.4931454260309735
 10
5.741475693972827
 20
1.638384268463527
 10
5.681240265325921
 20
1.622244234001827
 42
-0.4931454260309734
 10
5.662357979649382
 20
1.636733121396177
 10
5.662357979649382
 20
2.174895381069193
 42
-0.4142135623732337
 10
5.677357979649368
 20
2.189895381069193
 10
5.74535797964938
 20
2.189895381069193
 42
-0.4142135623732338
 10
5.760357979649366
 20
2.174895381069193
 10
5.760357979649366
 20
2.032395381069195
 42
0.9999999999999998
 10
5.839357979649374
 20
2.032395381069195
 10
5.839357979649374
 20
3.005385476249502
 42
0.3394542588633359
 10
5.828240265325913
 20
3.019874363643838
 10
5.752475693972794
 20
3.040175419352808
 42
-0.3394542588633352
 10
5.741357979649333
 20
3.054664306747143
 10
5.741357979649347
 20
3.178895381069198
 42
-0.4142135623730951
 10
5.756357979649347
 20
3.193895381069198
 10
6.403357979649381
 20
3.193895381069198
 42
0.4931454260313179
 10
6.411085386259696
 20
3.203965933430021
 10
6.31992913227452
 20
3.544165704730255
 42
0.3394542588633682
 10
6.262939508523469
 20
3.587895381069204
 10
5.736256785852699
 20
3.587895381069204
 42
-0.3394542588633769
 10
5.721767898458363
 20
3.599013095392665
 10
5.48807531110965
 20
4.471165704730283
 42
0.33945425886342
 10
5.431085687358585
 20
4.514895381069232
 10
4.729357979649375
 20
4.514895381069139
 42
0.4142135623730951
 10
4.714357979649374
 20
4.499895381069139
 10
4.714357979649374
 20
4.366895381069101
 42
0.4142135623729564
 10
4.729357979649389
 20
4.3518953810691
 10
4.797357979649387
 20
4.351895381069114
 42
0.4142135623730951
 10
4.812357979649387
 20
4.366895381069115
 10
4.812357979649373
 20
4.401895381069182
 42
-0.4142135623730951
 10
4.827357979649374
 20
4.416895381069183
 10
5.261357979649371
 20
4.41689538106914
 42
-0.4142135623732338
 10
5.276357979649358
 20
4.40189538106914
 10
5.276357979649372
 20
3.616895381069157
 42
-0.4142135623730951
 10
5.261357979649371
 20
3.601895381069157
 10
3.709357979649393
 20
3.601895381069143
 42
0.9999999999999998
 10
3.709357979649393
 20
3.52189538106913
 10
4.899357979649376
 20
3.521895381069144
 42
-0.4142135623730951
 10
4.914357979649377
 20
3.506895381069144
 10
4.914357979649363
 20
1.279895381069197
 42
0.4142135623729564
 10
4.929357979649378
 20
1.264895381069189
 10
5.096357979649379
 20
1.264895381069196
 42
0.4142135623732338
 10
5.111357979649366
 20
1.279895381069197
 10
5.111357979649366
 20
1.347895381069194
 42
0.4142135623732338
 10
5.096357979649379
 20
1.362895381069188
 10
5.027357979649362
 20
1.362895381069195
 42
-0.4142135623732337
 10
5.012357979649376
 20
1.377895381069196
 10
5.012357979649376
 20
1.544895381069197
 42
-0.4142135623732337
 10
5.027357979649362
 20
1.559895381069191
 10
5.313357979649364
 20
1.559895381069198
 42
-0.4142135623729563
 10
5.328357979649378
 20
1.544895381069197
 10
5.328357979649378
 20
1.377895381069196
 42
-0.4142135623729563
 10
5.313357979649364
 20
1.362895381069188
 10
5.244357979649375
 20
1.362895381069195
 42
0.4142135623729564
 10
5.22935797964936
 20
1.347895381069194
 10
5.22935797964936
 20
1.279895381069197
 42
0.4142135623729564
 10
5.244357979649375
 20
1.264895381069189
 10
5.701357979649369
 20
1.264895381069192
 42
0.4142135623730951
  0
LWPOLYLINE
  5
C90E73C08D24108B
330
C90E73C08D241001
100
AcDbEntity
  8
10
100
AcDbPolyline
 90
        8
 70
     1
 43
0.0
 10
5.374357979649385
 20
4.408895381069195
 10
5.374357979649357
 20
3.602895381069176
 42
0.4142135623731505
 10
5.389357979649357
 20
3.587895381069175
 10
5.603741434760205
 20
3.587895381069211
 42
0.4931454260312541
 10
5.618230322154541
 20
3.606777666745751
 10
5.402748725533907
 20
4.410965933430015
 42
0.3394542588634479
 10
5.395021318923593
 20
4.416895381069197
 10
5.382357979649381
 20
4.416895381069197
 42
0.4142135623729894
  0
LWPOLYLINE
  5
C90E73C08D24108C
330
C90E73C08D241001
100
AcDbEntity
  8
10
100
AcDbPolyline
 90
        8
 70
     1
 43
0.0
 10
5.012357979649376
 20
3.488895381069143
 42
-0.4142135623730951
 10
5.027357979649377
 20
3.503895381069144
 10
5.647357979649381
 20
3.503895381069186
 42
-0.4142135623731151
 10
5.662357979649382
 20
3.488895381069186
 10
5.662357979649382
 20
3.287895381069178
 42
-0.4142135623729563
 10
5.647357979649367
 20
3.27289538106917
 10
5.027357979649362
 20
3.272895381069192
 42
-0.4142135623732337
 10
5.012357979649376
 20
3.287895381069192
  0
LWPOLYLINE
  5
C90E73C08D24108E
330
C90E73C08D241001
100
AcDbEntity
  8
10
100
AcDbPolyline
 90
        8
 70
     1
 43
0.0
 10
5.756357979649376
 20
3.291895381069197
 42
-0.4142135623730951
 10
5.741357979649361
 20
3.306895381069198
 10
5.741357979649375
 20
3.47489538106919
 42
-0.4142135623730951
 10
5.756357979649376
 20
3.489895381069191
 10
6.221503851172609
 20
3.489895381069191
 42
-0.339454258863349
 10
6.23599273856696
 20
3.478777666745729
 10
6.281008202895389
 20
3.310777666745737
 42
-0.4931454260313339
 10
6.266519315501039
 20
3.291895381069197
  0
LWPOLYLINE
  5
C90E73C08D24108F
330
C90E73C08D241001
100
AcDbEntity
  8
10
100
AcDbPolyline
 90
        8
 70
     1
 43
0.0
 10
5.027357979649362
 20
1.65789538106919
 10
5.549357979649368
 20
1.657895381069193
 42
0.4142135623730857
 10
5.564357979649368
 20
1.672895381069194
 10
5.564357979649368
 20
2.193895381069188
 42
0.4142135623730953
 10
5.549357979649368
 20
2.208895381069188
 10
5.027357979649405
 20
2.208895381069188
 42
0.4142135623730839
 10
5.012357979649404
 20
2.193895381069188
 10
5.012357979649362
 20
1.67289538106919
 42
0.4142135623731205
  0
LWPOLYLINE
  5
C90E73C08D241090
330
C90E73C08D241001
100
AcDbEntity
  8
10
100
AcDbPolyline
 90
       12
 70
     1
 43
0.0
 10
5.441357979649392
 20
1.362895381069191
 10
5.647357979649353
 20
1.362895381069202
 42
0.4142135623730906
 10
5.662357979649353
 20
1.377895381069203
 10
5.662357979649367
 20
1.495895381069194
 42
0.4142135623731157
 10
5.647357979649367
 20
1.510895381069195
 10
5.579357979649383
 20
1.510895381069191
 42
-0.4142135623730701
 10
5.564357979649383
 20
1.525895381069192
 10
5.564357979649368
 20
1.563895381069185
 42
0.414213562373009
 10
5.549357979649368
 20
1.578895381069182
 10
5.44135797964935
 20
1.578895381069193
 42
0.4142135623731397
 10
5.426357979649349
 20
1.563895381069192
 10
5.426357979649392
 20
1.377895381069192
 42
0.4142135623730836
  0
LWPOLYLINE
  5
C90E73C08D24109E
330
C90E73C08D241001
100
AcDbEntity
  8
10
100
AcDbPolyline
 90
        8
 70
     1
 43
0.0
 10
12.81635797964936
 20
3.488895381069143
 42
0.4142135623730951
 10
12.80135797964936
 20
3.503895381069144
 10
12.18135797964936
 20
3.503895381069186
 42
0.4142135623731151
 10
12.16635797964936
 20
3.488895381069186
 10
12.16635797964936
 20
3.287895381069178
 42
0.4142135623729563
 10
12.18135797964937
 20
3.27289538106917
 10
12.80135797964938
 20
3.272895381069192
 42
0.4142135623732337
 10
12.81635797964936
 20
3.287895381069192
  0
LWPOLYLINE
  5
C90E73C08D24109F
330
C90E73C08D241001
100
AcDbEntity
  8
10
100
AcDbPolyline
 90
       60
 70
     1
 43
0.0
 10
12.06835797964937
 20
1.323895381069194
 10
12.06835797964937
 20
1.623895381069177
 42
-0.4931454260309735
 10
12.08724026532591
 20
1.638384268463527
 10
12.14747569397282
 20
1.622244234001827
 42
0.4931454260309734
 10
12.16635797964936
 20
1.636733121396177
 10
12.16635797964936
 20
2.174895381069193
 42
0.4142135623732337
 10
12.15135797964937
 20
2.189895381069193
 10
12.08335797964936
 20
2.189895381069193
 42
0.4142135623732338
 10
12.06835797964937
 20
2.174895381069193
 10
12.06835797964937
 20
2.032395381069195
 42
-0.9999999999999998
 10
11.98935797964936
 20
2.032395381069195
 10
11.98935797964936
 20
3.005385476249502
 42
-0.3394542588633359
 10
12.00047569397282
 20
3.019874363643838
 10
12.07624026532595
 20
3.040175419352808
 42
0.3394542588633352
 10
12.08735797964941
 20
3.054664306747143
 10
12.08735797964939
 20
3.178895381069198
 42
0.4142135623730951
 10
12.07235797964939
 20
3.193895381069198
 10
11.42535797964936
 20
3.193895381069198
 42
-0.4931454260313179
 10
11.41763057303904
 20
3.203965933430021
 10
11.50878682702422
 20
3.544165704730255
 42
-0.3394542588633682
 10
11.56577645077527
 20
3.587895381069204
 10
12.09245917344604
 20
3.587895381069204
 42
0.3394542588633769
 10
12.10694806084038
 20
3.599013095392665
 10
12.34064064818909
 20
4.471165704730283
 42
-0.33945425886342
 10
12.39763027194015
 20
4.514895381069232
 10
13.09935797964936
 20
4.514895381069139
 42
-0.4142135623730951
 10
13.11435797964936
 20
4.499895381069139
 10
13.11435797964936
 20
4.366895381069101
 42
-0.4142135623729564
 10
13.09935797964935
 20
4.3518953810691
 10
13.03135797964935
 20
4.351895381069114
 42
-0.4142135623730951
 10
13.01635797964935
 20
4.366895381069115
 10
13.01635797964937
 20
4.401895381069182
 42
0.4142135623730951
 10
13.00135797964937
 20
4.416895381069183
 10
12.56735797964937
 20
4.41689538106914
 42
0.4142135623732338
 10
12.55235797964938
 20
4.40189538106914
 10
12.55235797964937
 20
3.616895381069157
 42
0.4142135623730951
 10
12.56735797964937
 20
3.601895381069157
 10
14.11935797964934
 20
3.601895381069143
 42
-0.9999999999999998
 10
14.11935797964934
 20
3.52189538106913
 10
12.92935797964936
 20
3.521895381069144
 42
0.4142135623730951
 10
12.91435797964936
 20
3.506895381069144
 10
12.91435797964938
 20
1.279895381069197
 42
-0.4142135623729564
 10
12.89935797964936
 20
1.264895381069189
 10
12.73235797964936
 20
1.264895381069196
 42
-0.4142135623732338
 10
12.71735797964937
 20
1.279895381069197
 10
12.71735797964937
 20
1.347895381069194
 42
-0.4142135623732338
 10
12.73235797964936
 20
1.362895381069188
 10
12.80135797964938
 20
1.362895381069195
 42
0.4142135623732337
 10
12.81635797964936
 20
1.377895381069196
 10
12.81635797964936
 20
1.544895381069197
 42
0.4142135623732337
 10
12.80135797964938
 20
1.559895381069191
 10
12.51535797964937
 20
1.559895381069198
 42
0.4142135623729563
 10
12.50035797964936
 20
1.544895381069197
 10
12.50035797964936
 20
1.377895381069196
 42
0.4142135623729563
 10
12.51535797964937
 20
1.362895381069188
 10
12.58435797964936
 20
1.362895381069195
 42
-0.4142135623729564
 10
12.59935797964938
 20
1.347895381069194
 10
12.59935797964938
 20
1.279895381069197
 42
-0.4142135623729564
 10
12.58435797964936
 20
1.264895381069189
 10
12.12735797964937
 20
1.264895381069192
 42
-0.4142135623730951
  0
LWPOLYLINE
  5
C90E73C08D2410A0
330
C90E73C08D241001
100
AcDbEntity
  8
10
100
AcDbPolyline
 90
        8
 70
     1
 43
0.0
 10
12.07235797964936
 20
3.291895381069197
 42
0.4142135623730951
 10
12.08735797964938
 20
3.306895381069198
 10
12.08735797964936
 20
3.47489538106919
 42
0.4142135623730951
 10
12.07235797964936
 20
3.489895381069191
 10
11.60721210812613
 20
3.489895381069191
 42
0.339454258863349
 10
11.59272322073178
 20
3.478777666745729
 10
11.54770775640335
 20
3.310777666745737
 42
0.4931454260313339
 10
11.5621966437977
 20
3.291895381069197
  0
LWPOLYLINE
  5
C90E73C08D2410A1
330
C90E73C08D241001
100
AcDbEntity
  8
10
100
AcDbPolyline
 90
        8
 70
     1
 43
0.0
 10
12.45435797964935
 20
4.408895381069195
 10
12.45435797964938
 20
3.602895381069176
 42
-0.4142135623731505
 10
12.43935797964938
 20
3.587895381069175
 10
12.22497452453853
 20
3.587895381069211
 42
-0.4931454260312541
 10
12.2104856371442
 20
3.606777666745751
 10
12.42596723376483
 20
4.410965933430015
 42
-0.3394542588634479
 10
12.43369464037515
 20
4.416895381069197
 10
12.44635797964936
 20
4.416895381069197
 42
-0.4142135623729894
  0
LWPOLYLINE
  5
C90E73C08D2410A2
330
C90E73C08D241001
100
AcDbEntity
  8
10
100
AcDbPolyline
 90
       12
 70
     1
 43
0.0
 10
12.20035797964936
 20
3.193895381069205
 42
0.4142135623731131
 10
12.18535797964936
 20
3.178895381069205
 10
12.18535797964939
 20
2.979466261925219
 42
-0.3394542588633565
 10
12.17424026532593
 20
2.964977374530883
 10
12.09847569397281
 20
2.944676318821914
 42
0.3394542588633316
 10
12.08735797964935
 20
2.930187431427578
 10
12.08735797964936
 20
2.302895381069193
 42
0.4142135623730951
 10
12.10235797964936
 20
2.287895381069192
 10
12.80135797964936
 20
2.287895381069189
 42
0.4142135623730951
 10
12.81635797964936
 20
2.302895381069189
 10
12.81635797964938
 20
3.178895381069205
 42
0.4142135623730951
 10
12.80135797964938
 20
3.193895381069205
  0
LWPOLYLINE
  5
C90E73C08D2410A3
330
C90E73C08D241001
100
AcDbEntity
  8
10
100
AcDbPolyline
 90
        8
 70
     1
 43
0.0
 10
12.80135797964938
 20
1.65789538106919
 10
12.27935797964937
 20
1.657895381069193
 42
-0.4142135623730857
 10
12.26435797964937
 20
1.672895381069194
 10
12.26435797964937
 20
2.193895381069188
 42
-0.4142135623730953
 10
12.27935797964937
 20
2.208895381069188
 10
12.80135797964933
 20
2.208895381069188
 42
-0.4142135623730839
 10
12.81635797964933
 20
2.193895381069188
 10
12.81635797964938
 20
1.67289538106919
 42
-0.4142135623731205
  0
LWPOLYLINE
  5
C90E73C08D2410A4
330
C90E73C08D241001
100
AcDbEntity
  8
10
100
AcDbPolyline
 90
       12
 70
     1
 43
0.0
 10
12.38735797964935
 20
1.362895381069191
 10
12.18135797964938
 20
1.362895381069202
 42
-0.4142135623730906
 10
12.16635797964938
 20
1.377895381069203
 10
12.16635797964937
 20
1.495895381069194
 42
-0.4142135623731157
 10
12.18135797964937
 20
1.510895381069195
 10
12.24935797964936
 20
1.510895381069191
 42
0.4142135623730701
 10
12.26435797964936
 20
1.525895381069192
 10
12.26435797964937
 20
1.563895381069185
 42
-0.414213562373009
 10
12.27935797964937
 20
1.578895381069182
 10
12.38735797964939
 20
1.578895381069193
 42
-0.4142135623731397
 10
12.40235797964939
 20
1.563895381069192
 10
12.40235797964935
 20
1.377895381069192
 42
-0.4142135623730836
  0
LINE
  5
C90E73C08D2410A7
330
C90E73C08D241001
100
AcDbEntity
  8
10
100
AcDbLine
 10
6.495345777316698
 20
3.095157614332806
 30
0.0
 11
6.321011684389981
 21
3.193895381069199
 31
0.0
  0
LINE
  5
C90E73C08D2410A8
330
C90E73C08D241001
100
AcDbEntity
  8
10
100
AcDbLine
 10
6.41135797964937
 20
3.198230217134025
 30
0.0
 11
6.530971030801749
 21
3.095157614332806
 31
0.0
  0
LINE
  5
C90E73C08D2410A9
330
C90E73C08D241001
100
AcDbEntity
  8
10
100
AcDbLine
 10
6.115497208914037
 20
3.193895381069198
 30
0.0
 11
6.230079796549752
 21
3.095157614332806
 31
0.0
  0
LINE
  5
C90E73C08D2410AA
330
C90E73C08D241001
100
AcDbEntity
  8
10
100
AcDbLine
 10
6.194454543064699
 20
3.095157614332806
 30
0.0
 11
6.020120450137982
 21
3.193895381069199
 31
0.0
  0
LWPOLYLINE
  5
C90E73C08D2410AD
330
C90E73C08D241001
100
AcDbEntity
  8
10
100
AcDbPolyline
 90
        8
 70
     1
 43
0.0
 10
2.934878356903784
 20
17.21549968190436
 42
0.4142135623730951
 10
2.919878356903783
 20
17.20049968190436
 10
2.91987835690374
 20
16.58049968190435
 42
0.4142135623731151
 10
2.934878356903741
 20
16.56549968190435
 10
3.135878356903749
 20
16.56549968190435
 42
0.4142135623729563
 10
3.150878356903756
 20
16.58049968190437
 10
3.150878356903735
 20
17.20049968190437
 42
0.4142135623732337
 10
3.135878356903734
 20
17.21549968190436
  0
LWPOLYLINE
  5
C90E73C08D2410AE
330
C90E73C08D241001
100
AcDbEntity
  8
10
100
AcDbPolyline
 90
       60
 70
     1
 43
0.0
 10
5.099878356903733
 20
16.46749968190437
 10
4.79987835690375
 20
16.46749968190437
 42
-0.4931454260309735
 10
4.7853894695094
 20
16.48638196758091
 10
4.801529503971099
 20
16.54661739622781
 42
0.4931454260309734
 10
4.787040616576749
 20
16.56549968190435
 10
4.248878356903734
 20
16.56549968190435
 42
0.4142135623732337
 10
4.233878356903733
 20
16.55049968190437
 10
4.233878356903733
 20
16.48249968190436
 42
0.4142135623732338
 10
4.248878356903734
 20
16.46749968190437
 10
4.391378356903732
 20
16.46749968190437
 42
-0.9999999999999998
 10
4.391378356903732
 20
16.38849968190436
 10
3.418388261723425
 20
16.38849968190436
 42
-0.3394542588633359
 10
3.403899374329089
 20
16.39961739622782
 10
3.383598318620119
 20
16.47538196758094
 42
0.3394542588633352
 10
3.369109431225783
 20
16.4864996819044
 10
3.244878356903729
 20
16.48649968190439
 42
0.4142135623730951
 10
3.229878356903729
 20
16.47149968190439
 10
3.229878356903729
 20
15.82449968190435
 42
-0.4931454260313179
 10
3.219807804542906
 20
15.81677227529404
 10
2.879608033242671
 20
15.90792852927922
 42
-0.3394542588633682
 10
2.835878356903723
 20
15.96491815303027
 10
2.835878356903723
 20
16.49160087570104
 42
0.3394542588633769
 10
2.824760642580262
 20
16.50608976309537
 10
1.952608033242643
 20
16.73978235044408
 42
-0.33945425886342
 10
1.908878356903695
 20
16.79677197419515
 10
1.908878356903787
 20
17.49849968190436
 42
-0.4142135623730951
 10
1.923878356903788
 20
17.51349968190436
 10
2.056878356903826
 20
17.51349968190436
 42
-0.4142135623729564
 10
2.071878356903827
 20
17.49849968190435
 10
2.071878356903813
 20
17.43049968190435
 42
-0.4142135623730951
 10
2.056878356903812
 20
17.41549968190435
 10
2.021878356903744
 20
17.41549968190436
 42
0.4142135623730951
 10
2.006878356903744
 20
17.40049968190436
 10
2.006878356903786
 20
16.96649968190437
 42
0.4142135623732338
 10
2.021878356903787
 20
16.95149968190438
 10
2.806878356903769
 20
16.95149968190436
 42
0.4142135623730951
 10
2.82187835690377
 20
16.96649968190437
 10
2.821878356903784
 20
18.51849968190434
 42
-0.9999999999999998
 10
2.901878356903797
 20
18.51849968190434
 10
2.901878356903782
 20
17.32849968190436
 42
0.4142135623730951
 10
2.916878356903783
 20
17.31349968190436
 10
5.14387835690373
 20
17.31349968190437
 42
-0.4142135623729564
 10
5.158878356903738
 20
17.29849968190436
 10
5.158878356903731
 20
17.13149968190436
 42
-0.4142135623732338
 10
5.14387835690373
 20
17.11649968190437
 10
5.075878356903732
 20
17.11649968190437
 42
-0.4142135623732338
 10
5.060878356903739
 20
17.13149968190436
 10
5.060878356903732
 20
17.20049968190437
 42
0.4142135623732337
 10
5.045878356903731
 20
17.21549968190436
 10
4.878878356903729
 20
17.21549968190436
 42
0.4142135623732337
 10
4.863878356903736
 20
17.20049968190437
 10
4.863878356903729
 20
16.91449968190437
 42
0.4142135623729563
 10
4.878878356903729
 20
16.89949968190436
 10
5.045878356903731
 20
16.89949968190436
 42
0.4142135623729563
 10
5.060878356903739
 20
16.91449968190437
 10
5.060878356903732
 20
16.98349968190436
 42
-0.4142135623729564
 10
5.075878356903732
 20
16.99849968190437
 10
5.14387835690373
 20
16.99849968190437
 42
-0.4142135623729564
 10
5.158878356903738
 20
16.98349968190436
 10
5.158878356903734
 20
16.52649968190437
 42
-0.4142135623730951
  0
LWPOLYLINE
  5
C90E73C08D2410AF
330
C90E73C08D241001
100
AcDbEntity
  8
10
100
AcDbPolyline
 90
        8
 70
     1
 43
0.0
 10
2.014878356903732
 20
16.85349968190435
 10
2.820878356903751
 20
16.85349968190438
 42
-0.4142135623731505
 10
2.835878356903752
 20
16.83849968190438
 10
2.835878356903716
 20
16.62411622679353
 42
-0.4931454260312541
 10
2.816996071227176
 20
16.60962733939919
 10
2.012807804542912
 20
16.82510893601983
 42
-0.3394542588634479
 10
2.00687835690373
 20
16.83283634263014
 10
2.00687835690373
 20
16.84549968190436
 42
-0.4142135623729894
  0
LWPOLYLINE
  5
C90E73C08D2410B0
330
C90E73C08D241001
100
AcDbEntity
  8
10
100
AcDbPolyline
 90
        8
 70
     1
 43
0.0
 10
4.765878356903737
 20
17.20049968190437
 10
4.765878356903733
 20
16.67849968190437
 42
-0.4142135623730857
 10
4.750878356903733
 20
16.66349968190437
 10
4.229878356903739
 20
16.66349968190437
 42
-0.4142135623730953
 10
4.214878356903739
 20
16.67849968190437
 10
4.214878356903739
 20
17.20049968190433
 42
-0.4142135623730839
 10
4.229878356903739
 20
17.21549968190433
 10
4.750878356903736
 20
17.21549968190437
 42
-0.4142135623731205
  0
LWPOLYLINE
  5
C90E73C08D2410B1
330
C90E73C08D241001
100
AcDbEntity
  8
10
100
AcDbPolyline
 90
       12
 70
     1
 43
0.0
 10
3.229878356903721
 20
16.59949968190436
 42
0.4142135623731131
 10
3.244878356903722
 20
16.58449968190436
 10
3.444307476047708
 20
16.58449968190439
 42
-0.3394542588633565
 10
3.458796363442043
 20
16.57338196758093
 10
3.479097419151013
 20
16.49761739622781
 42
0.3394542588633316
 10
3.493586306545349
 20
16.48649968190435
 10
4.120878356903734
 20
16.48649968190436
 42
0.4142135623730951
 10
4.135878356903734
 20
16.50149968190436
 10
4.135878356903738
 20
17.20049968190436
 42
0.4142135623730951
 10
4.120878356903737
 20
17.21549968190436
 10
3.244878356903722
 20
17.21549968190437
 42
0.4142135623730951
 10
3.229878356903721
 20
17.20049968190437
  0
LWPOLYLINE
  5
C90E73C08D2410B2
330
C90E73C08D241001
100
AcDbEntity
  8
10
100
AcDbPolyline
 90
       12
 70
     1
 43
0.0
 10
5.060878356903735
 20
16.78649968190434
 10
5.060878356903725
 20
16.58049968190438
 42
-0.4142135623730906
 10
5.045878356903724
 20
16.56549968190438
 10
4.927878356903732
 20
16.56549968190437
 42
-0.4142135623731157
 10
4.912878356903732
 20
16.58049968190437
 10
4.912878356903735
 20
16.64849968190435
 42
0.4142135623730701
 10
4.897878356903735
 20
16.66349968190435
 10
4.859878356903742
 20
16.66349968190437
 42
-0.414213562373009
 10
4.844878356903745
 20
16.67849968190437
 10
4.844878356903734
 20
16.78649968190439
 42
-0.4142135623731397
 10
4.859878356903735
 20
16.80149968190439
 10
5.045878356903735
 20
16.80149968190434
 42
-0.4142135623730836
  0
LWPOLYLINE
  5
C90E73C08D2410B3
330
C90E73C08D241001
100
AcDbEntity
  8
10
100
AcDbPolyline
 90
        8
 70
     1
 43
0.0
 10
3.13187835690373
 20
16.47149968190436
 42
0.4142135623730951
 10
3.116878356903729
 20
16.48649968190438
 10
2.948878356903737
 20
16.48649968190436
 42
0.4142135623730951
 10
2.933878356903736
 20
16.47149968190436
 10
2.933878356903736
 20
16.00635381038113
 42
0.339454258863349
 10
2.944996071227198
 20
15.99186492298678
 10
3.11299607122719
 20
15.94684945865835
 42
0.4931454260313339
 10
3.13187835690373
 20
15.9613383460527
  0
LINE
  5
C90E73C08D2410B6
330
C90E73C08D241001
100
AcDbEntity
  8
10
100
AcDbLine
 10
13.26403071876245
 20
10.42295068038566
 30
0.0
 11
8.091001352735474
 21
10.42295068038566
 31
0.0
  0
LINE
  5
C90E73C08D2410B7
330
C90E73C08D241001
100
AcDbEntity
  8
10
100
AcDbLine
 10
13.37177564871675
 20
10.31845068038567
 30
0.0
 11
7.98325642278118
 21
10.31845068038567
 31
0.0
  0
ARC
  5
C90E73C08D2410BD
330
C90E73C08D241001
100
AcDbEntity
  8
10
100
AcDbCircle
 10
10.67751603574895
 20
10.59594211856261
 30
0.0
 40
2.408151521395611
100
AcDbArc
 50
0.0
 51
180.0
  0
ARC
  5
C90E73C08D2410BE
330
C90E73C08D241001
100
AcDbEntity
  8
10
100
AcDbCircle
 10
10.67751603574895
 20
10.59594211856261
 30
0.0
 40
2.484382352102987
100
AcDbArc
 50
358.3185685394466
 51
181.6814314605536
  0
ARC
  5
C90E73C08D2410C0
330
C90E73C08D241001
100
AcDbEntity
  8
10
100
AcDbCircle
 10
10.67751603574895
 20
10.59594211856261
 30
0.0
 40
2.566868976009486
100
AcDbArc
 50
356.6566085407042
 51
183.3433914592962
  0
ARC
  5
C90E73C08D2410C1
330
C90E73C08D241001
100
AcDbEntity
  8
10
100
AcDbCircle
 10
10.67751603574895
 20
10.59594211856261
 30
0.0
 40
2.59229324018849
100
AcDbArc
 50
356.1736386439028
 51
183.8263613560976
  0
ARC
  5
C90E73C08D2410C2
330
C90E73C08D241001
100
AcDbEntity
  8
10
100
AcDbCircle
 10
10.67751603574895
 20
10.59594211856261
 30
0.0
 40
2.708511834999231
100
AcDbArc
 50
354.119636492943
 51
185.880363507057
  0
DIMENSION
  5
C90E73C08D2410D2
330
C90E73C08D241001
100
AcDbEntity
  8
DIM
100
AcDbDimension
280
     0
  2
*D6
 10
14.88986828442013
 20
4.351895381069099
 30
0.0
 11
14.88986828442013
 21
3.976895381069121
 31
0.0
 70
   160
 71
     5
 42
0.749999999999957
 73
     0
 74
     0
 75
     0
  3
Standard
100
AcDbAlignedDimension
 13
14.11935797964934
 23
3.601895381069143
 33
0.0
 14
13.09935797964935
 24
4.3518953810691
 34
0.0
 50
90.0
100
AcDbRotatedDimension
1001
ACAD
1000
DSTYLE
1002
{
1070
    40
1040
4.0
1070
    41
1040
0.045
1070
    42
1040
0.05
1070
    43
1040
0.3799999999999999
1070
    44
1040
0.05
1070
    45
1040
0.001
1070
   140
1040
0.045
1070
   141
1040
0.0
1070
   147
1040
0.045
1070
   174
1070
     1
1070
   179
1070
     2
1070
   271
1070
     3
1070
   272
1070
     3
1070
   276
1070
     2
1070
   277
1070
     4
1070
   279
1070
     2
1002
}
  0
DIMENSION
  5
C90E73C08D24114C
330
C90E73C08D241001
100
AcDbEntity
  8
DIM
100
AcDbDimension
280
     0
  2
*D7
 10
3.181127818006757
 20
1.26489538106919
 30
0.0
 11
3.311905128617368
 21
2.889895381069165
 31
0.0
 70
   160
 71
     5
 42
3.24999999999995
 73
     0
 74
     0
 75
     0
  3
Standard
100
AcDbAlignedDimension
 13
4.729357979649375
 23
4.514895381069139
 33
0.0
 14
4.929357979649378
 24
1.264895381069189
 34
0.0
 50
90.0
100
AcDbRotatedDimension
1001
ACAD
1000
DSTYLE
1002
{
1070
    40
1040
4.0
1070
    41
1040
0.045
1070
    42
1040
0.05
1070
    43
1040
0.3799999999999999
1070
    44
1040
0.05
1070
    45
1040
0.001
1070
   140
1040
0.045
1070
   141
1040
0.0
1070
   147
1040
0.045
1070
   174
1070
     1
1070
   179
1070
     2
1070
   271
1070
     3
1070
   272
1070
     3
1070
   276
1070
     2
1070
   277
1070
     4
1070
   279
1070
     2
1002
}
  0
DIMENSION
  5
C90E73C08D24116E
330
C90E73C08D241001
100
AcDbEntity
  8
DIM
100
AcDbDimension
280
     0
  2
*D8
 10
6.524843811824054
 20
0.3554865515127759
 30
0.0
 11
5.719600895736709
 21
0.3128419676685041
 31
0.0
 70
   160
 71
     5
 42
1.610485832174691
 73
     0
 74
     0
 75
     0
  3
Standard
100
AcDbAlignedDimension
 13
4.914357979649363
 23
1.279895381069197
 33
0.0
 14
6.524843811824054
 24
2.202814304256805
 34
0.0
100
AcDbRotatedDimension
1001
ACAD
1000
DSTYLE
1002
{
1070
    40
1040
4.0
1070
    41
1040
0.045
1070
    42
1040
0.05
1070
    43
1040
0.3799999999999999
1070
    44
1040
0.05
1070
    45
1040
0.001
1070
   140
1040
0.045
1070
   141
1040
0.0
1070
   147
1040
0.045
1070
   174
1070
     1
1070
   179
1070
     2
1070
   271
1070
     3
1070
   272
1070
     3
1070
   276
1070
     2
1070
   277
1070
     4
1070
   279
1070
     2
1002
}
  0
DIMENSION
  5
C90E73C08D2411C6
330
C90E73C08D241001
100
AcDbEntity
  8
DIM
100
AcDbDimension
280
     0
  2
*D9
 10
2.901878356903797
 20
4.986744108124449
 30
0.0
 11
4.010378356903764
 21
5.007182285632516
 31
0.0
 70
   160
 71
     5
 42
2.256999999999941
 73
     0
 74
     0
 75
     0
  3
Standard
100
AcDbAlignedDimension
 13
5.158878356903738
 23
6.828499681904374
 33
0.0
 14
2.901878356903797
 24
5.608499681904389
 34
0.0
100
AcDbRotatedDimension
1001
ACAD
1000
DSTYLE
1002
{
1070
    40
1040
4.0
1070
    41
1040
0.045
1070
    42
1040
0.05
1070
    43
1040
0.3799999999999999
1070
    44
1040
0.05
1070
    45
1040
0.001
1070
   140
1040
0.045
1070
   141
1040
0.0
1070
   147
1040
0.045
1070
   174
1070
     1
1070
   179
1070
     2
1070
   276
1070
     2
1070
   277
1070
     4
1070
   279
1070
     2
1002
}
  0
LINE
  5
C90E73C08D24125F
102
{ACAD_REACTORS
330
C90E73C08D2412B0
102
}
330
C90E73C08D241001
100
AcDbEntity
  8
THIN
100
AcDbLine
 10
3.453402579112349
 20
8.202249681904374
 30
0.0
 11
4.078402579112352
 21
8.202249681904374
 31
0.0
  0
LINE
  5
C90E73C08D241261
102
{ACAD_REACTORS
330
C90E73C08D2412B0
330
C90E73C08D2412FA
102
}
330
C90E73C08D241001
100
AcDbEntity
  8
THIN
100
AcDbLine
 10
3.453402579112349
 20
8.142249681904374
 30
0.0
 11
4.078402579112353
 21
8.142249681904374
 31
0.0
  0
HATCH
  5
C90E73C08D2412B0
330
C90E73C08D241001
100
AcDbEntity
  8
DIM
100
AcDbHatch
 10
0.0
 20
0.0
 30
0.0
210
0.0
220
0.0
230
1.0
  2
SOLID
 70
     1
 71
     1
 91
        1
 92
        7
 72
     0
 73
     1
 93
        4
 10
4.07840257911235
 20
8.202249681904374
 10
3.453402579112349
 20
8.202249681904374
 10
3.453402579112349
 20
8.142249681904374
 10
4.07840257911235
 20
8.142249681904376
 97
        4
330
C90E73C08D24125F
330
207A5C5DED
330
C90E73C08D241261
330
207A5C5DEC
 75
     0
 76
     1
 47
0.0034578382305586
 98
        1
 10
3.795005379836744
 20
8.161943481803994
450
        0
451
        0
460
0.0
461
0.0
452
        0
462
0.0
453
        0
470

  0
HATCH
  5
C90E73C08D2412FA
330
C90E73C08D241001
100
AcDbEntity
  8
THIN
100
AcDbHatch
 10
0.0
 20
0.0
 30
0.0
210
0.0
220
0.0
230
1.0
  2
SOLID
 70
     1
 71
     1
 91
        1
 92
        7
 72
     0
 73
     1
 93
        4
 10
4.07840257911235
 20
8.142249681904376
 10
3.453402579112349
 20
8.142249681904372
 10
3.453402579112349
 20
7.882249681904372
 10
4.078402579112352
 20
7.882249681904376
 97
        4
330
C90E73C08D241261
330
207A5C5DED
330
207A5C5DEB
330
207A5C5DEC
 75
     0
 76
     1
 47
0.0034578382305586
 98
        1
 10
3.694671505635533
 20
8.037461296600433
450
        0
451
        0
460
0.0
461
0.0
452
        0
462
0.0
453
        0
470

  0
HATCH
  5
C90E73C08D2412FF
330
C90E73C08D241001
100
AcDbEntity
  8
THIN
100
AcDbHatch
 10
0.0
 20
0.0
 30
0.0
210
0.0
220
0.0
230
1.0
  2
SOLID
 70
     1
 71
     0
 91
        1
 92
        7
 72
     0
 73
     1
 93
        4
 10
4.07840257911235
 20
15.83474968190436
 10
3.453402579112349
 20
15.83474968190436
 10
3.453402579112349
 20
16.09474968190436
 10
4.078402579112352
 20
16.09474968190436
 97
        0
 75
     0
 76
     1
 47
0.0034578382305586
 98
        1
 10
3.694671505635533
 20
15.9395380672083
450
        0
451
        0
460
0.0
461
0.0
452
        0
462
0.0
453
        0
470

  0
LINE
  5
C90E73C08D241300
330
C90E73C08D241001
100
AcDbEntity
  8
THIN
100
AcDbLine
 10
3.453402579112349
 20
15.83474968190436
 30
0.0
 11
4.078402579112353
 21
15.83474968190436
 31
0.0
  0
LINE
  5
C90E73C08D241301
330
C90E73C08D241001
100
AcDbEntity
  8
THIN
100
AcDbLine
 10
3.453402579112349
 20
16.09474968190436
 30
0.0
 11
4.078402579112353
 21
16.09474968190436
 31
0.0
  0
LINE
  5
C90E73C08D241302
330
C90E73C08D241001
100
AcDbEntity
  8
THIN
100
AcDbLine
 10
3.453402579112349
 20
15.77474968190436
 30
0.0
 11
4.078402579112352
 21
15.77474968190436
 31
0.0
  0
HATCH
  5
C90E73C08D241303
330
C90E73C08D241001
100
AcDbEntity
  8
DIM
100
AcDbHatch
 10
0.0
 20
0.0
 30
0.0
210
0.0
220
0.0
230
1.0
  2
SOLID
 70
     1
 71
     0
 91
        1
 92
        7
 72
     0
 73
     1
 93
        4
 10
4.07840257911235
 20
15.77474968190436
 10
3.453402579112349
 20
15.77474968190436
 10
3.453402579112349
 20
15.83474968190436
 10
4.07840257911235
 20
15.83474968190436
 97
        0
 75
     0
 76
     1
 47
0.0034578382305586
 98
        1
 10
3.795005379836744
 20
15.81505588200474
450
        0
451
        0
460
0.0
461
0.0
452
        0
462
0.0
453
        0
470

  0
LINE
  5
C90E73C08D241304
330
C90E73C08D241001
100
AcDbEntity
  8
THIN
100
AcDbLine
 10
6.318107979649374
 20
2.345157614332801
 30
0.0
 11
6.318107979649374
 21
2.970157614332804
 31
0.0
  0
LINE
  5
C90E73C08D241305
330
C90E73C08D241001
100
AcDbEntity
  8
THIN
100
AcDbLine
 10
6.058107979649371
 20
2.345157614332801
 30
0.0
 11
6.058107979649378
 21
2.970157614332804
 31
0.0
  0
LINE
  5
C90E73C08D241306
330
C90E73C08D241001
100
AcDbEntity
  8
THIN
100
AcDbLine
 10
6.378107979649374
 20
2.345157614332801
 30
0.0
 11
6.378107979649374
 21
2.970157614332804
 31
0.0
  0
HATCH
  5
C90E73C08D241307
330
C90E73C08D241001
100
AcDbEntity
  8
THIN
100
AcDbHatch
 10
0.0
 20
0.0
 30
0.0
210
0.0
220
0.0
230
1.0
  2
SOLID
 70
     1
 71
     0
 91
        1
 92
        7
 72
     0
 73
     1
 93
        4
 10
6.318107979649376
 20
2.970157614332801
 10
6.318107979649372
 20
2.345157614332801
 10
6.058107979649371
 20
2.345157614332801
 10
6.058107979649378
 20
2.970157614332804
 97
        0
 75
     0
 76
     1
 47
0.0034578382305586
 98
        1
 10
6.213319594345433
 20
2.586426540855984
450
        0
451
        0
460
0.0
461
0.0
452
        0
462
0.0
453
        0
470

  0
HATCH
  5
C90E73C08D241308
330
C90E73C08D241001
100
AcDbEntity
  8
DIM
100
AcDbHatch
 10
0.0
 20
0.0
 30
0.0
210
0.0
220
0.0
230
1.0
  2
SOLID
 70
     1
 71
     0
 91
        1
 92
        7
 72
     0
 73
     1
 93
        4
 10
6.378107979649374
 20
2.970157614332801
 10
6.378107979649374
 20
2.345157614332801
 10
6.318107979649374
 20
2.345157614332801
 10
6.318107979649376
 20
2.970157614332801
 97
        0
 75
     0
 76
     1
 47
0.0034578382305586
 98
        1
 10
6.337801779548994
 20
2.686760415057196
450
        0
451
        0
460
0.0
461
0.0
452
        0
462
0.0
453
        0
470

  0
LINE
  5
C90E73C08D241309
330
C90E73C08D241001
100
AcDbEntity
  8
THIN
100
AcDbLine
 10
6.058107979649371
 20
2.345157614332801
 30
0.0
 11
6.058107979649378
 21
2.970157614332804
 31
0.0
  0
LINE
  5
C90E73C08D24130A
330
C90E73C08D241001
100
AcDbEntity
  8
THIN
100
AcDbLine
 10
11.51060797964936
 20
2.345157614332801
 30
0.0
 11
11.51060797964936
 21
2.970157614332804
 31
0.0
  0
LINE
  5
C90E73C08D24130B
330
C90E73C08D241001
100
AcDbEntity
  8
THIN
100
AcDbLine
 10
11.77060797964936
 20
2.345157614332801
 30
0.0
 11
11.77060797964936
 21
2.970157614332804
 31
0.0
  0
LINE
  5
C90E73C08D24130C
330
C90E73C08D241001
100
AcDbEntity
  8
THIN
100
AcDbLine
 10
11.45060797964936
 20
2.345157614332801
 30
0.0
 11
11.45060797964936
 21
2.970157614332804
 31
0.0
  0
HATCH
  5
C90E73C08D24130D
330
C90E73C08D241001
100
AcDbEntity
  8
THIN
100
AcDbHatch
 10
0.0
 20
0.0
 30
0.0
210
0.0
220
0.0
230
1.0
  2
SOLID
 70
     1
 71
     0
 91
        1
 92
        7
 72
     0
 73
     1
 93
        4
 10
11.51060797964936
 20
2.970157614332801
 10
11.51060797964936
 20
2.345157614332801
 10
11.77060797964936
 20
2.345157614332801
 10
11.77060797964936
 20
2.970157614332804
 97
        0
 75
     0
 76
     1
 47
0.0034578382305586
 98
        1
 10
11.6153963649533
 20
2.586426540855984
450
        0
451
        0
460
0.0
461
0.0
452
        0
462
0.0
453
        0
470

  0
HATCH
  5
C90E73C08D24130E
330
C90E73C08D241001
100
AcDbEntity
  8
DIM
100
AcDbHatch
 10
0.0
 20
0.0
 30
0.0
210
0.0
220
0.0
230
1.0
  2
SOLID
 70
     1
 71
     0
 91
        1
 92
        7
 72
     0
 73
     1
 93
        4
 10
11.45060797964936
 20
2.970157614332801
 10
11.45060797964936
 20
2.345157614332801
 10
11.51060797964936
 20
2.345157614332801
 10
11.51060797964936
 20
2.970157614332801
 97
        0
 75
     0
 76
     1
 47
0.0034578382305586
 98
        1
 10
11.49091417974974
 20
2.686760415057196
450
        0
451
        0
460
0.0
461
0.0
452
        0
462
0.0
453
        0
470

  0
LINE
  5
C90E73C08D24130F
330
C90E73C08D241001
100
AcDbEntity
  8
THIN
100
AcDbLine
 10
11.77060797964936
 20
2.345157614332801
 30
0.0
 11
11.77060797964936
 21
2.970157614332804
 31
0.0
  0
DIMENSION
  5
C90E73C08D241320
330
C90E73C08D241001
100
AcDbEntity
  8
THIN
100
AcDbDimension
280
     0
  2
*D11
 10
13.75815706711817
 20
3.521895381069137
 30
0.0
 11
13.75815706711817
 21
2.393395381069165
 31
0.0
 70
    32
 71
     5
 42
2.256999999999948
 73
     0
 74
     0
 75
     0
  3
Standard
100
AcDbAlignedDimension
 13
12.89935797964936
 23
1.264895381069189
 33
0.0
 14
13.52435797964935
 24
3.521895381069137
 34
0.0
 50
90.0
100
AcDbRotatedDimension
1001
ACAD
1000
DSTYLE
1002
{
1070
    40
1040
4.0
1070
    41
1040
0.045
1070
    42
1040
0.05
1070
    43
1040
0.3799999999999999
1070
    44
1040
0.05
1070
    45
1040
0.001
1070
   140
1040
0.045
1070
   141
1040
0.0
1070
   147
1040
0.045
1070
   174
1070
     1
1070
   179
1070
     2
1070
   276
1070
     2
1070
   277
1070
     4
1070
   279
1070
     2
1002
}
  0
MTEXT
  5
C90E73C08D241390
330
C90E73C08D241001
100
AcDbEntity
  8
DIM
100
AcDbMText
 10
10.65377476840797
 20
15.77159572643001
 30
0.0
 40
0.3
 41
6.184478219999999
 46
0.0
 71
     5
 72
     5
  1
Harvey Building Products Designer Shapes\PI-Fin Round Top Picture Window\P{\H0.8333x;(1/2 Scale)}
  7
TAHOMA
 73
     1
 44
1.0
  0
ENDSEC
  0
SECTION
  2
OBJECTS
  0
DICTIONARY
  5
C90E73C08D240FEF
330
0
100
AcDbDictionary
281
     1
  3
ACAD_CIP_PREVIOUS_PRODUCT_INFO
350
C90E73C08D241381
  3
ACAD_COLOR
350
C90E73C08D241362
  3
ACAD_DETAILVIEWSTYLE
350
C90E73C08D24137B
  3
ACAD_GROUP
350
C90E73C08D240FF0
  3
ACAD_LAYOUT
350
C90E73C08D240FFC
  3
ACAD_MATERIAL
350
C90E73C08D241330
  3
ACAD_MLEADERSTYLE
350
C90E73C08D241377
  3
ACAD_MLINESTYLE
350
C90E73C08D240FF9
  3
ACAD_PLOTSETTINGS
350
C90E73C08D240FFB
  3
ACAD_PLOTSTYLENAME
350
C90E73C08D240FF1
  3
ACAD_SCALELIST
350
C90E73C08D241365
  3
ACAD_SECTIONVIEWSTYLE
350
C90E73C08D241379
  3
ACAD_TABLESTYLE
350
C90E73C08D241363
  3
ACAD_VISUALSTYLE
350
C90E73C08D241349
  3
ACDB_RECOMPOSE_DATA
350
C90E73C08D2413CF
  3
AcDbVariableDictionary
350
C90E73C08D241264
  0
DICTIONARY
  5
C90E73C08D241385
330
C90E73C08D240FE5
100
AcDbDictionary
280
     1
281
     1
  3
ACAD_LAYERSTATES
360
C90E73C08D241386
  0
DICTIONARY
  5
C90E73C08D241394
330
C90E73C08D240FF3
100
AcDbDictionary
280
     1
281
     1
  3
ADSK_XREC_LAYER_RECONCILED
360
C90E73C08D241395
  0
DICTIONARY
  5
C90E73C08D241396
330
C90E73C08D241026
100
AcDbDictionary
280
     1
281
     1
  3
ADSK_XREC_LAYER_RECONCILED
360
C90E73C08D241397
  0
DICTIONARY
  5
C90E73C08D241398
330
C90E73C08D241027
100
AcDbDictionary
280
     1
281
     1
  3
ADSK_XREC_LAYER_RECONCILED
360
C90E73C08D241399
  0
DICTIONARY
  5
C90E73C08D24139A
330
C90E73C08D241028
100
AcDbDictionary
280
     1
281
     1
  3
ADSK_XREC_LAYER_RECONCILED
360
C90E73C08D24139B
  0
DICTIONARY
  5
C90E73C08D24139C
330
C90E73C08D241029
100
AcDbDictionary
280
     1
281
     1
  3
ADSK_XREC_LAYER_RECONCILED
360
C90E73C08D24139D
  0
DICTIONARY
  5
C90E73C08D24139E
330
C90E73C08D24102A
100
AcDbDictionary
280
     1
281
     1
  3
ADSK_XREC_LAYER_RECONCILED
360
C90E73C08D24139F
  0
DICTIONARY
  5
C90E73C08D2413A0
330
C90E73C08D24102B
100
AcDbDictionary
280
     1
281
     1
  3
ADSK_XREC_LAYER_RECONCILED
360
C90E73C08D2413A1
  0
DICTIONARY
  5
C90E73C08D2413A2
330
C90E73C08D24102C
100
AcDbDictionary
280
     1
281
     1
  3
ADSK_XREC_LAYER_RECONCILED
360
C90E73C08D2413A3
  0
DICTIONARY
  5
C90E73C08D2413A4
330
C90E73C08D24102D
100
AcDbDictionary
280
     1
281
     1
  3
ADSK_XREC_LAYER_RECONCILED
360
C90E73C08D2413A5
  0
DICTIONARY
  5
C90E73C08D2413A6
330
C90E73C08D24102E
100
AcDbDictionary
280
     1
281
     1
  3
ADSK_XREC_LAYER_RECONCILED
360
C90E73C08D2413A7
  0
DICTIONARY
  5
C90E73C08D2413A8
330
C90E73C08D24102F
100
AcDbDictionary
280
     1
281
     1
  3
ADSK_XREC_LAYER_RECONCILED
360
C90E73C08D2413A9
  0
DICTIONARY
  5
C90E73C08D2413AA
330
C90E73C08D241030
100
AcDbDictionary
280
     1
281
     1
  3
ADSK_XREC_LAYER_RECONCILED
360
C90E73C08D2413AB
  0
DICTIONARY
  5
C90E73C08D2413AC
330
C90E73C08D241031
100
AcDbDictionary
280
     1
281
     1
  3
ADSK_XREC_LAYER_RECONCILED
360
C90E73C08D2413AD
  0
DICTIONARY
  5
C90E73C08D2413AE
330
C90E73C08D241032
100
AcDbDictionary
280
     1
281
     1
  3
ADSK_XREC_LAYER_RECONCILED
360
C90E73C08D2413AF
  0
DICTIONARY
  5
C90E73C08D2413B0
330
C90E73C08D241033
100
AcDbDictionary
280
     1
281
     1
  3
ADSK_XREC_LAYER_RECONCILED
360
C90E73C08D2413B1
  0
DICTIONARY
  5
C90E73C08D2413B2
330
C90E73C08D241034
100
AcDbDictionary
280
     1
281
     1
  3
ADSK_XREC_LAYER_RECONCILED
360
C90E73C08D2413B3
  0
XRECORD
  5
C90E73C08D241381
102
{ACAD_REACTORS
330
C90E73C08D240FEF
102
}
330
C90E73C08D240FEF
100
AcDbXrecord
280
     1
300
ACDLT
300
2019
300

  0
DICTIONARY
  5
C90E73C08D241362
102
{ACAD_REACTORS
330
C90E73C08D240FEF
102
}
330
C90E73C08D240FEF
100
AcDbDictionary
281
     1
  0
DICTIONARY
  5
C90E73C08D24137B
102
{ACAD_REACTORS
330
C90E73C08D240FEF
102
}
330
C90E73C08D240FEF
100
AcDbDictionary
281
     1
  3
Imperial24
350
C90E73C08D24137C
  0
DICTIONARY
  5
C90E73C08D240FF0
102
{ACAD_REACTORS
330
C90E73C08D240FEF
102
}
330
C90E73C08D240FEF
100
AcDbDictionary
281
     1
  0
DICTIONARY
  5
C90E73C08D240FFC
102
{ACAD_REACTORS
330
C90E73C08D240FEF
102
}
330
C90E73C08D240FEF
100
AcDbDictionary
281
     1
  3
Layout1
350
C90E73C08D241000
  3
Model
350
C90E73C08D241004
  0
DICTIONARY
  5
C90E73C08D241330
102
{ACAD_REACTORS
330
C90E73C08D240FEF
102
}
330
C90E73C08D240FEF
100
AcDbDictionary
281
     1
  3
ByBlock
350
C90E73C08D241339
  3
ByLayer
350
C90E73C08D241331
  3
Global
350
C90E73C08D241341
  0
DICTIONARY
  5
C90E73C08D241377
102
{ACAD_REACTORS
330
C90E73C08D240FEF
102
}
330
C90E73C08D240FEF
100
AcDbDictionary
281
     1
  3
Standard
350
C90E73C08D241378
  0
DICTIONARY
  5
C90E73C08D240FF9
102
{ACAD_REACTORS
330
C90E73C08D240FEF
102
}
330
C90E73C08D240FEF
100
AcDbDictionary
281
     1
  3
EXPOSED
350
C90E73C08D241057
  3
Standard
350
C90E73C08D240FFA
  0
DICTIONARY
  5
C90E73C08D240FFB
102
{ACAD_REACTORS
330
C90E73C08D240FEF
102
}
330
C90E73C08D240FEF
100
AcDbDictionary
281
     1
  0
ACDBDICTIONARYWDFLT
  5
C90E73C08D240FF1
102
{ACAD_REACTORS
330
C90E73C08D240FEF
102
}
330
C90E73C08D240FEF
100
AcDbDictionary
281
     1
  3
Normal
350
C90E73C08D240FF2
100
AcDbDictionaryWithDefault
340
C90E73C08D240FF2
  0
DICTIONARY
  5
C90E73C08D241365
102
{ACAD_REACTORS
330
C90E73C08D240FEF
102
}
330
C90E73C08D240FEF
100
AcDbDictionary
281
     1
  3
A0
350
C90E73C08D241366
  3
A1
350
C90E73C08D241367
  3
A2
350
C90E73C08D241368
  3
A3
350
C90E73C08D241369
  3
A4
350
C90E73C08D24136A
  3
A5
350
C90E73C08D24136B
  3
A6
350
C90E73C08D24136C
  3
A7
350
C90E73C08D24136D
  3
A8
350
C90E73C08D24136E
  3
A9
350
C90E73C08D24136F
  3
B0
350
C90E73C08D241370
  3
B1
350
C90E73C08D241371
  3
B2
350
C90E73C08D241372
  3
B3
350
C90E73C08D241373
  3
B4
350
C90E73C08D241374
  3
B5
350
C90E73C08D241375
  3
B6
350
C90E73C08D241376
  0
DICTIONARY
  5
C90E73C08D241379
102
{ACAD_REACTORS
330
C90E73C08D240FEF
102
}
330
C90E73C08D240FEF
100
AcDbDictionary
281
     1
  3
Imperial24
350
C90E73C08D24137A
  0
DICTIONARY
  5
C90E73C08D241363
102
{ACAD_REACTORS
330
C90E73C08D240FEF
102
}
330
C90E73C08D240FEF
100
AcDbDictionary
281
     1
  3
Standard
350
C90E73C08D241364
  0
DICTIONARY
  5
C90E73C08D241349
102
{ACAD_REACTORS
330
C90E73C08D240FEF
102
}
330
C90E73C08D240FEF
100
AcDbDictionary
281
     1
  3
2dWireframe
350
C90E73C08D24134F
  3
Basic
350
C90E73C08D24134E
  3
Brighten
350
C90E73C08D241355
  3
ColorChange
350
C90E73C08D241359
  3
Conceptual
350
C90E73C08D241352
  3
Dim
350
C90E73C08D241354
  3
EdgeColorOff
350
C90E73C08D241361
  3
Facepattern
350
C90E73C08D241358
  3
Flat
350
C90E73C08D24134A
  3
FlatWithEdges
350
C90E73C08D24134B
  3
Gouraud
350
C90E73C08D24134C
  3
GouraudWithEdges
350
C90E73C08D24134D
  3
Hidden
350
C90E73C08D241351
  3
JitterOff
350
C90E73C08D24135F
  3
Linepattern
350
C90E73C08D241357
  3
OverhangOff
350
C90E73C08D241360
  3
Realistic
350
C90E73C08D241353
  3
Shaded
350
C90E73C08D24135E
  3
Shaded with edges
350
C90E73C08D24135D
  3
Shades of Gray
350
C90E73C08D24135A
  3
Sketchy
350
C90E73C08D24135B
  3
Thicken
350
C90E73C08D241356
  3
Wireframe
350
C90E73C08D241350
  3
X-Ray
350
C90E73C08D24135C
  0
XRECORD
  5
C90E73C08D2413CF
102
{ACAD_REACTORS
330
C90E73C08D240FEF
102
}
330
C90E73C08D240FEF
100
AcDbXrecord
280
     1
 90
        1
330
C90E73C08D2410D2
330
C90E73C08D24114C
330
C90E73C08D24116E
330
C90E73C08D2411C6
330
C90E73C08D241320
330
C90E73C08D241364
  0
DICTIONARY
  5
C90E73C08D241264
102
{ACAD_REACTORS
330
C90E73C08D240FEF
102
}
330
C90E73C08D240FEF
100
AcDbDictionary
281
     1
  3
CANNOSCALE
350
C90E73C08D2413C1
  3
CMLEADERSTYLE
350
C90E73C08D2413BD
  3
CTABLESTYLE
350
C90E73C08D2413BC
  3
CVIEWDETAILSTYLE
350
C90E73C08D2413BE
  3
CVIEWSECTIONSTYLE
350
C90E73C08D2413BF
  3
LAYEREVAL
350
C90E73C08D2413C3
  3
LAYERNOTIFY
350
C90E73C08D2413C4
  3
LIGHTINGUNITS
350
C90E73C08D2413C2
  3
MSLTSCALE
350
C90E73C08D2413C0
  3
SORTENTS
350
C90E73C08D241265
  0
DICTIONARY
  5
C90E73C08D241386
102
{ACAD_REACTORS
330
C90E73C08D241385
102
}
330
C90E73C08D241385
100
AcDbDictionary
281
     1
  0
XRECORD
  5
C90E73C08D241395
102
{ACAD_REACTORS
330
C90E73C08D241394
102
}
330
C90E73C08D241394
100
AcDbXrecord
280
     1
290
     1
  0
XRECORD
  5
C90E73C08D241397
102
{ACAD_REACTORS
330
C90E73C08D241396
102
}
330
C90E73C08D241396
100
AcDbXrecord
280
     1
290
     1
  0
XRECORD
  5
C90E73C08D241399
102
{ACAD_REACTORS
330
C90E73C08D241398
102
}
330
C90E73C08D241398
100
AcDbXrecord
280
     1
290
     1
  0
XRECORD
  5
C90E73C08D24139B
102
{ACAD_REACTORS
330
C90E73C08D24139A
102
}
330
C90E73C08D24139A
100
AcDbXrecord
280
     1
290
     1
  0
XRECORD
  5
C90E73C08D24139D
102
{ACAD_REACTORS
330
C90E73C08D24139C
102
}
330
C90E73C08D24139C
100
AcDbXrecord
280
     1
290
     1
  0
XRECORD
  5
C90E73C08D24139F
102
{ACAD_REACTORS
330
C90E73C08D24139E
102
}
330
C90E73C08D24139E
100
AcDbXrecord
280
     1
290
     1
  0
XRECORD
  5
C90E73C08D2413A1
102
{ACAD_REACTORS
330
C90E73C08D2413A0
102
}
330
C90E73C08D2413A0
100
AcDbXrecord
280
     1
290
     1
  0
XRECORD
  5
C90E73C08D2413A3
102
{ACAD_REACTORS
330
C90E73C08D2413A2
102
}
330
C90E73C08D2413A2
100
AcDbXrecord
280
     1
290
     1
  0
XRECORD
  5
C90E73C08D2413A5
102
{ACAD_REACTORS
330
C90E73C08D2413A4
102
}
330
C90E73C08D2413A4
100
AcDbXrecord
280
     1
290
     1
  0
XRECORD
  5
C90E73C08D2413A7
102
{ACAD_REACTORS
330
C90E73C08D2413A6
102
}
330
C90E73C08D2413A6
100
AcDbXrecord
280
     1
290
     1
  0
XRECORD
  5
C90E73C08D2413A9
102
{ACAD_REACTORS
330
C90E73C08D2413A8
102
}
330
C90E73C08D2413A8
100
AcDbXrecord
280
     1
290
     1
  0
XRECORD
  5
C90E73C08D2413AB
102
{ACAD_REACTORS
330
C90E73C08D2413AA
102
}
330
C90E73C08D2413AA
100
AcDbXrecord
280
     1
290
     1
  0
XRECORD
  5
C90E73C08D2413AD
102
{ACAD_REACTORS
330
C90E73C08D2413AC
102
}
330
C90E73C08D2413AC
100
AcDbXrecord
280
     1
290
     1
  0
XRECORD
  5
C90E73C08D2413AF
102
{ACAD_REACTORS
330
C90E73C08D2413AE
102
}
330
C90E73C08D2413AE
100
AcDbXrecord
280
     1
290
     1
  0
XRECORD
  5
C90E73C08D2413B1
102
{ACAD_REACTORS
330
C90E73C08D2413B0
102
}
330
C90E73C08D2413B0
100
AcDbXrecord
280
     1
290
     1
  0
XRECORD
  5
C90E73C08D2413B3
102
{ACAD_REACTORS
330
C90E73C08D2413B2
102
}
330
C90E73C08D2413B2
100
AcDbXrecord
280
     1
290
     1
  0
ACDBDETAILVIEWSTYLE
  5
C90E73C08D24137C
102
{ACAD_REACTORS
330
C90E73C08D24137B
102
}
330
C90E73C08D24137B
100
AcDbModelDocViewStyle
 70
     0
  3
Imperial24
290
     1
300
Imperial24
 90
        0
100
AcDbDetailViewStyle
 70
     0
 71
     0
 90
        3
 71
     1
340
C90E73C08D240FF4
 62
   256
 40
0.24
340
0
 62
   256
 40
0.24
300

 40
0.36
280
     3
 71
     2
340
C90E73C08D240FF8
 90
       25
 62
   256
 71
     3
340
C90E73C08D240FF4
 62
   256
 40
0.24
 90
        1
 40
0.75
 90
        1
300
%<\AcVar ViewType \f "%tc1">% %<\AcVar ViewDetailId>%\PSCALE %<\AcVar ViewScale \f "%sn">%
 71
     4
340
C90E73C08D240FF8
 90
       25
 62
   256
340
C90E73C08D240FF8
 90
       25
 62
   256
280
     0
  0
LAYOUT
  5
C90E73C08D241000
102
{ACAD_REACTORS
330
C90E73C08D240FFC
102
}
330
C90E73C08D240FFC
100
AcDbPlotSettings
  1

  2
C:\Program Files\ACAD2000\plotters\LaserJet 4V.pc3
  4

  6

 40
0.0
 41
0.0
 42
0.0
 43
0.0
 44
0.0
 45
0.0
 46
0.0
 47
0.0
 48
0.0
 49
0.0
140
0.0
141
0.0
142
1.0
143
1.0
 70
   688
 72
     0
 73
     0
 74
     5
  7
Harvey Std Plot Style.ctb
 75
    16
147
1.0
 76
     0
 77
     2
 78
   300
148
0.0
149
0.0
100
AcDbLayout
  1
Layout1
 70
     0
 71
     1
 10
0.0
 20
0.0
 11
12.0
 21
9.0
 12
0.0
 22
0.0
 32
0.0
 14
1.000000000000000E+20
 24
1.000000000000000E+20
 34
1.000000000000000E+20
 15
-1.000000000000000E+20
 25
-1.000000000000000E+20
 35
-1.000000000000000E+20
146
0.0
 13
0.0
 23
0.0
 33
0.0
 16
1.0
 26
0.0
 36
0.0
 17
0.0
 27
1.0
 37
0.0
 76
     0
330
C90E73C08D240FFD
  0
LAYOUT
  5
C90E73C08D241004
102
{ACAD_REACTORS
330
C90E73C08D240FFC
102
}
330
C90E73C08D240FFC
100
AcDbPlotSettings
  1

  2
LaserJet 4V.pc3
  4
ANSI_B_(11.00_x_17.00_Inches)
  6
A
 40
5.027082920074462
 41
5.027082920074462
 42
9.26043701171875
 43
5.027069091796875
 44
279.3999938964844
 45
431.7999877929687
 46
0.0
 47
44.704
 48
-0.0056512370320974
 49
-0.3833980371725261
140
15.48858910402249
141
19.03910464688798
142
1.0
143
1.484478262291052
 70
 11956
 72
     0
 73
     0
 74
     4
  7
Harvey Std Plot Style.ctb
 75
     0
147
0.673637348152651
 76
     0
 77
     2
 78
   300
148
0.1435414206152728
149
9.738310144182161
100
AcDbLayout
  1
Model
 70
     1
 71
     0
 10
0.0
 20
0.0
 11
12.0
 21
9.0
 12
0.0
 22
0.0
 32
0.0
 14
0.0
 24
0.0
 34
0.0
 15
0.0
 25
0.0
 35
0.0
146
0.0
 13
0.0
 23
0.0
 33
0.0
 16
1.0
 26
0.0
 36
0.0
 17
0.0
 27
1.0
 37
0.0
 76
     0
330
C90E73C08D241001
331
C90E73C08D24132E
  0
MATERIAL
  5
C90E73C08D241339
102
{ACAD_XDICTIONARY
360
C90E73C08D24133A
102
}
102
{ACAD_REACTORS
330
C90E73C08D241330
102
}
330
C90E73C08D241330
100
AcDbMaterial
  1
ByBlock
 72
     0
 43
0.0208333333333333
 43
0.0
 43
0.0
 43
0.0
 43
0.0
 43
0.0208333333333333
 43
0.0
 43
0.0
 43
0.0
 43
0.0
 43
1.0
 43
0.0
 43
0.0
 43
0.0
 43
0.0
 43
1.0
 77
     0
 47
0.0208333333333333
 47
0.0
 47
0.0
 47
0.0
 47
0.0
 47
0.0208333333333333
 47
0.0
 47
0.0
 47
0.0
 47
0.0
 47
1.0
 47
0.0
 47
0.0
 47
0.0
 47
0.0
 47
1.0
171
     0
 49
0.0208333333333333
 49
0.0
 49
0.0
 49
0.0
 49
0.0
 49
0.0208333333333333
 49
0.0
 49
0.0
 49
0.0
 49
0.0
 49
1.0
 49
0.0
 49
0.0
 49
0.0
 49
0.0
 49
1.0
175
     0
142
0.0208333333333333
142
0.0
142
0.0
142
0.0
142
0.0
142
0.0208333333333333
142
0.0
142
0.0
142
0.0
142
0.0
142
1.0
142
0.0
142
0.0
142
0.0
142
0.0
142
1.0
179
     0
144
0.0208333333333333
144
0.0
144
0.0
144
0.0
144
0.0
144
0.0208333333333333
144
0.0
144
0.0
144
0.0
144
0.0
144
1.0
144
0.0
144
0.0
144
0.0
144
0.0
144
1.0
147
0.0208333333333333
147
0.0
147
0.0
147
0.0
147
0.0
147
0.0208333333333333
147
0.0
147
0.0
147
0.0
147
0.0
147
1.0
147
0.0
147
0.0
147
0.0
147
0.0
147
1.0
  0
MATERIAL
  5
C90E73C08D241331
102
{ACAD_XDICTIONARY
360
C90E73C08D241332
102
}
102
{ACAD_REACTORS
330
C90E73C08D241330
102
}
330
C90E73C08D241330
100
AcDbMaterial
  1
ByLayer
 72
     0
 43
0.0208333333333333
 43
0.0
 43
0.0
 43
0.0
 43
0.0
 43
0.0208333333333333
 43
0.0
 43
0.0
 43
0.0
 43
0.0
 43
1.0
 43
0.0
 43
0.0
 43
0.0
 43
0.0
 43
1.0
 77
     0
 47
0.0208333333333333
 47
0.0
 47
0.0
 47
0.0
 47
0.0
 47
0.0208333333333333
 47
0.0
 47
0.0
 47
0.0
 47
0.0
 47
1.0
 47
0.0
 47
0.0
 47
0.0
 47
0.0
 47
1.0
171
     0
 49
0.0208333333333333
 49
0.0
 49
0.0
 49
0.0
 49
0.0
 49
0.0208333333333333
 49
0.0
 49
0.0
 49
0.0
 49
0.0
 49
1.0
 49
0.0
 49
0.0
 49
0.0
 49
0.0
 49
1.0
175
     0
142
0.0208333333333333
142
0.0
142
0.0
142
0.0
142
0.0
142
0.0208333333333333
142
0.0
142
0.0
142
0.0
142
0.0
142
1.0
142
0.0
142
0.0
142
0.0
142
0.0
142
1.0
179
     0
144
0.0208333333333333
144
0.0
144
0.0
144
0.0
144
0.0
144
0.0208333333333333
144
0.0
144
0.0
144
0.0
144
0.0
144
1.0
144
0.0
144
0.0
144
0.0
144
0.0
144
1.0
147
0.0208333333333333
147
0.0
147
0.0
147
0.0
147
0.0
147
0.0208333333333333
147
0.0
147
0.0
147
0.0
147
0.0
147
1.0
147
0.0
147
0.0
147
0.0
147
0.0
147
1.0
  0
MATERIAL
  5
C90E73C08D241341
102
{ACAD_XDICTIONARY
360
C90E73C08D241342
102
}
102
{ACAD_REACTORS
330
C90E73C08D241330
102
}
330
C90E73C08D241330
100
AcDbMaterial
  1
Global
 72
     0
 43
0.0208333333333333
 43
0.0
 43
0.0
 43
0.0
 43
0.0
 43
0.0208333333333333
 43
0.0
 43
0.0
 43
0.0
 43
0.0
 43
1.0
 43
0.0
 43
0.0
 43
0.0
 43
0.0
 43
1.0
 77
     0
 47
0.0208333333333333
 47
0.0
 47
0.0
 47
0.0
 47
0.0
 47
0.0208333333333333
 47
0.0
 47
0.0
 47
0.0
 47
0.0
 47
1.0
 47
0.0
 47
0.0
 47
0.0
 47
0.0
 47
1.0
171
     0
 49
0.0208333333333333
 49
0.0
 49
0.0
 49
0.0
 49
0.0
 49
0.0208333333333333
 49
0.0
 49
0.0
 49
0.0
 49
0.0
 49
1.0
 49
0.0
 49
0.0
 49
0.0
 49
0.0
 49
1.0
175
     0
142
0.0208333333333333
142
0.0
142
0.0
142
0.0
142
0.0
142
0.0208333333333333
142
0.0
142
0.0
142
0.0
142
0.0
142
1.0
142
0.0
142
0.0
142
0.0
142
0.0
142
1.0
179
     0
144
0.0208333333333333
144
0.0
144
0.0
144
0.0
144
0.0
144
0.0208333333333333
144
0.0
144
0.0
144
0.0
144
0.0
144
1.0
144
0.0
144
0.0
144
0.0
144
0.0
144
1.0
147
0.0208333333333333
147
0.0
147
0.0
147
0.0
147
0.0
147
0.0208333333333333
147
0.0
147
0.0
147
0.0
147
0.0
147
1.0
147
0.0
147
0.0
147
0.0
147
0.0
147
1.0
  0
MLEADERSTYLE
  5
C90E73C08D241378
102
{ACAD_REACTORS
330
C90E73C08D241377
102
}
330
C90E73C08D241377
100
AcDbMLeaderStyle
179
     2
170
     2
171
     1
172
     0
 90
        2
 40
0.0
 41
0.0
173
     1
 91
-1056964608
340
C90E73C08D240FF6
 92
       -2
290
     1
 42
0.09
291
     1
 43
0.36
  3
Standard
 44
0.18
300

342
C90E73C08D240FF4
174
     1
178
     6
175
     1
176
     0
 93
-1056964608
 45
0.18
292
     0
297
     0
 46
0.18
 94
-1056964608
 47
1.0
 49
1.0
140
1.0
293
     1
141
0.0
294
     1
177
     0
142
1.0
295
     1
296
     0
143
0.125
271
     0
272
     9
273
     9
298
     1
  0
MLINESTYLE
  5
C90E73C08D241057
102
{ACAD_REACTORS
330
C90E73C08D240FF9
102
}
330
C90E73C08D240FF9
100
AcDbMlineStyle
  2
EXPOSED
 70
     0
  3

 62
     0
 51
90.0
 52
90.0
 71
     2
 49
0.01
 62
   256
  6
DOT2
 49
-0.01
 62
   256
  6
DOT2
  0
MLINESTYLE
  5
C90E73C08D240FFA
102
{ACAD_REACTORS
330
C90E73C08D240FF9
102
}
330
C90E73C08D240FF9
100
AcDbMlineStyle
  2
STANDARD
 70
     0
  3

 62
   256
 51
90.0
 52
90.0
 71
     2
 49
0.5
 62
   256
  6
BYLAYER
 49
-0.5
 62
   256
  6
BYLAYER
  0
ACDBPLACEHOLDER
  5
C90E73C08D240FF2
102
{ACAD_REACTORS
330
C90E73C08D240FF1
102
}
330
C90E73C08D240FF1
  0
SCALE
  5
C90E73C08D241366
102
{ACAD_REACTORS
330
C90E73C08D241365
102
}
330
C90E73C08D241365
100
AcDbScale
 70
     0
300
1:1
140
1.0
141
1.0
290
     1
  0
SCALE
  5
C90E73C08D241367
102
{ACAD_REACTORS
330
C90E73C08D241365
102
}
330
C90E73C08D241365
100
AcDbScale
 70
     0
300
1/128" = 1'-0"
140
0.0078125
141
12.0
290
     0
  0
SCALE
  5
C90E73C08D241368
102
{ACAD_REACTORS
330
C90E73C08D241365
102
}
330
C90E73C08D241365
100
AcDbScale
 70
     0
300
1/64" = 1'-0"
140
0.015625
141
12.0
290
     0
  0
SCALE
  5
C90E73C08D241369
102
{ACAD_REACTORS
330
C90E73C08D241365
102
}
330
C90E73C08D241365
100
AcDbScale
 70
     0
300
1/32" = 1'-0"
140
0.03125
141
12.0
290
     0
  0
SCALE
  5
C90E73C08D24136A
102
{ACAD_REACTORS
330
C90E73C08D241365
102
}
330
C90E73C08D241365
100
AcDbScale
 70
     0
300
1/16" = 1'-0"
140
0.0625
141
12.0
290
     0
  0
SCALE
  5
C90E73C08D24136B
102
{ACAD_REACTORS
330
C90E73C08D241365
102
}
330
C90E73C08D241365
100
AcDbScale
 70
     0
300
3/32" = 1'-0"
140
0.09375
141
12.0
290
     0
  0
SCALE
  5
C90E73C08D24136C
102
{ACAD_REACTORS
330
C90E73C08D241365
102
}
330
C90E73C08D241365
100
AcDbScale
 70
     0
300
1/8" = 1'-0"
140
0.125
141
12.0
290
     0
  0
SCALE
  5
C90E73C08D24136D
102
{ACAD_REACTORS
330
C90E73C08D241365
102
}
330
C90E73C08D241365
100
AcDbScale
 70
     0
300
3/16" = 1'-0"
140
0.1875
141
12.0
290
     0
  0
SCALE
  5
C90E73C08D24136E
102
{ACAD_REACTORS
330
C90E73C08D241365
102
}
330
C90E73C08D241365
100
AcDbScale
 70
     0
300
1/4" = 1'-0"
140
0.25
141
12.0
290
     0
  0
SCALE
  5
C90E73C08D24136F
102
{ACAD_REACTORS
330
C90E73C08D241365
102
}
330
C90E73C08D241365
100
AcDbScale
 70
     0
300
3/8" = 1'-0"
140
0.375
141
12.0
290
     0
  0
SCALE
  5
C90E73C08D241370
102
{ACAD_REACTORS
330
C90E73C08D241365
102
}
330
C90E73C08D241365
100
AcDbScale
 70
     0
300
1/2" = 1'-0"
140
0.5
141
12.0
290
     0
  0
SCALE
  5
C90E73C08D241371
102
{ACAD_REACTORS
330
C90E73C08D241365
102
}
330
C90E73C08D241365
100
AcDbScale
 70
     0
300
3/4" = 1'-0"
140
0.75
141
12.0
290
     0
  0
SCALE
  5
C90E73C08D241372
102
{ACAD_REACTORS
330
C90E73C08D241365
102
}
330
C90E73C08D241365
100
AcDbScale
 70
     0
300
1" = 1'-0"
140
1.0
141
12.0
290
     0
  0
SCALE
  5
C90E73C08D241373
102
{ACAD_REACTORS
330
C90E73C08D241365
102
}
330
C90E73C08D241365
100
AcDbScale
 70
     0
300
1-1/2" = 1'-0"
140
1.5
141
12.0
290
     0
  0
SCALE
  5
C90E73C08D241374
102
{ACAD_REACTORS
330
C90E73C08D241365
102
}
330
C90E73C08D241365
100
AcDbScale
 70
     0
300
3" = 1'-0"
140
3.0
141
12.0
290
     0
  0
SCALE
  5
C90E73C08D241375
102
{ACAD_REACTORS
330
C90E73C08D241365
102
}
330
C90E73C08D241365
100
AcDbScale
 70
     0
300
6" = 1'-0"
140
6.0
141
12.0
290
     0
  0
SCALE
  5
C90E73C08D241376
102
{ACAD_REACTORS
330
C90E73C08D241365
102
}
330
C90E73C08D241365
100
AcDbScale
 70
     0
300
1'-0" = 1'-0"
140
12.0
141
12.0
290
     0
  0
ACDBSECTIONVIEWSTYLE
  5
C90E73C08D24137A
102
{ACAD_REACTORS
330
C90E73C08D241379
102
}
330
C90E73C08D241379
100
AcDbModelDocViewStyle
 70
     0
  3
Imperial24
290
     1
300
Imperial24
 90
        0
100
AcDbSectionViewStyle
 70
     0
 71
     0
 90
       78
 71
     1
340
C90E73C08D240FF4
 62
   256
 40
0.24
340
0
340
0
 62
   256
 40
0.24
300
I, O, Q, S, X, Z
 40
0.48
 90
        3
 40
0.18
 90
        1
 71
     2
340
C90E73C08D240FF8
 90
       25
 62
   256
340
C90E73C08D240FF8
 90
       50
 62
   256
 40
0.24
 40
0.0
 40
0.24
 71
     3
340
C90E73C08D240FF4
 62
   256
 40
0.24
 90
        1
 40
0.75
 90
        1
300
%<\AcVar ViewType \f "%tc1">% %<\AcVar ViewSectionStartId>%-%<\AcVar ViewSectionEndId>%\PSCALE %<\AcVar ViewScale \f "%sn">%
 71
     4
 62
   256
 62
   257
300
ANSI31
 40
1.0
 90
        0
290
     0
290
     0
 90
        6
 40
0.0
 40
1.570796326794896
 40
0.2617993877991494
 40
1.308996938995747
 40
-0.2617993877991494
 40
1.832595714594046
  0
TABLESTYLE
  5
C90E73C08D241364
102
{ACAD_XDICTIONARY
360
C90E73C08D2413CD
102
}
102
{ACAD_REACTORS
330
C90E73C08D241363
102
}
330
C90E73C08D241363
100
AcDbTableStyle
280
     0
  3
Standard
 70
     0
 71
     0
 40
0.06
 41
0.06
280
     0
281
     0
  7
STANDARD
140
0.18
170
     2
 62
     0
 63
     7
283
     0
 90
      512
 91
        0
  1

274
    -2
284
     1
 64
     0
275
    -2
285
     1
 65
     0
276
    -2
286
     1
 66
     0
277
    -2
287
     1
 67
     0
278
    -2
288
     1
 68
     0
279
    -2
289
     1
 69
     0
  7
STANDARD
140
0.25
170
     5
 62
     0
 63
     7
283
     0
 90
      512
 91
        0
  1

274
    -2
284
     1
 64
     0
275
    -2
285
     1
 65
     0
276
    -2
286
     1
 66
     0
277
    -2
287
     1
 67
     0
278
    -2
288
     1
 68
     0
279
    -2
289
     1
 69
     0
  7
STANDARD
140
0.18
170
     5
 62
     0
 63
     7
283
     0
 90
      512
 91
        0
  1

274
    -2
284
     1
 64
     0
275
    -2
285
     1
 65
     0
276
    -2
286
     1
 66
     0
277
    -2
287
     1
 67
     0
278
    -2
288
     1
 68
     0
279
    -2
289
     1
 69
     0
  0
VISUALSTYLE
  5
C90E73C08D24134F
102
{ACAD_REACTORS
330
C90E73C08D241349
102
}
330
C90E73C08D241349
100
AcDbVisualStyle
  2
2dWireframe
 70
     4
177
     3
291
     0
 70
    58
 90
        0
176
     1
 90
        2
176
     1
 90
        0
176
     1
 90
        0
176
     1
 40
0.6
176
     1
 40
30.0
176
     1
 62
     7
420
 16777215
176
     1
 90
        1
176
     1
 90
        4
176
     1
 62
     7
176
     1
 62
   257
176
     1
 90
        1
176
     1
 90
        1
176
     1
 40
1.0
176
     1
 90
        0
176
     1
 62
   257
176
     1
 40
1.0
176
     1
 90
        1
176
     1
 90
        6
176
     1
 90
        2
176
     1
 62
     7
176
     1
 90
        5
176
     1
 90
        0
176
     1
 90
        0
176
     1
290
     0
176
     1
 90
        1
176
     1
 40
0.0
176
     1
 90
        0
176
     1
290
     1
176
     1
290
     1
176
     1
290
     0
176
     1
290
     0
176
     1
290
     0
176
     1
290
     0
176
     1
290
     0
176
     1
290
     0
176
     1
290
     0
176
     1
 90
       50
176
     1
 40
0.0
176
     1
 40
1.0
176
     1
 90
        0
176
     1
 62
    18
420
        0
176
     1
 90
       50
176
     1
 90
        3
176
     1
 62
     5
420
      255
176
     1
290
     0
176
     1
 90
       50
176
     1
 90
       50
176
     1
 90
       50
176
     1
290
     0
176
     1
 90
       50
176
     1
 62
   256
176
     0
 40
1.0
176
     0
 90
        2
176
     1
  1
strokes_ogs.tif
176
     1
290
     0
176
     1
 40
1.0
176
     1
 40
1.0
176
     1
  0
VISUALSTYLE
  5
C90E73C08D24134E
102
{ACAD_REACTORS
330
C90E73C08D241349
102
}
330
C90E73C08D241349
100
AcDbVisualStyle
  2
Basic
 70
     7
177
     3
291
     1
 70
    58
 90
        1
176
     1
 90
        0
176
     1
 90
        1
176
     1
 90
        0
176
     1
 40
0.6
176
     1
 40
30.0
176
     1
 62
     7
420
 16777215
176
     1
 90
        0
176
     1
 90
        4
176
     1
 62
     7
176
     1
 62
   257
176
     1
 90
        1
176
     1
 90
        1
176
     1
 40
1.0
176
     1
 90
        8
176
     1
 62
     7
176
     1
 40
1.0
176
     1
 90
        1
176
     1
 90
        6
176
     1
 90
        2
176
     1
 62
     7
176
     1
 90
        5
176
     1
 90
        0
176
     1
 90
        0
176
     1
290
     0
176
     1
 90
        1
176
     1
 40
0.0
176
     1
 90
        0
176
     1
290
     0
176
     1
290
     1
176
     1
290
     1
176
     1
290
     0
176
     1
290
     0
176
     1
290
     0
176
     1
290
     0
176
     1
290
     0
176
     1
290
     0
176
     1
 90
       50
176
     1
 40
0.0
176
     1
 40
1.0
176
     1
 90
        0
176
     1
 62
    18
420
        0
176
     1
 90
       50
176
     1
 90
        3
176
     1
 62
     5
420
      255
176
     1
290
     0
176
     1
 90
       50
176
     1
 90
       50
176
     1
 90
       50
176
     1
290
     0
176
     1
 90
       50
176
     1
 62
   256
176
     0
 40
1.0
176
     0
 90
        2
176
     1
  1
strokes_ogs.tif
176
     1
290
     0
176
     1
 40
1.0
176
     1
 40
1.0
176
     1
  0
VISUALSTYLE
  5
C90E73C08D241355
102
{ACAD_REACTORS
330
C90E73C08D241349
102
}
330
C90E73C08D241349
100
AcDbVisualStyle
  2
Brighten
 70
    12
177
     3
291
     1
 70
    58
 90
        2
176
     1
 90
        2
176
     1
 90
        0
176
     1
 90
        0
176
     1
 40
0.6
176
     1
 40
30.0
176
     1
 62
     7
420
 16777215
176
     1
 90
        1
176
     1
 90
        4
176
     1
 62
     7
176
     1
 62
   257
176
     1
 90
        1
176
     1
 90
        1
176
     1
 40
1.0
176
     1
 90
        8
176
     1
 62
     7
176
     1
 40
1.0
176
     1
 90
        1
176
     1
 90
        6
176
     1
 90
        2
176
     1
 62
     7
176
     1
 90
        5
176
     1
 90
        0
176
     1
 90
        0
176
     1
290
     0
176
     1
 90
        1
176
     1
 40
50.0
176
     1
 90
        0
176
     1
290
     0
176
     1
290
     1
176
     1
290
     1
176
     1
290
     0
176
     1
290
     0
176
     1
290
     0
176
     1
290
     0
176
     1
290
     0
176
     1
290
     0
176
     1
 90
       50
176
     1
 40
0.0
176
     1
 40
1.0
176
     1
 90
        0
176
     1
 62
    18
420
        0
176
     1
 90
       50
176
     1
 90
        3
176
     1
 62
     5
420
      255
176
     1
290
     0
176
     1
 90
       50
176
     1
 90
       50
176
     1
 90
       50
176
     1
290
     0
176
     1
 90
       50
176
     1
 62
   256
176
     0
 40
1.0
176
     0
 90
        2
176
     1
  1
strokes_ogs.tif
176
     1
290
     0
176
     1
 40
1.0
176
     1
 40
1.0
176
     1
  0
VISUALSTYLE
  5
C90E73C08D241359
102
{ACAD_REACTORS
330
C90E73C08D241349
102
}
330
C90E73C08D241349
100
AcDbVisualStyle
  2
ColorChange
 70
    16
177
     3
291
     1
 70
    58
 90
        2
176
     1
 90
        2
176
     1
 90
        3
176
     1
 90
        0
176
     1
 40
0.6
176
     1
 40
30.0
176
     1
 62
     8
420
  8421504
176
     1
 90
        1
176
     1
 90
        4
176
     1
 62
     7
176
     1
 62
   257
176
     1
 90
        1
176
     1
 90
        1
176
     1
 40
1.0
176
     1
 90
        8
176
     1
 62
     8
420
  8421504
176
     1
 40
1.0
176
     1
 90
        1
176
     1
 90
        6
176
     1
 90
        2
176
     1
 62
     7
176
     1
 90
        5
176
     1
 90
        0
176
     1
 90
        0
176
     1
290
     0
176
     1
 90
        1
176
     1
 40
0.0
176
     1
 90
        0
176
     1
290
     0
176
     1
290
     1
176
     1
290
     1
176
     1
290
     0
176
     1
290
     0
176
     1
290
     0
176
     1
290
     0
176
     1
290
     0
176
     1
290
     0
176
     1
 90
       50
176
     1
 40
0.0
176
     1
 40
1.0
176
     1
 90
        0
176
     1
 62
    18
420
        0
176
     1
 90
       50
176
     1
 90
        3
176
     1
 62
     5
420
      255
176
     1
290
     0
176
     1
 90
       50
176
     1
 90
       50
176
     1
 90
       50
176
     1
290
     0
176
     1
 90
       50
176
     1
 62
   256
176
     0
 40
1.0
176
     0
 90
        2
176
     1
  1
strokes_ogs.tif
176
     1
290
     0
176
     1
 40
1.0
176
     1
 40
1.0
176
     1
  0
VISUALSTYLE
  5
C90E73C08D241352
102
{ACAD_REACTORS
330
C90E73C08D241349
102
}
330
C90E73C08D241349
100
AcDbVisualStyle
  2
Conceptual
 70
     9
177
     3
291
     0
 70
    58
 90
        3
176
     1
 90
        2
176
     1
 90
        0
176
     1
 90
        0
176
     1
 40
0.6
176
     1
 40
30.0
176
     1
 62
     7
420
 16777215
176
     1
 90
        2
176
     1
 90
        2
176
     1
 62
     7
176
     1
 62
   257
176
     1
 90
        1
176
     1
 90
        1
176
     1
 40
179.0
176
     1
 90
        8
176
     1
 62
     7
176
     1
 40
1.0
176
     1
 90
        1
176
     1
 90
        6
176
     1
 90
        2
176
     1
 62
     7
176
     1
 90
        3
176
     1
 90
        0
176
     1
 90
        0
176
     1
290
     0
176
     1
 90
        1
176
     1
 40
0.0
176
     1
 90
        0
176
     1
290
     0
176
     1
290
     1
176
     1
290
     1
176
     1
290
     0
176
     1
290
     0
176
     1
290
     0
176
     1
290
     0
176
     1
290
     0
176
     1
290
     0
176
     1
 90
       50
176
     1
 40
0.0
176
     1
 40
1.0
176
     1
 90
        0
176
     1
 62
    18
420
        0
176
     1
 90
       50
176
     1
 90
        3
176
     1
 62
     5
420
      255
176
     1
290
     0
176
     1
 90
       50
176
     1
 90
       50
176
     1
 90
       50
176
     1
290
     0
176
     1
 90
       50
176
     1
 62
   256
176
     0
 40
1.0
176
     0
 90
        2
176
     1
  1
strokes_ogs.tif
176
     1
290
     0
176
     1
 40
1.0
176
     1
 40
1.0
176
     1
  0
VISUALSTYLE
  5
C90E73C08D241354
102
{ACAD_REACTORS
330
C90E73C08D241349
102
}
330
C90E73C08D241349
100
AcDbVisualStyle
  2
Dim
 70
    11
177
     3
291
     1
 70
    58
 90
        2
176
     1
 90
        2
176
     1
 90
        0
176
     1
 90
        0
176
     1
 40
0.6
176
     1
 40
30.0
176
     1
 62
     7
420
 16777215
176
     1
 90
        1
176
     1
 90
        4
176
     1
 62
     7
176
     1
 62
   257
176
     1
 90
        1
176
     1
 90
        1
176
     1
 40
1.0
176
     1
 90
        8
176
     1
 62
     7
176
     1
 40
1.0
176
     1
 90
        1
176
     1
 90
        6
176
     1
 90
        2
176
     1
 62
     7
176
     1
 90
        5
176
     1
 90
        0
176
     1
 90
        0
176
     1
290
     0
176
     1
 90
        1
176
     1
 40
-50.0
176
     1
 90
        0
176
     1
290
     0
176
     1
290
     1
176
     1
290
     1
176
     1
290
     0
176
     1
290
     0
176
     1
290
     0
176
     1
290
     0
176
     1
290
     0
176
     1
290
     0
176
     1
 90
       50
176
     1
 40
0.0
176
     1
 40
1.0
176
     1
 90
        0
176
     1
 62
    18
420
        0
176
     1
 90
       50
176
     1
 90
        3
176
     1
 62
     5
420
      255
176
     1
290
     0
176
     1
 90
       50
176
     1
 90
       50
176
     1
 90
       50
176
     1
290
     0
176
     1
 90
       50
176
     1
 62
   256
176
     0
 40
1.0
176
     0
 90
        2
176
     1
  1
strokes_ogs.tif
176
     1
290
     0
176
     1
 40
1.0
176
     1
 40
1.0
176
     1
  0
VISUALSTYLE
  5
C90E73C08D241361
102
{ACAD_REACTORS
330
C90E73C08D241349
102
}
330
C90E73C08D241349
100
AcDbVisualStyle
  2
EdgeColorOff
 70
    22
177
     3
291
     1
 70
    58
 90
        2
176
     0
 90
        2
176
     0
 90
        0
176
     0
 90
        0
176
     0
 40
0.6
176
     0
 40
30.0
176
     0
 62
     7
420
 16777215
176
     0
 90
        1
176
     0
 90
        4
176
     0
 62
     7
176
     0
 62
   257
176
     0
 90
        1
176
     0
 90
        1
176
     0
 40
1.0
176
     0
 90
        8
176
     2
 62
     7
176
     0
 40
1.0
176
     0
 90
        1
176
     0
 90
        6
176
     0
 90
        2
176
     0
 62
     7
176
     0
 90
        5
176
     0
 90
        0
176
     0
 90
        0
176
     0
290
     0
176
     0
 90
        1
176
     0
 40
0.0
176
     0
 90
        0
176
     0
290
     0
176
     0
290
     1
176
     0
290
     1
176
     0
290
     0
176
     0
290
     0
176
     0
290
     0
176
     0
290
     0
176
     0
290
     0
176
     0
290
     0
176
     0
 90
       50
176
     0
 40
0.0
176
     0
 40
1.0
176
     0
 90
        0
176
     0
 62
    18
420
        0
176
     0
 90
       50
176
     0
 90
        3
176
     0
 62
     5
420
      255
176
     0
290
     0
176
     0
 90
       50
176
     0
 90
       50
176
     0
 90
       50
176
     0
290
     0
176
     0
 90
       50
176
     0
 62
   256
176
     0
 40
1.0
176
     0
 90
        2
176
     0
  1
strokes_ogs.tif
176
     0
290
     0
176
     0
 40
1.0
176
     0
 40
1.0
176
     0
  0
VISUALSTYLE
  5
C90E73C08D241358
102
{ACAD_REACTORS
330
C90E73C08D241349
102
}
330
C90E73C08D241349
100
AcDbVisualStyle
  2
Facepattern
 70
    15
177
     3
291
     1
 70
    58
 90
        2
176
     1
 90
        2
176
     1
 90
        0
176
     1
 90
        0
176
     1
 40
0.6
176
     1
 40
30.0
176
     1
 62
     7
420
 16777215
176
     1
 90
        1
176
     1
 90
        4
176
     1
 62
     7
176
     1
 62
   257
176
     1
 90
        1
176
     1
 90
        1
176
     1
 40
1.0
176
     1
 90
        8
176
     1
 62
     7
176
     1
 40
1.0
176
     1
 90
        1
176
     1
 90
        6
176
     1
 90
        2
176
     1
 62
     7
176
     1
 90
        5
176
     1
 90
        0
176
     1
 90
        0
176
     1
290
     0
176
     1
 90
        1
176
     1
 40
0.0
176
     1
 90
        0
176
     1
290
     0
176
     1
290
     1
176
     1
290
     1
176
     1
290
     0
176
     1
290
     0
176
     1
290
     0
176
     1
290
     0
176
     1
290
     0
176
     1
290
     0
176
     1
 90
       50
176
     1
 40
0.0
176
     1
 40
1.0
176
     1
 90
        0
176
     1
 62
    18
420
        0
176
     1
 90
       50
176
     1
 90
        3
176
     1
 62
     5
420
      255
176
     1
290
     0
176
     1
 90
       50
176
     1
 90
       50
176
     1
 90
       50
176
     1
290
     0
176
     1
 90
       50
176
     1
 62
   256
176
     0
 40
1.0
176
     0
 90
        2
176
     1
  1
strokes_ogs.tif
176
     1
290
     0
176
     1
 40
1.0
176
     1
 40
1.0
176
     1
  0
VISUALSTYLE
  5
C90E73C08D24134A
102
{ACAD_REACTORS
330
C90E73C08D241349
102
}
330
C90E73C08D241349
100
AcDbVisualStyle
  2
Flat
 70
     0
177
     3
291
     1
 70
    58
 90
        2
176
     1
 90
        1
176
     1
 90
        1
176
     1
 90
        2
176
     1
 40
0.6
176
     1
 40
30.0
176
     1
 62
     7
420
 16777215
176
     1
 90
        0
176
     1
 90
        0
176
     1
 62
     7
176
     1
 62
   257
176
     1
 90
        1
176
     1
 90
        1
176
     1
 40
1.0
176
     1
 90
        8
176
     1
 62
     7
176
     1
 40
1.0
176
     1
 90
        1
176
     1
 90
        6
176
     1
 90
        2
176
     1
 62
     7
176
     1
 90
        5
176
     1
 90
        0
176
     1
 90
        0
176
     1
290
     0
176
     1
 90
       13
176
     1
 40
0.0
176
     1
 90
        0
176
     1
290
     0
176
     1
290
     1
176
     1
290
     1
176
     1
290
     0
176
     1
290
     0
176
     1
290
     0
176
     1
290
     0
176
     1
290
     0
176
     1
290
     0
176
     1
 90
       50
176
     1
 40
0.0
176
     1
 40
1.0
176
     1
 90
        0
176
     1
 62
    18
420
        0
176
     1
 90
       50
176
     1
 90
        3
176
     1
 62
     5
420
      255
176
     1
290
     0
176
     1
 90
       50
176
     1
 90
       50
176
     1
 90
       50
176
     1
290
     0
176
     1
 90
       50
176
     1
 62
   256
176
     0
 40
1.0
176
     0
 90
        2
176
     1
  1
strokes_ogs.tif
176
     1
290
     0
176
     1
 40
1.0
176
     1
 40
1.0
176
     1
  0
VISUALSTYLE
  5
C90E73C08D24134B
102
{ACAD_REACTORS
330
C90E73C08D241349
102
}
330
C90E73C08D241349
100
AcDbVisualStyle
  2
FlatWithEdges
 70
     1
177
     3
291
     1
 70
    58
 90
        2
176
     1
 90
        1
176
     1
 90
        1
176
     1
 90
        2
176
     1
 40
0.6
176
     1
 40
30.0
176
     1
 62
     7
420
 16777215
176
     1
 90
        1
176
     1
 90
        0
176
     1
 62
     7
176
     1
 62
   257
176
     1
 90
        1
176
     1
 90
        1
176
     1
 40
1.0
176
     1
 90
        0
176
     1
 62
   257
176
     1
 40
1.0
176
     1
 90
        1
176
     1
 90
        6
176
     1
 90
        2
176
     1
 62
     7
176
     1
 90
        5
176
     1
 90
        0
176
     1
 90
        0
176
     1
290
     0
176
     1
 90
       13
176
     1
 40
0.0
176
     1
 90
        0
176
     1
290
     0
176
     1
290
     1
176
     1
290
     1
176
     1
290
     0
176
     1
290
     0
176
     1
290
     0
176
     1
290
     0
176
     1
290
     0
176
     1
290
     0
176
     1
 90
       50
176
     1
 40
0.0
176
     1
 40
1.0
176
     1
 90
        0
176
     1
 62
    18
420
        0
176
     1
 90
       50
176
     1
 90
        3
176
     1
 62
     5
420
      255
176
     1
290
     0
176
     1
 90
       50
176
     1
 90
       50
176
     1
 90
       50
176
     1
290
     0
176
     1
 90
       50
176
     1
 62
   256
176
     0
 40
1.0
176
     0
 90
        2
176
     1
  1
strokes_ogs.tif
176
     1
290
     0
176
     1
 40
1.0
176
     1
 40
1.0
176
     1
  0
VISUALSTYLE
  5
C90E73C08D24134C
102
{ACAD_REACTORS
330
C90E73C08D241349
102
}
330
C90E73C08D241349
100
AcDbVisualStyle
  2
Gouraud
 70
     2
177
     3
291
     1
 70
    58
 90
        2
176
     1
 90
        2
176
     1
 90
        1
176
     1
 90
        2
176
     1
 40
0.6
176
     1
 40
30.0
176
     1
 62
     7
420
 16777215
176
     1
 90
        0
176
     1
 90
        0
176
     1
 62
     7
176
     1
 62
   257
176
     1
 90
        1
176
     1
 90
        1
176
     1
 40
1.0
176
     1
 90
        0
176
     1
 62
     7
176
     1
 40
1.0
176
     1
 90
        1
176
     1
 90
        6
176
     1
 90
        2
176
     1
 62
     7
176
     1
 90
        5
176
     1
 90
        0
176
     1
 90
        0
176
     1
290
     0
176
     1
 90
       13
176
     1
 40
0.0
176
     1
 90
        0
176
     1
290
     0
176
     1
290
     1
176
     1
290
     1
176
     1
290
     0
176
     1
290
     0
176
     1
290
     0
176
     1
290
     0
176
     1
290
     0
176
     1
290
     0
176
     1
 90
       50
176
     1
 40
0.0
176
     1
 40
1.0
176
     1
 90
        0
176
     1
 62
    18
420
        0
176
     1
 90
       50
176
     1
 90
        3
176
     1
 62
     5
420
      255
176
     1
290
     0
176
     1
 90
       50
176
     1
 90
       50
176
     1
 90
       50
176
     1
290
     0
176
     1
 90
       50
176
     1
 62
   256
176
     0
 40
1.0
176
     0
 90
        2
176
     1
  1
strokes_ogs.tif
176
     1
290
     0
176
     1
 40
1.0
176
     1
 40
1.0
176
     1
  0
VISUALSTYLE
  5
C90E73C08D24134D
102
{ACAD_REACTORS
330
C90E73C08D241349
102
}
330
C90E73C08D241349
100
AcDbVisualStyle
  2
GouraudWithEdges
 70
     3
177
     3
291
     1
 70
    58
 90
        2
176
     1
 90
        2
176
     1
 90
        1
176
     1
 90
        2
176
     1
 40
0.6
176
     1
 40
30.0
176
     1
 62
     7
420
 16777215
176
     1
 90
        1
176
     1
 90
        0
176
     1
 62
     7
176
     1
 62
   257
176
     1
 90
        1
176
     1
 90
        1
176
     1
 40
1.0
176
     1
 90
        0
176
     1
 62
   257
176
     1
 40
1.0
176
     1
 90
        1
176
     1
 90
        6
176
     1
 90
        2
176
     1
 62
     7
176
     1
 90
        5
176
     1
 90
        0
176
     1
 90
        0
176
     1
290
     0
176
     1
 90
       13
176
     1
 40
0.0
176
     1
 90
        0
176
     1
290
     0
176
     1
290
     1
176
     1
290
     1
176
     1
290
     0
176
     1
290
     0
176
     1
290
     0
176
     1
290
     0
176
     1
290
     0
176
     1
290
     0
176
     1
 90
       50
176
     1
 40
0.0
176
     1
 40
1.0
176
     1
 90
        0
176
     1
 62
    18
420
        0
176
     1
 90
       50
176
     1
 90
        3
176
     1
 62
     5
420
      255
176
     1
290
     0
176
     1
 90
       50
176
     1
 90
       50
176
     1
 90
       50
176
     1
290
     0
176
     1
 90
       50
176
     1
 62
   256
176
     0
 40
1.0
176
     0
 90
        2
176
     1
  1
strokes_ogs.tif
176
     1
290
     0
176
     1
 40
1.0
176
     1
 40
1.0
176
     1
  0
VISUALSTYLE
  5
C90E73C08D241351
102
{ACAD_REACTORS
330
C90E73C08D241349
102
}
330
C90E73C08D241349
100
AcDbVisualStyle
  2
Hidden
 70
     6
177
     3
291
     0
 70
    58
 90
        1
176
     1
 90
        2
176
     1
 90
        2
176
     1
 90
        0
176
     1
 40
0.6
176
     1
 40
30.0
176
     1
 62
     7
420
 16777215
176
     1
 90
        2
176
     1
 90
        2
176
     1
 62
     7
176
     1
 62
   257
176
     1
 90
        2
176
     1
 90
        1
176
     1
 40
40.0
176
     1
 90
        0
176
     1
 62
   257
176
     1
 40
1.0
176
     1
 90
        1
176
     1
 90
        6
176
     1
 90
        2
176
     1
 62
     7
176
     1
 90
        3
176
     1
 90
        0
176
     1
 90
        0
176
     1
290
     0
176
     1
 90
        1
176
     1
 40
0.0
176
     1
 90
        0
176
     1
290
     0
176
     1
290
     1
176
     1
290
     1
176
     1
290
     0
176
     1
290
     0
176
     1
290
     0
176
     1
290
     0
176
     1
290
     0
176
     1
290
     0
176
     1
 90
       50
176
     1
 40
0.0
176
     1
 40
1.0
176
     1
 90
        0
176
     1
 62
    18
420
        0
176
     1
 90
       50
176
     1
 90
        3
176
     1
 62
     5
420
      255
176
     1
290
     0
176
     1
 90
       50
176
     1
 90
       50
176
     1
 90
       50
176
     1
290
     0
176
     1
 90
       50
176
     1
 62
   256
176
     0
 40
1.0
176
     0
 90
        2
176
     1
  1
strokes_ogs.tif
176
     1
290
     0
176
     1
 40
1.0
176
     1
 40
1.0
176
     1
  0
VISUALSTYLE
  5
C90E73C08D24135F
102
{ACAD_REACTORS
330
C90E73C08D241349
102
}
330
C90E73C08D241349
100
AcDbVisualStyle
  2
JitterOff
 70
    20
177
     3
291
     1
 70
    58
 90
        2
176
     0
 90
        2
176
     0
 90
        0
176
     0
 90
        0
176
     0
 40
0.6
176
     0
 40
30.0
176
     0
 62
     7
420
 16777215
176
     0
 90
        1
176
     0
 90
        4
176
     0
 62
     7
176
     0
 62
   257
176
     0
 90
        1
176
     0
 90
        1
176
     0
 40
1.0
176
     0
 90
       10
176
     2
 62
     7
176
     0
 40
1.0
176
     0
 90
        1
176
     0
 90
        6
176
     0
 90
        2
176
     0
 62
     7
176
     0
 90
        5
176
     0
 90
        0
176
     0
 90
        0
176
     0
290
     0
176
     0
 90
        1
176
     0
 40
0.0
176
     0
 90
        0
176
     0
290
     0
176
     0
290
     1
176
     0
290
     1
176
     0
290
     0
176
     0
290
     0
176
     0
290
     0
176
     0
290
     0
176
     0
290
     0
176
     0
290
     0
176
     0
 90
       50
176
     0
 40
0.0
176
     0
 40
1.0
176
     0
 90
        0
176
     0
 62
    18
420
        0
176
     0
 90
       50
176
     0
 90
        3
176
     0
 62
     5
420
      255
176
     0
290
     0
176
     0
 90
       50
176
     0
 90
       50
176
     0
 90
       50
176
     0
290
     0
176
     0
 90
       50
176
     0
 62
   256
176
     0
 40
1.0
176
     0
 90
        2
176
     0
  1
strokes_ogs.tif
176
     0
290
     0
176
     0
 40
1.0
176
     0
 40
1.0
176
     0
  0
VISUALSTYLE
  5
C90E73C08D241357
102
{ACAD_REACTORS
330
C90E73C08D241349
102
}
330
C90E73C08D241349
100
AcDbVisualStyle
  2
Linepattern
 70
    14
177
     3
291
     1
 70
    58
 90
        2
176
     1
 90
        2
176
     1
 90
        0
176
     1
 90
        0
176
     1
 40
0.6
176
     1
 40
30.0
176
     1
 62
     7
420
 16777215
176
     1
 90
        1
176
     1
 90
        4
176
     1
 62
     7
176
     1
 62
   257
176
     1
 90
        7
176
     1
 90
        7
176
     1
 40
1.0
176
     1
 90
        8
176
     1
 62
     7
176
     1
 40
1.0
176
     1
 90
        1
176
     1
 90
        6
176
     1
 90
        2
176
     1
 62
     7
176
     1
 90
        5
176
     1
 90
        0
176
     1
 90
        0
176
     1
290
     0
176
     1
 90
        1
176
     1
 40
0.0
176
     1
 90
        0
176
     1
290
     0
176
     1
290
     1
176
     1
290
     1
176
     1
290
     0
176
     1
290
     0
176
     1
290
     0
176
     1
290
     0
176
     1
290
     0
176
     1
290
     0
176
     1
 90
       50
176
     1
 40
0.0
176
     1
 40
1.0
176
     1
 90
        0
176
     1
 62
    18
420
        0
176
     1
 90
       50
176
     1
 90
        3
176
     1
 62
     5
420
      255
176
     1
290
     0
176
     1
 90
       50
176
     1
 90
       50
176
     1
 90
       50
176
     1
290
     0
176
     1
 90
       50
176
     1
 62
   256
176
     0
 40
1.0
176
     0
 90
        2
176
     1
  1
strokes_ogs.tif
176
     1
290
     0
176
     1
 40
1.0
176
     1
 40
1.0
176
     1
  0
VISUALSTYLE
  5
C90E73C08D241360
102
{ACAD_REACTORS
330
C90E73C08D241349
102
}
330
C90E73C08D241349
100
AcDbVisualStyle
  2
OverhangOff
 70
    21
177
     3
291
     1
 70
    58
 90
        2
176
     0
 90
        2
176
     0
 90
        0
176
     0
 90
        0
176
     0
 40
0.6
176
     0
 40
30.0
176
     0
 62
     7
420
 16777215
176
     0
 90
        1
176
     0
 90
        4
176
     0
 62
     7
176
     0
 62
   257
176
     0
 90
        1
176
     0
 90
        1
176
     0
 40
1.0
176
     0
 90
        9
176
     2
 62
     7
176
     0
 40
1.0
176
     0
 90
        1
176
     0
 90
        6
176
     0
 90
        2
176
     0
 62
     7
176
     0
 90
        5
176
     0
 90
        0
176
     0
 90
        0
176
     0
290
     0
176
     0
 90
        1
176
     0
 40
0.0
176
     0
 90
        0
176
     0
290
     0
176
     0
290
     1
176
     0
290
     1
176
     0
290
     0
176
     0
290
     0
176
     0
290
     0
176
     0
290
     0
176
     0
290
     0
176
     0
290
     0
176
     0
 90
       50
176
     0
 40
0.0
176
     0
 40
1.0
176
     0
 90
        0
176
     0
 62
    18
420
        0
176
     0
 90
       50
176
     0
 90
        3
176
     0
 62
     5
420
      255
176
     0
290
     0
176
     0
 90
       50
176
     0
 90
       50
176
     0
 90
       50
176
     0
290
     0
176
     0
 90
       50
176
     0
 62
   256
176
     0
 40
1.0
176
     0
 90
        2
176
     0
  1
strokes_ogs.tif
176
     0
290
     0
176
     0
 40
1.0
176
     0
 40
1.0
176
     0
  0
VISUALSTYLE
  5
C90E73C08D241353
102
{ACAD_REACTORS
330
C90E73C08D241349
102
}
330
C90E73C08D241349
100
AcDbVisualStyle
  2
Realistic
 70
     8
177
     3
291
     0
 70
    58
 90
        2
176
     1
 90
        3
176
     1
 90
        0
176
     1
 90
        2
176
     1
 40
0.6
176
     1
 40
30.0
176
     1
 62
     7
420
 16777215
176
     1
 90
        0
176
     1
 90
        0
176
     1
 62
     7
176
     1
 62
   257
176
     1
 90
        1
176
     1
 90
        1
176
     1
 40
1.0
176
     1
 90
        8
176
     1
 62
   257
176
     1
 40
1.0
176
     1
 90
        1
176
     1
 90
        6
176
     1
 90
        2
176
     1
 62
     7
176
     1
 90
        3
176
     1
 90
        0
176
     1
 90
        0
176
     1
290
     0
176
     1
 90
       13
176
     1
 40
0.0
176
     1
 90
        0
176
     1
290
     0
176
     1
290
     1
176
     1
290
     1
176
     1
290
     0
176
     1
290
     0
176
     1
290
     0
176
     1
290
     0
176
     1
290
     0
176
     1
290
     0
176
     1
 90
       50
176
     1
 40
0.0
176
     1
 40
1.0
176
     1
 90
        0
176
     1
 62
    18
420
        0
176
     1
 90
       50
176
     1
 90
        3
176
     1
 62
     5
420
      255
176
     1
290
     0
176
     1
 90
       50
176
     1
 90
       50
176
     1
 90
       50
176
     1
290
     0
176
     1
 90
       50
176
     1
 62
   256
176
     0
 40
1.0
176
     0
 90
        2
176
     1
  1
strokes_ogs.tif
176
     1
290
     0
176
     1
 40
1.0
176
     1
 40
1.0
176
     1
  0
VISUALSTYLE
  5
C90E73C08D24135E
102
{ACAD_REACTORS
330
C90E73C08D241349
102
}
330
C90E73C08D241349
100
AcDbVisualStyle
  2
Shaded
 70
    27
177
     3
291
     0
 70
    58
 90
        2
176
     1
 90
        2
176
     1
 90
        1
176
     1
 90
        2
176
     1
 40
0.6
176
     1
 40
30.0
176
     1
 62
     7
420
 16777215
176
     1
 90
        0
176
     1
 90
        4
176
     1
 62
     7
176
     1
 62
   257
176
     1
 90
        1
176
     1
 90
        1
176
     1
 40
1.0
176
     1
 90
        8
176
     1
 62
   257
176
     1
 40
1.0
176
     1
 90
        1
176
     1
 90
        6
176
     1
 90
        2
176
     1
 62
     8
420
  7895160
176
     1
 90
        3
176
     1
 90
        0
176
     1
 90
        0
176
     1
290
     0
176
     1
 90
        5
176
     1
 40
0.0
176
     1
 90
        0
176
     1
290
     0
176
     1
290
     1
176
     1
290
     1
176
     1
290
     0
176
     1
290
     0
176
     1
290
     0
176
     1
290
     0
176
     1
290
     0
176
     1
290
     0
176
     1
 90
       50
176
     1
 40
0.0
176
     1
 40
1.0
176
     1
 90
        0
176
     1
 62
    18
420
        0
176
     1
 90
       50
176
     1
 90
        3
176
     1
 62
     5
420
      255
176
     1
290
     0
176
     1
 90
       50
176
     1
 90
       50
176
     1
 90
       50
176
     1
290
     0
176
     1
 90
       50
176
     1
 62
   256
176
     0
 40
1.0
176
     0
 90
        2
176
     1
  1
strokes_ogs.tif
176
     1
290
     0
176
     1
 40
1.0
176
     1
 40
1.0
176
     1
  0
VISUALSTYLE
  5
C90E73C08D24135D
102
{ACAD_REACTORS
330
C90E73C08D241349
102
}
330
C90E73C08D241349
100
AcDbVisualStyle
  2
Shaded with edges
 70
    26
177
     3
291
     0
 70
    58
 90
        2
176
     1
 90
        2
176
     1
 90
        1
176
     1
 90
        2
176
     1
 40
0.6
176
     1
 40
30.0
176
     1
 62
     7
420
 16777215
176
     1
 90
        1
176
     1
 90
        2
176
     1
 62
     7
176
     1
 62
   257
176
     1
 90
        2
176
     1
 90
        1
176
     1
 40
1.0
176
     1
 90
        8
176
     1
 62
   257
176
     1
 40
1.0
176
     1
 90
        1
176
     1
 90
        6
176
     1
 90
        2
176
     1
 62
     7
176
     1
 90
        3
176
     1
 90
        0
176
     1
 90
        0
176
     1
290
     0
176
     1
 90
        5
176
     1
 40
0.0
176
     1
 90
        0
176
     1
290
     0
176
     1
290
     1
176
     1
290
     1
176
     1
290
     0
176
     1
290
     0
176
     1
290
     0
176
     1
290
     0
176
     1
290
     0
176
     1
290
     0
176
     1
 90
       50
176
     1
 40
0.0
176
     1
 40
1.0
176
     1
 90
        0
176
     1
 62
    18
420
        0
176
     1
 90
       50
176
     1
 90
        3
176
     1
 62
     5
420
      255
176
     1
290
     0
176
     1
 90
       50
176
     1
 90
       50
176
     1
 90
       50
176
     1
290
     0
176
     1
 90
       50
176
     1
 62
   256
176
     0
 40
1.0
176
     0
 90
        2
176
     1
  1
strokes_ogs.tif
176
     1
290
     0
176
     1
 40
1.0
176
     1
 40
1.0
176
     1
  0
VISUALSTYLE
  5
C90E73C08D24135A
102
{ACAD_REACTORS
330
C90E73C08D241349
102
}
330
C90E73C08D241349
100
AcDbVisualStyle
  2
Shades of Gray
 70
    23
177
     3
291
     0
 70
    58
 90
        2
176
     1
 90
        2
176
     1
 90
        3
176
     1
 90
        0
176
     1
 40
0.6
176
     1
 40
30.0
176
     1
 62
     7
420
 16777215
176
     1
 90
        2
176
     1
 90
        2
176
     1
 62
     7
176
     1
 62
     7
176
     1
 90
        1
176
     1
 90
        1
176
     1
 40
40.0
176
     1
 90
        8
176
     1
 62
     7
176
     1
 40
1.0
176
     1
 90
        1
176
     1
 90
        6
176
     1
 90
        2
176
     1
 62
     7
176
     1
 90
        3
176
     1
 90
        0
176
     1
 90
        0
176
     1
290
     0
176
     1
 90
        1
176
     1
 40
0.0
176
     1
 90
        0
176
     1
290
     0
176
     1
290
     1
176
     1
290
     1
176
     1
290
     0
176
     1
290
     0
176
     1
290
     0
176
     1
290
     0
176
     1
290
     0
176
     1
290
     0
176
     1
 90
       50
176
     1
 40
0.0
176
     1
 40
1.0
176
     1
 90
        0
176
     1
 62
    18
420
        0
176
     1
 90
       50
176
     1
 90
        3
176
     1
 62
     5
420
      255
176
     1
290
     0
176
     1
 90
       50
176
     1
 90
       50
176
     1
 90
       50
176
     1
290
     0
176
     1
 90
       50
176
     1
 62
   256
176
     0
 40
1.0
176
     0
 90
        2
176
     1
  1
strokes_ogs.tif
176
     1
290
     0
176
     1
 40
1.0
176
     1
 40
1.0
176
     1
  0
VISUALSTYLE
  5
C90E73C08D24135B
102
{ACAD_REACTORS
330
C90E73C08D241349
102
}
330
C90E73C08D241349
100
AcDbVisualStyle
  2
Sketchy
 70
    24
177
     3
291
     0
 70
    58
 90
        1
176
     1
 90
        2
176
     1
 90
        2
176
     1
 90
        0
176
     1
 40
0.6
176
     1
 40
30.0
176
     1
 62
     7
420
 16777215
176
     1
 90
        2
176
     1
 90
        2
176
     1
 62
     7
176
     1
 62
     7
176
     1
 90
        1
176
     1
 90
        1
176
     1
 40
40.0
176
     1
 90
       11
176
     1
 62
     7
176
     1
 40
1.0
176
     1
 90
        1
176
     1
 90
        6
176
     1
 90
        2
176
     1
 62
     7
176
     1
 90
        6
176
     1
 90
        0
176
     1
 90
        0
176
     1
290
     0
176
     1
 90
        1
176
     1
 40
0.0
176
     1
 90
        0
176
     1
290
     0
176
     1
290
     1
176
     1
290
     1
176
     1
290
     0
176
     1
290
     0
176
     1
290
     0
176
     1
290
     0
176
     1
290
     0
176
     1
290
     0
176
     1
 90
       50
176
     1
 40
0.0
176
     1
 40
1.0
176
     1
 90
        0
176
     1
 62
    18
420
        0
176
     1
 90
       50
176
     1
 90
        3
176
     1
 62
     5
420
      255
176
     1
290
     0
176
     1
 90
       50
176
     1
 90
       50
176
     1
 90
       50
176
     1
290
     0
176
     1
 90
       50
176
     1
 62
   256
176
     0
 40
1.0
176
     0
 90
        2
176
     1
  1
strokes_ogs.tif
176
     1
290
     0
176
     1
 40
1.0
176
     1
 40
1.0
176
     1
  0
VISUALSTYLE
  5
C90E73C08D241356
102
{ACAD_REACTORS
330
C90E73C08D241349
102
}
330
C90E73C08D241349
100
AcDbVisualStyle
  2
Thicken
 70
    13
177
     3
291
     1
 70
    58
 90
        2
176
     1
 90
        2
176
     1
 90
        0
176
     1
 90
        0
176
     1
 40
0.6
176
     1
 40
30.0
176
     1
 62
     7
420
 16777215
176
     1
 90
        1
176
     1
 90
        4
176
     1
 62
     7
176
     1
 62
   257
176
     1
 90
        1
176
     1
 90
        1
176
     1
 40
1.0
176
     1
 90
       12
176
     1
 62
     7
176
     1
 40
1.0
176
     1
 90
        1
176
     1
 90
        6
176
     1
 90
        2
176
     1
 62
     7
176
     1
 90
        5
176
     1
 90
        0
176
     1
 90
        0
176
     1
290
     0
176
     1
 90
        1
176
     1
 40
0.0
176
     1
 90
        0
176
     1
290
     0
176
     1
290
     1
176
     1
290
     1
176
     1
290
     0
176
     1
290
     0
176
     1
290
     0
176
     1
290
     0
176
     1
290
     0
176
     1
290
     0
176
     1
 90
       50
176
     1
 40
0.0
176
     1
 40
1.0
176
     1
 90
        0
176
     1
 62
    18
420
        0
176
     1
 90
       50
176
     1
 90
        3
176
     1
 62
     5
420
      255
176
     1
290
     0
176
     1
 90
       50
176
     1
 90
       50
176
     1
 90
       50
176
     1
290
     0
176
     1
 90
       50
176
     1
 62
   256
176
     0
 40
1.0
176
     0
 90
        2
176
     1
  1
strokes_ogs.tif
176
     1
290
     0
176
     1
 40
1.0
176
     1
 40
1.0
176
     1
  0
VISUALSTYLE
  5
C90E73C08D241350
102
{ACAD_REACTORS
330
C90E73C08D241349
102
}
330
C90E73C08D241349
100
AcDbVisualStyle
  2
Wireframe
 70
     5
177
     3
291
     0
 70
    58
 90
        0
176
     1
 90
        2
176
     1
 90
        0
176
     1
 90
        0
176
     1
 40
0.6
176
     1
 40
30.0
176
     1
 62
     7
420
 16777215
176
     1
 90
        1
176
     1
 90
        4
176
     1
 62
     7
176
     1
 62
   257
176
     1
 90
        1
176
     1
 90
        1
176
     1
 40
1.0
176
     1
 90
        0
176
     1
 62
   257
176
     1
 40
1.0
176
     1
 90
        1
176
     1
 90
        6
176
     1
 90
        2
176
     1
 62
     7
176
     1
 90
        3
176
     1
 90
        0
176
     1
 90
        0
176
     1
290
     0
176
     1
 90
        1
176
     1
 40
0.0
176
     1
 90
        0
176
     1
290
     0
176
     1
290
     1
176
     1
290
     1
176
     1
290
     0
176
     1
290
     0
176
     1
290
     0
176
     1
290
     0
176
     1
290
     0
176
     1
290
     0
176
     1
 90
       50
176
     1
 40
0.0
176
     1
 40
1.0
176
     1
 90
        0
176
     1
 62
    18
420
        0
176
     1
 90
       50
176
     1
 90
        3
176
     1
 62
     5
420
      255
176
     1
290
     0
176
     1
 90
       50
176
     1
 90
       50
176
     1
 90
       50
176
     1
290
     0
176
     1
 90
       50
176
     1
 62
   256
176
     0
 40
1.0
176
     0
 90
        2
176
     1
  1
strokes_ogs.tif
176
     1
290
     0
176
     1
 40
1.0
176
     1
 40
1.0
176
     1
  0
VISUALSTYLE
  5
C90E73C08D24135C
102
{ACAD_REACTORS
330
C90E73C08D241349
102
}
330
C90E73C08D241349
100
AcDbVisualStyle
  2
X-Ray
 70
    25
177
     3
291
     0
 70
    58
 90
        2
176
     1
 90
        2
176
     1
 90
        1
176
     1
 90
        1
176
     1
 40
0.5
176
     1
 40
30.0
176
     1
 62
     7
420
 16777215
176
     1
 90
        1
176
     1
 90
        0
176
     1
 62
     7
176
     1
 62
   257
176
     1
 90
        1
176
     1
 90
        1
176
     1
 40
1.0
176
     1
 90
        8
176
     1
 62
     7
176
     1
 40
1.0
176
     1
 90
        1
176
     1
 90
        6
176
     1
 90
        2
176
     1
 62
     7
176
     1
 90
        3
176
     1
 90
        0
176
     1
 90
        0
176
     1
290
     0
176
     1
 90
       13
176
     1
 40
0.0
176
     1
 90
        0
176
     1
290
     0
176
     1
290
     1
176
     1
290
     1
176
     1
290
     0
176
     1
290
     0
176
     1
290
     0
176
     1
290
     0
176
     1
290
     0
176
     1
290
     0
176
     1
 90
       50
176
     1
 40
0.0
176
     1
 40
1.0
176
     1
 90
        0
176
     1
 62
    18
420
        0
176
     1
 90
       50
176
     1
 90
        3
176
     1
 62
     5
420
      255
176
     1
290
     0
176
     1
 90
       50
176
     1
 90
       50
176
     1
 90
       50
176
     1
290
     0
176
     1
 90
       50
176
     1
 62
   256
176
     0
 40
1.0
176
     0
 90
        2
176
     1
  1
strokes_ogs.tif
176
     1
290
     0
176
     1
 40
1.0
176
     1
 40
1.0
176
     1
  0
DICTIONARYVAR
  5
C90E73C08D2413C1
102
{ACAD_REACTORS
330
C90E73C08D241264
102
}
330
C90E73C08D241264
100
DictionaryVariables
280
     0
  1
1:1
  0
DICTIONARYVAR
  5
C90E73C08D2413BD
102
{ACAD_REACTORS
330
C90E73C08D241264
102
}
330
C90E73C08D241264
100
DictionaryVariables
280
     0
  1
STANDARD
  0
DICTIONARYVAR
  5
C90E73C08D2413BC
102
{ACAD_REACTORS
330
C90E73C08D241264
102
}
330
C90E73C08D241264
100
DictionaryVariables
280
     0
  1
STANDARD
  0
DICTIONARYVAR
  5
C90E73C08D2413BE
102
{ACAD_REACTORS
330
C90E73C08D241264
102
}
330
C90E73C08D241264
100
DictionaryVariables
280
     0
  1
Imperial24
  0
DICTIONARYVAR
  5
C90E73C08D2413BF
102
{ACAD_REACTORS
330
C90E73C08D241264
102
}
330
C90E73C08D241264
100
DictionaryVariables
280
     0
  1
Imperial24
  0
DICTIONARYVAR
  5
C90E73C08D2413C3
102
{ACAD_REACTORS
330
C90E73C08D241264
102
}
330
C90E73C08D241264
100
DictionaryVariables
280
     0
  1
1
  0
DICTIONARYVAR
  5
C90E73C08D2413C4
102
{ACAD_REACTORS
330
C90E73C08D241264
102
}
330
C90E73C08D241264
100
DictionaryVariables
280
     0
  1
15
  0
DICTIONARYVAR
  5
C90E73C08D2413C2
102
{ACAD_REACTORS
330
C90E73C08D241264
102
}
330
C90E73C08D241264
100
DictionaryVariables
280
     0
  1
0
  0
DICTIONARYVAR
  5
C90E73C08D2413C0
102
{ACAD_REACTORS
330
C90E73C08D241264
102
}
330
C90E73C08D241264
100
DictionaryVariables
280
     0
  1
0
  0
DICTIONARYVAR
  5
C90E73C08D241265
102
{ACAD_REACTORS
330
C90E73C08D241264
102
}
330
C90E73C08D241264
100
DictionaryVariables
280
     0
  1
96
  0
DICTIONARY
  5
C90E73C08D24133A
330
C90E73C08D241339
100
AcDbDictionary
280
     1
281
     1
  3
BUMPTILE
360
C90E73C08D24133C
  3
DIFFUSETILE
360
C90E73C08D24133B
  3
OPACITYTILE
360
C90E73C08D24133F
  3
REFLECTIONTILE
360
C90E73C08D24133E
  3
REFRACTIONTILE
360
C90E73C08D241340
  3
SPECULARTILE
360
C90E73C08D24133D
  0
DICTIONARY
  5
C90E73C08D241332
330
C90E73C08D241331
100
AcDbDictionary
280
     1
281
     1
  3
BUMPTILE
360
C90E73C08D241334
  3
DIFFUSETILE
360
C90E73C08D241333
  3
OPACITYTILE
360
C90E73C08D241337
  3
REFLECTIONTILE
360
C90E73C08D241336
  3
REFRACTIONTILE
360
C90E73C08D241338
  3
SPECULARTILE
360
C90E73C08D241335
  0
DICTIONARY
  5
C90E73C08D241342
330
C90E73C08D241341
100
AcDbDictionary
280
     1
281
     1
  3
BUMPTILE
360
C90E73C08D241344
  3
DIFFUSETILE
360
C90E73C08D241343
  3
OPACITYTILE
360
C90E73C08D241347
  3
REFLECTIONTILE
360
C90E73C08D241346
  3
REFRACTIONTILE
360
C90E73C08D241348
  3
SPECULARTILE
360
C90E73C08D241345
  0
DICTIONARY
  5
C90E73C08D2413CD
330
C90E73C08D241364
100
AcDbDictionary
280
     1
281
     1
  3
ACAD_ROUNDTRIP_2008_TABLESTYLE_CELLSTYLEMAP
360
C90E73C08D2413CE
  0
XRECORD
  5
C90E73C08D24133C
102
{ACAD_REACTORS
330
C90E73C08D24133A
102
}
330
C90E73C08D24133A
100
AcDbXrecord
280
     1
270
     1
271
     1
  0
XRECORD
  5
C90E73C08D24133B
102
{ACAD_REACTORS
330
C90E73C08D24133A
102
}
330
C90E73C08D24133A
100
AcDbXrecord
280
     1
270
     1
271
     1
  0
XRECORD
  5
C90E73C08D24133F
102
{ACAD_REACTORS
330
C90E73C08D24133A
102
}
330
C90E73C08D24133A
100
AcDbXrecord
280
     1
270
     1
271
     1
  0
XRECORD
  5
C90E73C08D24133E
102
{ACAD_REACTORS
330
C90E73C08D24133A
102
}
330
C90E73C08D24133A
100
AcDbXrecord
280
     1
270
     1
271
     1
  0
XRECORD
  5
C90E73C08D241340
102
{ACAD_REACTORS
330
C90E73C08D24133A
102
}
330
C90E73C08D24133A
100
AcDbXrecord
280
     1
270
     1
271
     1
  0
XRECORD
  5
C90E73C08D24133D
102
{ACAD_REACTORS
330
C90E73C08D24133A
102
}
330
C90E73C08D24133A
100
AcDbXrecord
280
     1
270
     1
271
     1
  0
XRECORD
  5
C90E73C08D241334
102
{ACAD_REACTORS
330
C90E73C08D241332
102
}
330
C90E73C08D241332
100
AcDbXrecord
280
     1
270
     1
271
     1
  0
XRECORD
  5
C90E73C08D241333
102
{ACAD_REACTORS
330
C90E73C08D241332
102
}
330
C90E73C08D241332
100
AcDbXrecord
280
     1
270
     1
271
     1
  0
XRECORD
  5
C90E73C08D241337
102
{ACAD_REACTORS
330
C90E73C08D241332
102
}
330
C90E73C08D241332
100
AcDbXrecord
280
     1
270
     1
271
     1
  0
XRECORD
  5
C90E73C08D241336
102
{ACAD_REACTORS
330
C90E73C08D241332
102
}
330
C90E73C08D241332
100
AcDbXrecord
280
     1
270
     1
271
     1
  0
XRECORD
  5
C90E73C08D241338
102
{ACAD_REACTORS
330
C90E73C08D241332
102
}
330
C90E73C08D241332
100
AcDbXrecord
280
     1
270
     1
271
     1
  0
XRECORD
  5
C90E73C08D241335
102
{ACAD_REACTORS
330
C90E73C08D241332
102
}
330
C90E73C08D241332
100
AcDbXrecord
280
     1
270
     1
271
     1
  0
XRECORD
  5
C90E73C08D241344
102
{ACAD_REACTORS
330
C90E73C08D241342
102
}
330
C90E73C08D241342
100
AcDbXrecord
280
     1
270
     1
271
     1
  0
XRECORD
  5
C90E73C08D241343
102
{ACAD_REACTORS
330
C90E73C08D241342
102
}
330
C90E73C08D241342
100
AcDbXrecord
280
     1
270
     1
271
     1
  0
XRECORD
  5
C90E73C08D241347
102
{ACAD_REACTORS
330
C90E73C08D241342
102
}
330
C90E73C08D241342
100
AcDbXrecord
280
     1
270
     1
271
     1
  0
XRECORD
  5
C90E73C08D241346
102
{ACAD_REACTORS
330
C90E73C08D241342
102
}
330
C90E73C08D241342
100
AcDbXrecord
280
     1
270
     1
271
     1
  0
XRECORD
  5
C90E73C08D241348
102
{ACAD_REACTORS
330
C90E73C08D241342
102
}
330
C90E73C08D241342
100
AcDbXrecord
280
     1
270
     1
271
     1
  0
XRECORD
  5
C90E73C08D241345
102
{ACAD_REACTORS
330
C90E73C08D241342
102
}
330
C90E73C08D241342
100
AcDbXrecord
280
     1
270
     1
271
     1
  0
CELLSTYLEMAP
  5
C90E73C08D2413CE
102
{ACAD_REACTORS
330
C90E73C08D2413CD
102
}
330
C90E73C08D2413CD
100
AcDbCellStyleMap
 90
        3
300
CELLSTYLE
  1
TABLEFORMAT_BEGIN
 90
        5
170
     1
 91
        0
 92
    32768
 62
   257
 93
        1
300
CONTENTFORMAT
  1
CONTENTFORMAT_BEGIN
 90
        0
 91
        0
 92
      512
 93
        0
300

 40
0.0
140
1.0
 94
        5
 62
     0
340
C90E73C08D240FF4
144
0.25
309
CONTENTFORMAT_END
171
     0
 94
        0
309
TABLEFORMAT_END
  1
CELLSTYLE_BEGIN
 90
        1
 91
        1
300
_TITLE
309
CELLSTYLE_END
300
CELLSTYLE
  1
TABLEFORMAT_BEGIN
 90
        5
170
     1
 91
        0
 92
        0
 62
   257
 93
        1
300
CONTENTFORMAT
  1
CONTENTFORMAT_BEGIN
 90
        0
 91
        0
 92
      512
 93
        0
300

 40
0.0
140
1.0
 94
        5
 62
     0
340
C90E73C08D240FF4
144
0.18
309
CONTENTFORMAT_END
171
     0
 94
        0
309
TABLEFORMAT_END
  1
CELLSTYLE_BEGIN
 90
        2
 91
        1
300
_HEADER
309
CELLSTYLE_END
300
CELLSTYLE
  1
TABLEFORMAT_BEGIN
 90
        5
170
     1
 91
        0
 92
        0
 62
   257
 93
        1
300
CONTENTFORMAT
  1
CONTENTFORMAT_BEGIN
 90
        0
 91
        0
 92
      512
 93
        0
300

 40
0.0
140
1.0
 94
        2
 62
     0
340
C90E73C08D240FF4
144
0.18
309
CONTENTFORMAT_END
171
     0
 94
        0
309
TABLEFORMAT_END
  1
CELLSTYLE_BEGIN
 90
        3
 91
        2
300
_DATA
309
CELLSTYLE_END
  0
ENDSEC
  0
SECTION
  2
ACDSDATA
 70
     2
 71
     8
  0
ACDSSCHEMA
 90
        0
  1
AcDb_Thumbnail_Schema
  2
AcDbDs::ID
280
    10
 91
        8
  2
Thumbnail_Data
280
    15
 91
        0
101
ACDSRECORD
 95
        0
 90
        1
  2
AcDbDs::TreatedAsObjectData
280
     1
291
     1
101
ACDSRECORD
 95
        0
 90
        2
  2
AcDbDs::Legacy
280
     1
291
     1
101
ACDSRECORD
  1
AcDbDs::ID
 90
        3
  2
AcDs:Indexable
280
     1
291
     1
101
ACDSRECORD
  1
AcDbDs::ID
 90
        4
  2
AcDbDs::HandleAttribute
280
     7
282
     1
  0
ACDSSCHEMA
 90
        1
  1
AcDbDs::TreatedAsObjectDataSchema
  2
AcDbDs::TreatedAsObjectData
280
     1
 91
        0
  0
ACDSSCHEMA
 90
        2
  1
AcDbDs::LegacySchema
  2
AcDbDs::Legacy
280
     1
 91
        0
  0
ACDSSCHEMA
 90
        3
  1
AcDbDs::IndexedPropertySchema
  2
AcDs:Indexable
280
     1
 91
        0
  0
ACDSSCHEMA
 90
        4
  1
AcDbDs::HandleAttributeSchema
  2
AcDbDs::HandleAttribute
280
     7
 91
        1
284
     1
  0
ACDSRECORD
 90
        0
  2
AcDbDs::ID
280
    10
320
C90E73C08D241004
  2
Thumbnail_Data
280
    15
 94
     1420
310
89504E470D0A1A0A0000000D49484452000001000000006F08030000003479EE6F00000300504C5445212830FFFFFF2128300000000000000000000000000000000000000000000000000000330000660000990000CC0000FF0033000033330033660033990033CC0033FF0066000066330066660066990066CC0066FF0099
310
000099330099660099990099CC0099FF00CC0000CC3300CC6600CC9900CCCC00CCFF00FF0000FF3300FF6600FF9900FFCC00FFFF3300003300333300663300993300CC3300FF3333003333333333663333993333CC3333FF3366003366333366663366993366CC3366FF3399003399333399663399993399CC3399FF33CC00
310
33CC3333CC6633CC9933CCCC33CCFF33FF0033FF3333FF6633FF9933FFCC33FFFF6600006600336600666600996600CC6600FF6633006633336633666633996633CC6633FF6666006666336666666666996666CC6666FF6699006699336699666699996699CC6699FF66CC0066CC3366CC6666CC9966CCCC66CCFF66FF0066
310
FF3366FF6666FF9966FFCC66FFFF9900009900339900669900999900CC9900FF9933009933339933669933999933CC9933FF9966009966339966669966999966CC9966FF9999009999339999669999999999CC9999FF99CC0099CC3399CC6699CC9999CCCC99CCFF99FF0099FF3399FF6699FF9999FFCC99FFFFCC0000CC00
310
33CC0066CC0099CC00CCCC00FFCC3300CC3333CC3366CC3399CC33CCCC33FFCC6600CC6633CC6666CC6699CC66CCCC66FFCC9900CC9933CC9966CC9999CC99CCCC99FFCCCC00CCCC33CCCC66CCCC99CCCCCCCCCCFFCCFF00CCFF33CCFF66CCFF99CCFFCCCCFFFFFF0000FF0033FF0066FF0099FF00CCFF00FFFF3300FF3333
310
FF3366FF3399FF33CCFF33FFFF6600FF6633FF6666FF6699FF66CCFF66FFFF9900FF9933FF9966FF9999FF99CCFF99FFFFCC00FFCC33FFCC66FFCC99FFCCCCFFCCFFFFFF00FFFF33FFFF66FFFF99FFFFCCFFFFFF0000000D0D0D1A1A1A2828283535354343435050505D5D5D6B6B6B787878868686939393A1A1A1AEAEAEBB
310
BBBBC9C9C9D6D6D6E4E4E4F1F1F1FFFFFF0000000000000000000000000000000000000000000000000000000000002E4550F1000002474944415478DAED9B5B6AC5300C44BD21EF7F5BFAD17F9BE7F5238E95B6143233820BBD6929CC89244BB29D924C2693C9643299EC176626000220000240AC5D002A13003200856C5B
310
BF0B001B8074121884808F0CCD094649001DC03409F200C8362C0970C5D7008C13C0426011C50B20A59CB74F38FED1401C009C1C40A788DE032E61205684A31C20002C260002200021004E0E007409900708400C00F2E03800E09C1E1AE24ECA14C02EDB8B9FA9001C92FD83830AC0A9D7BB271400AEF21E582ECCD9FDFB33
310
4E00C1876FF6001F7A800D001849088C944211B807901EFE021840D50C1102703600DECA74D418B806B0CE80976D3356006BC8577BE76EA0078AC639C06E8D1E80E103E8B322A4692C2E00022000029081B37C1000EED6571800A77CDB01B0DE1CB1F941497C0093B3C22C00385D00B6C57DA63E0D6F8CD0E8D7A5294E0049
310
17279BB1272580E20963312C00022000E4009C1C4012000148E775284E00C89762FF27041CC603C2ED50DD38398A0B841B423B26A91891F383B35F587D730520760EBC3E3DF87617B802702FC99AE393EF0F8176347CF74EEB3F05C901DD703CAA7F75059855207433AC1EA5632D83C5DBCD95955FDB513248297CA4C07DB3
310
B4D15F02D8AB252C00A90570373329BD1FA31C2842E01100989D843E074C43C00C19C0A27298033F79103404AE7688AC5B058173C0E6DC372BBB256400813D42BC3AA0F28067000CA7102A4642F3EA1E773FDD0FAF9E54F76F973D7C7F7E352208FCA73702487F01002E0C1E7B00580658BAA2AD37643D38EE476F4C7B73E0
310
5DF6050DDBC63678DB811A0000000049454E44AE426082
  0
ENDSEC
  0
EOF
