  0
SECTION
  2
HEADER
  9
$ACADVER
  1
AC1032
  9
$ACADMAINTVER
 90
       55
  9
$DWGCODEPAGE
  3
ANSI_1252
  9
$LASTSAVEDBY
  1
Administrator
  9
$REQUIREDVERSIONS
160
                 0
  9
$INSBASE
 10
0.0
 20
0.0
 30
0.0
  9
$EXTMIN
 10
0.9334369096252713
 20
0.6477964671298739
 30
0.0
  9
$EXTMAX
 10
14.89475987835431
 20
20.32191487311697
 30
0.0
  9
$LIMMIN
 10
0.0
 20
0.0
  9
$LIMMAX
 10
16.5
 20
10.5
  9
$ORTHOMODE
 70
     0
  9
$REGENMODE
 70
     1
  9
$FILLMODE
 70
     1
  9
$QTEXTMODE
 70
     0
  9
$MIRRTEXT
 70
     0
  9
$LTSCALE
 40
1.0
  9
$ATTMODE
 70
     1
  9
$TEXTSIZE
 40
0.08
  9
$TRACEWID
 40
0.05
  9
$TEXTSTYLE
  7
ROMANS
  9
$CLAYER
  8
DIM
  9
$CELTYPE
  6
BYLAYER
  9
$CECOLOR
 62
   256
  9
$CELTSCALE
 40
1.0
  9
$DISPSILH
 70
     0
  9
$DIMSCALE
 40
1.0
  9
$DIMASZ
 40
0.125
  9
$DIMEXO
 40
0.08
  9
$DIMDLI
 40
0.38
  9
$DIMRND
 40
0.0
  9
$DIMDLE
 40
0.0
  9
$DIMEXE
 40
0.08
  9
$DIMTP
 40
0.0
  9
$DIMTM
 40
0.0
  9
$DIMTXT
 40
0.09
  9
$DIMCEN
 40
0.0
  9
$DIMTSZ
 40
0.0
  9
$DIMTOL
 70
     0
  9
$DIMLIM
 70
     0
  9
$DIMTIH
 70
     1
  9
$DIMTOH
 70
     1
  9
$DIMSE1
 70
     0
  9
$DIMSE2
 70
     0
  9
$DIMTAD
 70
     0
  9
$DIMZIN
 70
     0
  9
$DIMBLK
  1

  9
$DIMASO
 70
     1
  9
$DIMSHO
 70
     1
  9
$DIMPOST
  1

  9
$DIMAPOST
  1

  9
$DIMALT
 70
     0
  9
$DIMALTD
 70
     2
  9
$DIMALTF
 40
25.4
  9
$DIMLFAC
 40
1.0
  9
$DIMTOFL
 70
     0
  9
$DIMTVP
 40
0.0
  9
$DIMTIX
 70
     0
  9
$DIMSOXD
 70
     0
  9
$DIMSAH
 70
     0
  9
$DIMBLK1
  1

  9
$DIMBLK2
  1

  9
$DIMSTYLE
  2
STANDARD
  9
$DIMCLRD
 70
     0
  9
$DIMCLRE
 70
     0
  9
$DIMCLRT
 70
     0
  9
$DIMTFAC
 40
0.4444444444444445
  9
$DIMGAP
 40
0.09
  9
$DIMJUST
 70
     0
  9
$DIMSD1
 70
     0
  9
$DIMSD2
 70
     0
  9
$DIMTOLJ
 70
     1
  9
$DIMTZIN
 70
     0
  9
$DIMALTZ
 70
     0
  9
$DIMALTTZ
 70
     0
  9
$DIMUPT
 70
     0
  9
$DIMDEC
 70
     3
  9
$DIMTDEC
 70
     2
  9
$DIMALTU
 70
     2
  9
$DIMALTTD
 70
     2
  9
$DIMTXSTY
  7
ROMANS
  9
$DIMAUNIT
 70
     0
  9
$DIMADEC
 70
     0
  9
$DIMALTRND
 40
0.0
  9
$DIMAZIN
 70
     0
  9
$DIMDSEP
 70
    46
  9
$DIMATFIT
 70
     3
  9
$DIMFRAC
 70
     0
  9
$DIMLDRBLK
  1

  9
$DIMLUNIT
 70
     2
  9
$DIMLWD
 70
    -2
  9
$DIMLWE
 70
    -2
  9
$DIMTMOVE
 70
     0
  9
$DIMFXL
 40
1.0
  9
$DIMFXLON
 70
     0
  9
$DIMJOGANG
 40
0.7853981633974483
  9
$DIMTFILL
 70
     0
  9
$DIMTFILLCLR
 70
     0
  9
$DIMARCSYM
 70
     1
  9
$DIMLTYPE
  6

  9
$DIMLTEX1
  6

  9
$DIMLTEX2
  6

  9
$DIMTXTDIRECTION
 70
     0
  9
$LUNITS
 70
     2
  9
$LUPREC
 70
     8
  9
$SKETCHINC
 40
0.1
  9
$FILLETRAD
 40
0.075
  9
$AUNITS
 70
     0
  9
$AUPREC
 70
     2
  9
$MENU
  1
TB
  9
$ELEVATION
 40
0.0
  9
$PELEVATION
 40
0.0
  9
$THICKNESS
 40
0.0
  9
$LIMCHECK
 70
     0
  9
$CHAMFERA
 40
0.0
  9
$CHAMFERB
 40
0.0
  9
$CHAMFERC
 40
0.0
  9
$CHAMFERD
 40
0.0
  9
$SKPOLY
 70
     0
  9
$TDCREATE
 40
2452817.346701389
  9
$TDUCREATE
 40
2452817.513371887
  9
$TDUPDATE
 40
2459264.425115741
  9
$TDUUPDATE
 40
2459264.633449074
  9
$TDINDWG
 40
0.7550174653
  9
$TDUSRTIMER
 40
0.7550173495
  9
$USRTIMER
 70
     1
  9
$ANGBASE
 50
0.0
  9
$ANGDIR
 70
     0
  9
$PDMODE
 70
     0
  9
$PDSIZE
 40
0.0
  9
$PLINEWID
 40
0.0
  9
$SPLFRAME
 70
     0
  9
$SPLINETYPE
 70
     6
  9
$SPLINESEGS
 70
     8
  9
$HANDSEED
  5
4B4EFC
  9
$SURFTAB1
 70
     6
  9
$SURFTAB2
 70
     6
  9
$SURFTYPE
 70
     6
  9
$SURFU
 70
     6
  9
$SURFV
 70
     6
  9
$UCSBASE
  2

  9
$UCSNAME
  2

  9
$UCSORG
 10
0.0
 20
0.0
 30
0.0
  9
$UCSXDIR
 10
1.0
 20
0.0
 30
0.0
  9
$UCSYDIR
 10
0.0
 20
1.0
 30
0.0
  9
$UCSORTHOREF
  2

  9
$UCSORTHOVIEW
 70
     0
  9
$UCSORGTOP
 10
0.0
 20
0.0
 30
0.0
  9
$UCSORGBOTTOM
 10
0.0
 20
0.0
 30
0.0
  9
$UCSORGLEFT
 10
0.0
 20
0.0
 30
0.0
  9
$UCSORGRIGHT
 10
0.0
 20
0.0
 30
0.0
  9
$UCSORGFRONT
 10
0.0
 20
0.0
 30
0.0
  9
$UCSORGBACK
 10
0.0
 20
0.0
 30
0.0
  9
$PUCSBASE
  2

  9
$PUCSNAME
  2

  9
$PUCSORG
 10
0.0
 20
0.0
 30
0.0
  9
$PUCSXDIR
 10
1.0
 20
0.0
 30
0.0
  9
$PUCSYDIR
 10
0.0
 20
1.0
 30
0.0
  9
$PUCSORTHOREF
  2

  9
$PUCSORTHOVIEW
 70
     0
  9
$PUCSORGTOP
 10
0.0
 20
0.0
 30
0.0
  9
$PUCSORGBOTTOM
 10
0.0
 20
0.0
 30
0.0
  9
$PUCSORGLEFT
 10
0.0
 20
0.0
 30
0.0
  9
$PUCSORGRIGHT
 10
0.0
 20
0.0
 30
0.0
  9
$PUCSORGFRONT
 10
0.0
 20
0.0
 30
0.0
  9
$PUCSORGBACK
 10
0.0
 20
0.0
 30
0.0
  9
$USERI1
 70
     0
  9
$USERI2
 70
     0
  9
$USERI3
 70
     0
  9
$USERI4
 70
     0
  9
$USERI5
 70
     0
  9
$USERR1
 40
0.0
  9
$USERR2
 40
0.0
  9
$USERR3
 40
0.0
  9
$USERR4
 40
0.0
  9
$USERR5
 40
0.0
  9
$WORLDVIEW
 70
     1
  9
$SHADEDGE
 70
     3
  9
$SHADEDIF
 70
    70
  9
$TILEMODE
 70
     1
  9
$MAXACTVP
 70
    16
  9
$PINSBASE
 10
0.0
 20
0.0
 30
0.0
  9
$PLIMCHECK
 70
     0
  9
$PEXTMIN
 10
1.000000000000000E+20
 20
1.000000000000000E+20
 30
1.000000000000000E+20
  9
$PEXTMAX
 10
-1.000000000000000E+20
 20
-1.000000000000000E+20
 30
-1.000000000000000E+20
  9
$PLIMMIN
 10
0.0
 20
0.0
  9
$PLIMMAX
 10
12.0
 20
9.0
  9
$UNITMODE
 70
     0
  9
$VISRETAIN
 70
     0
  9
$PLINEGEN
 70
     0
  9
$PSLTSCALE
 70
     1
  9
$TREEDEPTH
 70
  3020
  9
$CMLSTYLE
  2
STANDARD
  9
$CMLJUST
 70
     0
  9
$CMLSCALE
 40
1.0
  9
$PROXYGRAPHICS
 70
     1
  9
$MEASUREMENT
 70
     0
  9
$CELWEIGHT
370
    -1
  9
$ENDCAPS
280
     0
  9
$JOINSTYLE
280
     0
  9
$LWDISPLAY
290
     0
  9
$INSUNITS
 70
     0
  9
$HYPERLINKBASE
  1

  9
$STYLESHEET
  1
Harvey Std Plot Style.ctb
  9
$XEDIT
290
     1
  9
$CEPSNTYPE
380
     0
  9
$PSTYLEMODE
290
     1
  9
$FINGERPRINTGUID
  2
{E04C8470-A686-11D3-A221-005004E2D0E9}
  9
$VERSIONGUID
  2
{0EBB9C13-1E4D-1140-95BD-B49C6930FD41}
  9
$EXTNAMES
290
     1
  9
$PSVPSCALE
 40
0.0
  9
$OLESTARTUP
290
     0
  9
$SORTENTS
280
    96
  9
$INDEXCTL
280
     0
  9
$HIDETEXT
280
     0
  9
$XCLIPFRAME
280
     0
  9
$HALOGAP
280
     0
  9
$OBSCOLOR
 70
   257
  9
$OBSLTYPE
280
     0
  9
$INTERSECTIONDISPLAY
280
     0
  9
$INTERSECTIONCOLOR
 70
   257
  9
$DIMASSOC
280
     1
  9
$PROJECTNAME
  1

  9
$CAMERADISPLAY
290
     0
  9
$LENSLENGTH
 40
50.0
  9
$CAMERAHEIGHT
 40
0.0
  9
$STEPSPERSEC
 40
2.0
  9
$STEPSIZE
 40
6.0
  9
$3DDWFPREC
 40
2.0
  9
$PSOLWIDTH
 40
0.25
  9
$PSOLHEIGHT
 40
4.0
  9
$LOFTANG1
 40
1.570796326794896
  9
$LOFTANG2
 40
1.570796326794896
  9
$LOFTMAG1
 40
0.0
  9
$LOFTMAG2
 40
0.0
  9
$LOFTPARAM
 70
     7
  9
$LOFTNORMALS
280
     1
  9
$LATITUDE
 40
37.795
  9
$LONGITUDE
 40
-122.394
  9
$NORTHDIRECTION
 40
0.0
  9
$TIMEZONE
 70
 -8000
  9
$LIGHTGLYPHDISPLAY
280
     1
  9
$TILEMODELIGHTSYNCH
280
     1
  9
$CMATERIAL
347
4B4E7B
  9
$SOLIDHIST
280
     0
  9
$SHOWHIST
280
     1
  9
$DWFFRAME
280
     2
  9
$DGNFRAME
280
     0
  9
$REALWORLDSCALE
290
     1
  9
$INTERFERECOLOR
 62
     1
  9
$INTERFEREOBJVS
345
4B4E9D
  9
$INTERFEREVPVS
346
4B4E9A
  9
$CSHADOW
280
     0
  9
$SHADOWPLANELOCATION
 40
0.0
  0
ENDSEC
  0
SECTION
  2
CLASSES
  0
CLASS
  1
ACDBDICTIONARYWDFLT
  2
AcDbDictionaryWithDefault
  3
ObjectDBX Classes
 90
        0
 91
        1
280
     0
281
     0
  0
CLASS
  1
ACDBPLACEHOLDER
  2
AcDbPlaceHolder
  3
ObjectDBX Classes
 90
        0
 91
        1
280
     0
281
     0
  0
CLASS
  1
LAYOUT
  2
AcDbLayout
  3
ObjectDBX Classes
 90
        0
 91
        2
280
     0
281
     0
  0
CLASS
  1
PLOTSETTINGS
  2
AcDbPlotSettings
  3
ObjectDBX Classes
 90
        0
 91
        2
280
     0
281
     0
  0
CLASS
  1
MTV_DERIVED_OBJECT
  2
CMtvAcDerivedObject
  3
MTV_ADME_ARX
 90
     1023
 91
        5
280
     0
281
     0
  0
CLASS
  1
DICTIONARYVAR
  2
AcDbDictionaryVar
  3
ObjectDBX Classes
 90
        0
 91
       10
280
     0
281
     0
  0
CLASS
  1
TABLESTYLE
  2
AcDbTableStyle
  3
ObjectDBX Classes
 90
     4095
 91
        1
280
     0
281
     0
  0
CLASS
  1
ACME_DOCUMENT
  2
AcMeDbDoc
  3
AcMeServices
 90
        0
 91
        0
280
     0
281
     0
  0
CLASS
  1
ACMESCOPE
  2
AcMeScope
  3
AcMeServices
 90
        0
 91
        2
280
     0
281
     0
  0
CLASS
  1
ACMECOMMANDHISTORY
  2
AcMeCommandHistory
  3
AcMeServices
 90
        0
 91
        2
280
     0
281
     0
  0
CLASS
  1
ACIMSYSVARMAN
  2
AcImSysVarManager
  3
AcMeServices
 90
        0
 91
        6
280
     0
281
     0
  0
CLASS
  1
ACIMINTSYSVAR
  2
AcImIntSysVar
  3
AcMeServices
 90
        0
 91
       27
280
     0
281
     0
  0
CLASS
  1
ACMEDRAWINGMAN
  2
AcMeDrawingMan
  3
AcMeServices
 90
        0
 91
        2
280
     0
281
     0
  0
CLASS
  1
ACMEVIEW
  2
AcMeView
  3
AcMeServices
 90
        0
 91
        2
280
     0
281
     0
  0
CLASS
  1
ACDBENTITYCACHE
  2
AcMeEntityCache
  3
AcMeServices
 90
        0
 91
        0
280
     0
281
     0
  0
CLASS
  1
GSMANAGER
  2
AcMeGSManager
  3
AcMeServices
 90
        0
 91
        0
280
     0
281
     0
  0
CLASS
  1
AMDTINTERNALREACTOR
  2
AmdtInternalReactor
  3
AcMeServices
 90
        0
 91
        0
280
     0
281
     0
  0
CLASS
  1
ACMESTATEMGR
  2
AcMeStateMgr
  3
AcMeServices
 90
        0
 91
        2
280
     0
281
     0
  0
CLASS
  1
ACGREFMASTER
  2
AcGrefMaster
  3
AcAttribServices
 90
        0
 91
        2
280
     0
281
     0
  0
CLASS
  1
AM_DRAWING_MGR
  2
AcDmDwgMgr
  3
AcMechDwgViewMgmt
 90
        0
 91
        2
280
     0
281
     0
  0
CLASS
  1
AM_DWG_DOCUMENT
  2
AcDmDwgDocument
  3
AcMechDwgViewMgmt
 90
        0
 91
        2
280
     0
281
     0
  0
CLASS
  1
AM_DWG_SHEET
  2
AcDmSheet
  3
AcMechDwgViewMgmt
 90
        0
 91
        2
280
     0
281
     0
  0
CLASS
  1
AM_VIEWDIMPARMAP
  2
AcDmViewDimParMap
  3
AcMechDwgViewMgmt
 90
        0
 91
        2
280
     0
281
     0
  0
CLASS
  1
ACIMREALSYSVAR
  2
AcImRealSysVar
  3
AcMeServices
 90
        0
 91
        2
280
     0
281
     0
  0
CLASS
  1
AM_DWGMGR_NAME
  2
AcDmDwgMgrName
  3
AcMechDwgViewMgmt
 90
        0
 91
        2
280
     0
281
     0
  0
CLASS
  1
ACME_DATABASE
  2
AcMeDbDatabase
  3
AcMeServices
 90
        0
 91
        0
280
     0
281
     0
  0
CLASS
  1
ACRFINSADJUSTERMGR
  2
AcRfInsAdjusterMgr
  3
AcMeServices
 90
        0
 91
        0
280
     0
281
     0
  0
CLASS
  1
ACGREFACADMASTER
  2
AcGrefacadMaster
  3
AcGrefServices
 90
        0
 91
        2
280
     0
281
     0
  0
CLASS
  1
AMDTMENUSTATEMGR
  2
AmdtMenuStateMgr
  3
McadcomServices
 90
        0
 91
        0
280
     0
281
     0
  0
CLASS
  1
AMDTMCOMMENUSTATE
  2
AmdtMcomMenuState
  3
McadcomServices
 90
        0
 91
        0
280
     0
281
     0
  0
CLASS
  1
AMIMASTER
  2
AmiMaster
  3
AmiServices
 90
        0
 91
        2
280
     0
281
     0
  0
CLASS
  1
AMGSETTINGSOBJ
  2
AmgSettingsObj
  3
"AcadM|Product Description: AutoCAD Mechanical 2000|Company: Autodesk"
 90
        0
 91
        4
280
     0
281
     0
  0
CLASS
  1
MAPIAMMOUDLE
  2
MApiAmModule
  3
MApiAmServices
 90
        0
 91
        2
280
     0
281
     0
  0
CLASS
  1
ACIMSTRSYSVAR
  2
AcImStrSysVar
  3
AcMeServices
 90
        0
 91
        6
280
     0
281
     0
  0
CLASS
  1
AMDTADMENUSTATE
  2
AmdtAdMenuState
  3
DesignerServices
 90
        0
 91
        0
280
     0
281
     0
  0
CLASS
  1
ADAPPL
  2
AcAdAppl
  3
DesignerServices
 90
        0
 91
        2
280
     0
281
     0
  0
CLASS
  1
DEPMGR
  2
AcAdDepMgr
  3
DesignerServices
 90
        0
 91
        2
280
     0
281
     0
  0
CLASS
  1
PARAMMGR
  2
AcAdParamMgr
  3
DesignerServices
 90
        0
 91
        2
280
     0
281
     0
  0
CLASS
  1
PARAMSCOPE
  2
AcAdParamScope
  3
DesignerServices
 90
        0
 91
        2
280
     0
281
     0
  0
CLASS
  1
NAMEDAPPL
  2
AcAdNamedAppl
  3
DesignerServices
 90
        0
 91
        2
280
     0
281
     0
  0
CLASS
  1
AMDTDMMENUSTATE
  2
AmdtDmMenuState
  3
AcMechDwgViewMgmt
 90
        0
 91
        0
280
     0
281
     0
  0
CLASS
  1
AMDTAMMENUSTATE
  2
AmdtAmMenuState
  3
DesignerAssemblies
 90
        0
 91
        0
280
     0
281
     0
  0
CLASS
  1
ACAMPROJECT
  2
AcAmProject
  3
DesignerAssemblies
 90
        0
 91
        2
280
     0
281
     0
  0
CLASS
  1
ACAMGRCOMPDEF
  2
AcAmGrCompDef
  3
DesignerAssemblies
 90
        0
 91
        2
280
     0
281
     0
  0
CLASS
  1
ACCMCONTEXT
  2
AcCmContext
  3
DesignerAssemblies
 90
        0
 91
        2
280
     0
281
     0
  0
CLASS
  1
ACAMCOMPDEF
  2
AcAmCompDef
  3
DesignerAssemblies
 90
        0
 91
        2
280
     0
281
     0
  0
CLASS
  1
ACAMCOMPDEFMGR
  2
AcAmCompDefMgr
  3
DesignerAssemblies
 90
        0
 91
        2
280
     0
281
     0
  0
CLASS
  1
AMCONTEXTMGR
  2
AcAmContextMgr
  3
DesignerAssemblies
 90
        0
 91
        2
280
     0
281
     0
  0
CLASS
  1
ACAMCONTEXTMODELER
  2
AcAmContextModeler
  3
DesignerAssemblies
 90
        0
 91
        2
280
     0
281
     0
  0
CLASS
  1
ACMDATADICTIONARY
  2
AcmDataDictionary
  3
"AcmSymBB|Product Description: AutoCAD Mechanical 2004 DX|Company: Autodesk"
 90
        0
 91
        2
280
     0
281
     0
  0
CLASS
  1
CATALOGSTATE
  2
AcAmCatalogState
  3
DesignerAssemblies
 90
        0
 91
        2
280
     0
281
     0
  0
CLASS
  1
ACAMGRCOMPDEFSET
  2
AcAmGrCompDefSet
  3
DesignerAssemblies
 90
        0
 91
        0
280
     0
281
     0
  0
CLASS
  1
AMDTBROWSERDBTAB
  2
AmdtBrowserDbTab
  3
McadcomServices
 90
        0
 91
        0
280
     0
281
     0
  0
CLASS
  1
CBROWSERAPPOBJECT
  2
CBrowserAppObject
  3
McadcomServices
 90
        0
 91
        0
280
     0
281
     0
  0
CLASS
  1
DM_PLACEHOLDER
  2
AcDmSelsetPlaceholder
  3
AcMechDwgViewMgmt
 90
        0
 91
        0
280
     0
281
     0
  0
CLASS
  1
ACMSTANDARDANSI
  2
AcmStandardANSI
  3
"Amdt_StdImp|Product Description: AutoCAD Mechanical 2004 DX|Company: Autodesk"
 90
        0
 91
        2
280
     0
281
     0
  0
CLASS
  1
AMGOBJPROPCFG
  2
AmgObjPropCfg
  3
"AmgLay|Product Description: AutoCAD Mechanical 2000|Company: Autodesk"
 90
        1
 91
        2
280
     0
281
     0
  0
CLASS
  1
ACMSURFSTANDARDANSI
  2
AcmSurfTextStdANSI
  3
"Amdt_StdImp|Product Description: AutoCAD Mechanical 2004 DX|Company: Autodesk"
 90
        0
 91
        2
280
     0
281
     0
  0
CLASS
  1
ACMFCFSTANDARDANSI
  2
AcmFCFStdANSI
  3
"Amdt_StdImp|Product Description: AutoCAD Mechanical 2004 DX|Company: Autodesk"
 90
        0
 91
        2
280
     0
281
     0
  0
CLASS
  1
ACMWELDSTANDARDANSI
  2
AcmWeldingStdANSI
  3
"Amdt_StdImp|Product Description: AutoCAD Mechanical 2004 DX|Company: Autodesk"
 90
        0
 91
        2
280
     0
281
     0
  0
CLASS
  1
ACMIDSTANDARDANSI
  2
AcmIdStdANSI
  3
"Amdt_StdImp|Product Description: AutoCAD Mechanical 2004 DX|Company: Autodesk"
 90
        0
 91
        2
280
     0
281
     0
  0
CLASS
  1
ACMDATUMSTANDARDANSI
  2
AcmDatumStdANSI
  3
"Amdt_StdImp|Product Description: AutoCAD Mechanical 2004 DX|Company: Autodesk"
 90
        0
 91
        2
280
     0
281
     0
  0
CLASS
  1
ACMBOMSTANDARDANSI
  2
AcmBOMStdANSI
  3
"Amdt_StdImp|Product Description: AutoCAD Mechanical 2004 DX|Company: Autodesk"
 90
        0
 91
        2
280
     0
281
     0
  0
CLASS
  1
ACMDETAILSTANDARDANSI
  2
AmdtDetailSymStdANSI
  3
"Amdt_StdImp|Product Description: AutoCAD Mechanical 2004 DX|Company: Autodesk"
 90
        0
 91
        2
280
     0
281
     0
  0
CLASS
  1
ACMSECTIONSTANDARDANSI
  2
AmdtSectionSymStdANSI
  3
"Amdt_StdImp|Product Description: AutoCAD Mechanical 2004 DX|Company: Autodesk"
 90
        0
 91
        2
280
     0
281
     0
  0
CLASS
  1
ACMCENTERLINESTANDARDANSI
  2
AmdtCenterLineStdANSI
  3
"Amdt_StdImp|Product Description: AutoCAD Mechanical 2004 DX|Company: Autodesk"
 90
        0
 91
        2
280
     0
281
     0
  0
CLASS
  1
ACMTHREADLINESTANDARDANSI
  2
AmdtThreadLineStdANSI
  3
"Amdt_StdImp|Product Description: AutoCAD Mechanical 2004 DX|Company: Autodesk"
 90
        0
 91
        2
280
     0
281
     0
  0
CLASS
  1
ACMNOTESTANDARDANSI
  2
AmdtNoteStdANSI
  3
"Amdt_StdImp|Product Description: AutoCAD Mechanical 2004 DX|Company: Autodesk"
 90
        0
 91
        2
280
     0
281
     0
  0
CLASS
  1
AMDTNOTETEMPLATEDB
  2
AmdtNoteTemplateDB
  3
AMDT_STDIMP_MODULE_NAME
 90
        0
 91
        7
280
     0
281
     0
  0
CLASS
  1
ACAMGLAYSTD
  2
AcAmgLayStd
  3
"AcAmgLayStd|Product Description: AutoCAD Mechanical 2000|Company: Autodesk"
 90
        0
 91
        2
280
     0
281
     0
  0
CLASS
  1
ACAMGDIMSTD
  2
AcAmgDimStd
  3
"AcAmgDimStd|Product Description: AutoCAD Mechanical 2000|Company: Autodesk"
 90
        0
 91
        2
280
     0
281
     0
  0
CLASS
  1
ACAMGHOLECHARTSTDANSI
  2
AcAmgHoleChartStdANSI
  3
ACMSYMBB_MODULE_NAME
 90
        0
 91
        2
280
     0
281
     0
  0
CLASS
  1
ACAMGTITLESTD
  2
AcAmgTitleStd
  3
"TITLEAPP"
 90
        0
 91
        2
280
     0
281
     0
  0
CLASS
  1
ACAMGFILTERDAT
  2
AcAmgFilterDat
  3
"AcadM|Product Description: AutoCAD Mechanical 2000|Company: Autodesk"
 90
        0
 91
        7
280
     0
281
     0
  0
CLASS
  1
SORTENTSTABLE
  2
AcDbSortentsTable
  3
ObjectDBX Classes
 90
        0
 91
        3
280
     0
281
     0
  0
CLASS
  1
ACMDATAENTRYBLOCK
  2
AcmDataEntryBlock
  3
"AcmSymBB|Product Description: AutoCAD Mechanical 2004 DX|Company: Autodesk"
 90
        0
 91
        0
280
     0
281
     0
  0
CLASS
  1
MATERIAL
  2
AcDbMaterial
  3
ObjectDBX Classes
 90
     1153
 91
        3
280
     0
281
     0
  0
CLASS
  1
VISUALSTYLE
  2
AcDbVisualStyle
  3
ObjectDBX Classes
 90
     4095
 91
       24
280
     0
281
     0
  0
CLASS
  1
SCALE
  2
AcDbScale
  3
ObjectDBX Classes
 90
     1153
 91
       17
280
     0
281
     0
  0
CLASS
  1
MLEADERSTYLE
  2
AcDbMLeaderStyle
  3
ACDB_MLEADERSTYLE_CLASS
 90
     4095
 91
        1
280
     0
281
     0
  0
CLASS
  1
ACDBSECTIONVIEWSTYLE
  2
AcDbSectionViewStyle
  3
ObjectDBX Classes
 90
     1025
 91
        1
280
     0
281
     0
  0
CLASS
  1
ACDBDETAILVIEWSTYLE
  2
AcDbDetailViewStyle
  3
ObjectDBX Classes
 90
     1025
 91
        1
280
     0
281
     0
  0
CLASS
  1
CELLSTYLEMAP
  2
AcDbCellStyleMap
  3
ObjectDBX Classes
 90
     1152
 91
        1
280
     0
281
     0
  0
ENDSEC
  0
SECTION
  2
TABLES
  0
TABLE
  2
VPORT
  5
4B1AB8
330
0
100
AcDbSymbolTable
 70
     1
  0
VPORT
  5
4B4E79
330
4B1AB8
100
AcDbSymbolTableRecord
100
AcDbViewportTableRecord
  2
*Active
 70
     0
 10
0.0
 20
0.0
 11
1.0
 21
1.0
 12
14.75732743039509
 22
10.48486399351138
 13
0.0
 23
0.0
 14
0.125
 24
0.125
 15
0.25
 25
0.25
 16
0.0
 26
0.0
 36
1.0
 17
0.0
 27
0.0
 37
0.0
 40
19.80319746439021
 41
2.292712066905615
 42
50.0
 43
0.0
 44
0.0
 50
0.0
 51
0.0
 71
     0
 72
 20000
 73
     1
 74
     3
 75
     0
 76
     0
 77
     0
 78
     0
281
     0
 65
     0
110
0.0
120
0.0
130
0.0
111
1.0
121
0.0
131
0.0
112
0.0
122
1.0
132
0.0
 79
     0
146
0.0
348
4B4E99
 60
     3
 61
     5
292
     1
282
     1
141
0.0
142
0.0
 63
   250
421
  3355443
1001
ACAD_NAV_VCDISPLAY
1070
     3
  0
ENDTAB
  0
TABLE
  2
LTYPE
  5
4B1AB5
330
0
100
AcDbSymbolTable
 70
    10
  0
LTYPE
  5
4B1AC2
330
4B1AB5
100
AcDbSymbolTableRecord
100
AcDbLinetypeTableRecord
  2
BYBLOCK
 70
     0
  3

 72
    65
 73
     0
 40
0.0
  0
LTYPE
  5
4B1AC3
330
4B1AB5
100
AcDbSymbolTableRecord
100
AcDbLinetypeTableRecord
  2
BYLAYER
 70
     0
  3

 72
    65
 73
     0
 40
0.0
  0
LTYPE
  5
4B1AC4
330
4B1AB5
100
AcDbSymbolTableRecord
100
AcDbLinetypeTableRecord
  2
CONTINUOUS
 70
     0
  3
Solid line
 72
    65
 73
     0
 40
0.0
  0
LTYPE
  5
4B4BCA
330
4B1AB5
100
AcDbSymbolTableRecord
100
AcDbLinetypeTableRecord
  2
HIDDEN
 70
     0
  3
Hidden __ __ __ __ __ __ __ __ __ __ __ __ __ _
 72
    65
 73
     2
 40
0.375
 49
0.25
 74
     0
 49
-0.125
 74
     0
  0
LTYPE
  5
4B4BCB
330
4B1AB5
100
AcDbSymbolTableRecord
100
AcDbLinetypeTableRecord
  2
PHANTOM2
 70
     0
  3
Phantom (.5x) ___ _ _ ___ _ _ ___ _ _ ___ _ _
 72
    65
 73
     6
 40
1.25
 49
0.625
 74
     0
 49
-0.125
 74
     0
 49
0.125
 74
     0
 49
-0.125
 74
     0
 49
0.125
 74
     0
 49
-0.125
 74
     0
  0
LTYPE
  5
4B4BCC
330
4B1AB5
100
AcDbSymbolTableRecord
100
AcDbLinetypeTableRecord
  2
CENTER
 70
     0
  3
Center ____ _ ____ _ ____ _ ____ _ ____ _ ____
 72
    65
 73
     4
 40
2.0
 49
1.25
 74
     0
 49
-0.25
 74
     0
 49
0.25
 74
     0
 49
-0.25
 74
     0
  0
LTYPE
  5
4B4C07
330
4B1AB5
100
AcDbSymbolTableRecord
100
AcDbLinetypeTableRecord
  2
Amconstr
 70
     0
  3
_______________________
 72
    65
 73
     2
 40
9999.0
 49
9999.0
 74
     0
 49
0.0
 74
     0
  0
LTYPE
  5
4B4C0D
330
4B1AB5
100
AcDbSymbolTableRecord
100
AcDbLinetypeTableRecord
  2
CENTER2
 70
     0
  3
Center (.5x) ___ _ ___ _ ___ _ ___ _ ___ _ ___
 72
    65
 73
     4
 40
1.125
 49
0.75
 74
     0
 49
-0.125
 74
     0
 49
0.125
 74
     0
 49
-0.125
 74
     0
  0
LTYPE
  5
4B4C0E
330
4B1AB5
100
AcDbSymbolTableRecord
100
AcDbLinetypeTableRecord
  2
HIDDEN2
 70
     0
  3
Hidden (.5x) _ _ _ _ _ _ _ _ _ _ _ _ _ _ _ _ _
 72
    65
 73
     2
 40
0.1875
 49
0.125
 74
     0
 49
-0.0625
 74
     0
  0
LTYPE
  5
4B4C0F
330
4B1AB5
100
AcDbSymbolTableRecord
100
AcDbLinetypeTableRecord
  2
Amzigzag2
 70
     0
  3
/\/-/\/-/\/-/\/-/\/-/\/
 72
    65
 73
     2
 40
0.4401
 49
0.0001
 74
     4
 75
   136
340
4B4C0B
 46
0.0016
 50
0.0
 44
0.0
 45
0.0
 49
-0.4400000000000001
 74
     0
  0
LTYPE
  5
4B4C1D
330
4B1AB5
100
AcDbSymbolTableRecord
100
AcDbLinetypeTableRecord
  2
ACANSTGB
 70
     0
  3
__ . . __ . .
 72
    65
 73
     6
 40
0.35433070866
 49
0.15748031496
 74
     0
 49
-0.03937007874
 74
     0
 49
0.03937007874
 74
     0
 49
-0.03937007874
 74
     0
 49
0.03937007874
 74
     0
 49
-0.03937007874
 74
     0
  0
LTYPE
  5
4B4C1E
330
4B1AB5
100
AcDbSymbolTableRecord
100
AcDbLinetypeTableRecord
  2
ACANSTGL
 70
     0
  3
_ _ _ _ _
 72
    65
 73
     2
 40
0.11811023622
 49
0.07874015748
 74
     0
 49
-0.03937007874
 74
     0
  0
ENDTAB
  0
TABLE
  2
LAYER
  5
4B1AB2
102
{ACAD_XDICTIONARY
360
4B1D43
102
}
330
0
100
AcDbSymbolTable
 70
     9
  0
LAYER
  5
4B1ABF
102
{ACAD_XDICTIONARY
360
4B4ECF
102
}
330
4B1AB2
100
AcDbSymbolTableRecord
100
AcDbLayerTableRecord
  2
0
 70
     0
 62
    31
  6
CONTINUOUS
370
    -3
390
4B1D13
347
4B4E8B
348
0
  0
LAYER
  5
4B1AE0
102
{ACAD_XDICTIONARY
360
4B4ED1
102
}
330
4B1AB2
100
AcDbSymbolTableRecord
100
AcDbLayerTableRecord
  2
THIN
 70
     0
 62
     9
  6
CONTINUOUS
370
    -3
390
4B1D13
347
4B4E8B
348
0
  0
LAYER
  5
4B1AE2
102
{ACAD_XDICTIONARY
360
4B4ED3
102
}
330
4B1AB2
100
AcDbSymbolTableRecord
100
AcDbLayerTableRecord
  2
DIM
 70
     0
 62
     7
  6
CONTINUOUS
370
    -3
390
4B1D13
347
4B4E8B
348
0
  0
LAYER
  5
4B1AE3
102
{ACAD_XDICTIONARY
360
4B4ED5
102
}
330
4B1AB2
100
AcDbSymbolTableRecord
100
AcDbLayerTableRecord
  2
CYAN
 70
     0
 62
     4
  6
CONTINUOUS
370
    -3
390
4B1D13
347
4B4E8B
348
0
  0
LAYER
  5
4B1AE5
102
{ACAD_XDICTIONARY
360
4B4ED7
102
}
330
4B1AB2
100
AcDbSymbolTableRecord
100
AcDbLayerTableRecord
  2
XTHIN
 70
     0
 62
   112
  6
CONTINUOUS
370
    -3
390
4B1D13
347
4B4E8B
348
0
  0
LAYER
  5
4B1AE8
330
4B1AB2
100
AcDbSymbolTableRecord
100
AcDbLayerTableRecord
  2
DEFPOINTS
 70
     0
 62
     7
  6
CONTINUOUS
290
     0
370
    -3
390
4B1D13
347
4B4E8B
348
0
  0
LAYER
  5
4B1D42
102
{ACAD_XDICTIONARY
360
4B4ED9
102
}
330
4B1AB2
100
AcDbSymbolTableRecord
100
AcDbLayerTableRecord
  2
10
 70
     0
 62
     9
  6
CONTINUOUS
370
    -3
390
4B1D13
347
4B4E8B
348
0
  0
LAYER
  5
4B32C5
102
{ACAD_XDICTIONARY
360
4B4EDB
102
}
330
4B1AB2
100
AcDbSymbolTableRecord
100
AcDbLayerTableRecord
  2
vent
 70
     0
 62
     7
  6
CONTINUOUS
370
    -3
390
4B1D13
347
4B4E8B
348
0
  0
LAYER
  5
4B4CC5
102
{ACAD_XDICTIONARY
360
4B4EDD
102
}
330
4B1AB2
100
AcDbSymbolTableRecord
100
AcDbLayerTableRecord
  2
3
 70
     0
 62
     3
  6
CONTINUOUS
370
    -3
390
4B1D13
347
4B4E8B
348
0
  0
ENDTAB
  0
TABLE
  2
STYLE
  5
4B1AB3
330
0
100
AcDbSymbolTable
 70
     7
  0
STYLE
  5
4B1AC0
330
4B1AB3
100
AcDbSymbolTableRecord
100
AcDbTextStyleTableRecord
  2
STANDARD
 70
     0
 40
0.0
 41
1.0
 50
0.0
 71
     0
 42
0.2
  3
txt
  4

  0
STYLE
  5
4B1ACE
330
4B1AB3
100
AcDbSymbolTableRecord
100
AcDbTextStyleTableRecord
  2
ROMANS
 70
     0
 40
0.0
 41
1.0
 50
10.0
 71
     0
 42
0.08
  3
romans
  4

  0
STYLE
  5
4B1BF0
330
4B1AB3
100
AcDbSymbolTableRecord
100
AcDbTextStyleTableRecord
  2
SIMPLEX
 70
     0
 40
0.0
 41
1.0
 50
10.0
 71
     0
 42
0.04
  3
SIMPLEX
  4

  0
STYLE
  5
4B2280
330
4B1AB3
100
AcDbSymbolTableRecord
100
AcDbTextStyleTableRecord
  2
TAHOMA
 70
     0
 40
0.0
 41
1.0
 50
0.0
 71
     0
 42
0.045
  3
tahoma.ttf
  4

1001
ACAD
1000
Tahoma
1071
       34
  0
STYLE
  5
4B4C0B
330
4B1AB3
100
AcDbSymbolTableRecord
100
AcDbTextStyleTableRecord
  2

 70
     1
 40
0.0
 41
1.0
 50
0.0
 71
     0
 42
0.08
  3
genltshp.shx
  4

  0
STYLE
  5
4B4C10
330
4B1AB3
100
AcDbSymbolTableRecord
100
AcDbTextStyleTableRecord
  2
ACANSTS
 70
     0
 40
1.0
 41
1.0
 50
0.0
 71
     0
 42
0.08
  3
romans.shx
  4

  0
STYLE
  5
4B4C1C
330
4B1AB3
100
AcDbSymbolTableRecord
100
AcDbTextStyleTableRecord
  2
ACANSGDT
 70
     0
 40
0.0
 41
1.0
 50
0.0
 71
     0
 42
0.08
  3
amgdt.shx
  4

  0
ENDTAB
  0
TABLE
  2
VIEW
  5
4B1AB6
330
0
100
AcDbSymbolTable
 70
     1
  0
VIEW
  5
4B1AD8
330
4B1AB6
100
AcDbSymbolTableRecord
100
AcDbViewTableRecord
  2
OLE1
 70
     0
 40
5.004887585532746
 10
4.0
 20
2.502443792766373
 41
8.0
 11
0.0
 21
0.0
 31
1.0
 12
0.0
 22
0.0
 32
0.0
 42
50.0
 43
0.0
 44
0.0
 50
0.0
 71
     0
281
     0
 72
     0
 73
     0
348
4B4E99
  0
ENDTAB
  0
TABLE
  2
UCS
  5
4B1AB7
330
0
100
AcDbSymbolTable
 70
     0
  0
ENDTAB
  0
TABLE
  2
APPID
  5
4B1AB9
330
0
100
AcDbSymbolTable
 70
    17
  0
APPID
  5
4B1AC1
330
4B1AB9
100
AcDbSymbolTableRecord
100
AcDbRegAppTableRecord
  2
ACAD
 70
     0
  0
APPID
  5
4B1ADB
330
4B1AB9
100
AcDbSymbolTableRecord
100
AcDbRegAppTableRecord
  2
TB_S_MPD
 70
     0
  0
APPID
  5
4B1F14
330
4B1AB9
100
AcDbSymbolTableRecord
100
AcDbRegAppTableRecord
  2
RAK
 70
     0
  0
APPID
  5
4B2288
330
4B1AB9
100
AcDbSymbolTableRecord
100
AcDbRegAppTableRecord
  2
MTVPROFILELINK
 70
     0
  0
APPID
  5
4B2289
330
4B1AB9
100
AcDbSymbolTableRecord
100
AcDbRegAppTableRecord
  2
ADMEPROFILELINK
 70
     0
  0
APPID
  5
4B4B9D
330
4B1AB9
100
AcDbSymbolTableRecord
100
AcDbRegAppTableRecord
  2
MCAD_NO_VIS
 70
     0
  0
APPID
  5
4B4B9E
330
4B1AB9
100
AcDbSymbolTableRecord
100
AcDbRegAppTableRecord
  2
ACAD_TEMP_GRAPHIC
 70
     0
  0
APPID
  5
4B4BCE
330
4B1AB9
100
AcDbSymbolTableRecord
100
AcDbRegAppTableRecord
  2
AD_DRAW
 70
     0
  0
APPID
  5
4B4BD1
330
4B1AB9
100
AcDbSymbolTableRecord
100
AcDbRegAppTableRecord
  2
ACATTRIBSERVICES
 70
     0
  0
APPID
  5
4B4BF5
330
4B1AB9
100
AcDbSymbolTableRecord
100
AcDbRegAppTableRecord
  2
DESIGNERASSEMBLIES
 70
     0
  0
APPID
  5
4B4BFB
330
4B1AB9
100
AcDbSymbolTableRecord
100
AcDbRegAppTableRecord
  2
ACADM_DIM_EDIT
 70
     0
  0
APPID
  5
4B4BFC
330
4B1AB9
100
AcDbSymbolTableRecord
100
AcDbRegAppTableRecord
  2
AMDT_DM_ADJ
 70
     0
  0
APPID
  5
4B4C29
330
4B1AB9
100
AcDbSymbolTableRecord
100
AcDbRegAppTableRecord
  2
ACAD_DSTYLE_DIMARC_LENGTH_SYMBOL
 70
     0
  0
APPID
  5
4B4C2A
330
4B1AB9
100
AcDbSymbolTableRecord
100
AcDbRegAppTableRecord
  2
ACAD_DSTYLE_DIMJOGGED_JOGANGLE_SYMBOL
 70
     0
  0
APPID
  5
4B4C69
330
4B1AB9
100
AcDbSymbolTableRecord
100
AcDbRegAppTableRecord
  2
AcAecLayerStandard
 70
     0
  0
APPID
  5
4B4CDE
330
4B1AB9
100
AcDbSymbolTableRecord
100
AcDbRegAppTableRecord
  2
ACAD_EXEMPT_FROM_CAD_STANDARDS
 70
     0
  0
APPID
  5
4B4EE6
330
4B1AB9
100
AcDbSymbolTableRecord
100
AcDbRegAppTableRecord
  2
ACAD_NAV_VCDISPLAY
 70
     0
  0
ENDTAB
  0
TABLE
  2
DIMSTYLE
  5
4B1ABA
330
0
100
AcDbSymbolTable
 70
     7
100
AcDbDimStyleTable
 71
     1
340
4B1AED
  0
DIMSTYLE
105
4B1AED
102
{ACAD_REACTORS
330
4B4430
330
4B4491
330
4B44B3
330
4B4827
102
}
330
4B1ABA
100
AcDbSymbolTableRecord
100
AcDbDimStyleTableRecord
  2
STANDARD
 70
     0
 41
0.125
 42
0.08
 44
0.08
140
0.09
141
0.0
146
0.4444444444444445
271
     3
272
     2
340
4B1ACE
  0
DIMSTYLE
105
4B4C28
330
4B1ABA
100
AcDbSymbolTableRecord
100
AcDbDimStyleTableRecord
  2
AM_ANSI
 70
     0
  4
mm
 41
0.1
 42
0.05
 43
0.5
 44
0.1
 47
0.1
 48
0.1
 78
     7
 79
     2
 90
     1
140
0.12
141
0.0
146
0.71
147
0.06
176
   256
177
   256
178
     2
274
     4
284
     7
340
4B1AC0
371
    -1
372
    -1
1001
ACAD_DSTYLE_DIMJOGGED_JOGANGLE_SYMBOL
1070
   384
1040
0.7853981633974483
  0
DIMSTYLE
105
4B4C31
330
4B1ABA
100
AcDbSymbolTableRecord
100
AcDbDimStyleTableRecord
  2
AM_ANSI$3
 70
     0
  4
mm
 41
0.1
 42
0.05
 43
0.5
 44
0.1
 47
0.1
 48
0.1
 78
     7
 79
     2
 90
     1
140
0.12
141
0.0
146
0.71
147
0.06
176
   256
177
   256
178
     2
274
     4
284
     7
288
     1
289
     0
340
4B1AC0
371
    -1
372
    -1
1001
ACAD_DSTYLE_DIMJOGGED_JOGANGLE_SYMBOL
1070
   384
1040
0.7853981633974483
  0
DIMSTYLE
105
4B4C34
330
4B1ABA
100
AcDbSymbolTableRecord
100
AcDbDimStyleTableRecord
  2
AM_ANSI$4
 70
     0
  4
mm
 41
0.1
 42
0.05
 43
0.5
 44
0.1
 47
0.1
 48
0.1
 78
     7
 79
     2
 90
     1
140
0.12
141
0.0
146
0.71
147
0.06
176
   256
177
   256
178
     2
274
     4
284
     7
288
     1
289
     0
340
4B1AC0
371
    -1
372
    -1
1001
ACAD_DSTYLE_DIMJOGGED_JOGANGLE_SYMBOL
1070
   384
1040
0.7853981633974483
  0
DIMSTYLE
105
4B4C39
330
4B1ABA
100
AcDbSymbolTableRecord
100
AcDbDimStyleTableRecord
  2
AM_ANSI$7
 70
     0
  4
mm
 41
0.1
 42
0.05
 43
0.5
 44
0.1
 47
0.1
 48
0.1
 78
     7
 79
     2
 90
     1
140
0.24
141
0.0
146
0.71
147
0.06
176
   256
177
   256
178
     2
274
     4
284
     7
340
4B1AC0
371
    -1
372
    -1
1001
ACAD_DSTYLE_DIMJOGGED_JOGANGLE_SYMBOL
1070
   384
1040
0.7853981633974483
  0
DIMSTYLE
105
4B4C3C
330
4B1ABA
100
AcDbSymbolTableRecord
100
AcDbDimStyleTableRecord
  2
AM_ANSI$SF
 70
     0
  4
mm
 41
0.1
 42
0.05
 43
0.5
 44
0.1
 47
0.1
 48
0.1
 75
     1
 76
     1
 78
     7
 79
     2
 90
     1
140
0.12
141
0.0
146
0.71
147
0.06
176
   256
177
   256
178
     2
274
     4
284
     7
340
4B1AC0
371
    -1
372
    -1
1001
ACAD_DSTYLE_DIMJOGGED_JOGANGLE_SYMBOL
1070
   384
1040
0.7853981633974483
  0
DIMSTYLE
105
4B4C43
330
4B1ABA
100
AcDbSymbolTableRecord
100
AcDbDimStyleTableRecord
  2
AM_ANSI$SH
 70
     0
  4
mm
 41
0.1
 42
0.05
 43
0.5
 44
0.1
 47
0.1
 48
0.1
 75
     1
 76
     1
 78
     7
 79
     2
 90
     1
140
0.12
141
0.0
146
0.71
147
0.06
173
     1
176
   256
177
   256
178
     2
274
     4
284
     7
340
4B1AC0
343
4B4C3D
371
    -1
372
    -1
1001
ACAD_DSTYLE_DIMJOGGED_JOGANGLE_SYMBOL
1070
   384
1040
0.7853981633974483
  0
ENDTAB
  0
TABLE
  2
BLOCK_RECORD
  5
4B1AB1
330
0
100
AcDbSymbolTable
 70
    10
  0
BLOCK_RECORD
  5
4B1AC8
102
{ACAD_XDICTIONARY
360
4B4C71
102
}
330
4B1AB1
100
AcDbSymbolTableRecord
100
AcDbBlockTableRecord
  2
*MODEL_SPACE
340
4B1D16
 70
     0
280
     1
281
     0
  0
BLOCK_RECORD
  5
4B1AC5
330
4B1AB1
100
AcDbSymbolTableRecord
100
AcDbBlockTableRecord
  2
*PAPER_SPACE
340
4B1D17
 70
     0
280
     1
281
     0
  0
BLOCK_RECORD
  5
4B1F40
330
4B1AB1
100
AcDbSymbolTableRecord
100
AcDbBlockTableRecord
  2
ASDTNUM
340
0
102
{BLKREFS
331
4B2293
102
}
 70
     0
280
     1
281
     0
  0
BLOCK_RECORD
  5
4B4431
330
4B1AB1
100
AcDbSymbolTableRecord
100
AcDbBlockTableRecord
  2
*D1
340
0
 70
     0
280
     1
281
     0
  0
BLOCK_RECORD
  5
4B4492
330
4B1AB1
100
AcDbSymbolTableRecord
100
AcDbBlockTableRecord
  2
*D2
340
0
 70
     0
280
     1
281
     0
  0
BLOCK_RECORD
  5
4B44B4
330
4B1AB1
100
AcDbSymbolTableRecord
100
AcDbBlockTableRecord
  2
*D3
340
0
 70
     0
280
     1
281
     0
  0
BLOCK_RECORD
  5
4B4828
330
4B1AB1
100
AcDbSymbolTableRecord
100
AcDbBlockTableRecord
  2
*D4
340
0
 70
     0
280
     1
281
     0
  0
BLOCK_RECORD
  5
4B4BEC
330
4B1AB1
100
AcDbSymbolTableRecord
100
AcDbBlockTableRecord
  2
*U5
340
0
 70
     0
280
     1
281
     0
  0
BLOCK_RECORD
  5
4B4C3D
330
4B1AB1
100
AcDbSymbolTableRecord
100
AcDbBlockTableRecord
  2
GENAXEH
340
0
 70
     0
280
     1
281
     0
  0
BLOCK_RECORD
  5
4B4CC7
102
{ACAD_XDICTIONARY
360
4B4CCA
102
}
330
4B1AB1
100
AcDbSymbolTableRecord
100
AcDbBlockTableRecord
  2
Silicon Horizontal
340
0
102
{BLKREFS
331
4B4CD0
331
4B4CDC
102
}
 70
     0
280
     1
281
     0
  0
BLOCK_RECORD
  5
4B4D26
330
4B1AB1
100
AcDbSymbolTableRecord
100
AcDbBlockTableRecord
  2
Reinforced Bytyl Spacer
340
0
102
{BLKREFS
331
4B4D31
331
4B4D34
331
4B4DB1
331
4B4DB2
102
}
 70
     0
280
     1
281
     0
  0
BLOCK_RECORD
  5
4B4E1A
102
{ACAD_XDICTIONARY
360
4B4E1D
102
}
330
4B1AB1
100
AcDbSymbolTableRecord
100
AcDbBlockTableRecord
  2
Silicon Vertical Bottom
340
0
102
{BLKREFS
331
4B4E22
102
}
 70
     0
280
     1
281
     0
  0
ENDTAB
  0
ENDSEC
  0
SECTION
  2
BLOCKS
  0
BLOCK
  5
4B1AEB
330
4B1AC8
100
AcDbEntity
  8
0
100
AcDbBlockBegin
  2
*MODEL_SPACE
 70
     0
 10
0.0
 20
0.0
 30
0.0
  3
*MODEL_SPACE
  1

  0
ENDBLK
  5
4B1AEC
330
4B1AC8
100
AcDbEntity
  8
0
100
AcDbBlockEnd
  0
BLOCK
  5
4B1AE9
330
4B1AC5
100
AcDbEntity
 67
     1
  8
0
100
AcDbBlockBegin
  2
*PAPER_SPACE
 70
     0
 10
0.0
 20
0.0
 30
0.0
  3
*PAPER_SPACE
  1

  0
ENDBLK
  5
4B1AEA
330
4B1AC5
100
AcDbEntity
 67
     1
  8
0
100
AcDbBlockEnd
  0
BLOCK
  5
4B1F45
330
4B1F40
100
AcDbEntity
  8
0
100
AcDbBlockBegin
  2
ASDTNUM
 70
     2
 10
0.0
 20
0.0
 30
0.0
  3
ASDTNUM
  1

  0
ATTDEF
  5
4B228F
330
4B1F40
100
AcDbEntity
  8
THIN
100
AcDbText
 10
1.645491964163355
 20
0.7077964671298738
 30
0.0
 40
0.18
  1

 51
10.0
  7
ROMANS
100
AcDbAttributeDefinition
280
     0
  3
Revision date:
  2
REV:
 70
     0
280
     0
  0
TEXT
  5
4B2290
330
4B1F40
100
AcDbEntity
  8
THIN
100
AcDbText
 10
0.8991511953395569
 20
0.7098478649101438
 30
0.0
 40
0.18
  1
REV.
 51
10.0
  7
ROMANS
100
AcDbText
  0
TEXT
  5
4B2291
330
4B1F40
100
AcDbEntity
  8
THIN
100
AcDbText
 10
13.58214084242182
 20
0.6570694486990832
 30
0.0
 40
0.25
  1
AS
 51
10.0
  7
ROMANS
100
AcDbText
  0
ATTDEF
  5
4B2292
330
4B1F40
100
AcDbEntity
  8
THIN
100
AcDbText
 10
14.18958977281909
 20
0.6570000000000001
 30
0.0
 40
0.25
  1

 51
10.0
  7
ROMANS
100
AcDbAttributeDefinition
280
     0
  3
AS Drawing Num.:
  2
AS#
 70
     0
280
     0
  0
ENDBLK
  5
4B1F46
330
4B1F40
100
AcDbEntity
  8
0
100
AcDbBlockEnd
  0
BLOCK
  5
4B443C
330
4B4431
100
AcDbEntity
  8
0
100
AcDbBlockBegin
  2
*D1
 70
     1
 10
0.0
 20
0.0
 30
0.0
  3
*D1
  1

  0
LINE
  5
4B494B
330
4B4431
100
AcDbEntity
  8
DIM
 62
     0
440
 16777216
370
    -2
100
AcDbLine
 10
1.24467926549644
 20
8.391914873116993
 30
0.0
 11
1.24467926549644
 21
6.561252673525738
 31
0.0
  0
LINE
  5
4B494C
330
4B4431
100
AcDbEntity
  8
DIM
 62
     0
440
 16777216
370
    -2
100
AcDbLine
 10
3.501679265496264
 20
7.171914873117008
 30
0.0
 11
3.501679265496264
 21
6.561252673525738
 31
0.0
  0
LINE
  5
4B494D
330
4B4431
100
AcDbEntity
  8
DIM
 62
     0
440
 16777216
370
    -2
100
AcDbLine
 10
1.42467926549644
 20
6.761252673525738
 30
0.0
 11
1.695042776052053
 21
6.761252673525738
 31
0.0
  0
LINE
  5
4B494E
330
4B4431
100
AcDbEntity
  8
DIM
 62
     0
440
 16777216
370
    -2
100
AcDbLine
 10
3.321679265496264
 20
6.761252673525738
 30
0.0
 11
3.051315754940651
 21
6.761252673525738
 31
0.0
  0
SOLID
  5
4B494F
330
4B4431
100
AcDbEntity
  8
DIM
 62
     0
440
 16777216
100
AcDbTrace
 10
1.42467926549644
 20
6.791252673525739
 30
0.0
 11
1.42467926549644
 21
6.731252673525738
 31
0.0
 12
1.24467926549644
 22
6.761252673525738
 32
0.0
 13
1.24467926549644
 23
6.761252673525738
 33
0.0
  0
SOLID
  5
4B4950
330
4B4431
100
AcDbEntity
  8
DIM
 62
     0
440
 16777216
100
AcDbTrace
 10
3.321679265496264
 20
6.791252673525739
 30
0.0
 11
3.321679265496264
 21
6.731252673525738
 31
0.0
 12
3.501679265496264
 22
6.761252673525738
 32
0.0
 13
3.501679265496264
 23
6.761252673525738
 33
0.0
  0
MTEXT
  5
4B4951
330
4B4431
100
AcDbEntity
  8
DIM
 62
     0
440
 16777216
100
AcDbMText
 10
2.373179265496352
 20
6.761252673525738
 30
0.0
 40
0.18
 41
0.0
 46
0.0
 71
     5
 72
     1
  1
\A1;2 1/4"
  7
ROMANS
 73
     1
 44
1.0
  0
POINT
  5
4B4952
330
4B4431
100
AcDbEntity
  8
DEFPOINTS
 62
     0
440
 16777216
100
AcDbPoint
 10
1.24467926549644
 20
8.591914873116992
 30
0.0
  0
POINT
  5
4B4953
330
4B4431
100
AcDbEntity
  8
DEFPOINTS
 62
     0
440
 16777216
100
AcDbPoint
 10
3.501679265496264
 20
7.371914873117008
 30
0.0
  0
POINT
  5
4B4954
330
4B4431
100
AcDbEntity
  8
DEFPOINTS
 62
     0
440
 16777216
100
AcDbPoint
 10
3.501679265496264
 20
6.761252673525738
 30
0.0
  0
ENDBLK
  5
4B443D
330
4B4431
100
AcDbEntity
  8
0
100
AcDbBlockEnd
  0
BLOCK
  5
4B449D
330
4B4492
100
AcDbEntity
  8
0
100
AcDbBlockBegin
  2
*D2
 70
     1
 10
0.0
 20
0.0
 30
0.0
  3
*D2
  1

  0
LINE
  5
4B4D16
330
4B4492
100
AcDbEntity
  8
DIM
 62
     0
440
 16777216
370
    -2
100
AcDbLine
 10
3.92371609933942
 20
1.865613542996747
 30
0.0
 11
3.92371609933942
 21
1.374700544213672
 31
0.0
  0
LINE
  5
4B4D17
330
4B4492
100
AcDbEntity
  8
DIM
 62
     0
440
 16777216
370
    -2
100
AcDbLine
 10
5.659285342584372
 20
2.783592496997342
 30
0.0
 11
5.659285342584372
 21
1.374700544213672
 31
0.0
  0
LINE
  5
4B4D18
330
4B4492
100
AcDbEntity
  8
DIM
 62
     0
440
 16777216
370
    -2
100
AcDbLine
 10
4.103716099339419
 20
1.574700544213672
 30
0.0
 11
4.139025452489125
 21
1.574700544213672
 31
0.0
  0
LINE
  5
4B4D19
330
4B4492
100
AcDbEntity
  8
DIM
 62
     0
440
 16777216
370
    -2
100
AcDbLine
 10
5.479285342584372
 20
1.574700544213672
 30
0.0
 11
5.443890785617346
 21
1.574700544213672
 31
0.0
  0
MTEXT
  5
4B4D1A
330
4B4492
100
AcDbEntity
  8
DIM
 62
     0
440
 16777216
100
AcDbMText
 10
4.791458119053236
 20
1.484281891975506
 30
0.0
 40
0.18
 41
0.0
 46
0.0
 71
     5
 72
     1
  1
\A1;1 3/4"
  7
ROMANS
 73
     1
 44
1.0
  0
SOLID
  5
4B4D1B
330
4B4492
100
AcDbEntity
  8
DIM
 62
     0
440
 16777216
100
AcDbTrace
 10
4.103716099339419
 20
1.604700544213672
 30
0.0
 11
4.103716099339419
 21
1.544700544213672
 31
0.0
 12
3.92371609933942
 22
1.574700544213672
 32
0.0
 13
3.92371609933942
 23
1.574700544213672
 33
0.0
  0
SOLID
  5
4B4D1C
330
4B4492
100
AcDbEntity
  8
DIM
 62
     0
440
 16777216
100
AcDbTrace
 10
5.479285342584372
 20
1.604700544213672
 30
0.0
 11
5.479285342584372
 21
1.544700544213672
 31
0.0
 12
5.659285342584372
 22
1.574700544213672
 32
0.0
 13
5.659285342584372
 23
1.574700544213672
 33
0.0
  0
POINT
  5
4B4D1D
330
4B4492
100
AcDbEntity
  8
DEFPOINTS
 62
     0
440
 16777216
100
AcDbPoint
 10
3.92371609933942
 20
2.065613542996747
 30
0.0
  0
POINT
  5
4B4D1E
330
4B4492
100
AcDbEntity
  8
DEFPOINTS
 62
     0
440
 16777216
100
AcDbPoint
 10
5.659285342584372
 20
2.983592496997342
 30
0.0
  0
POINT
  5
4B4D1F
330
4B4492
100
AcDbEntity
  8
DEFPOINTS
 62
     0
440
 16777216
100
AcDbPoint
 10
5.659285342584372
 20
1.574700544213672
 30
0.0
  0
ENDBLK
  5
4B449E
330
4B4492
100
AcDbEntity
  8
0
100
AcDbBlockEnd
  0
BLOCK
  5
4B44BF
330
4B44B4
100
AcDbEntity
  8
0
100
AcDbBlockBegin
  2
*D3
 70
     1
 10
0.0
 20
0.0
 30
0.0
  3
*D3
  1

  0
LINE
  5
4B495F
330
4B44B4
100
AcDbEntity
  8
DIM
 62
     0
440
 16777216
370
    -2
100
AcDbLine
 10
12.10826012361292
 20
2.050613542996746
 30
0.0
 11
12.82219953498542
 21
2.050613542996746
 31
0.0
  0
LINE
  5
4B4960
330
4B44B4
100
AcDbEntity
  8
DIM
 62
     0
440
 16777216
370
    -2
100
AcDbLine
 10
12.13826012361292
 20
4.30761354299657
 30
0.0
 11
12.82219953498543
 21
4.30761354299657
 31
0.0
  0
LINE
  5
4B4961
330
4B44B4
100
AcDbEntity
  8
DIM
 62
     0
440
 16777216
370
    -2
100
AcDbLine
 10
12.62219953498543
 20
2.230613542996746
 30
0.0
 11
12.62219953498543
 21
2.861970685853803
 31
0.0
  0
LINE
  5
4B4962
330
4B44B4
100
AcDbEntity
  8
DIM
 62
     0
440
 16777216
370
    -2
100
AcDbLine
 10
12.62219953498543
 20
4.12761354299657
 30
0.0
 11
12.62219953498543
 21
3.496256400139518
 31
0.0
  0
MTEXT
  5
4B4963
330
4B44B4
100
AcDbEntity
  8
DIM
 62
     0
440
 16777216
100
AcDbMText
 10
12.67164316502208
 20
3.179113542996662
 30
0.0
 40
0.18
 41
0.0
 46
0.0
 71
     5
 72
     1
  1
\A1;2 1/4"
  7
ROMANS
 73
     1
 44
1.0
  0
SOLID
  5
4B4964
330
4B44B4
100
AcDbEntity
  8
DIM
 62
     0
440
 16777216
100
AcDbTrace
 10
12.59219953498543
 20
2.230613542996746
 30
0.0
 11
12.65219953498543
 21
2.230613542996746
 31
0.0
 12
12.62219953498543
 22
2.050613542996746
 32
0.0
 13
12.62219953498543
 23
2.050613542996746
 33
0.0
  0
SOLID
  5
4B4965
330
4B44B4
100
AcDbEntity
  8
DIM
 62
     0
440
 16777216
100
AcDbTrace
 10
12.59219953498543
 20
4.12761354299657
 30
0.0
 11
12.65219953498543
 21
4.12761354299657
 31
0.0
 12
12.62219953498543
 22
4.30761354299657
 32
0.0
 13
12.62219953498543
 23
4.30761354299657
 33
0.0
  0
POINT
  5
4B4966
330
4B44B4
100
AcDbEntity
  8
DEFPOINTS
 62
     0
440
 16777216
100
AcDbPoint
 10
11.90826012361292
 20
2.050613542996746
 30
0.0
  0
POINT
  5
4B4967
330
4B44B4
100
AcDbEntity
  8
DEFPOINTS
 62
     0
440
 16777216
100
AcDbPoint
 10
11.93826012361292
 20
4.30761354299657
 30
0.0
  0
POINT
  5
4B4968
330
4B44B4
100
AcDbEntity
  8
DEFPOINTS
 62
     0
440
 16777216
100
AcDbPoint
 10
12.62219953498543
 20
4.30761354299657
 30
0.0
  0
ENDBLK
  5
4B44C0
330
4B44B4
100
AcDbEntity
  8
0
100
AcDbBlockEnd
  0
BLOCK
  5
4B4833
330
4B4828
100
AcDbEntity
  8
0
100
AcDbBlockBegin
  2
*D4
 70
     1
 10
0.0
 20
0.0
 30
0.0
  3
*D4
  1

  0
LINE
  5
4B4969
330
4B4828
100
AcDbEntity
  8
DIM
 62
     0
440
 16777216
370
    -2
100
AcDbLine
 10
3.738260123612927
 20
2.050613542996746
 30
0.0
 11
1.614536377989638
 21
2.050613542996746
 31
0.0
  0
LINE
  5
4B496A
330
4B4828
100
AcDbEntity
  8
DIM
 62
     0
440
 16777216
370
    -2
100
AcDbLine
 10
3.783260123612929
 20
5.300613542996732
 30
0.0
 11
1.614536377989639
 21
5.300613542996733
 31
0.0
  0
LINE
  5
4B496B
330
4B4828
100
AcDbEntity
  8
DIM
 62
     0
440
 16777216
370
    -2
100
AcDbLine
 10
1.814536377989639
 20
2.230613542996747
 30
0.0
 11
1.814536377989639
 21
3.358470685853882
 31
0.0
  0
LINE
  5
4B496C
330
4B4828
100
AcDbEntity
  8
DIM
 62
     0
440
 16777216
370
    -2
100
AcDbLine
 10
1.814536377989639
 20
5.120613542996733
 30
0.0
 11
1.814536377989639
 21
3.992756400139596
 31
0.0
  0
SOLID
  5
4B496D
330
4B4828
100
AcDbEntity
  8
DIM
 62
     0
440
 16777216
100
AcDbTrace
 10
1.784536377989639
 20
2.230613542996747
 30
0.0
 11
1.844536377989639
 21
2.230613542996747
 31
0.0
 12
1.814536377989639
 22
2.050613542996746
 32
0.0
 13
1.814536377989639
 23
2.050613542996746
 33
0.0
  0
SOLID
  5
4B496E
330
4B4828
100
AcDbEntity
  8
DIM
 62
     0
440
 16777216
100
AcDbTrace
 10
1.784536377989639
 20
5.120613542996733
 30
0.0
 11
1.84453637798964
 21
5.120613542996733
 31
0.0
 12
1.814536377989639
 22
5.300613542996733
 32
0.0
 13
1.814536377989639
 23
5.300613542996733
 33
0.0
  0
MTEXT
  5
4B496F
330
4B4828
100
AcDbEntity
  8
DIM
 62
     0
440
 16777216
100
AcDbMText
 10
1.814536377989639
 20
3.67561354299674
 30
0.0
 40
0.18
 41
0.0
 46
0.0
 71
     5
 72
     1
  1
\A1;3 1/4"
  7
ROMANS
 73
     1
 44
1.0
  0
POINT
  5
4B4970
330
4B4828
100
AcDbEntity
  8
DEFPOINTS
 62
     0
440
 16777216
100
AcDbPoint
 10
3.938260123612927
 20
2.050613542996746
 30
0.0
  0
POINT
  5
4B4971
330
4B4828
100
AcDbEntity
  8
DEFPOINTS
 62
     0
440
 16777216
100
AcDbPoint
 10
3.983260123612929
 20
5.300613542996732
 30
0.0
  0
POINT
  5
4B4972
330
4B4828
100
AcDbEntity
  8
DEFPOINTS
 62
     0
440
 16777216
100
AcDbPoint
 10
1.814536377989639
 20
5.300613542996733
 30
0.0
  0
ENDBLK
  5
4B4834
330
4B4828
100
AcDbEntity
  8
0
100
AcDbBlockEnd
  0
BLOCK
  5
4B4BED
330
4B4BEC
100
AcDbEntity
  8
0
100
AcDbBlockBegin
  2
*U5
 70
     1
 10
0.0
 20
0.0
 30
0.0
  3
*U5
  1

  0
ENDBLK
  5
4B4BEE
330
4B4BEC
100
AcDbEntity
  8
0
100
AcDbBlockEnd
  0
BLOCK
  5
4B4C3F
330
4B4C3D
100
AcDbEntity
  8
0
100
AcDbBlockBegin
  2
GENAXEH
 70
     0
 10
0.0
 20
0.0
 30
0.0
  3
GENAXEH
  1

  0
LINE
  5
4B4C3E
330
4B4C3D
100
AcDbEntity
  8
0
100
AcDbLine
 10
-1.0
 20
0.0
 30
0.0
 11
1.0
 21
0.0
 31
0.0
  0
ENDBLK
  5
4B4C40
330
4B4C3D
100
AcDbEntity
  8
0
100
AcDbBlockEnd
  0
BLOCK
  5
4B4CCC
330
4B4CC7
100
AcDbEntity
  8
0
100
AcDbBlockBegin
  2
Silicon Horizontal
 70
     0
 10
0.0
 20
0.0
 30
0.0
  3
Silicon Horizontal
  1

  0
HATCH
  5
4B4CC8
330
4B4CC7
100
AcDbEntity
  8
3
100
AcDbHatch
 10
0.0
 20
0.0
 30
0.0
210
0.0
220
0.0
230
1.0
  2
ANSI31
 70
     0
 71
     1
 91
        1
 92
        7
 72
     1
 73
     1
 93
        4
 10
0.2777499999999868
 20
0.0
 42
1.0
 10
0.2777499999999868
 20
0.1320000000000334
 42
0.0
 10
0.0972500000000203
 20
0.1320000000000334
 42
1.0
 10
0.0972500000000203
 20
0.0
 42
0.0
 97
        1
330
4B4CC9
 75
     0
 76
     1
 52
0.0
 41
0.25
 77
     0
 78
     1
 53
45.0
 43
-8.077671739217226
 44
-8.193344402733156
 45
-0.0220970869120796
 46
0.0220970869120796
 79
     0
 47
0.0013387605417888
 98
        1
 10
0.1936141427243676
 20
0.062489159889811
1001
ACAD
1010
0.0
1020
0.0
1030
0.0
  0
LWPOLYLINE
  5
4B4CC9
102
{ACAD_REACTORS
330
4B4CC8
102
}
330
4B4CC7
100
AcDbEntity
  8
THIN
100
AcDbPolyline
 90
        4
 70
     1
 43
0.0
 10
0.2777499999999868
 20
0.1320000000000334
 10
0.0972500000000203
 20
0.1320000000000334
 42
0.9999999999999998
 10
0.0972500000000203
 20
0.0
 10
0.2777499999999868
 20
0.0
 42
0.9999999999999998
  0
ENDBLK
  5
4B4CCD
330
4B4CC7
100
AcDbEntity
  8
0
100
AcDbBlockEnd
  0
BLOCK
  5
4B4D2F
330
4B4D26
100
AcDbEntity
  8
0
100
AcDbBlockBegin
  2
Reinforced Bytyl Spacer
 70
     0
 10
0.0
 20
0.0
 30
0.0
  3
Reinforced Bytyl Spacer
  1

  0
HATCH
  5
4B4D27
330
4B4D26
100
AcDbEntity
  8
THIN
100
AcDbHatch
 10
0.0
 20
0.0
 30
0.0
210
0.0
220
0.0
230
1.0
  2
DOTS
 70
     0
 71
     1
 91
        1
 92
        7
 72
     0
 73
     1
 93
        4
 10
0.1562500000000382
 20
-0.0000000000000142
 10
0.0312500000000382
 20
-0.0000000000000142
 10
0.0312500000000382
 20
-0.6250000000000142
 10
0.1562500000000382
 20
-0.6250000000000142
 97
        1
330
4B4D28
 75
     0
 76
     1
 52
90.0
 41
0.5
 77
     0
 78
     1
 53
90.0
 43
-3.611312044416422
 44
-5.060374581297608
 45
-0.03125
 46
0.015625
 79
     2
 49
0.0
 49
-0.03125
 47
0.0011899997355916
 98
        1
 10
0.1072450513476761
 20
-0.3381182195231638
  0
LWPOLYLINE
  5
4B4D28
102
{ACAD_REACTORS
330
4B4D27
330
4B4D2C
102
}
330
4B4D26
100
AcDbEntity
  8
THIN
100
AcDbPolyline
 90
        4
 70
     1
 43
0.0
 10
0.0312500000000382
 20
-0.6250000000000142
 10
0.0312500000000382
 20
-0.0000000000000142
 10
0.1562500000000382
 20
-0.0000000000000142
 10
0.1562500000000382
 20
-0.6250000000000142
  0
HATCH
  5
4B4D29
330
4B4D26
100
AcDbEntity
  8
THIN
100
AcDbHatch
 10
0.0
 20
0.0
 30
0.0
210
0.0
220
0.0
230
1.0
  2
DOTS
 70
     0
 71
     1
 91
        1
 92
        7
 72
     0
 73
     1
 93
        4
 10
0.3925000000000391
 20
-0.6250000000000142
 10
0.4375000000000391
 20
-0.6250000000000142
 10
0.4375000000000382
 20
-0.0000000000000151
 10
0.3925000000000382
 20
-0.000000000000016
 97
        2
330
4B4D2A
330
4B4D2B
 75
     0
 76
     1
 52
90.0
 41
0.75
 77
     0
 78
     1
 53
90.0
 43
-3.611312044416422
 44
-5.060374581297608
 45
-0.046875
 46
0.0234375
 79
     2
 49
0.0
 49
-0.046875
 47
0.0016662947622985
 98
        1
 10
0.4139673496542083
 20
-0.5128218251640391
  0
LWPOLYLINE
  5
4B4D2A
102
{ACAD_REACTORS
330
4B4D29
330
4B4D2C
102
}
330
4B4D26
100
AcDbEntity
  8
THIN
100
AcDbPolyline
 90
        2
 70
     0
 43
0.0
 10
0.3925000000000382
 20
-0.0000000000000142
 10
0.3925000000000382
 20
-0.6250000000000142
  0
LWPOLYLINE
  5
4B4D2B
102
{ACAD_REACTORS
330
4B4D29
330
4B4D2C
102
}
330
4B4D26
100
AcDbEntity
  8
THIN
100
AcDbPolyline
 90
        4
 70
     0
 43
0.0
 10
0.1562500000000382
 20
-0.0000000000000142
 10
0.4375000000000382
 20
-0.0000000000000142
 10
0.4375000000000382
 20
-0.6250000000000142
 10
0.1562500000000382
 20
-0.6250000000000142
  0
HATCH
  5
4B4D2C
330
4B4D26
100
AcDbEntity
  8
THIN
100
AcDbHatch
 10
0.0
 20
0.0
 30
0.0
210
0.0
220
0.0
230
1.0
  2
DOTS
 70
     0
 71
     1
 91
        2
 92
        7
 72
     0
 73
     1
 93
        4
 10
0.1562500000000386
 20
-0.6250000000000134
 10
0.3925000000000382
 20
-0.6250000000000142
 10
0.3925000000000391
 20
-0.0000000000000151
 10
0.1562500000000377
 20
-0.0000000000000133
 97
        3
330
4B4D28
330
4B4D2B
330
4B4D2A
 92
       22
 72
     0
 73
     1
 93
        4
 10
0.2918750000000379
 20
-0.0075000000000136
 10
0.3018750000000385
 20
-0.0075000000000136
 10
0.3018750000000372
 20
-0.617500000000014
 10
0.2918750000000383
 20
-0.617500000000014
 97
        1
330
4B4D2D
 75
     0
 76
     1
 52
90.0
 41
0.25
 77
     0
 78
     1
 53
90.0
 43
-3.611312044416422
 44
-5.060374581297608
 45
-0.015625
 46
0.0078125
 79
     2
 49
0.0
 49
-0.015625
 47
0.0011899997355916
 98
        2
 10
0.2000650292932997
 20
-0.3154905681298565
 10
0.2000650292932997
 20
-0.3154905681298565
  0
LWPOLYLINE
  5
4B4D2D
102
{ACAD_REACTORS
330
4B4D2C
102
}
330
4B4D26
100
AcDbEntity
  8
THIN
100
AcDbPolyline
 90
        4
 70
     1
 43
0.0
 10
0.3018750000000381
 20
-0.617500000000014
 10
0.3018750000000381
 20
-0.0075000000000136
 10
0.2918750000000383
 20
-0.0075000000000136
 10
0.2918750000000383
 20
-0.617500000000014
  0
LINE
  5
4B4D2E
330
4B4D26
100
AcDbEntity
  8
THIN
100
AcDbLine
 10
0.1562500000000382
 20
-0.0000000000000142
 30
0.0
 11
0.1562500000000382
 21
-0.6250000000000142
 31
0.0
  0
ENDBLK
  5
4B4D30
330
4B4D26
100
AcDbEntity
  8
0
100
AcDbBlockEnd
  0
BLOCK
  5
4B4E1F
330
4B4E1A
100
AcDbEntity
  8
0
100
AcDbBlockBegin
  2
Silicon Vertical Bottom
 70
     0
 10
0.0
 20
0.0
 30
0.0
  3
Silicon Vertical Bottom
  1

  0
HATCH
  5
4B4E1B
330
4B4E1A
100
AcDbEntity
  8
3
100
AcDbHatch
 10
0.0
 20
0.0
 30
0.0
210
0.0
220
0.0
230
1.0
  2
ANSI31
 70
     0
 71
     1
 91
        1
 92
        7
 72
     1
 73
     1
 93
        4
 10
-0.0000000000000009
 20
0.3089999999999904
 42
1.0
 10
-0.1320000000000343
 20
0.3089999999999904
 42
0.0
 10
-0.1320000000000343
 20
0.1285000000000238
 42
1.0
 10
-0.0000000000000009
 20
0.1285000000000238
 42
0.0
 97
        1
330
4B4E1C
 75
     0
 76
     1
 52
90.0
 41
0.25
 77
     0
 78
     1
 53
135.0
 43
8.193344402733156
 44
-8.046421739217223
 45
-0.0220970869120796
 46
-0.0220970869120796
 79
     0
 47
0.0013387605417888
 98
        1
 10
-0.0624891598898119
 20
0.2248641427243712
1001
ACAD
1010
0.0
1020
0.0
1030
0.0
  0
LWPOLYLINE
  5
4B4E1C
102
{ACAD_REACTORS
330
4B4E1B
102
}
330
4B4E1A
100
AcDbEntity
  8
THIN
100
AcDbPolyline
 90
        4
 70
     1
 43
0.0
 10
-0.1320000000000343
 20
0.3089999999999904
 10
-0.1320000000000343
 20
0.1285000000000238
 42
0.9999999999999998
 10
-0.0000000000000009
 20
0.1285000000000238
 10
-0.0000000000000009
 20
0.3089999999999904
 42
0.9999999999999998
  0
ENDBLK
  5
4B4E20
330
4B4E1A
100
AcDbEntity
  8
0
100
AcDbBlockEnd
  0
ENDSEC
  0
SECTION
  2
ENTITIES
  0
MTEXT
  5
4B228D
330
4B1AC8
100
AcDbEntity
  8
DIM
100
AcDbMText
 10
9.945070930086281
 20
18.25810836224978
 30
0.0
 40
0.3
 41
7.990959049999999
 46
0.0
 71
     5
 72
     5
  1
Harvey Building Products \PDesigner Shape Half Round Integral L-Fin \P{\H0.8333x;(1/2 Scale)}
  7
TAHOMA
 73
     1
 44
1.0
  0
INSERT
  5
4B2293
330
4B1AC8
100
AcDbEntity
  8
DIM
100
AcDbBlockReference
 66
     1
  2
ASDTNUM
 10
0.0
 20
0.0
 30
0.0
1001
MTVPROFILELINK
1002
{
1000
#BlockRef=533e4a92-0xa7cf-11d7-A5DD-005004E2D0E9|
1002
}
1005
0
  0
ATTRIB
  5
4B2295
330
4B2293
100
AcDbEntity
  8
THIN
100
AcDbText
 10
1.645491964163355
 20
0.7077964671298738
 30
0.0
 40
0.18
  1
6/06
 51
10.0
  7
ROMANS
100
AcDbAttribute
280
     0
  2
REV:
 70
     0
280
     0
  0
ATTRIB
  5
4B2296
330
4B2293
100
AcDbEntity
  8
THIN
100
AcDbText
 10
14.18958977281909
 20
0.6570000000000001
 30
0.0
 40
0.25
  1
304
 51
10.0
  7
ROMANS
100
AcDbAttribute
280
     0
  2
AS#
 70
     0
280
     0
  0
SEQEND
  5
4B2297
330
4B2293
100
AcDbEntity
  8
DIM
  0
LWPOLYLINE
  5
4B40D4
330
4B1AC8
100
AcDbEntity
  8
CYAN
100
AcDbPolyline
 90
        2
 70
     0
 43
0.0
 10
3.071679265496434
 20
13.78027108009182
 10
3.071679265496434
 20
17.75191487311693
  0
LWPOLYLINE
  5
4B40D5
330
4B1AC8
100
AcDbEntity
  8
CYAN
100
AcDbPolyline
 90
        2
 70
     0
 43
0.0
 10
2.946679265496434
 20
13.73312044250206
 10
2.946679265496434
 20
17.75191487311693
  0
LINE
  5
4B40D6
330
4B1AC8
100
AcDbEntity
  8
CYAN
100
AcDbLine
 10
2.196679265496434
 20
13.74210418523428
 30
0.0
 11
2.196679265496406
 21
17.75191487311693
 31
0.0
  0
LINE
  5
4B40D7
330
4B1AC8
100
AcDbEntity
  8
CYAN
100
AcDbLine
 10
2.321679265496434
 20
13.72760285389642
 30
0.0
 11
2.321679265496406
 21
17.75191487311693
 31
0.0
  0
LWPOLYLINE
  5
4B40D8
330
4B1AC8
100
AcDbEntity
  8
10
100
AcDbPolyline
 90
       10
 70
     1
 43
0.0
 10
4.218561551172967
 20
9.111443326005703
 10
3.600561551172816
 20
9.277035926928178
 42
0.4931454260313046
 10
3.581679265496276
 20
9.262547039533842
 10
3.581679265496276
 20
8.689914873116988
 42
0.4142135623730946
 10
3.596679265496277
 20
8.674914873116991
 10
4.214679265496428
 20
8.674914873116987
 10
4.38167926549643
 20
8.674914873116991
 42
0.4142135623730603
 10
4.39667926549643
 20
8.689914873116991
 10
4.396679265496459
 20
9.052206923475369
 42
0.3394542588633497
 10
4.385561551172969
 20
9.066695810869704
  0
LWPOLYLINE
  5
4B40DA
330
4B1AC8
100
AcDbEntity
  8
10
100
AcDbPolyline
 90
       12
 70
     1
 43
0.0
 10
2.924248017053216
 20
9.392761393602359
 42
0.3401424000458764
 10
2.90974959368529
 20
9.403914873116992
 10
2.282679265496444
 20
9.403914873116988
 42
0.414213562373095
 10
2.267679265496443
 20
9.388914873116988
 10
2.26767926549644
 20
8.689914873116991
 42
0.4142135623730951
 10
2.28267926549644
 20
8.674914873116991
 10
3.158679265496459
 20
8.674914873116991
 42
0.4142135623730951
 10
3.17367926549646
 20
8.689914873116991
 10
3.17367926549646
 20
9.290914873116989
 42
0.4142135623730951
 10
3.158679265496459
 20
9.305914873116989
 10
2.958828267617462
 20
9.305914873116989
 42
-0.340142400045877
 10
2.944329844249537
 20
9.317068352631618
  0
LWPOLYLINE
  5
4B40DE
330
4B1AC8
100
AcDbEntity
  8
10
100
AcDbPolyline
 90
        8
 70
     1
 43
0.0
 10
1.652679265496438
 20
9.226914873116985
 42
0.4142135623730948
 10
1.637679265496437
 20
9.211914873116985
 10
1.637679265496437
 20
8.689914873116991
 42
0.4142135623730864
 10
1.652679265496438
 20
8.674914873116991
 10
2.172679265496441
 20
8.674914873116991
 42
0.4142135623730948
 10
2.187679265496441
 20
8.689914873116991
 10
2.187679265496434
 20
9.211914873116988
 42
0.4142135623730917
 10
2.172679265496434
 20
9.226914873116989
  0
LWPOLYLINE
  5
4B40DF
330
4B1AC8
100
AcDbEntity
  8
10
100
AcDbPolyline
 90
        8
 70
     1
 43
0.0
 10
3.268679265496459
 20
9.32391487311699
 42
0.4142135623730863
 10
3.253679265496458
 20
9.308914873116989
 10
3.253679265496458
 20
8.689914873116991
 42
0.414213562373069
 10
3.268679265496459
 20
8.674914873116991
 10
3.486679265496263
 20
8.674914873116991
 42
0.4142135623730958
 10
3.501679265496264
 20
8.689914873116991
 10
3.501679265496264
 20
9.308914873116989
 42
0.4142135623730955
 10
3.486679265496263
 20
9.32391487311699
  0
LWPOLYLINE
  5
4B40E0
330
4B1AC8
100
AcDbEntity
  8
10
100
AcDbPolyline
 90
       55
 70
     0
 43
0.0
 10
3.567679265496437
 20
9.68691487311703
 10
3.567679265496408
 20
10.0473032720204
 42
0.3394542588633497
 10
3.523208408202563
 20
10.10525882159774
 10
3.173679265496431
 20
10.198914873117
 10
3.173679265496431
 20
10.09745780743681
 10
3.203679265496433
 20
10.08941933166388
 10
3.203679265496461
 20
9.418914873116989
 42
-0.4142135623731124
 10
3.18867926549646
 20
9.403914873116988
 10
3.034218602462544
 20
9.403914873116988
 42
-0.3401424000458743
 10
3.019720179094619
 20
9.415068352631621
 10
2.999638351898298
 20
9.490761393602358
 42
0.3401424000458943
 10
2.985139928530372
 20
9.501914873116987
 10
2.012179265496442
 20
9.501914873116987
 42
0.9999999999999998
 10
2.012179265496442
 20
9.42291487311699
 10
2.154679265496437
 20
9.42291487311699
 42
-0.4142135623730691
 10
2.169679265496437
 20
9.40791487311699
 10
2.169679265496441
 20
9.339914873116992
 42
-0.4142135623731383
 10
2.15467926549644
 20
9.324914873116988
 10
1.616517005823425
 20
9.324914873116988
 42
-0.493145426031325
 10
1.602028118429089
 20
9.343797158793528
 10
1.618168152890778
 20
9.404032587440454
 42
0.4931454260312896
 10
1.603679265496442
 20
9.42291487311699
 10
1.304679265496442
 20
9.42291487311699
 42
0.4142135623731037
 10
1.24467926549644
 20
9.362914873116988
 10
1.244679265496447
 20
8.90691487311699
 42
0.414213562373069
 10
1.259679265496448
 20
8.891914873116993
 10
1.327679265496438
 20
8.891914873116993
 42
0.4142135623730692
 10
1.342679265496439
 20
8.90691487311699
 10
1.342679265496439
 20
8.975914873116993
 42
-0.4142135623730604
 10
1.35767926549644
 20
8.99091487311699
 10
1.524679265496427
 20
8.990914873116993
 42
-0.4142135623730951
 10
1.539679265496427
 20
8.975914873116993
 10
1.539679265496442
 20
8.689914873116991
 42
-0.4142135623730603
 10
1.524679265496441
 20
8.674914873116991
 10
1.35767926549644
 20
8.674914873116991
 42
-0.4142135623730951
 10
1.342679265496439
 20
8.689914873116991
 10
1.342679265496439
 20
8.758914873116991
 42
0.414213562373069
 10
1.327679265496438
 20
8.773914873116991
 10
1.259679265496441
 20
8.773914873116991
 42
0.414213562373069
 10
1.24467926549644
 20
8.758914873116991
 10
1.24467926549644
 20
8.591914873116992
 42
0.4142135623730693
 10
1.259679265496441
 20
8.576914873116992
 10
3.486679265496263
 20
8.576914873116992
 42
-0.4142135623730863
 10
3.501679265496264
 20
8.561914873116991
 10
3.501679265496264
 20
7.371914873117008
 42
0.9999999999996671
 10
3.581679265496276
 20
7.371914873117008
 10
3.581679265496276
 20
8.561914873116991
 42
-0.4142135623730864
 10
3.596679265496277
 20
8.576914873116992
 10
4.434679265496427
 20
8.576914873116992
 42
0.4142135623730894
 10
4.494679265496429
 20
8.636914873116991
 10
4.494679265496444
 20
9.092875253838252
 42
0.3394542588633778
 10
4.450208408202598
 20
9.150830803415594
 10
3.578796979819912
 20
9.384324791925983
 42
-0.3394542588633263
 10
3.567679265496451
 20
9.398813679320319
 10
3.567679265496451
 20
9.416914873117029
  0
LWPOLYLINE
  5
4B40E3
330
4B1AC8
100
AcDbEntity
  8
10
100
AcDbPolyline
 90
        8
 70
     1
 43
0.0
 10
11.27326012361293
 20
2.458613542996742
 42
0.4142135623730948
 10
11.28826012361293
 20
2.443613542996741
 10
11.81026012361293
 20
2.443613542996741
 42
0.4142135623730864
 10
11.82526012361293
 20
2.458613542996742
 10
11.82526012361293
 20
2.978613542996745
 42
0.4142135623730948
 10
11.81026012361293
 20
2.993613542996746
 10
11.28826012361293
 20
2.993613542996738
 42
0.4142135623730917
 10
11.27326012361293
 20
2.978613542996738
  0
LWPOLYLINE
  5
4B40E5
330
4B1AC8
100
AcDbEntity
  8
10
100
AcDbPolyline
 90
       53
 70
     1
 43
0.0
 10
11.09226012361292
 20
2.975613542996741
 10
11.16026012361292
 20
2.975613542996745
 42
-0.4142135623731383
 10
11.17526012361293
 20
2.960613542996744
 10
11.17526012361293
 20
2.422451283323729
 42
-0.493145426031325
 10
11.15637783793639
 20
2.407962395929393
 10
11.09614240928946
 20
2.424102430391082
 42
0.4931454260312896
 10
11.07726012361292
 20
2.409613542996746
 10
11.07726012361292
 20
2.110613542996748
 42
0.4142135623731037
 10
11.13726012361292
 20
2.050613542996746
 10
11.59326012361293
 20
2.050613542996753
 42
0.414213562373069
 10
11.60826012361292
 20
2.065613542996754
 10
11.60826012361292
 20
2.133613542996744
 42
0.4142135623730692
 10
11.59326012361293
 20
2.148613542996745
 10
11.52426012361292
 20
2.148613542996745
 42
-0.4142135623730604
 10
11.50926012361292
 20
2.163613542996746
 10
11.50926012361292
 20
2.330613542996731
 42
-0.4142135623730951
 10
11.52426012361292
 20
2.345613542996732
 10
11.81026012361293
 20
2.345613542996746
 42
-0.4142135623730603
 10
11.82526012361293
 20
2.330613542996745
 10
11.82526012361293
 20
2.163613542996746
 42
-0.4142135623730951
 10
11.81026012361293
 20
2.148613542996745
 10
11.74126012361292
 20
2.148613542996745
 42
0.414213562373069
 10
11.72626012361292
 20
2.133613542996744
 10
11.72626012361292
 20
2.065613542996747
 42
0.414213562373069
 10
11.74126012361292
 20
2.050613542996746
 10
11.90826012361292
 20
2.050613542996746
 42
0.4142135623730693
 10
11.92326012361292
 20
2.065613542996747
 10
11.92326012361292
 20
4.292613542996569
 42
-0.4142135623730863
 10
11.93826012361292
 20
4.30761354299657
 10
13.12826012361291
 20
4.307613542996564
 42
0.9999999999996671
 10
13.12826012361291
 20
4.387613542996581
 10
11.93826012361292
 20
4.387613542996582
 42
-0.4142135623730864
 10
11.92326012361292
 20
4.402613542996581
 10
11.92326012361292
 20
5.240613542996731
 42
0.4142135623730894
 10
11.86326012361292
 20
5.300613542996732
 10
11.40729974289167
 20
5.300613542996741
 42
0.3394542588633778
 10
11.34934419331432
 20
5.256142685702895
 10
11.11585020480393
 20
4.38473125732022
 42
-0.3394542588633263
 10
11.1013613174096
 20
4.373613542996759
 10
10.45287172470952
 20
4.373613542996711
 42
0.3394542588633497
 10
10.39491617513217
 20
4.329142685702864
 10
10.30126012361291
 20
3.979613542996736
 10
10.4027171892931
 20
3.979613542996736
 10
10.41075566506603
 20
4.00961354299673
 10
11.08126012361293
 20
4.009613542996769
 42
-0.4142135623731124
 10
11.09626012361293
 20
3.994613542996768
 10
11.09626012361293
 20
3.840152879962852
 42
-0.3401424000458743
 10
11.08510664409829
 20
3.825654456594927
 10
11.00941360312755
 20
3.805572629398602
 42
0.3401424000458943
 10
10.99826012361293
 20
3.791074206030677
 10
10.99826012361293
 20
2.818113542996746
 42
0.9999999999999998
 10
11.07726012361292
 20
2.818113542996746
 10
11.07726012361292
 20
2.960613542996741
 42
-0.4142135623730691
  0
LWPOLYLINE
  5
4B40E6
330
4B1AC8
100
AcDbEntity
  8
10
100
AcDbPolyline
 90
        8
 70
     1
 43
0.0
 10
4.573260123612925
 20
2.458613542996742
 42
-0.4142135623730948
 10
4.558260123612924
 20
2.443613542996741
 10
4.036260123612926
 20
2.443613542996741
 42
-0.4142135623730864
 10
4.021260123612925
 20
2.458613542996742
 10
4.021260123612925
 20
2.978613542996745
 42
-0.4142135623730948
 10
4.036260123612926
 20
2.993613542996746
 10
4.558260123612932
 20
2.993613542996738
 42
-0.4142135623730917
 10
4.573260123612932
 20
2.978613542996738
  0
LWPOLYLINE
  5
4B40E8
330
4B1AC8
100
AcDbEntity
  8
10
100
AcDbPolyline
 90
       53
 70
     1
 43
0.0
 10
4.75426012361293
 20
2.975613542996741
 10
4.686260123612932
 20
2.975613542996745
 42
0.4142135623731383
 10
4.671260123612931
 20
2.960613542996744
 10
4.671260123612931
 20
2.422451283323729
 42
0.493145426031325
 10
4.690142409289471
 20
2.407962395929393
 10
4.75037783793639
 20
2.424102430391082
 42
-0.4931454260312896
 10
4.76926012361293
 20
2.409613542996746
 10
4.76926012361293
 20
2.110613542996748
 42
-0.4142135623731037
 10
4.709260123612928
 20
2.050613542996746
 10
4.253260123612925
 20
2.050613542996753
 42
-0.414213562373069
 10
4.238260123612931
 20
2.065613542996754
 10
4.238260123612931
 20
2.133613542996744
 42
-0.4142135623730692
 10
4.253260123612925
 20
2.148613542996745
 10
4.322260123612927
 20
2.148613542996745
 42
0.4142135623730604
 10
4.337260123612928
 20
2.163613542996746
 10
4.337260123612928
 20
2.330613542996731
 42
0.4142135623730951
 10
4.322260123612927
 20
2.345613542996732
 10
4.036260123612926
 20
2.345613542996746
 42
0.4142135623730603
 10
4.021260123612925
 20
2.330613542996745
 10
4.021260123612925
 20
2.163613542996746
 42
0.4142135623730951
 10
4.036260123612926
 20
2.148613542996745
 10
4.105260123612929
 20
2.148613542996745
 42
-0.414213562373069
 10
4.120260123612929
 20
2.133613542996744
 10
4.120260123612929
 20
2.065613542996747
 42
-0.414213562373069
 10
4.105260123612929
 20
2.050613542996746
 10
3.938260123612927
 20
2.050613542996746
 42
-0.4142135623730693
 10
3.923260123612926
 20
2.065613542996747
 10
3.923260123612926
 20
4.292613542996569
 42
0.4142135623730863
 10
3.908260123612926
 20
4.30761354299657
 10
2.718260123612942
 20
4.307613542996564
 42
-0.9999999999996671
 10
2.718260123612942
 20
4.387613542996581
 10
3.908260123612926
 20
4.387613542996582
 42
0.4142135623730864
 10
3.923260123612926
 20
4.402613542996581
 10
3.923260123612926
 20
5.240613542996731
 42
-0.4142135623730894
 10
3.983260123612929
 20
5.300613542996732
 10
4.439220504334194
 20
5.300613542996741
 42
-0.3394542588633778
 10
4.497176053911537
 20
5.256142685702895
 10
4.730670042421927
 20
4.38473125732022
 42
0.3394542588633263
 10
4.745158929816263
 20
4.373613542996759
 10
5.393648522516336
 20
4.373613542996711
 42
-0.3394542588633497
 10
5.45160407209368
 20
4.329142685702864
 10
5.545260123612941
 20
3.979613542996736
 10
5.443803057932747
 20
3.979613542996736
 10
5.435764582159819
 20
4.00961354299673
 10
4.765260123612925
 20
4.009613542996769
 42
0.4142135623731124
 10
4.750260123612925
 20
3.994613542996768
 10
4.750260123612925
 20
3.840152879962852
 42
0.3401424000458743
 10
4.761413603127557
 20
3.825654456594927
 10
4.837106644098298
 20
3.805572629398602
 42
-0.3401424000458943
 10
4.848260123612924
 20
3.791074206030677
 10
4.848260123612924
 20
2.818113542996746
 42
-0.9999999999999998
 10
4.76926012361293
 20
2.818113542996746
 10
4.76926012361293
 20
2.960613542996741
 42
0.4142135623730691
  0
LWPOLYLINE
  5
4B40E9
330
4B1AC8
100
AcDbEntity
  8
10
100
AcDbPolyline
 90
       12
 70
     1
 43
0.0
 10
4.671260123612931
 20
2.294183334131293
 10
4.671260123612931
 20
2.163613542996753
 42
-0.4142135623730951
 10
4.656260123612931
 20
2.148613542996752
 10
4.450260123612927
 20
2.148613542996752
 42
-0.414213562373069
 10
4.435260123612927
 20
2.163613542996753
 10
4.435260123612927
 20
2.348613542996739
 42
-0.4142135623730951
 10
4.450260123612927
 20
2.363613542996739
 10
4.558260123612932
 20
2.363613542996739
 42
-0.4142135623731235
 10
4.573260123612932
 20
2.348613542996739
 10
4.573260123612932
 20
2.324183334131296
 42
0.4142135623731153
 10
4.588260123612933
 20
2.309183334131295
 10
4.656260123612931
 20
2.309183334131295
 42
-0.4142135623730951
  0
LWPOLYLINE
  5
4B40EA
330
4B1AC8
100
AcDbEntity
  8
10
100
AcDbPolyline
 90
       12
 70
     1
 43
0.0
 10
11.17526012361293
 20
2.294183334131293
 10
11.17526012361292
 20
2.163613542996753
 42
0.4142135623730951
 10
11.19026012361292
 20
2.148613542996752
 10
11.39626012361292
 20
2.148613542996752
 42
0.414213562373069
 10
11.41126012361292
 20
2.163613542996753
 10
11.41126012361292
 20
2.348613542996739
 42
0.4142135623730951
 10
11.39626012361292
 20
2.363613542996739
 10
11.28826012361292
 20
2.363613542996739
 42
0.4142135623731235
 10
11.27326012361293
 20
2.348613542996739
 10
11.27326012361293
 20
2.324183334131296
 42
-0.4142135623731153
 10
11.25826012361293
 20
2.309183334131295
 10
11.19026012361293
 20
2.309183334131295
 42
0.4142135623730951
  0
LWPOLYLINE
  5
4B40EF
330
4B1AC8
100
AcDbEntity
  8
10
100
AcDbPolyline
 90
        8
 70
     1
 43
0.0
 10
4.670260123612926
 20
4.074613542996759
 42
-0.4142135623730863
 10
4.655260123612926
 20
4.059613542996761
 10
4.036260123612926
 20
4.059613542996761
 42
-0.414213562373069
 10
4.021260123612925
 20
4.074613542996761
 10
4.021260123612925
 20
4.292613542996573
 42
-0.4142135623730958
 10
4.036260123612926
 20
4.307613542996572
 10
4.655260123612926
 20
4.307613542996572
 42
-0.4142135623730955
 10
4.670260123612926
 20
4.292613542996573
  0
LWPOLYLINE
  5
4B40F4
330
4B1AC8
100
AcDbEntity
  8
10
100
AcDbPolyline
 90
        5
 70
     1
 43
0.0
 10
4.848260123612796
 20
2.941518440395196
 10
4.973260123612796
 20
2.941518440395196
 10
4.973260123612796
 20
3.941518440395196
 10
4.848260123612796
 20
3.941518440395196
 10
4.848260123612874
 20
2.941518440395196
  0
LWPOLYLINE
  5
4B40F6
330
4B1AC8
100
AcDbEntity
  8
10
100
AcDbPolyline
 90
       12
 70
     1
 43
0.0
 10
4.739106644098299
 20
3.730182294553516
 42
-0.3401424000458764
 10
4.750260123612932
 20
3.715683871185591
 10
4.750260123612925
 20
3.088613542996748
 42
-0.414213562373095
 10
4.735260123612924
 20
3.073613542996747
 10
4.036260123612926
 20
3.073613542996744
 42
-0.4142135623730951
 10
4.021260123612925
 20
3.088613542996744
 10
4.021260123612925
 20
3.96461354299676
 42
-0.4142135623730951
 10
4.036260123612926
 20
3.97961354299676
 10
4.637260123612925
 20
3.97961354299676
 42
-0.4142135623730951
 10
4.652260123612926
 20
3.96461354299676
 10
4.652260123612926
 20
3.764762545117767
 42
0.340142400045877
 10
4.663413603127558
 20
3.750264121749841
  0
ARC
  5
4B4106
330
4B1AC8
100
AcDbEntity
  8
10
100
AcDbCircle
 10
5.639810903728947
 20
2.98311354299673
 30
0.0
 40
0.0195
100
AcDbArc
 50
6.1098045375463
 51
126.113329286049
  0
ARC
  5
4B4107
330
4B1AC8
100
AcDbEntity
  8
10
100
AcDbCircle
 10
5.598848694036836
 20
3.039259312001544
 30
0.0
 40
0.05
100
AcDbArc
 50
294.1422197637772
 51
306.1133292860497
  0
ARC
  5
4B4108
330
4B1AC8
100
AcDbEntity
  8
10
100
AcDbCircle
 10
5.644285342584372
 20
2.983592496997342
 30
0.0
 40
0.015
100
AcDbArc
 50
299.3484114385562
 51
6.1098045375463
  0
LINE
  5
4B4109
330
4B1AC8
100
AcDbEntity
  8
10
100
AcDbLine
 10
5.536260123612929
 20
2.904613542996746
 30
0.0
 11
5.651637129418976
 21
2.97051766505431
 31
0.0
  0
LINE
  5
4B4121
330
4B1AC8
100
AcDbEntity
  8
10
100
AcDbLine
 10
5.422983414179523
 20
2.904613542996735
 30
0.0
 11
5.61929884369339
 21
2.993632659932538
 31
0.0
  0
LWPOLYLINE
  5
4B41AD
330
4B1AC8
100
AcDbEntity
  8
10
100
AcDbPolyline
 90
       10
 70
     1
 43
0.0
 10
4.457788576501641
 20
5.024495828673277
 10
4.623381177424114
 20
4.406495828673119
 42
-0.4931454260313046
 10
4.608892290029778
 20
4.387613542996581
 10
4.036260123612926
 20
4.387613542996582
 42
-0.4142135623730946
 10
4.021260123612925
 20
4.402613542996581
 10
4.021260123612925
 20
5.020613542996736
 10
4.021260123612925
 20
5.18761354299673
 42
-0.4142135623730603
 10
4.036260123612926
 20
5.202613542996731
 10
4.398552173971303
 20
5.202613542996767
 42
-0.3394542588633497
 10
4.413041061365639
 20
5.191495828673275
  0
LWPOLYLINE
  5
4B41AE
330
4B1AC8
100
AcDbEntity
  8
10
100
AcDbPolyline
 90
        8
 70
     1
 43
0.0
 10
4.765260123612939
 20
4.107613542996761
 42
-0.4142135623730984
 10
4.750260123612939
 20
4.122613542996761
 10
4.750260123612939
 20
4.260613542996752
 42
-0.4142135623730951
 10
4.765260123612939
 20
4.275613542996753
 10
5.352980192153452
 20
4.275613542996721
 42
-0.3394542588633731
 10
5.367469079547788
 20
4.264495828673259
 10
5.40444606810329
 20
4.126495828673261
 42
-0.4931454260313063
 10
5.389957180708954
 20
4.107613542996721
  0
LINE
  5
4B41B1
330
4B1AC8
100
AcDbEntity
  8
CYAN
100
AcDbLine
 10
10.70451012361298
 20
3.002613542996888
 30
0.0
 11
7.965651444370912
 21
3.002613542996801
 31
0.0
  0
LINE
  5
4B41B2
330
4B1AC8
100
AcDbEntity
  8
CYAN
100
AcDbLine
 10
10.70451012361298
 20
3.127613542996754
 30
0.0
 11
7.951150113033065
 21
3.12761354299671
 31
0.0
  0
LINE
  5
4B41B3
330
4B1AC8
100
AcDbEntity
  8
CYAN
100
AcDbLine
 10
10.70451012361298
 20
3.877613542996646
 30
0.0
 11
7.940716117511556
 21
3.877613542996646
 31
0.0
  0
LINE
  5
4B41B4
330
4B1AC8
100
AcDbEntity
  8
CYAN
100
AcDbLine
 10
10.70451012361298
 20
3.752613542996646
 30
0.0
 11
7.956065479921804
 21
3.752613542996646
 31
0.0
  0
LINE
  5
4B41B5
330
4B1AC8
100
AcDbEntity
  8
CYAN
100
AcDbLine
 10
6.38311117374041
 20
3.752613542996646
 30
0.0
 11
5.142010123612813
 21
3.752613542996646
 31
0.0
  0
LINE
  5
4B41B6
330
4B1AC8
100
AcDbEntity
  8
CYAN
100
AcDbLine
 10
6.367761811330154
 20
3.877613542996646
 30
0.0
 11
5.142010123612813
 21
3.877613542996646
 31
0.0
  0
LINE
  5
4B41B7
330
4B1AC8
100
AcDbEntity
  8
CYAN
100
AcDbLine
 10
6.39151384775122
 20
3.002613542996753
 30
0.0
 11
5.142010123612813
 21
3.002613542996735
 31
0.0
  0
LINE
  5
4B41B8
330
4B1AC8
100
AcDbEntity
  8
CYAN
100
AcDbLine
 10
6.37701251641338
 20
3.127613542996685
 30
0.0
 11
5.142010123612813
 21
3.127613542996676
 31
0.0
  0
LWPOLYLINE
  5
4B41B9
330
4B1AC8
100
AcDbEntity
  8
DIM
100
AcDbPolyline
 90
        4
 70
     0
 43
0.0
 10
7.912502709164563
 20
2.821691694130071
 10
7.82888826049848
 20
3.542439730276304
 10
7.923260123612898
 20
3.425654116283828
 10
7.855830941422802
 20
3.974774499820403
  0
LWPOLYLINE
  5
4B41BA
330
4B1AC8
100
AcDbEntity
  8
DIM
100
AcDbPolyline
 90
        4
 70
     0
 43
0.0
 10
7.986958194916361
 20
2.81895152217064
 10
7.923260123612898
 20
3.368022412796084
 10
8.017631986727316
 20
3.251236798803551
 10
7.92912780422106
 20
3.971984834949784
  0
LWPOLYLINE
  5
4B41BB
330
4B1AC8
100
AcDbEntity
  8
10
100
AcDbPolyline
 90
        8
 70
     1
 43
0.0
 10
11.17626012361292
 20
4.074613542996759
 42
0.4142135623730863
 10
11.19126012361292
 20
4.059613542996761
 10
11.81026012361293
 20
4.059613542996761
 42
0.414213562373069
 10
11.82526012361293
 20
4.074613542996761
 10
11.82526012361293
 20
4.292613542996573
 42
0.4142135623730958
 10
11.81026012361293
 20
4.307613542996572
 10
11.19126012361292
 20
4.307613542996572
 42
0.4142135623730955
 10
11.17626012361292
 20
4.292613542996573
  0
LWPOLYLINE
  5
4B41BE
330
4B1AC8
100
AcDbEntity
  8
10
100
AcDbPolyline
 90
       12
 70
     1
 43
0.0
 10
11.10741360312755
 20
3.730182294553516
 42
0.3401424000458764
 10
11.09626012361292
 20
3.715683871185591
 10
11.09626012361293
 20
3.088613542996748
 42
0.414213562373095
 10
11.11126012361293
 20
3.073613542996747
 10
11.81026012361293
 20
3.073613542996744
 42
0.4142135623730951
 10
11.82526012361293
 20
3.088613542996744
 10
11.82526012361293
 20
3.96461354299676
 42
0.4142135623730951
 10
11.81026012361293
 20
3.97961354299676
 10
11.20926012361293
 20
3.97961354299676
 42
0.4142135623730951
 10
11.19426012361293
 20
3.96461354299676
 10
11.19426012361293
 20
3.764762545117767
 42
-0.340142400045877
 10
11.18310664409829
 20
3.750264121749841
  0
LWPOLYLINE
  5
4B41BF
330
4B1AC8
100
AcDbEntity
  8
10
100
AcDbPolyline
 90
        5
 70
     1
 43
0.0
 10
10.99826012361301
 20
2.941499791050841
 10
10.87326012361301
 20
2.941499791050841
 10
10.87326012361301
 20
3.941499791050841
 10
10.99826012361301
 20
3.941499791050841
 10
10.99826012361293
 20
2.941499791050841
  0
ARC
  5
4B41D1
330
4B1AC8
100
AcDbEntity
  8
10
100
AcDbCircle
 10
11.03776012361292
 20
2.818113542996744
 30
0.0
 40
0.0395000000000039
100
AcDbArc
 50
180.0
 51
0.0
  0
LWPOLYLINE
  5
4B427E
330
4B1AC8
100
AcDbEntity
  8
10
100
AcDbPolyline
 90
       10
 70
     1
 43
0.0
 10
11.38873167072421
 20
5.024495828673277
 10
11.22313906980174
 20
4.406495828673119
 42
0.4931454260313046
 10
11.23762795719607
 20
4.387613542996581
 10
11.81026012361293
 20
4.387613542996582
 42
0.4142135623730946
 10
11.82526012361293
 20
4.402613542996581
 10
11.82526012361293
 20
5.020613542996736
 10
11.82526012361293
 20
5.18761354299673
 42
0.4142135623730603
 10
11.81026012361293
 20
5.202613542996731
 10
11.44796807325455
 20
5.202613542996767
 42
0.3394542588633497
 10
11.43347918586021
 20
5.191495828673275
  0
LWPOLYLINE
  5
4B427F
330
4B1AC8
100
AcDbEntity
  8
10
100
AcDbPolyline
 90
        8
 70
     1
 43
0.0
 10
11.08126012361291
 20
4.107613542996761
 42
0.4142135623730984
 10
11.09626012361291
 20
4.122613542996761
 10
11.09626012361291
 20
4.260613542996752
 42
0.4142135623730951
 10
11.08126012361291
 20
4.275613542996753
 10
10.4935400550724
 20
4.275613542996721
 42
0.3394542588633731
 10
10.47905116767806
 20
4.264495828673259
 10
10.44207417912256
 20
4.126495828673261
 42
0.4931454260313063
 10
10.4565630665169
 20
4.107613542996721
  0
LINE
  5
4B4286
330
4B1AC8
100
AcDbEntity
  8
CYAN
100
AcDbLine
 10
3.071679265496434
 20
13.64481677391039
 30
0.0
 11
3.071679265496434
 21
9.626914873116966
 31
0.0
  0
LINE
  5
4B4287
330
4B1AC8
100
AcDbEntity
  8
CYAN
100
AcDbLine
 10
2.946679265496434
 20
13.66016613632065
 30
0.0
 11
2.946679265496434
 21
9.626914873116966
 31
0.0
  0
LINE
  5
4B4288
330
4B1AC8
100
AcDbEntity
  8
CYAN
100
AcDbLine
 10
2.321679265496435
 20
13.65346525727669
 30
0.0
 11
2.321679265496403
 21
9.626914873116966
 31
0.0
  0
LINE
  5
4B4289
330
4B1AC8
100
AcDbEntity
  8
CYAN
100
AcDbLine
 10
2.196679265496467
 20
13.66796658861453
 30
0.0
 11
2.196679265496403
 21
9.626914873116966
 31
0.0
  0
LWPOLYLINE
  5
4B428B
330
4B1AC8
100
AcDbEntity
  8
10
100
AcDbPolyline
 90
       12
 70
     1
 43
0.0
 10
1.488249056630987
 20
9.324914873116988
 10
1.357679265496447
 20
9.324914873116991
 42
0.4142135623730951
 10
1.342679265496446
 20
9.309914873116991
 10
1.342679265496446
 20
9.103914873116989
 42
0.414213562373069
 10
1.357679265496447
 20
9.088914873116989
 10
1.542679265496435
 20
9.088914873116989
 42
0.4142135623730951
 10
1.557679265496435
 20
9.103914873116989
 10
1.557679265496435
 20
9.211914873116992
 42
0.4142135623731235
 10
1.542679265496435
 20
9.226914873116989
 10
1.518249056630992
 20
9.226914873116989
 42
-0.4142135623731153
 10
1.503249056630991
 20
9.241914873116989
 10
1.503249056630991
 20
9.309914873116987
 42
0.4142135623730951
  0
LWPOLYLINE
  5
4B428C
330
4B1AC8
100
AcDbEntity
  8
vent
100
AcDbPolyline
 90
        4
 70
     0
 43
0.0
 10
3.567743531430949
 20
9.705914873117027
 10
3.605743531430945
 20
9.705914873117027
 10
3.605743531430945
 20
9.397914873117027
 10
3.567743531430949
 20
9.397914873117027
  0
LWPOLYLINE
  5
4B428D
330
4B1AC8
100
AcDbEntity
  8
vent
100
AcDbPolyline
 90
        5
 70
     0
 43
0.0
 10
3.567743531430949
 20
9.416914873117029
 10
3.537743531430947
 20
9.416914873117029
 10
3.45874353143094
 20
9.46691487311703
 10
3.400743531430947
 20
9.641914873117027
 10
3.400743531430947
 20
9.686914873117029
  0
LWPOLYLINE
  5
4B428E
330
4B1AC8
100
AcDbEntity
  8
10
100
AcDbPolyline
 90
       10
 70
     0
 43
0.0
 10
3.469679265496438
 20
9.692467685347889
 10
3.469679265496424
 20
10.00663494165751
 42
0.3394542588633731
 10
3.458561551172962
 20
10.02112382905185
 10
3.320561551172957
 20
10.05810081760735
 42
0.4931454260313063
 10
3.301679265496417
 20
10.04361193021301
 10
3.30167926549646
 20
9.418914873117003
 42
0.4142135623730951
 10
3.31667926549646
 20
9.403914873117003
 10
3.454679265496451
 20
9.403914873117003
 42
0.4142135623730951
 10
3.469679265496452
 20
9.418914873117003
 10
3.469679265496452
 20
9.45999352244266
  0
LWPOLYLINE
  5
4B428F
330
4B1AC8
100
AcDbEntity
  8
10
100
AcDbPolyline
 90
        5
 70
     1
 43
0.0
 10
2.135861509474889
 20
9.501914873116966
 10
2.135861509474889
 20
9.626914873116966
 10
3.135861509474892
 20
9.626914873116966
 10
3.135861509474892
 20
9.501914873116966
 10
2.135861509474889
 20
9.501914873117003
  0
LINE
  5
4B42A8
330
4B1AC8
100
AcDbEntity
  8
vent
100
AcDbLine
 10
3.47274353143095
 20
9.541914873117029
 30
0.0
 11
3.433886388573796
 21
9.541914873117026
 31
0.0
  0
LINE
  5
4B42A9
330
4B1AC8
100
AcDbEntity
  8
vent
100
AcDbLine
 10
3.472743531430936
 20
9.458054113623362
 30
0.0
 11
3.47274353143095
 21
9.541914873117029
 31
0.0
  0
CIRCLE
  5
4B42AA
330
4B1AC8
100
AcDbEntity
  8
DIM
100
AcDbCircle
 10
3.47274353143095
 20
9.586726690734543
 30
0.0
 40
0.025
  0
LWPOLYLINE
  5
4B42AB
330
4B1AC8
100
AcDbEntity
  8
DIM
100
AcDbPolyline
 90
        4
 70
     1
 43
0.0
 10
3.502743531430965
 20
9.621914873117031
 10
3.502743531430951
 20
9.586914873117024
 42
-1.0
 10
3.442743531430949
 20
9.586914873117027
 10
3.442743531430963
 20
9.621914873117031
  0
LINE
  5
4B434D
330
4B1AC8
100
AcDbEntity
  8
vent
100
AcDbLine
 10
3.443743531430953
 20
9.709914873117028
 30
0.0
 11
3.420743531430943
 21
9.689914873117029
 31
0.0
  0
LINE
  5
4B434E
330
4B1AC8
100
AcDbEntity
  8
vent
100
AcDbLine
 10
3.46674353143095
 20
9.709914873117028
 30
0.0
 11
3.443743531430953
 21
9.689914873117029
 31
0.0
  0
LINE
  5
4B434F
330
4B1AC8
100
AcDbEntity
  8
vent
100
AcDbLine
 10
3.443743531430953
 20
9.689914873117029
 30
0.0
 11
3.443743531430953
 21
9.709914873117028
 31
0.0
  0
LINE
  5
4B4350
330
4B1AC8
100
AcDbEntity
  8
vent
100
AcDbLine
 10
3.489743531430946
 20
9.709914873117028
 30
0.0
 11
3.46674353143095
 21
9.689914873117029
 31
0.0
  0
LINE
  5
4B4351
330
4B1AC8
100
AcDbEntity
  8
vent
100
AcDbLine
 10
3.489743531430946
 20
9.686914873117029
 30
0.0
 11
3.489743531430946
 21
9.709914873117028
 31
0.0
  0
LINE
  5
4B4352
330
4B1AC8
100
AcDbEntity
  8
vent
100
AcDbLine
 10
3.46674353143095
 20
9.689914873117029
 30
0.0
 11
3.46674353143095
 21
9.709914873117028
 31
0.0
  0
LINE
  5
4B4353
330
4B1AC8
100
AcDbEntity
  8
vent
100
AcDbLine
 10
3.420743531430943
 20
9.686914873117029
 30
0.0
 11
3.420743531430943
 21
9.689914873117029
 31
0.0
  0
LINE
  5
4B4354
330
4B1AC8
100
AcDbEntity
  8
THIN
100
AcDbLine
 10
3.567743531430949
 20
9.686914873117029
 30
0.0
 11
3.400743531430947
 21
9.686914873117029
 31
0.0
  0
LWPOLYLINE
  5
4B4355
330
4B1AC8
100
AcDbEntity
  8
DIM
100
AcDbPolyline
 90
        4
 70
     0
 43
0.0
 10
2.101784881925304
 20
13.81561294442041
 10
2.650855772550748
 20
13.75191487311695
 10
2.534070158558214
 20
13.84628673623137
 10
3.254818194704447
 20
13.75778255372511
  0
LWPOLYLINE
  5
4B4356
330
4B1AC8
100
AcDbEntity
  8
DIM
100
AcDbPolyline
 90
        4
 70
     0
 43
0.0
 10
2.104525053884735
 20
13.74115745866862
 10
2.825273090030968
 20
13.65754301000253
 10
2.708487476038491
 20
13.75191487311695
 10
3.257607859575066
 20
13.68448569092685
  0
LWPOLYLINE
  5
4B4357
330
4B1AC8
100
AcDbEntity
  8
10
100
AcDbPolyline
 90
       10
 70
     1
 43
0.0
 10
4.218561551172975
 20
18.54238642022828
 10
3.600561551172816
 20
18.37679381930581
 42
-0.4931454260313046
 10
3.581679265496283
 20
18.39128270670014
 10
3.581679265496283
 20
18.96391487311699
 42
-0.4142135623730946
 10
3.596679265496284
 20
18.97891487311699
 10
4.214679265496435
 20
18.978914873117
 10
4.38167926549643
 20
18.97891487311699
 42
-0.4142135623730603
 10
4.39667926549643
 20
18.96391487311699
 10
4.396679265496466
 20
18.60162282275862
 42
-0.3394542588633497
 10
4.385561551172976
 20
18.58713393536428
  0
LWPOLYLINE
  5
4B4358
330
4B1AC8
100
AcDbEntity
  8
10
100
AcDbPolyline
 90
       53
 70
     1
 43
0.0
 10
2.169679265496441
 20
18.24591487311699
 10
2.169679265496444
 20
18.31391487311699
 42
0.4142135623731383
 10
2.154679265496444
 20
18.328914873117
 10
1.616517005823428
 20
18.328914873117
 42
0.493145426031325
 10
1.602028118429092
 20
18.31003258744045
 10
1.618168152890781
 20
18.24979715879353
 42
-0.4931454260312896
 10
1.603679265496445
 20
18.23091487311699
 10
1.304679265496449
 20
18.23091487311699
 42
-0.4142135623731037
 10
1.244679265496447
 20
18.29091487311699
 10
1.244679265496454
 20
18.74691487311699
 42
-0.414213562373069
 10
1.259679265496455
 20
18.76191487311699
 10
1.327679265496445
 20
18.76191487311699
 42
-0.4142135623730692
 10
1.342679265496446
 20
18.74691487311699
 10
1.342679265496446
 20
18.67791487311699
 42
0.4142135623730604
 10
1.357679265496447
 20
18.66291487311699
 10
1.52467926549643
 20
18.66291487311699
 42
0.4142135623730951
 10
1.539679265496431
 20
18.67791487311699
 10
1.539679265496445
 20
18.96391487311699
 42
0.4142135623730603
 10
1.524679265496445
 20
18.97891487311699
 10
1.357679265496447
 20
18.97891487311699
 42
0.4142135623730951
 10
1.342679265496446
 20
18.96391487311699
 10
1.342679265496446
 20
18.89491487311699
 42
-0.414213562373069
 10
1.327679265496445
 20
18.87991487311699
 10
1.259679265496448
 20
18.87991487311699
 42
-0.414213562373069
 10
1.244679265496447
 20
18.89491487311699
 10
1.244679265496447
 20
19.06191487311699
 42
-0.4142135623730693
 10
1.259679265496448
 20
19.07691487311699
 10
3.48667926549627
 20
19.07691487311699
 42
0.4142135623730863
 10
3.501679265496271
 20
19.09191487311699
 10
3.501679265496264
 20
20.28191487311698
 42
-0.9999999999996671
 10
3.581679265496283
 20
20.28191487311698
 10
3.581679265496283
 20
19.09191487311699
 42
0.4142135623730864
 10
3.596679265496284
 20
19.07691487311699
 10
4.434679265496427
 20
19.07691487311699
 42
-0.4142135623730894
 10
4.494679265496429
 20
19.01691487311699
 10
4.494679265496444
 20
18.56095449239573
 42
-0.3394542588633778
 10
4.450208408202598
 20
18.50299894281839
 10
3.578796979819919
 20
18.269504954308
 42
0.3394542588633263
 10
3.567679265496458
 20
18.25501606691366
 10
3.567679265496408
 20
17.60652647421358
 42
-0.3394542588633497
 10
3.523208408202563
 20
17.54857092463624
 10
3.173679265496438
 20
17.45491487311698
 10
3.173679265496438
 20
17.55637193879717
 10
3.203679265496433
 20
17.5644104145701
 10
3.203679265496468
 20
18.23491487311699
 42
0.4142135623731124
 10
3.188679265496467
 20
18.24991487311699
 10
3.034218602462551
 20
18.24991487311699
 42
0.3401424000458743
 10
3.019720179094626
 20
18.23876139360236
 10
2.999638351898305
 20
18.16306835263162
 42
-0.3401424000458943
 10
2.985139928530379
 20
18.151914873117
 10
2.012179265496445
 20
18.151914873117
 42
-0.9999999999999998
 10
2.012179265496445
 20
18.23091487311699
 10
2.15467926549644
 20
18.23091487311699
 42
0.4142135623730691
  0
LWPOLYLINE
  5
4B4359
330
4B1AC8
100
AcDbEntity
  8
10
100
AcDbPolyline
 90
        8
 70
     1
 43
0.0
 10
3.30167926549646
 20
18.23491487311698
 42
-0.4142135623730984
 10
3.31667926549646
 20
18.24991487311698
 10
3.454679265496451
 20
18.24991487311698
 42
-0.4142135623730951
 10
3.469679265496452
 20
18.23491487311698
 10
3.469679265496424
 20
17.64719480457647
 42
-0.3394542588633731
 10
3.458561551172962
 20
17.63270591718213
 10
3.320561551172964
 20
17.59572892862663
 42
-0.4931454260313063
 10
3.301679265496424
 20
17.61021781602097
  0
LWPOLYLINE
  5
4B4419
330
4B1AC8
100
AcDbEntity
  8
10
100
AcDbPolyline
 90
        8
 70
     1
 43
0.0
 10
1.652679265496441
 20
18.426914873117
 42
-0.4142135623730948
 10
1.637679265496441
 20
18.441914873117
 10
1.637679265496441
 20
18.96391487311699
 42
-0.4142135623730864
 10
1.652679265496441
 20
18.97891487311699
 10
2.172679265496444
 20
18.97891487311699
 42
-0.4142135623730948
 10
2.187679265496445
 20
18.96391487311699
 10
2.187679265496438
 20
18.44191487311699
 42
-0.4142135623730917
 10
2.172679265496437
 20
18.42691487311699
  0
LWPOLYLINE
  5
4B441A
330
4B1AC8
100
AcDbEntity
  8
10
100
AcDbPolyline
 90
       12
 70
     1
 43
0.0
 10
1.488249056630994
 20
18.328914873117
 10
1.357679265496454
 20
18.32891487311699
 42
-0.4142135623730951
 10
1.342679265496453
 20
18.34391487311699
 10
1.342679265496453
 20
18.549914873117
 42
-0.414213562373069
 10
1.357679265496454
 20
18.564914873117
 10
1.542679265496438
 20
18.564914873117
 42
-0.4142135623730951
 10
1.557679265496439
 20
18.549914873117
 10
1.557679265496439
 20
18.44191487311699
 42
-0.4142135623731235
 10
1.542679265496438
 20
18.42691487311699
 10
1.518249056630995
 20
18.42691487311699
 42
0.4142135623731153
 10
1.503249056630995
 20
18.41191487311699
 10
1.503249056630995
 20
18.343914873117
 42
-0.4142135623730951
  0
LWPOLYLINE
  5
4B441D
330
4B1AC8
100
AcDbEntity
  8
10
100
AcDbPolyline
 90
        8
 70
     1
 43
0.0
 10
3.268679265496459
 20
18.32991487311699
 42
-0.4142135623730863
 10
3.253679265496458
 20
18.34491487311699
 10
3.253679265496458
 20
18.96391487311699
 42
-0.414213562373069
 10
3.268679265496459
 20
18.97891487311699
 10
3.48667926549627
 20
18.97891487311699
 42
-0.4142135623730958
 10
3.501679265496271
 20
18.96391487311699
 10
3.501679265496271
 20
18.34491487311699
 42
-0.4142135623730955
 10
3.48667926549627
 20
18.32991487311699
  0
LWPOLYLINE
  5
4B441F
330
4B1AC8
100
AcDbEntity
  8
10
100
AcDbPolyline
 90
       12
 70
     1
 43
0.0
 10
2.924248017053216
 20
18.26106835263162
 42
-0.3401424000458764
 10
2.90974959368529
 20
18.24991487311699
 10
2.282679265496447
 20
18.24991487311699
 42
-0.414213562373095
 10
2.267679265496447
 20
18.264914873117
 10
2.267679265496443
 20
18.96391487311699
 42
-0.4142135623730951
 10
2.282679265496444
 20
18.97891487311699
 10
3.158679265496459
 20
18.97891487311699
 42
-0.4142135623730951
 10
3.17367926549646
 20
18.96391487311699
 10
3.17367926549646
 20
18.36291487311699
 42
-0.4142135623730951
 10
3.158679265496459
 20
18.34791487311699
 10
2.958828267617469
 20
18.34791487311699
 42
0.340142400045877
 10
2.944329844249544
 20
18.33676139360236
  0
LWPOLYLINE
  5
4B4421
330
4B1AC8
100
AcDbEntity
  8
10
100
AcDbPolyline
 90
        5
 70
     1
 43
0.0
 10
2.135565513550538
 20
18.15191487311705
 10
2.135565513550538
 20
18.02691487311704
 10
3.135565513550538
 20
18.02691487311704
 10
3.135565513550538
 20
18.15191487311704
 10
2.135565513550538
 20
18.15191487311696
  0
ARC
  5
4B4424
330
4B1AC8
100
AcDbEntity
  8
10
100
AcDbCircle
 10
2.012179265496442
 20
18.19141487311696
 30
0.0
 40
0.0395000000000039
100
AcDbArc
 50
90.0
 51
270.0
  0
CIRCLE
  5
4B442C
330
4B1AC8
100
AcDbEntity
  8
DIM
100
AcDbCircle
 10
3.537293911699016
 20
16.94660606703592
 30
0.0
 40
0.27
  0
TEXT
  5
4B442D
330
4B1AC8
100
AcDbEntity
  8
DIM
100
AcDbText
 10
3.510508197413302
 20
16.83410606703592
 30
0.0
 40
0.225
  1
1
 51
10.0
  7
SIMPLEX
 72
     1
 11
3.537293911699016
 21
16.94660606703592
 31
0.0
100
AcDbText
 73
     2
  0
CIRCLE
  5
4B442E
330
4B1AC8
100
AcDbEntity
  8
DIM
100
AcDbCircle
 10
3.428092091053223
 20
10.82566146263458
 30
0.0
 40
0.27
  0
TEXT
  5
4B442F
330
4B1AC8
100
AcDbEntity
  8
DIM
100
AcDbText
 10
3.353092091053222
 20
10.71316146263458
 30
0.0
 40
0.225
  1
2
 51
10.0
  7
SIMPLEX
 72
     1
 11
3.428092091053223
 21
10.82566146263458
 31
0.0
100
AcDbText
 73
     2
  0
DIMENSION
  5
4B4430
330
4B1AC8
100
AcDbEntity
  8
DIM
100
AcDbDimension
280
     0
  2
*D1
 10
3.501679265496264
 20
6.761252673525738
 30
0.0
 11
2.373179265496352
 21
6.761252673525738
 31
0.0
 70
    32
 71
     5
 42
2.256999999999823
 73
     0
 74
     0
 75
     0
  3
STANDARD
100
AcDbAlignedDimension
 13
1.24467926549644
 23
8.591914873116992
 33
0.0
 14
3.501679265496264
 24
7.371914873117008
 34
0.0
100
AcDbRotatedDimension
1001
ACAD
1000
DSTYLE
1002
{
1070
    40
1040
4.0
1070
    41
1040
0.045
1070
    42
1040
0.05
1070
    43
1040
0.3799999999999999
1070
    44
1040
0.05
1070
    45
1040
0.001
1070
   140
1040
0.045
1070
   147
1040
0.045
1070
   174
1070
     1
1070
   179
1070
     2
1070
   276
1070
     2
1070
   277
1070
     4
1070
   279
1070
     2
1002
}
  0
LINE
  5
4B448D
330
4B1AC8
100
AcDbEntity
  8
CYAN
100
AcDbLine
 10
7.867761811330126
 20
3.877613542996646
 30
0.0
 11
5.142010123612813
 21
3.877613542996646
 31
0.0
  0
LINE
  5
4B448E
330
4B1AC8
100
AcDbEntity
  8
CYAN
100
AcDbLine
 10
7.883111173740381
 20
3.752613542996646
 30
0.0
 11
5.142010123612813
 21
3.752613542996646
 31
0.0
  0
LINE
  5
4B448F
330
4B1AC8
100
AcDbEntity
  8
CYAN
100
AcDbLine
 10
7.877012516413344
 20
3.127613542996708
 30
0.0
 11
5.142010123612814
 21
3.127613542996666
 31
0.0
  0
LINE
  5
4B4490
330
4B1AC8
100
AcDbEntity
  8
CYAN
100
AcDbLine
 10
7.891513847751184
 20
3.0026135429968
 30
0.0
 11
5.142010123612813
 21
3.002613542996714
 31
0.0
  0
DIMENSION
  5
4B4491
330
4B1AC8
100
AcDbEntity
  8
DIM
100
AcDbDimension
280
     0
  2
*D2
 10
5.659285342584372
 20
1.574700544213672
 30
0.0
 11
4.791458119053236
 21
1.484281891975506
 31
0.0
 70
   160
 71
     5
 42
1.735569243244952
 73
     0
 74
     0
 75
     0
  3
STANDARD
100
AcDbAlignedDimension
 13
3.92371609933942
 23
2.065613542996747
 33
0.0
 14
5.659285342584372
 24
2.983592496997342
 34
0.0
100
AcDbRotatedDimension
1001
ACAD
1000
DSTYLE
1002
{
1070
    40
1040
4.0
1070
    41
1040
0.045
1070
    42
1040
0.05
1070
    43
1040
0.3799999999999999
1070
    44
1040
0.05
1070
    45
1040
0.001
1070
   140
1040
0.045
1070
   147
1040
0.045
1070
   174
1070
     1
1070
   179
1070
     2
1070
   272
1070
     3
1070
   276
1070
     2
1070
   277
1070
     4
1070
   279
1070
     2
1002
}
  0
DIMENSION
  5
4B44B3
330
4B1AC8
100
AcDbEntity
  8
DIM
100
AcDbDimension
280
     0
  2
*D3
 10
12.62219953498543
 20
4.30761354299657
 30
0.0
 11
12.67164316502208
 21
3.179113542996662
 31
0.0
 70
   160
 71
     5
 42
2.256999999999823
 73
     0
 74
     0
 75
     0
  3
STANDARD
100
AcDbAlignedDimension
 13
11.90826012361292
 23
2.050613542996746
 33
0.0
 14
11.93826012361292
 24
4.30761354299657
 34
0.0
 50
90.0
100
AcDbRotatedDimension
1001
ACAD
1000
DSTYLE
1002
{
1070
    40
1040
4.0
1070
    41
1040
0.045
1070
    42
1040
0.05
1070
    43
1040
0.3799999999999999
1070
    44
1040
0.05
1070
    45
1040
0.001
1070
   140
1040
0.045
1070
   147
1040
0.045
1070
   174
1070
     1
1070
   179
1070
     2
1070
   272
1070
     3
1070
   276
1070
     2
1070
   277
1070
     4
1070
   279
1070
     2
1002
}
  0
CIRCLE
  5
4B450B
330
4B1AC8
100
AcDbEntity
  8
DIM
100
AcDbCircle
 10
5.197333853769027
 20
4.888227172829193
 30
0.0
 40
0.27
  0
TEXT
  5
4B450C
330
4B1AC8
100
AcDbEntity
  8
DIM
100
AcDbText
 10
5.122333853769027
 20
4.775727172829193
 30
0.0
 40
0.225
  1
3
 51
10.0
  7
SIMPLEX
 72
     1
 11
5.197333853769027
 21
4.888227172829193
 31
0.0
100
AcDbText
 73
     2
  0
DIMENSION
  5
4B4827
330
4B1AC8
100
AcDbEntity
  8
DIM
100
AcDbDimension
280
     0
  2
*D4
 10
1.814536377989639
 20
5.300613542996733
 30
0.0
 11
1.814536377989639
 21
3.67561354299674
 31
0.0
 70
    32
 71
     5
 42
3.249999999999985
 73
     0
 74
     0
 75
     0
  3
STANDARD
100
AcDbAlignedDimension
 13
3.938260123612927
 23
2.050613542996746
 33
0.0
 14
3.983260123612929
 24
5.300613542996732
 34
0.0
 50
90.0
100
AcDbRotatedDimension
1001
ACAD
1000
DSTYLE
1002
{
1070
    40
1040
4.0
1070
    41
1040
0.045
1070
    42
1040
0.05
1070
    43
1040
0.3799999999999999
1070
    44
1040
0.05
1070
    45
1040
0.001
1070
   140
1040
0.045
1070
   147
1040
0.045
1070
   174
1070
     1
1070
   179
1070
     2
1070
   276
1070
     2
1070
   277
1070
     4
1070
   279
1070
     2
1002
}
  0
ARC
  5
4B4B1F
330
4B1AC8
100
AcDbEntity
  8
XTHIN
100
AcDbCircle
 10
9.649475091180782
 20
10.66455030171507
 30
0.0
 40
4.338342775999999
100
AcDbArc
 50
6.088386400587625
 51
173.8909557612748
  0
ARC
  5
4B4B20
330
4B1AC8
100
AcDbEntity
  8
XTHIN
100
AcDbCircle
 10
9.649475091180782
 20
10.66455030171507
 30
0.0
 40
4.285846521999999
100
AcDbArc
 50
6.890108219959645
 51
173.1098917800403
  0
ARC
  5
4B4B21
330
4B1AC8
100
AcDbEntity
  8
XTHIN
100
AcDbCircle
 10
9.649475091180782
 20
10.66455030171507
 30
0.0
 40
4.146817181999999
100
AcDbArc
 50
9.06264401434033
 51
170.9373559856596
  0
ARC
  5
4B4B22
330
4B1AC8
100
AcDbEntity
  8
XTHIN
100
AcDbCircle
 10
9.649475091180782
 20
10.66455030171507
 30
0.0
 40
4.123799997999999
100
AcDbArc
 50
9.437693872785404
 51
170.5623061272148
  0
ARC
  5
4B4B23
330
4B1AC8
100
AcDbEntity
  8
XTHIN
100
AcDbCircle
 10
9.649475091180782
 20
10.66455030171507
 30
0.0
 40
4.094314876
100
AcDbArc
 50
9.924906779345175
 51
170.075093220655
  0
ARC
  5
4B4B24
330
4B1AC8
100
AcDbEntity
  8
XTHIN
100
AcDbCircle
 10
9.649475091180782
 20
10.66455030171507
 30
0.0
 40
4.448199737999998
100
AcDbArc
 50
4.536007884771634
 51
175.4639921152283
  0
ARC
  5
4B4B25
330
4B1AC8
100
AcDbEntity
  8
XTHIN
100
AcDbCircle
 10
9.649475091180782
 20
10.66455030171507
 30
0.0
 40
4.697199737999999
100
AcDbArc
 50
1.253900203054941
 51
178.7460997969452
  0
LINE
  5
4B4B26
330
4B1AC8
100
AcDbEntity
  8
XTHIN
100
AcDbLine
 10
4.953400145596866
 20
10.7673388425465
 30
0.0
 11
14.3455500367647
 21
10.7673388425465
 31
0.0
  0
LINE
  5
4B4B27
330
4B1AC8
100
AcDbEntity
  8
XTHIN
100
AcDbLine
 10
5.394580661092071
 20
11.17870377971508
 30
0.0
 11
13.90436952126949
 21
11.17870377971508
 31
0.0
  0
LINE
  5
4B4B28
330
4B1AC8
100
AcDbEntity
  8
XTHIN
100
AcDbLine
 10
5.554423815897415
 20
11.31773311971508
 30
0.0
 11
13.74452636646415
 21
11.31773311971508
 31
0.0
  0
LINE
  5
4B4B29
330
4B1AC8
100
AcDbEntity
  8
XTHIN
100
AcDbLine
 10
5.581492792694227
 20
11.34075030371507
 30
0.0
 11
13.71745738966734
 21
11.34075030371508
 31
0.0
  0
LINE
  5
4B4B2A
330
4B1AC8
100
AcDbEntity
  8
XTHIN
100
AcDbLine
 10
5.61643370661752
 20
11.37023542571506
 30
0.0
 11
13.68251647574404
 21
11.37023542571508
 31
0.0
  0
LINE
  5
4B4B2B
330
4B1AC8
100
AcDbEntity
  8
XTHIN
100
AcDbLine
 10
13.96334728406392
 20
11.12468587471632
 30
0.0
 11
5.335769079318332
 21
11.12624119971163
 31
0.0
  0
LINE
  5
4B4B2C
330
4B1AC8
100
AcDbEntity
  8
XTHIN
100
AcDbLine
 10
5.215207876444758
 20
11.0163388425465
 30
0.0
 11
14.08374230591683
 21
11.0163388425465
 31
0.0
  0
MTEXT
  5
4B4B2D
330
4B1AC8
100
AcDbEntity
  8
DIM
100
AcDbMText
 10
9.545583471194575
 20
10.3641611921493
 30
0.0
 40
0.3
 41
7.990959049999999
 46
0.0
 71
     5
 72
     5
  1
\P{\H0.8333x;(1:10 Scale)}
  7
TAHOMA
 73
     1
 44
1.0
  0
LINE
  5
4B4B2E
330
4B1AC8
100
AcDbEntity
  8
XTHIN
100
AcDbLine
 10
4.953535787256633
 20
10.77335945816589
 30
0.0
 11
5.61643370661752
 21
11.37023542571506
 31
0.0
  0
LWPOLYLINE
  5
4B4B2F
330
4B1AC8
100
AcDbEntity
  8
XTHIN
100
AcDbPolyline
 90
        4
 70
     1
 43
0.0
 10
5.046408554222388
 20
11.4306355245515
 42
1.000000000000189
 10
5.083412398014495
 20
11.42396652578037
 10
5.087846572729354
 20
11.448570145323
 42
1.000000000000188
 10
5.050842728937226
 20
11.45523914409413
  0
LINE
  5
4B4B30
330
4B1AC8
100
AcDbEntity
  8
XTHIN
100
AcDbLine
 10
5.943234800921253
 20
11.22901606721777
 30
0.0
 11
5.943234800921253
 21
11.18861606721778
 31
0.0
  0
ARC
  5
4B4B31
330
4B1AC8
100
AcDbEntity
  8
XTHIN
100
AcDbCircle
 10
5.95283480092123
 20
11.21201606721777
 30
0.0
 40
0.0310000000000002
100
AcDbArc
 50
270.0
 51
89.99999999999349
  0
ARC
  5
4B4B32
330
4B1AC8
100
AcDbEntity
  8
XTHIN
100
AcDbCircle
 10
5.853234800921221
 20
11.18861606721778
 30
0.0
 40
0.01
100
AcDbArc
 50
0.0
 51
180.0
  0
LINE
  5
4B4B33
330
4B1AC8
100
AcDbEntity
  8
XTHIN
100
AcDbLine
 10
5.763234800921246
 20
11.22901606721777
 30
0.0
 11
5.763234800921246
 21
11.18861606721778
 31
0.0
  0
ARC
  5
4B4B34
330
4B1AC8
100
AcDbEntity
  8
XTHIN
100
AcDbCircle
 10
5.753634800921211
 20
11.21201606721777
 30
0.0
 40
0.0310000000000002
100
AcDbArc
 50
90.0
 51
270.0
  0
LWPOLYLINE
  5
4B4B35
330
4B1AC8
100
AcDbEntity
  8
XTHIN
100
AcDbPolyline
 90
        4
 70
     1
 43
0.0
 10
5.652625091180816
 20
10.83613884254651
 42
0.9999999999999998
 10
5.652625091180816
 20
10.79853884254651
 10
5.677625091180793
 20
10.79853884254651
 42
0.9999999999999998
 10
5.677625091180793
 20
10.83613884254651
  0
LINE
  5
4B4B36
330
4B1AC8
100
AcDbEntity
  8
XTHIN
100
AcDbLine
 10
5.753634800921211
 20
11.18101606721777
 30
0.0
 11
5.95283480092123
 21
11.18101606721777
 31
0.0
  0
LINE
  5
4B4B37
330
4B1AC8
100
AcDbEntity
  8
XTHIN
100
AcDbLine
 10
5.753634800921211
 20
11.24301606721776
 30
0.0
 11
5.95283480092123
 21
11.24301606721776
 31
0.0
  0
LINE
  5
4B4B38
330
4B1AC8
100
AcDbEntity
  8
XTHIN
100
AcDbLine
 10
5.763234800921246
 20
11.18861606721778
 30
0.0
 11
5.943234800921253
 21
11.18861606721778
 31
0.0
  0
LINE
  5
4B4B39
330
4B1AC8
100
AcDbEntity
  8
XTHIN
100
AcDbLine
 10
5.763234800921246
 20
11.22901606721777
 30
0.0
 11
5.943234800921253
 21
11.22901606721777
 31
0.0
  0
LINE
  5
4B4B3A
330
4B1AC8
100
AcDbEntity
  8
XTHIN
100
AcDbLine
 10
5.763234800921246
 20
11.22261606721779
 30
0.0
 11
5.943234800921253
 21
11.22261606721779
 31
0.0
  0
LINE
  5
4B4B3B
330
4B1AC8
100
AcDbEntity
  8
XTHIN
100
AcDbLine
 10
5.763234800921246
 20
11.21501606721779
 30
0.0
 11
5.943234800921253
 21
11.21501606721779
 31
0.0
  0
LINE
  5
4B4B3C
330
4B1AC8
100
AcDbEntity
  8
XTHIN
100
AcDbLine
 10
5.763234800921246
 20
11.21101606721779
 30
0.0
 11
5.943234800921253
 21
11.21101606721779
 31
0.0
  0
LWPOLYLINE
  5
4B4B3D
330
4B1AC8
100
AcDbEntity
  8
XTHIN
100
AcDbPolyline
 90
        4
 70
     1
 43
0.0
 10
7.252625091180817
 20
10.83613884254651
 42
0.9999999999999998
 10
7.252625091180817
 20
10.79853884254651
 10
7.277625091180816
 20
10.79853884254651
 42
0.9999999999999998
 10
7.277625091180816
 20
10.83613884254651
  0
LWPOLYLINE
  5
4B4B3E
330
4B1AC8
100
AcDbEntity
  8
XTHIN
100
AcDbPolyline
 90
        4
 70
     1
 43
0.0
 10
6.452625091180813
 20
10.83613884254651
 42
0.9999999999999998
 10
6.452625091180813
 20
10.79853884254651
 10
6.477625091180819
 20
10.79853884254651
 42
0.9999999999999998
 10
6.477625091180819
 20
10.83613884254651
  0
LINE
  5
4B4B3F
330
4B1AC8
100
AcDbEntity
  8
DIM
100
AcDbLine
 10
6.835984958119631
 20
12.10704684809025
 30
0.0
 11
4.901050818329728
 21
12.10704684809025
 31
0.0
  0
CIRCLE
  5
4B4B40
330
4B1AC8
100
AcDbEntity
  8
DIM
100
AcDbCircle
 10
4.631050818329718
 20
12.10704684809025
 30
0.0
 40
0.27
  0
TEXT
  5
4B4B41
330
4B1AC8
100
AcDbEntity
  8
DIM
100
AcDbText
 10
4.556050818329718
 20
11.99454684809024
 30
0.0
 40
0.225
  1
3
 51
10.0
  7
SIMPLEX
 72
     1
 11
4.631050818329718
 21
12.10704684809025
 31
0.0
100
AcDbText
 73
     2
  0
LWPOLYLINE
  5
4B4B42
330
4B1AC8
100
AcDbEntity
  8
XTHIN
100
AcDbPolyline
 90
        4
 70
     1
 43
0.0
 10
5.247743436441318
 20
12.21383494169641
 42
1.000000000000189
 10
5.28302704921554
 20
12.20084160996061
 10
5.291666232550518
 20
12.22430145887966
 42
1.000000000000188
 10
5.256382619776253
 20
12.23729479061547
  0
LWPOLYLINE
  5
4B4B43
330
4B1AC8
100
AcDbEntity
  8
XTHIN
100
AcDbPolyline
 90
        4
 70
     1
 43
0.0
 10
5.579840966204137
 20
12.94802789740812
 42
1.000000000000189
 10
5.61233227324076
 20
12.92910502851749
 10
5.624913967981889
 20
12.95070829117481
 42
1.000000000000188
 10
5.592422660945224
 20
12.96963116006546
  0
LINE
  5
4B4B44
330
4B1AC8
100
AcDbEntity
  8
DIM
100
AcDbLine
 10
8.625756296383649
 20
11.98437972514184
 30
0.0
 11
8.625756296383649
 21
10.53317912029942
 31
0.0
  0
LWPOLYLINE
  5
4B4B45
330
4B1AC8
100
AcDbEntity
  8
XTHIN
100
AcDbPolyline
 90
        4
 70
     1
 43
0.0
 10
8.052625091180864
 20
10.83613884254651
 42
0.9999999999999998
 10
8.052625091180864
 20
10.79853884254651
 10
8.07762509118077
 20
10.79853884254651
 42
0.9999999999999998
 10
8.07762509118077
 20
10.83613884254651
  0
LWPOLYLINE
  5
4B4B46
330
4B1AC8
100
AcDbEntity
  8
XTHIN
100
AcDbPolyline
 90
        4
 70
     1
 43
0.0
 10
8.852625091180748
 20
10.83613884254651
 42
0.9999999999999998
 10
8.852625091180748
 20
10.79853884254651
 10
8.877625091180838
 20
10.79853884254651
 42
0.9999999999999998
 10
8.877625091180838
 20
10.83613884254651
  0
LWPOLYLINE
  5
4B4B47
330
4B1AC8
100
AcDbEntity
  8
XTHIN
100
AcDbPolyline
 90
        4
 70
     1
 43
0.0
 10
10.45262509118081
 20
10.83613884254651
 42
0.9999999999999998
 10
10.45262509118081
 20
10.79853884254651
 10
10.47762509118075
 20
10.79853884254651
 42
0.9999999999999998
 10
10.47762509118075
 20
10.83613884254651
  0
LWPOLYLINE
  5
4B4B48
330
4B1AC8
100
AcDbEntity
  8
XTHIN
100
AcDbPolyline
 90
        4
 70
     1
 43
0.0
 10
9.652625091180773
 20
10.83613884254651
 42
0.9999999999999998
 10
9.652625091180773
 20
10.79853884254651
 10
9.677625091180772
 20
10.79853884254651
 42
0.9999999999999998
 10
9.677625091180772
 20
10.83613884254651
  0
LWPOLYLINE
  5
4B4B49
330
4B1AC8
100
AcDbEntity
  8
XTHIN
100
AcDbPolyline
 90
        4
 70
     1
 43
0.0
 10
11.25262509118077
 20
10.83613884254651
 42
0.9999999999999998
 10
11.25262509118077
 20
10.79853884254651
 10
11.27762509118081
 20
10.79853884254651
 42
0.9999999999999998
 10
11.27762509118081
 20
10.83613884254651
  0
TEXT
  5
4B4B4A
330
4B1AC8
100
AcDbEntity
  8
DIM
100
AcDbText
 10
8.550756296383649
 20
12.14187972514184
 30
0.0
 40
0.225
  1
2
 51
10.0
  7
SIMPLEX
 72
     1
 11
8.625756296383649
 21
12.25437972514184
 31
0.0
100
AcDbText
 73
     2
  0
CIRCLE
  5
4B4B4B
330
4B1AC8
100
AcDbEntity
  8
DIM
100
AcDbCircle
 10
8.625756296383649
 20
12.25437972514184
 30
0.0
 40
0.27
  0
LINE
  5
4B4B4C
330
4B1AC8
100
AcDbEntity
  8
XTHIN
100
AcDbLine
 10
14.34541439510496
 20
10.77335945816589
 30
0.0
 11
13.68251647574407
 21
11.37023542571506
 31
0.0
  0
LWPOLYLINE
  5
4B4B4D
330
4B1AC8
100
AcDbEntity
  8
XTHIN
100
AcDbPolyline
 90
        4
 70
     1
 43
0.0
 10
12.85262509118075
 20
10.83613884254652
 42
0.9999999999999998
 10
12.85262509118075
 20
10.79853884254652
 10
12.87762509118084
 20
10.79853884254652
 42
0.9999999999999998
 10
12.87762509118084
 20
10.83613884254652
  0
LWPOLYLINE
  5
4B4B4E
330
4B1AC8
100
AcDbEntity
  8
XTHIN
100
AcDbPolyline
 90
        4
 70
     1
 43
0.0
 10
12.05262509118086
 20
10.83613884254652
 42
0.9999999999999998
 10
12.05262509118086
 20
10.79853884254652
 10
12.07762509118075
 20
10.79853884254652
 42
0.9999999999999998
 10
12.07762509118075
 20
10.83613884254652
  0
LWPOLYLINE
  5
4B4B4F
330
4B1AC8
100
AcDbEntity
  8
XTHIN
100
AcDbPolyline
 90
        4
 70
     1
 43
0.0
 10
13.65262509118077
 20
10.83613884254652
 42
0.9999999999999998
 10
13.65262509118077
 20
10.79853884254652
 10
13.67762509118077
 20
10.79853884254652
 42
0.9999999999999998
 10
13.67762509118077
 20
10.83613884254652
  0
LINE
  5
4B4B50
330
4B1AC8
100
AcDbEntity
  8
XTHIN
100
AcDbLine
 10
13.53571538144032
 20
11.22901606721777
 30
0.0
 11
13.53571538144032
 21
11.18861606721778
 31
0.0
  0
ARC
  5
4B4B51
330
4B1AC8
100
AcDbEntity
  8
XTHIN
100
AcDbCircle
 10
13.54531538144035
 20
11.21201606721777
 30
0.0
 40
0.0310000000000002
100
AcDbArc
 50
270.0
 51
90.0
  0
ARC
  5
4B4B52
330
4B1AC8
100
AcDbEntity
  8
XTHIN
100
AcDbCircle
 10
13.44571538144034
 20
11.18861606721778
 30
0.0
 40
0.01
100
AcDbArc
 50
0.0
 51
180.0
  0
ARC
  5
4B4B53
330
4B1AC8
100
AcDbEntity
  8
XTHIN
100
AcDbCircle
 10
13.34611538144033
 20
11.21201606721777
 30
0.0
 40
0.0310000000000002
100
AcDbArc
 50
90.00000000000651
 51
270.0
  0
LINE
  5
4B4B54
330
4B1AC8
100
AcDbEntity
  8
XTHIN
100
AcDbLine
 10
13.35571538144031
 20
11.22901606721777
 30
0.0
 11
13.35571538144031
 21
11.18861606721778
 31
0.0
  0
LINE
  5
4B4B55
330
4B1AC8
100
AcDbEntity
  8
XTHIN
100
AcDbLine
 10
13.53571538144032
 20
11.21101606721779
 30
0.0
 11
13.35571538144031
 21
11.21101606721779
 31
0.0
  0
LINE
  5
4B4B56
330
4B1AC8
100
AcDbEntity
  8
XTHIN
100
AcDbLine
 10
13.53571538144032
 20
11.21501606721779
 30
0.0
 11
13.35571538144031
 21
11.21501606721779
 31
0.0
  0
LINE
  5
4B4B57
330
4B1AC8
100
AcDbEntity
  8
XTHIN
100
AcDbLine
 10
13.53571538144032
 20
11.22261606721779
 30
0.0
 11
13.35571538144031
 21
11.22261606721779
 31
0.0
  0
LINE
  5
4B4B58
330
4B1AC8
100
AcDbEntity
  8
XTHIN
100
AcDbLine
 10
13.53571538144032
 20
11.22901606721777
 30
0.0
 11
13.35571538144031
 21
11.22901606721777
 31
0.0
  0
LINE
  5
4B4B59
330
4B1AC8
100
AcDbEntity
  8
XTHIN
100
AcDbLine
 10
13.53571538144032
 20
11.18861606721778
 30
0.0
 11
13.35571538144031
 21
11.18861606721778
 31
0.0
  0
LINE
  5
4B4B5A
330
4B1AC8
100
AcDbEntity
  8
XTHIN
100
AcDbLine
 10
13.54531538144035
 20
11.24301606721776
 30
0.0
 11
13.34611538144033
 21
11.24301606721776
 31
0.0
  0
LINE
  5
4B4B5B
330
4B1AC8
100
AcDbEntity
  8
XTHIN
100
AcDbLine
 10
13.54531538144035
 20
11.18101606721777
 30
0.0
 11
13.34611538144033
 21
11.18101606721777
 31
0.0
  0
LWPOLYLINE
  5
4B4B5C
330
4B1AC8
100
AcDbEntity
  8
XTHIN
100
AcDbPolyline
 90
        4
 70
     1
 43
0.0
 10
13.94269567256206
 20
12.48916389859625
 42
1.000000000000189
 10
13.90731490441485
 20
12.47643749905381
 10
13.91577660623832
 20
12.45291305214743
 42
1.000000000000188
 10
13.95115737438552
 20
12.46563945168988
  0
LWPOLYLINE
  5
4B4B5D
330
4B1AC8
100
AcDbEntity
  8
XTHIN
100
AcDbPolyline
 90
        4
 70
     1
 43
0.0
 10
14.19299805260164
 20
11.72149364891771
 42
1.000000000000189
 10
14.15594488173399
 20
11.7151043978936
 10
14.16019305395746
 20
11.69046798109327
 42
1.000000000000188
 10
14.19724622482518
 20
11.69685723211739
  0
LWPOLYLINE
  5
4B4B5E
330
4B1AC8
100
AcDbEntity
  8
XTHIN
100
AcDbPolyline
 90
        4
 70
     1
 43
0.0
 10
11.8113562400733
 20
14.7984673980143
 42
1.000000000000189
 10
11.79243337118267
 20
14.7659760909777
 10
11.81403663383999
 20
14.75339439623658
 42
1.000000000000188
 10
11.83295950273064
 20
14.78588570327321
  0
TEXT
  5
4B4B5F
330
4B1AC8
100
AcDbEntity
  8
DIM
100
AcDbText
 10
8.598970582097935
 20
15.79535207002608
 30
0.0
 40
0.225
  1
1
 51
10.0
  7
SIMPLEX
 72
     1
 11
8.625756296383649
 21
15.90785207002608
 31
0.0
100
AcDbText
 73
     2
  0
CIRCLE
  5
4B4B60
330
4B1AC8
100
AcDbEntity
  8
DIM
100
AcDbCircle
 10
8.625756296383649
 20
15.90785207002608
 30
0.0
 40
0.27
  0
LWPOLYLINE
  5
4B4B61
330
4B1AC8
100
AcDbEntity
  8
XTHIN
100
AcDbPolyline
 90
        4
 70
     1
 43
0.0
 10
6.031589057336454
 20
13.61209051394887
 42
1.000000000000189
 10
6.060300826712513
 20
13.58781306969922
 10
6.076442744431695
 20
13.60690334189075
 42
1.000000000000188
 10
6.047730975055614
 20
13.63118078614042
  0
LWPOLYLINE
  5
4B4B62
330
4B1AC8
100
AcDbEntity
  8
XTHIN
100
AcDbPolyline
 90
        4
 70
     1
 43
0.0
 10
6.588733183235113
 20
14.18734135410721
 42
1.000000000000189
 10
6.612793022366972
 20
14.15844699235709
 10
6.632004699062562
 20
14.17444422582243
 42
1.000000000000188
 10
6.607944859930633
 20
14.20333858757258
  0
LWPOLYLINE
  5
4B4B63
330
4B1AC8
100
AcDbEntity
  8
XTHIN
100
AcDbPolyline
 90
        4
 70
     1
 43
0.0
 10
7.234348291406256
 20
14.65787418268934
 42
1.000000000000189
 10
7.253025154256775
 20
14.62524084399928
 10
7.274722852853933
 20
14.63765897089458
 42
1.000000000000188
 10
7.256045990003364
 20
14.67029230958468
  0
LINE
  5
4B4B64
330
4B1AC8
100
AcDbEntity
  8
DIM
100
AcDbLine
 10
8.625756296383649
 20
15.63785207002608
 30
0.0
 11
8.625756296383649
 21
14.18665146518365
 31
0.0
  0
LWPOLYLINE
  5
4B4B65
330
4B1AC8
100
AcDbEntity
  8
XTHIN
100
AcDbPolyline
 90
        4
 70
     1
 43
0.0
 10
8.713348900615734
 20
15.23483484897814
 42
1.000000000000189
 10
8.719738151639838
 20
15.19778167811047
 10
8.744374568440143
 20
15.20202985033394
 42
1.000000000000188
 10
8.737985317416047
 20
15.23908302120166
  0
LWPOLYLINE
  5
4B4B66
330
4B1AC8
100
AcDbEntity
  8
XTHIN
100
AcDbPolyline
 90
        4
 70
     1
 43
0.0
 10
7.94934214320498
 20
15.01086230169873
 42
1.000000000000189
 10
7.96206854274741
 20
14.97548153355155
 10
7.985592989653781
 20
14.98394323537497
 42
1.000000000000188
 10
7.97286659011133
 20
15.01932400352219
  0
LWPOLYLINE
  5
4B4B67
330
4B1AC8
100
AcDbEntity
  8
XTHIN
100
AcDbPolyline
 90
        4
 70
     1
 43
0.0
 10
9.503343301165664
 20
15.32952015328937
 42
1.000000000000189
 10
9.503201269512196
 20
15.29192042154821
 10
9.528201091148623
 20
15.29182598560839
 42
1.000000000000188
 10
9.528343122802091
 20
15.3294257173496
  0
LWPOLYLINE
  5
4B4B68
330
4B1AC8
100
AcDbEntity
  8
XTHIN
100
AcDbPolyline
 90
        4
 70
     1
 43
0.0
 10
11.07370566472783
 20
15.10697150142615
 42
1.000000000000189
 10
11.06071233299204
 20
15.07168788865192
 10
11.08417218191106
 20
15.06304870531693
 42
1.000000000000188
 10
11.09716551364689
 20
15.0983323180912
  0
LWPOLYLINE
  5
4B4B69
330
4B1AC8
100
AcDbEntity
  8
XTHIN
100
AcDbPolyline
 90
        4
 70
     1
 43
0.0
 10
10.29777784220899
 20
15.28558588704881
 42
1.000000000000189
 10
10.29110884343784
 20
15.24858204325673
 10
10.31571246298047
 20
15.24414786854187
 42
1.000000000000188
 10
10.32238146175162
 20
15.281151712334
  0
LWPOLYLINE
  5
4B4B6A
330
4B1AC8
100
AcDbEntity
  8
XTHIN
100
AcDbPolyline
 90
        4
 70
     1
 43
0.0
 10
13.56532576357082
 20
13.19978445055954
 42
1.000000000000189
 10
13.53269242488076
 20
13.181107587709
 10
13.54511055177602
 20
13.15940988911187
 42
1.000000000000188
 10
13.57774389046616
 20
13.17808675196243
  0
LWPOLYLINE
  5
4B4B6B
330
4B1AC8
100
AcDbEntity
  8
XTHIN
100
AcDbPolyline
 90
        4
 70
     1
 43
0.0
 10
12.48165775384446
 20
14.37143748171887
 42
1.000000000000189
 10
12.45738030959481
 20
14.34272571234282
 10
12.47647058178632
 20
14.32658379462363
 42
1.000000000000188
 10
12.50074802603601
 20
14.35529556399971
  0
LWPOLYLINE
  5
4B4B6C
330
4B1AC8
100
AcDbEntity
  8
XTHIN
100
AcDbPolyline
 90
        4
 70
     1
 43
0.0
 10
13.07318705253197
 20
13.83313614741859
 42
1.000000000000189
 10
13.04429269078187
 20
13.80907630828672
 10
13.06028992424718
 20
13.78986463159115
 42
1.000000000000188
 10
13.08918428599734
 20
13.81392447072305
  0
LWPOLYLINE
  5
4B4C6E
330
4B1AC8
100
AcDbEntity
  8
10
100
AcDbPolyline
 90
       33
 70
     1
 43
0.0
 10
4.709142409289468
 20
2.413053430585589
 10
4.750377837936394
 20
2.424102430391085
 42
-0.4931454260312981
 10
4.769260123612932
 20
2.40961354299675
 10
4.769260123612932
 20
2.321613542996749
 42
0.4142135623730951
 10
4.784260123612932
 20
2.306613542996748
 10
5.521260123612931
 20
2.306613542996748
 42
0.4142135623730951
 10
5.551260123612928
 20
2.336613542996749
 10
5.551260123612928
 20
2.904613542996747
 10
4.956260123612927
 20
2.904613542996689
 42
0.4142135623730795
 10
4.926260123612928
 20
2.874613542996689
 10
4.926260123612928
 20
2.79361354299675
 42
-0.4142135623730951
 10
4.911260123612928
 20
2.778613542996749
 10
4.784260123612932
 20
2.778613542996749
 42
-0.4142135623730951
 10
4.769260123612932
 20
2.79361354299675
 10
4.769260123612928
 20
2.896113542996749
 42
0.9999999999999998
 10
4.690260123612931
 20
2.896113542996749
 10
4.690260123612931
 20
2.72961354299675
 42
0.4142135623730951
 10
4.720260123612929
 20
2.69961354299675
 10
4.975260123612928
 20
2.699613542996749
 42
0.4142135623730951
 10
5.005260123612929
 20
2.72961354299675
 10
5.005260123612925
 20
2.810613542996724
 42
-0.4142135623730951
 10
5.020260123612926
 20
2.825613542996725
 10
5.457260123612927
 20
2.825613542996725
 42
-0.4142135623730951
 10
5.472260123612928
 20
2.810613542996724
 10
5.472260123612928
 20
2.400613542996749
 42
-0.4142135623730951
 10
5.457260123612931
 20
2.38561354299675
 10
4.863260123612933
 20
2.385613542996749
 42
-0.4142135623730951
 10
4.848260123612933
 20
2.400613542996749
 10
4.848260123612933
 20
2.47361354299675
 42
0.4142135623730951
 10
4.818260123612931
 20
2.503613542996751
 10
4.705260123612928
 20
2.503613542996751
 42
0.4142135623730951
 10
4.690260123612928
 20
2.48861354299675
 10
4.690260123612931
 20
2.427542317979925
 42
0.4931454260313336
  0
ARC
  5
4B4C6F
330
4B1AC8
100
AcDbEntity
  8
10
 48
0.25
100
AcDbCircle
 10
5.275260123612929
 20
2.927613542996715
 30
0.0
 40
0.0749999999999993
100
AcDbArc
 50
342.1415373016011
 51
197.8584626984099
  0
LWPOLYLINE
  5
4B4C8A
330
4B1AC8
100
AcDbEntity
  8
10
100
AcDbPolyline
 90
       33
 70
     1
 43
0.0
 10
11.13737783793633
 20
2.413053430585589
 10
11.0961424092894
 20
2.424102430391085
 42
0.4931454260312981
 10
11.07726012361286
 20
2.40961354299675
 10
11.07726012361286
 20
2.321613542996749
 42
-0.4142135623730951
 10
11.06226012361286
 20
2.306613542996748
 10
10.32526012361286
 20
2.306613542996748
 42
-0.4142135623730951
 10
10.29526012361287
 20
2.336613542996749
 10
10.29526012361287
 20
2.904613542996747
 10
10.89026012361287
 20
2.904613542996689
 42
-0.4142135623730795
 10
10.92026012361287
 20
2.874613542996689
 10
10.92026012361287
 20
2.79361354299675
 42
0.4142135623730951
 10
10.93526012361287
 20
2.778613542996749
 10
11.06226012361286
 20
2.778613542996749
 42
0.4142135623730951
 10
11.07726012361286
 20
2.79361354299675
 10
11.07726012361287
 20
2.896113542996749
 42
-0.9999999999999998
 10
11.15626012361286
 20
2.896113542996749
 10
11.15626012361286
 20
2.72961354299675
 42
-0.4142135623730951
 10
11.12626012361286
 20
2.69961354299675
 10
10.87126012361287
 20
2.699613542996749
 42
-0.4142135623730951
 10
10.84126012361287
 20
2.72961354299675
 10
10.84126012361287
 20
2.810613542996724
 42
0.4142135623730951
 10
10.82626012361287
 20
2.825613542996725
 10
10.38926012361287
 20
2.825613542996725
 42
0.4142135623730951
 10
10.37426012361287
 20
2.810613542996724
 10
10.37426012361287
 20
2.400613542996749
 42
0.4142135623730951
 10
10.38926012361286
 20
2.38561354299675
 10
10.98326012361286
 20
2.385613542996749
 42
0.4142135623730951
 10
10.99826012361286
 20
2.400613542996749
 10
10.99826012361286
 20
2.47361354299675
 42
-0.4142135623730951
 10
11.02826012361286
 20
2.503613542996751
 10
11.14126012361287
 20
2.503613542996751
 42
-0.4142135623730951
 10
11.15626012361287
 20
2.48861354299675
 10
11.15626012361286
 20
2.427542317979925
 42
-0.4931454260313336
  0
ARC
  5
4B4C8B
330
4B1AC8
100
AcDbEntity
  8
10
 48
0.25
100
AcDbCircle
 10
10.57126012361287
 20
2.927613542996715
 30
0.0
 40
0.0749999999999993
100
AcDbArc
 50
342.14153730159
 51
197.8584626983988
  0
LINE
  5
4B4CB0
330
4B1AC8
100
AcDbEntity
  8
CYAN
100
AcDbLine
 10
5.142010123612813
 20
3.877613542996646
 30
0.0
 11
5.142010123612813
 21
3.752613542996646
 31
0.0
  0
LINE
  5
4B4CB6
330
4B1AC8
100
AcDbEntity
  8
CYAN
100
AcDbLine
 10
5.142010123612813
 20
3.002613542996618
 30
0.0
 11
5.142010123612813
 21
3.127613542996618
 31
0.0
  0
LINE
  5
4B4CBC
330
4B1AC8
100
AcDbEntity
  8
CYAN
100
AcDbLine
 10
10.70451012361298
 20
3.752613542996646
 30
0.0
 11
10.70451012361298
 21
3.877613542996646
 31
0.0
  0
LINE
  5
4B4CC2
330
4B1AC8
100
AcDbEntity
  8
CYAN
100
AcDbLine
 10
10.70451012361298
 20
3.002613542996618
 30
0.0
 11
10.70451012361298
 21
3.127613542996618
 31
0.0
  0
INSERT
  5
4B4CD0
330
4B1AC8
100
AcDbEntity
  8
DIM
100
AcDbBlockReference
  2
Silicon Horizontal
 10
5.110760123612809
 20
3.877613542996646
 30
0.0
1001
MTVPROFILELINK
1002
{
1000
#BlockRef=32e123ca-0x5873-4e2b-8A50-14D599F635DB|
1002
}
1005
AA
  0
INSERT
  5
4B4CDC
330
4B1AC8
100
AcDbEntity
  8
DIM
100
AcDbBlockReference
  2
Silicon Horizontal
 10
10.73576012361298
 20
3.877613542996646
 30
0.0
 41
-1.0
1001
MTVPROFILELINK
1002
{
1000
#BlockRef=32e123ca-0x5873-4e2b-8A50-14D599F635DB| 
1002
}
1005
0
  0
LWPOLYLINE
  5
4B4CE9
330
4B1AC8
100
AcDbEntity
  8
10
100
AcDbPolyline
 90
        8
 70
     0
 43
0.0
 10
10.18871311842249
 20
3.909558757854886
 42
0.2308365435434813
 10
10.30126012361291
 20
3.979613542996736
 10
10.37131996798079
 20
3.979613542996736
 10
10.33047153333872
 20
3.931144082127238
 42
-0.2169055378432189
 10
10.21810645447017
 20
3.877613542996646
 10
10.16951750014873
 20
3.877613542996648
 42
-0.9441104267323005
 10
10.16839539442724
 20
3.907544224367491
 10
10.18971311842243
 20
3.909558757854893
  0
LWPOLYLINE
  5
4B4CEC
330
4B1AC8
100
AcDbEntity
  8
10
100
AcDbPolyline
 90
        8
 70
     0
 43
0.0
 10
5.657807128803362
 20
3.909558757854886
 42
-0.2308365435434813
 10
5.545260123612941
 20
3.979613542996736
 10
5.475200279245063
 20
3.979613542996736
 10
5.516048713887133
 20
3.931144082127238
 42
0.2169055378432189
 10
5.62841379275569
 20
3.877613542996646
 10
5.677002747077125
 20
3.877613542996648
 42
0.9441104267323005
 10
5.678124852798612
 20
3.907544224367491
 10
5.656807128803427
 20
3.909558757854893
  0
ARC
  5
4B4D20
330
4B1AC8
100
AcDbEntity
  8
10
100
AcDbCircle
 10
10.20670934349685
 20
2.98311354299673
 30
0.0
 40
0.0195
100
AcDbArc
 50
53.88667071395096
 51
173.8901954624537
  0
ARC
  5
4B4D21
330
4B1AC8
100
AcDbEntity
  8
10
100
AcDbCircle
 10
10.24767155318896
 20
3.039259312001544
 30
0.0
 40
0.05
100
AcDbArc
 50
233.8866707139502
 51
245.8577802362228
  0
ARC
  5
4B4D22
330
4B1AC8
100
AcDbEntity
  8
10
100
AcDbCircle
 10
10.20223490464142
 20
2.983592496997342
 30
0.0
 40
0.015
100
AcDbArc
 50
173.8901954624537
 51
240.6515885614437
  0
LINE
  5
4B4D23
330
4B1AC8
100
AcDbEntity
  8
10
100
AcDbLine
 10
10.31026012361286
 20
2.904613542996746
 30
0.0
 11
10.19488311780682
 21
2.97051766505431
 31
0.0
  0
LINE
  5
4B4D24
330
4B1AC8
100
AcDbEntity
  8
10
100
AcDbLine
 10
10.42353683304627
 20
2.904613542996735
 30
0.0
 11
10.2272214035324
 21
2.993632659932538
 31
0.0
  0
INSERT
  5
4B4D31
330
4B1AC8
100
AcDbEntity
  8
DIM
100
AcDbBlockReference
  2
Reinforced Bytyl Spacer
 10
5.142010123612813
 20
3.752613542996646
 30
0.0
1001
MTVPROFILELINK
1002
{
1000
#BlockRef=2ddcb65c-0xefd0-44ea-8E88-6C1EB5208D06|
1002
}
1005
AA
  0
INSERT
  5
4B4D34
330
4B1AC8
100
AcDbEntity
  8
DIM
100
AcDbBlockReference
  2
Reinforced Bytyl Spacer
 10
10.70451012361298
 20
3.752613542996646
 30
0.0
 41
-1.0
1001
MTVPROFILELINK
1002
{
1000
#BlockRef=2ddcb65c-0xefd0-44ea-8E88-6C1EB5208D06| 
1002
}
1005
0
  0
LINE
  5
4B4D48
330
4B1AC8
100
AcDbEntity
  8
CYAN
100
AcDbLine
 10
2.946679265496434
 20
17.75191487311693
 30
0.0
 11
3.071679265496434
 21
17.75191487311693
 31
0.0
  0
LINE
  5
4B4D4E
330
4B1AC8
100
AcDbEntity
  8
CYAN
100
AcDbLine
 10
2.196679265496406
 20
17.75191487311693
 30
0.0
 11
2.321679265496406
 21
17.75191487311693
 31
0.0
  0
LINE
  5
4B4D72
330
4B1AC8
100
AcDbEntity
  8
CYAN
100
AcDbLine
 10
2.19667926549647
 20
9.626914873116966
 30
0.0
 11
2.32167926549647
 21
9.626914873116966
 31
0.0
  0
LINE
  5
4B4D78
330
4B1AC8
100
AcDbEntity
  8
CYAN
100
AcDbLine
 10
2.946679265496434
 20
9.626914873116966
 30
0.0
 11
3.071679265496434
 21
9.626914873116966
 31
0.0
  0
LWPOLYLINE
  5
4B4D99
330
4B1AC8
100
AcDbEntity
  8
10
100
AcDbPolyline
 90
        6
 70
     0
 43
0.0
 10
2.098679265496429
 20
10.07665755740553
 10
2.187698382432236
 20
10.27287739709198
 42
-0.0522813753986091
 10
2.192932394929417
 20
10.28189646304127
 42
0.577370775527271
 10
2.179254732832085
 20
10.31277869216502
 42
0.2998307703621348
 10
2.164583387553933
 20
10.30521568281697
 10
2.09867926549644
 20
10.18991487311689
  0
LWPOLYLINE
  5
4B4D9A
330
4B1AC8
100
AcDbEntity
  8
10
100
AcDbPolyline
 90
       33
 70
     1
 43
0.0
 10
1.607119153085283
 20
9.362797158793528
 10
1.618168152890779
 20
9.404032587440454
 42
0.4931454260312981
 10
1.603679265496444
 20
9.422914873116992
 10
1.515679265496443
 20
9.422914873116992
 42
-0.4142135623730951
 10
1.500679265496442
 20
9.437914873116993
 10
1.500679265496442
 20
10.17491487311699
 42
-0.4142135623730951
 10
1.530679265496443
 20
10.20491487311699
 10
2.098679265496441
 20
10.20491487311699
 10
2.098679265496384
 20
9.609914873116986
 42
-0.4142135623730795
 10
2.068679265496383
 20
9.579914873116988
 10
1.987679265496444
 20
9.579914873116988
 42
0.4142135623730951
 10
1.972679265496443
 20
9.564914873116988
 10
1.972679265496443
 20
9.437914873116993
 42
0.4142135623730951
 10
1.987679265496444
 20
9.422914873116992
 10
2.090179265496443
 20
9.422914873116988
 42
-0.9999999999999998
 10
2.090179265496443
 20
9.343914873116991
 10
1.923679265496444
 20
9.343914873116991
 42
-0.4142135623730951
 10
1.893679265496444
 20
9.373914873116989
 10
1.893679265496443
 20
9.628914873116988
 42
-0.4142135623730951
 10
1.923679265496444
 20
9.658914873116989
 10
2.004679265496418
 20
9.658914873116986
 42
0.4142135623730951
 10
2.019679265496419
 20
9.673914873116986
 10
2.019679265496419
 20
10.11091487311698
 42
0.4142135623730951
 10
2.004679265496418
 20
10.12591487311699
 10
1.594679265496443
 20
10.12591487311699
 42
0.4142135623730951
 10
1.579679265496444
 20
10.11091487311699
 10
1.579679265496443
 20
9.516914873116993
 42
0.4142135623730951
 10
1.594679265496443
 20
9.501914873116993
 10
1.667679265496444
 20
9.501914873116993
 42
-0.4142135623730951
 10
1.697679265496445
 20
9.471914873116991
 10
1.697679265496445
 20
9.358914873116988
 42
-0.4142135623730951
 10
1.682679265496444
 20
9.343914873116988
 10
1.621608040479619
 20
9.343914873116991
 42
-0.4931454260313336
  0
ARC
  5
4B4D9B
330
4B1AC8
100
AcDbEntity
  8
10
 48
0.25
100
AcDbCircle
 10
2.121679265496409
 20
9.928914873116989
 30
0.0
 40
0.0749999999999993
100
AcDbArc
 50
252.1415373015901
 51
107.8584626983988
  0
INSERT
  5
4B4DB1
330
4B1AC8
100
AcDbEntity
  8
DIM
100
AcDbBlockReference
  2
Reinforced Bytyl Spacer
 10
2.32167926549647
 20
9.626914873116898
 30
0.0
 50
90.0
1001
MTVPROFILELINK
1002
{
1000
#BlockRef=2ddcb65c-0xefd0-44ea-8E88-6C1EB5208D06| 
1002
}
1005
0
  0
INSERT
  5
4B4DB2
330
4B1AC8
100
AcDbEntity
  8
DIM
100
AcDbBlockReference
  2
Reinforced Bytyl Spacer
 10
2.321679265496406
 20
17.751914873117
 30
0.0
 41
-1.0
 50
90.0
1001
MTVPROFILELINK
1002
{
1000
#BlockRef=2ddcb65c-0xefd0-44ea-8E88-6C1EB5208D06| 
1002
}
1005
0
  0
LWPOLYLINE
  5
4B4DB4
330
4B1AC8
100
AcDbEntity
  8
10
100
AcDbPolyline
 90
        8
 70
     0
 43
0.0
 10
3.103624480354589
 20
17.34236786792656
 42
-0.2308365435434813
 10
3.173679265496438
 20
17.45491487311698
 10
3.173679265496438
 20
17.52497471748486
 10
3.12520980462694
 20
17.48412628284279
 42
0.2169055378432189
 10
3.071679265496349
 20
17.37176120397423
 10
3.071679265496349
 20
17.3231722496528
 42
0.9441104267323005
 10
3.101609946867196
 20
17.32205014393131
 10
3.103624480354596
 20
17.3433678679265
  0
LWPOLYLINE
  5
4B4DB5
330
4B1AC8
100
AcDbEntity
  8
10
100
AcDbPolyline
 90
        8
 70
     0
 43
0.0
 10
3.103624480354582
 20
10.31146187830742
 42
0.2308365435434813
 10
3.173679265496431
 20
10.198914873117
 10
3.173679265496431
 20
10.12885502874912
 10
3.125209804626933
 20
10.16970346339119
 42
-0.2169055378432189
 10
3.071679265496342
 20
10.28206854225975
 10
3.071679265496342
 20
10.33065749658118
 42
-0.9441104267323005
 10
3.101609946867188
 20
10.33177960230267
 10
3.103624480354589
 20
10.31046187830748
  0
LWPOLYLINE
  5
4B4DBC
330
4B1AC8
100
AcDbEntity
  8
10
100
AcDbPolyline
 90
        6
 70
     0
 43
0.0
 10
2.098679265496432
 20
17.57717218882845
 10
2.187698382432239
 20
17.380952349142
 42
0.0522813753986091
 10
2.192932394929421
 20
17.37193328319271
 42
-0.577370775527271
 10
2.179254732832089
 20
17.34105105406896
 42
-0.2998307703621348
 10
2.164583387553937
 20
17.34861406341701
 10
2.098679265496443
 20
17.46391487311709
  0
LWPOLYLINE
  5
4B4DBD
330
4B1AC8
100
AcDbEntity
  8
10
100
AcDbPolyline
 90
       33
 70
     1
 43
0.0
 10
1.607119153085287
 20
18.29103258744045
 10
1.618168152890783
 20
18.24979715879353
 42
-0.4931454260312981
 10
1.603679265496447
 20
18.23091487311699
 10
1.515679265496446
 20
18.23091487311699
 42
0.4142135623730951
 10
1.500679265496446
 20
18.21591487311699
 10
1.500679265496446
 20
17.47891487311699
 42
0.4142135623730951
 10
1.530679265496447
 20
17.448914873117
 10
2.098679265496445
 20
17.448914873117
 10
2.098679265496388
 20
18.043914873117
 42
0.4142135623730795
 10
2.068679265496387
 20
18.073914873117
 10
1.987679265496447
 20
18.073914873117
 42
-0.4142135623730951
 10
1.972679265496447
 20
18.088914873117
 10
1.972679265496447
 20
18.21591487311699
 42
-0.4142135623730951
 10
1.987679265496447
 20
18.23091487311699
 10
2.090179265496447
 20
18.23091487311699
 42
0.9999999999999998
 10
2.090179265496447
 20
18.30991487311699
 10
1.923679265496447
 20
18.30991487311699
 42
0.4142135623730951
 10
1.893679265496448
 20
18.27991487311699
 10
1.893679265496446
 20
18.024914873117
 42
0.4142135623730951
 10
1.923679265496447
 20
17.994914873117
 10
2.004679265496422
 20
17.994914873117
 42
-0.4142135623730951
 10
2.019679265496423
 20
17.97991487311699
 10
2.019679265496423
 20
17.542914873117
 42
-0.4142135623730951
 10
2.004679265496422
 20
17.527914873117
 10
1.594679265496447
 20
17.527914873117
 42
-0.4142135623730951
 10
1.579679265496448
 20
17.54291487311699
 10
1.579679265496446
 20
18.13691487311699
 42
-0.4142135623730951
 10
1.594679265496447
 20
18.15191487311699
 10
1.667679265496447
 20
18.15191487311699
 42
0.4142135623730951
 10
1.697679265496448
 20
18.18191487311699
 10
1.697679265496448
 20
18.29491487311699
 42
0.4142135623730951
 10
1.682679265496448
 20
18.30991487311699
 10
1.621608040479623
 20
18.30991487311699
 42
0.4931454260313336
  0
ARC
  5
4B4DBE
330
4B1AC8
100
AcDbEntity
  8
10
 48
0.25
100
AcDbCircle
 10
2.121679265496412
 20
17.72491487311699
 30
0.0
 40
0.0749999999999993
100
AcDbArc
 50
252.1415373016012
 51
107.8584626984099
  0
HATCH
  5
4B4DCC
330
4B1AC8
100
AcDbEntity
  8
3
100
AcDbHatch
 10
0.0
 20
0.0
 30
0.0
210
0.0
220
0.0
230
1.0
  2
ANSI31
 70
     0
 71
     0
 91
        1
 92
        1
 93
       67
 72
     2
 10
3.137679265496452
 20
17.63041487311695
 40
0.0660000000000167
 50
180.0
 51
360.0
 73
     1
 72
     1
 10
3.203679265496468
 20
17.63041487311695
 11
3.203679265496468
 21
17.68591487311692
 72
     1
 10
3.203679265496468
 20
17.68591487311692
 11
3.20359976560601
 21
17.68915333962253
 72
     1
 10
3.20359976560601
 20
17.68915333962253
 11
3.203361457456833
 21
17.69238400437867
 72
     1
 10
3.203361457456833
 20
17.69238400437867
 11
3.202964915154144
 21
17.69559908443097
 72
     1
 10
3.202964915154144
 20
17.69559908443097
 11
3.202411094003081
 21
17.69879083436998
 72
     1
 10
3.202411094003081
 20
17.69879083436998
 11
3.201701328207307
 21
17.70195156499054
 72
     1
 10
3.201701328207307
 20
17.70195156499054
 11
3.200837327654793
 21
17.70507366181572
 72
     1
 10
3.200837327654793
 20
17.70507366181572
 11
3.199821173798546
 21
17.70814960344081
 72
     1
 10
3.199821173798546
 20
17.70814960344081
 11
3.198655314642211
 21
17.71117197965302
 72
     1
 10
3.198655314642211
 20
17.71117197965302
 11
3.197342558842613
 21
17.71413350928332
 72
     1
 10
3.197342558842613
 20
17.71413350928332
 11
3.195886068943457
 21
17.71702705774744
 72
     1
 10
3.195886068943457
 20
17.71702705774744
 11
3.194289353756483
 21
17.71984565423368
 72
     1
 10
3.194289353756483
 20
17.71984565423368
 11
3.192556259908433
 21
17.72258250849622
 72
     1
 10
3.192556259908433
 20
17.72258250849622
 11
3.190690962574187
 21
17.72523102721343
 72
     1
 10
3.190690962574187
 20
17.72523102721343
 11
3.188697955418404
 21
17.72778482987172
 72
     1
 10
3.188697955418404
 20
17.72778482987172
 11
3.18658203976989
 21
17.73023776413683
 72
     1
 10
3.18658203976989
 20
17.73023776413683
 11
3.184348313054774
 21
17.73258392067524
 72
     1
 10
3.184348313054774
 20
17.73258392067524
 11
3.182002156516364
 21
17.73481764739036
 72
     1
 10
3.182002156516364
 20
17.73481764739036
 11
3.179549222251262
 21
17.73693356303887
 72
     1
 10
3.179549222251262
 20
17.73693356303887
 11
3.176995419592961
 21
17.73892657019465
 72
     1
 10
3.176995419592961
 20
17.73892657019465
 11
3.174346900875753
 21
17.7407918675289
 72
     1
 10
3.174346900875753
 20
17.7407918675289
 11
3.171610046613211
 21
17.74252496137695
 72
     1
 10
3.171610046613211
 20
17.74252496137695
 11
3.168791450126974
 21
17.74412167656392
 72
     1
 10
3.168791450126974
 20
17.74412167656392
 11
3.165897901662856
 21
17.74557816646308
 72
     1
 10
3.165897901662856
 20
17.74557816646308
 11
3.162936372032552
 21
17.74689092226268
 72
     1
 10
3.162936372032552
 20
17.74689092226268
 11
3.159913995820342
 21
17.74805678141901
 72
     1
 10
3.159913995820342
 20
17.74805678141901
 11
3.156838054195249
 21
17.74907293527526
 72
     1
 10
3.156838054195249
 20
17.74907293527526
 11
3.153715957370069
 21
17.74993693582777
 72
     1
 10
3.153715957370069
 20
17.74993693582777
 11
3.150555226749518
 21
17.75064670162355
 72
     1
 10
3.150555226749518
 20
17.75064670162355
 11
3.147363476810506
 21
17.75120052277461
 72
     1
 10
3.147363476810506
 20
17.75120052277461
 11
3.144148396758203
 21
17.7515970650773
 72
     1
 10
3.144148396758203
 20
17.7515970650773
 11
3.14091773200206
 21
17.75183537322648
 72
     1
 10
3.14091773200206
 20
17.75183537322648
 11
3.13767926549645
 21
17.75191487311693
 72
     1
 10
3.13767926549645
 20
17.75191487311693
 11
3.134440798990839
 21
17.75183537322648
 72
     1
 10
3.134440798990839
 20
17.75183537322648
 11
3.131210134234697
 21
17.7515970650773
 72
     1
 10
3.131210134234697
 20
17.7515970650773
 11
3.127995054182393
 21
17.75120052277461
 72
     1
 10
3.127995054182393
 20
17.75120052277461
 11
3.124803304243382
 21
17.75064670162354
 72
     1
 10
3.124803304243382
 20
17.75064670162354
 11
3.12164257362283
 21
17.74993693582777
 72
     1
 10
3.12164257362283
 20
17.74993693582777
 11
3.118520476797651
 21
17.74907293527526
 72
     1
 10
3.118520476797651
 20
17.74907293527526
 11
3.115444535172558
 21
17.74805678141901
 72
     1
 10
3.115444535172558
 20
17.74805678141901
 11
3.112422158960348
 21
17.74689092226268
 72
     1
 10
3.112422158960348
 20
17.74689092226268
 11
3.109460629330044
 21
17.74557816646308
 72
     1
 10
3.109460629330044
 20
17.74557816646308
 11
3.106567080865926
 21
17.74412167656392
 72
     1
 10
3.106567080865926
 20
17.74412167656392
 11
3.103748484379689
 21
17.74252496137695
 72
     1
 10
3.103748484379689
 20
17.74252496137695
 11
3.101011630117147
 21
17.7407918675289
 72
     1
 10
3.101011630117147
 20
17.7407918675289
 11
3.098363111399939
 21
17.73892657019465
 72
     1
 10
3.098363111399939
 20
17.73892657019465
 11
3.095809308741639
 21
17.73693356303887
 72
     1
 10
3.095809308741639
 20
17.73693356303887
 11
3.093356374476536
 21
17.73481764739036
 72
     1
 10
3.093356374476536
 20
17.73481764739036
 11
3.091010217938127
 21
17.73258392067524
 72
     1
 10
3.091010217938127
 20
17.73258392067524
 11
3.088776491223011
 21
17.73023776413683
 72
     1
 10
3.088776491223011
 20
17.73023776413683
 11
3.086660575574497
 21
17.72778482987173
 72
     1
 10
3.086660575574497
 20
17.72778482987173
 11
3.084667568418715
 21
17.72523102721343
 72
     1
 10
3.084667568418715
 20
17.72523102721343
 11
3.082802271084469
 21
17.72258250849622
 72
     1
 10
3.082802271084469
 20
17.72258250849622
 11
3.081069177236419
 21
17.71984565423368
 72
     1
 10
3.081069177236419
 20
17.71984565423368
 11
3.079472462049445
 21
17.71702705774744
 72
     1
 10
3.079472462049445
 20
17.71702705774744
 11
3.078015972150289
 21
17.71413350928332
 72
     1
 10
3.078015972150289
 20
17.71413350928332
 11
3.076703216350691
 21
17.71117197965302
 72
     1
 10
3.076703216350691
 20
17.71117197965302
 11
3.075537357194356
 21
17.70814960344081
 72
     1
 10
3.075537357194356
 20
17.70814960344081
 11
3.074521203338109
 21
17.70507366181572
 72
     1
 10
3.074521203338109
 20
17.70507366181572
 11
3.073657202785595
 21
17.70195156499054
 72
     1
 10
3.073657202785595
 20
17.70195156499054
 11
3.072947436989822
 21
17.69879083436998
 72
     1
 10
3.072947436989822
 20
17.69879083436998
 11
3.072393615838759
 21
17.69559908443097
 72
     1
 10
3.072393615838759
 20
17.69559908443097
 11
3.07199707353607
 21
17.69238400437867
 72
     1
 10
3.07199707353607
 20
17.69238400437867
 11
3.071758765386894
 21
17.68915333962253
 72
     1
 10
3.071758765386894
 20
17.68915333962253
 11
3.071679265496435
 21
17.68591487311692
 72
     1
 10
3.071679265496435
 20
17.68591487311692
 11
3.071679265496435
 21
17.63041487311695
 97
        0
 75
     0
 76
     1
 52
90.0
 41
0.25
 77
     0
 78
     1
 53
315.0
 43
-5.121665137236721
 44
25.86083661233416
 45
0.0220970869120796
 46
0.0220970869120796
 79
     0
 98
        1
 10
-0.0624891598898119
 20
-0.1623641427243641
1001
ACAD
1010
0.0
1020
0.0
1030
0.0
  0
LWPOLYLINE
  5
4B4E15
330
4B1AC8
100
AcDbEntity
  8
THIN
100
AcDbPolyline
 90
        4
 70
     1
 43
0.0
 10
3.203679265496468
 20
17.63041487311695
 10
3.203679265496468
 20
17.68591487311692
 42
0.9999999999999998
 10
3.071679265496435
 20
17.68591487311692
 10
3.071679265496435
 20
17.63041487311695
 42
0.9999999999999998
  0
INSERT
  5
4B4E22
330
4B1AC8
100
AcDbEntity
  8
DIM
100
AcDbBlockReference
  2
Silicon Vertical Bottom
 10
3.203679265496443
 20
9.626914873116977
 30
0.0
1001
MTVPROFILELINK
1002
{
1000
#BlockRef=de86c761-0x3049-4bba-A634-4A2EC1253BBB|
1002
}
1005
AA
  0
ENDSEC
  0
SECTION
  2
OBJECTS
  0
DICTIONARY
  5
4B1ABC
330
0
100
AcDbDictionary
281
     1
  3
ACAD_CIP_PREVIOUS_PRODUCT_INFO
350
4B4ECC
  3
ACAD_COLOR
350
4B4B94
  3
ACAD_DETAILVIEWSTYLE
350
4B4EC2
  3
ACAD_GROUP
350
4B1ABD
  3
ACAD_IMAGE_DICT
350
4B1D3D
  3
ACAD_LAYOUT
350
4B1D14
  3
ACAD_MATERIAL
350
4B4B93
  3
ACAD_MLEADERSTYLE
350
4B4EBE
  3
ACAD_MLINESTYLE
350
4B1ABE
  3
ACAD_PLOTSETTINGS
350
4B1D15
  3
ACAD_PLOTSTYLENAME
350
4B1D12
  3
ACAD_SCALELIST
350
4B4EAC
  3
ACAD_SECTIONVIEWSTYLE
350
4B4EC0
  3
ACAD_TABLESTYLE
350
4B4B95
  3
ACAD_VISUALSTYLE
350
4B4E93
  3
AcAmCatalogState
350
4B4BF8
  3
ACDB_RECOMPOSE_DATA
350
4B4EFB
  3
AcDbVariableDictionary
350
4B32AD
  3
ACDMSYSVARMGR
350
4B4BAF
  3
ACGREF_MASTER
350
4B4BA9
  3
ACGREFACAD_MASTER
350
4B4BD2
  3
AcmDictionary
350
4B4BF6
  3
ACME_BOM_MANAGER_NAME
350
4B4BA3
  3
ACME_COMMAND_HISTORY
350
4B4BA0
  3
ACME_SCOPE_NAME
350
4B4B9F
  3
ACMESTATEMGR
350
4B4BA8
  3
AcmeSysVarManager
350
4B4BA1
  3
AcmSystemVariableManager
350
4B4BDB
  3
AD_APPL
350
4B4BE3
  3
ADSYSVARMGR
350
4B4BE2
  3
AmdtNamedDwgMgr
350
4B4BCD
  3
AMG
350
4B4BD6
  3
AMGSNAPSETTINGS
350
4B4C54
  3
AMI_MASTER
350
4B4BD5
  3
AUTOCAD_ASSEMBLIES_PROJECT
350
4B4BEB
  3
Designer_Assemblies_SysVars
350
4B4BE6
  3
GREFAM_MODULE
350
4B4BDA
  3
MTV_XATTACH
350
4B228A
  0
DICTIONARY
  5
4B1D43
330
4B1AB2
100
AcDbDictionary
280
     1
281
     1
  3
ACAD_LAYERSTATES
360
4B1D44
  0
DICTIONARY
  5
4B4ECF
330
4B1ABF
100
AcDbDictionary
280
     1
281
     1
  3
ADSK_XREC_LAYER_RECONCILED
360
4B4ED0
  0
DICTIONARY
  5
4B4ED1
330
4B1AE0
100
AcDbDictionary
280
     1
281
     1
  3
ADSK_XREC_LAYER_RECONCILED
360
4B4ED2
  0
DICTIONARY
  5
4B4ED3
330
4B1AE2
100
AcDbDictionary
280
     1
281
     1
  3
ADSK_XREC_LAYER_RECONCILED
360
4B4ED4
  0
DICTIONARY
  5
4B4ED5
330
4B1AE3
100
AcDbDictionary
280
     1
281
     1
  3
ADSK_XREC_LAYER_RECONCILED
360
4B4ED6
  0
DICTIONARY
  5
4B4ED7
330
4B1AE5
100
AcDbDictionary
280
     1
281
     1
  3
ADSK_XREC_LAYER_RECONCILED
360
4B4ED8
  0
DICTIONARY
  5
4B4ED9
330
4B1D42
100
AcDbDictionary
280
     1
281
     1
  3
ADSK_XREC_LAYER_RECONCILED
360
4B4EDA
  0
DICTIONARY
  5
4B4EDB
330
4B32C5
100
AcDbDictionary
280
     1
281
     1
  3
ADSK_XREC_LAYER_RECONCILED
360
4B4EDC
  0
DICTIONARY
  5
4B4EDD
330
4B4CC5
100
AcDbDictionary
280
     1
281
     1
  3
ADSK_XREC_LAYER_RECONCILED
360
4B4EDE
  0
DICTIONARY
  5
4B4C71
330
4B1AC8
100
AcDbDictionary
280
     1
281
     1
  3
ACAD_SORTENTS
360
4B4C72
  0
DICTIONARY
  5
4B4CCA
330
4B4CC7
100
AcDbDictionary
280
     1
281
     1
  3
ACAD_SORTENTS
360
4B4CCB
  0
DICTIONARY
  5
4B4E1D
330
4B4E1A
100
AcDbDictionary
280
     1
281
     1
  3
ACAD_SORTENTS
360
4B4E1E
  0
XRECORD
  5
4B4ECC
102
{ACAD_REACTORS
330
4B1ABC
102
}
330
4B1ABC
100
AcDbXrecord
280
     1
300
ACDLT
300
2019
300

  0
DICTIONARY
  5
4B4B94
102
{ACAD_REACTORS
330
4B1ABC
102
}
330
4B1ABC
100
AcDbDictionary
281
     1
  0
DICTIONARY
  5
4B4EC2
102
{ACAD_REACTORS
330
4B1ABC
102
}
330
4B1ABC
100
AcDbDictionary
281
     1
  3
Imperial24
350
4B4EC3
  0
DICTIONARY
  5
4B1ABD
102
{ACAD_REACTORS
330
4B1ABC
102
}
330
4B1ABC
100
AcDbDictionary
281
     1
  0
DICTIONARY
  5
4B1D3D
102
{ACAD_REACTORS
330
4B1ABC
102
}
330
4B1ABC
100
AcDbDictionary
281
     1
  0
DICTIONARY
  5
4B1D14
102
{ACAD_REACTORS
330
4B1ABC
102
}
330
4B1ABC
100
AcDbDictionary
281
     1
  3
Layout1
350
4B1D17
  3
Model
350
4B1D16
  0
DICTIONARY
  5
4B4B93
102
{ACAD_REACTORS
330
4B1ABC
102
}
330
4B1ABC
100
AcDbDictionary
281
     1
  3
ByBlock
350
4B4E83
  3
ByLayer
350
4B4E7B
  3
Global
350
4B4E8B
  0
DICTIONARY
  5
4B4EBE
102
{ACAD_REACTORS
330
4B1ABC
102
}
330
4B1ABC
100
AcDbDictionary
281
     1
  3
Standard
350
4B4EBF
  0
DICTIONARY
  5
4B1ABE
102
{ACAD_REACTORS
330
4B1ABC
102
}
330
4B1ABC
100
AcDbDictionary
281
     1
  3
STANDARD
350
4B1ACB
  0
DICTIONARY
  5
4B1D15
102
{ACAD_REACTORS
330
4B1ABC
102
}
330
4B1ABC
100
AcDbDictionary
281
     1
  3
A_size_1_to_1
350
4B1D2C
  3
B_size_1_to_1
350
4B1D2E
  0
ACDBDICTIONARYWDFLT
  5
4B1D12
102
{ACAD_REACTORS
330
4B1ABC
102
}
330
4B1ABC
100
AcDbDictionary
281
     1
  3
Normal
350
4B1D13
100
AcDbDictionaryWithDefault
340
4B1D13
  0
DICTIONARY
  5
4B4EAC
102
{ACAD_REACTORS
330
4B1ABC
102
}
330
4B1ABC
100
AcDbDictionary
281
     1
  3
A0
350
4B4EAD
  3
A1
350
4B4EAE
  3
A2
350
4B4EAF
  3
A3
350
4B4EB0
  3
A4
350
4B4EB1
  3
A5
350
4B4EB2
  3
A6
350
4B4EB3
  3
A7
350
4B4EB4
  3
A8
350
4B4EB5
  3
A9
350
4B4EB6
  3
B0
350
4B4EB7
  3
B1
350
4B4EB8
  3
B2
350
4B4EB9
  3
B3
350
4B4EBA
  3
B4
350
4B4EBB
  3
B5
350
4B4EBC
  3
B6
350
4B4EBD
  0
DICTIONARY
  5
4B4EC0
102
{ACAD_REACTORS
330
4B1ABC
102
}
330
4B1ABC
100
AcDbDictionary
281
     1
  3
Imperial24
350
4B4EC1
  0
DICTIONARY
  5
4B4B95
102
{ACAD_REACTORS
330
4B1ABC
102
}
330
4B1ABC
100
AcDbDictionary
281
     1
  3
Standard
350
4B4B96
  0
DICTIONARY
  5
4B4E93
102
{ACAD_REACTORS
330
4B1ABC
102
}
330
4B1ABC
100
AcDbDictionary
281
     1
  3
2dWireframe
350
4B4E99
  3
Basic
350
4B4E98
  3
Brighten
350
4B4E9F
  3
ColorChange
350
4B4EA3
  3
Conceptual
350
4B4E9C
  3
Dim
350
4B4E9E
  3
EdgeColorOff
350
4B4EAB
  3
Facepattern
350
4B4EA2
  3
Flat
350
4B4E94
  3
FlatWithEdges
350
4B4E95
  3
Gouraud
350
4B4E96
  3
GouraudWithEdges
350
4B4E97
  3
Hidden
350
4B4E9B
  3
JitterOff
350
4B4EA9
  3
Linepattern
350
4B4EA1
  3
OverhangOff
350
4B4EAA
  3
Realistic
350
4B4E9D
  3
Shaded
350
4B4EA8
  3
Shaded with edges
350
4B4EA7
  3
Shades of Gray
350
4B4EA4
  3
Sketchy
350
4B4EA5
  3
Thicken
350
4B4EA0
  3
Wireframe
350
4B4E9A
  3
X-Ray
350
4B4EA6
  0
ACAD_PROXY_OBJECT
  5
4B4BF8
102
{ACAD_REACTORS
330
4B1ABC
102
}
330
4B1ABC
100
AcDbProxyObject
 90
      499
 91
      550
 71
    25
 97
       77
 70
     0
161
               536
310
3FFFFFFFE00A02814029B219D2E283937B3B930B6902334B632B9AE32A1B430B733B2AE2BB7B935B9B830B1B2AE20A999981A2F96AF9819991A1C18181A992F98C00AA00
 94
        0
  0
XRECORD
  5
4B4EFB
102
{ACAD_REACTORS
330
4B1ABC
102
}
330
4B1ABC
100
AcDbXrecord
280
     1
 90
        1
330
4B4430
330
4B4491
330
4B44B3
330
4B4827
330
4B4B96
  0
DICTIONARY
  5
4B32AD
102
{ACAD_REACTORS
330
4B1ABC
102
}
330
4B1ABC
100
AcDbDictionary
281
     1
  3
CANNOSCALE
350
4B4EEC
  3
CMLEADERSTYLE
350
4B4EE8
  3
CTABLESTYLE
350
4B4C89
  3
CVIEWDETAILSTYLE
350
4B4EE9
  3
CVIEWSECTIONSTYLE
350
4B4EEA
  3
LAYEREVAL
350
4B4EEE
  3
LAYERNOTIFY
350
4B4EEF
  3
LIGHTINGUNITS
350
4B4EED
  3
MSLTSCALE
350
4B4EEB
  3
SORTENTS
350
4B32AE
  0
ACAD_PROXY_OBJECT
  5
4B4BAF
102
{ACAD_REACTORS
330
4B1ABC
102
}
330
4B1ABC
100
AcDbProxyObject
 90
      499
 91
      510
 71
    25
 97
       77
 70
     0
161
               240
310
4C51A47A000000000000000000000000000000000000000000000000000000
330
4B4BB0
330
4B4BB1
330
4B4BB2
330
4B4BB3
330
4B4BB4
330
4B4BB5
330
4B4BB6
330
4B4BB7
330
4B4BB8
330
4B4BB9
330
4B4BBA
330
4B4BBB
330
4B4BBC
330
4B4BBD
330
4B4BBE
330
4B4BBF
330
4B4BC0
330
4B4BC1
330
4B4BC2
330
4B4BC3
330
4B4BC4
330
4B4BC5
330
4B4BC6
330
4B4BC7
330
4B4BC8
330
4B4BC9
 94
        0
  0
ACAD_PROXY_OBJECT
  5
4B4BA9
102
{ACAD_REACTORS
330
4B1ABC
102
}
330
4B1ABC
100
AcDbProxyObject
 90
      499
 91
      518
 71
    25
 97
       77
 70
     0
161
                34
310
040000428C
 94
        0
  0
ACAD_PROXY_OBJECT
  5
4B4BD2
102
{ACAD_REACTORS
330
4B1ABC
102
}
330
4B1ABC
100
AcDbProxyObject
 90
      499
 91
      527
 71
    25
 97
       77
 70
     0
161
               114
310
04000041C08000000000000000000C
 94
        0
  0
DICTIONARY
  5
4B4BF6
102
{ACAD_REACTORS
330
4B1ABC
102
}
330
4B1ABC
100
AcDbDictionary
281
     1
  3
AcmBOMDATA
350
4B4BF7
  3
AcmStdDictionary
350
4B4C01
  3
AMDTSECTSYM_ARROWCOLOR
350
4B4C1F
  0
ACAD_PROXY_OBJECT
  5
4B4BA3
102
{ACAD_REACTORS
330
4B1ABC
102
}
330
4B1ABC
100
AcDbProxyObject
 90
      499
 91
      512
 71
    25
 97
       77
 70
     0
161
                50
310
0001004040000C
330
0
330
0
330
4B4BA4
 94
        0
  0
ACAD_PROXY_OBJECT
  5
4B4BA0
102
{ACAD_REACTORS
330
4B1ABC
102
}
330
4B1ABC
100
AcDbProxyObject
 90
      499
 91
      509
 71
    25
 97
       77
 70
     0
161
              4562
310
47805054552415345805055153415645404052E4D5347202D205050413A2020206465736B746F702E6172782046696C6556657273696F6E3A2031302E322E302E3501411693D3D3601415454D05591501014B9354D1C80B481414104E88080819195CDADD1BDC0B985C9E08119A5B1955995C9CDA5BDB8E880C4C0B8C8B8C0
310
B8D405074558504C4F4445805074558504C4F4445805044D4F56458050155805044D4F5645805045452494D805045452494D40405184D5347202D20436F6D6D616E642043414E43454C4C45442E01405560140556014055601405560140556014055601411693D3D3601415454D05591501014B9354D1C80B481414104E880
310
80819195CDADD1BDC0B985C9E08119A5B1955995C9CDA5BDB8E880C4C0B8C8B8C0B8D4050E414D4454524553455444424D4F4440805084E202D20554E444F014213880B4815539113C0504554E444F80504554E444F805084541545445444954805045A4F4F4D805045A4F4F4D805055153415645404052E4D5347202D2050
310
50413A2020206465736B746F702E6172782046696C6556657273696F6E3A2031302E322E302E35014390535115149154D15511109353D1102014213880B4815539113C05084E202D20554E444F0142135153955313D051102014213880B481693D3D3405184D5347202D20436F6D6D616E642043414E43454C4C45442E0141
310
54155491D16014150D313D4D1501014B9354D1C80B481414104E88080819195CDADD1BDC0B985C9E08119A5B1955995C9CDA5BDB8E880C4C0B8C8B8C0B8D4C
 94
        0
  0
ACAD_PROXY_OBJECT
  5
4B4B9F
102
{ACAD_REACTORS
330
4B1ABC
102
}
330
4B1ABC
100
AcDbProxyObject
 90
      499
 91
      508
 71
    25
 97
       77
 70
     0
161
               546
310
0A0000480080000000000000000012F4CE0000000000000000000000000000000000000000000000000000000000000000000000000000000000000000000000AAA406AA8C
360
4B4BA2
360
4B4BA4
360
4B4BAA
360
4B4BAB
360
4B4BAC
360
4B4BAD
360
4B4BB0
360
4B4BB1
360
4B4BB2
360
4B4BB3
360
4B4BB4
360
4B4BB5
360
4B4BB6
360
4B4BB7
360
4B4BB8
360
4B4BB9
360
4B4BBA
360
4B4BBB
360
4B4BBC
360
4B4BBD
360
4B4BBE
360
4B4BBF
360
4B4BC0
360
4B4BC1
360
4B4BC2
360
4B4BC3
360
4B4BC4
360
4B4BC5
360
4B4BC6
360
4B4BC7
360
4B4BC8
360
4B4BC9
360
4B4BDC
360
4B4BDE
360
4B4BDF
360
4B4BE0
360
4B4BE1
360
4B4BE7
360
4B4BE8
360
4B4BE9
360
4B4BEA
360
4B4BEF
360
4B4BF0
360
4B4BF1
360
4B4BF2
360
4B4BF3
360
4B4BF4
 94
        0
  0
ACAD_PROXY_OBJECT
  5
4B4BA8
102
{ACAD_REACTORS
330
4B1ABC
102
}
330
4B1ABC
100
AcDbProxyObject
 90
      499
 91
      517
 71
    25
 97
       77
 70
     0
161
                50
310
0A000042A4128C
 94
        0
  0
ACAD_PROXY_OBJECT
  5
4B4BA1
102
{ACAD_REACTORS
330
4B1ABC
102
}
330
4B1ABC
100
AcDbProxyObject
 90
      499
 91
      510
 71
    25
 97
       77
 70
     0
161
                32
310
90140A0000
330
4B4BA2
 94
        0
  0
ACAD_PROXY_OBJECT
  5
4B4BDB
102
{ACAD_REACTORS
330
4B1ABC
102
}
330
4B1ABC
100
AcDbProxyObject
 90
      499
 91
      510
 71
    25
 97
       77
 70
     0
161
                32
310
90140A0000
330
4B4BDC
 94
        0
  0
ACAD_PROXY_OBJECT
  5
4B4BE3
102
{ACAD_REACTORS
330
4B1ABC
102
}
330
4B1ABC
100
AcDbProxyObject
 90
      499
 91
      539
 71
    25
 97
       77
 70
     0
161
                42
310
00090000404C
330
4B4BDE
 94
        0
  0
ACAD_PROXY_OBJECT
  5
4B4BE2
102
{ACAD_REACTORS
330
4B1ABC
102
}
330
4B1ABC
100
AcDbProxyObject
 90
      499
 91
      510
 71
    25
 97
       77
 70
     0
161
                 8
310
AA01
 94
        0
  0
ACAD_PROXY_OBJECT
  5
4B4BCD
102
{ACAD_REACTORS
330
4B1ABC
102
}
330
4B1ABC
100
AcDbProxyObject
 90
      499
 91
      524
 71
    25
 97
       77
 70
     0
161
                42
310
000100005E8C
330
4B4BAA
 94
        0
  0
DICTIONARY
  5
4B4BD6
102
{ACAD_REACTORS
330
4B1ABC
102
}
330
4B1ABC
100
AcDbDictionary
281
     1
  3
AcMgSettings
350
4B4BD7
  3
AMGLAYCFG
350
4B4C03
  0
DICTIONARY
  5
4B4C54
102
{ACAD_REACTORS
330
4B1ABC
102
}
330
4B1ABC
100
AcDbDictionary
281
     1
  3
DIMENSION
350
4B4C59
  3
FEA
350
4B4C58
  3
HATCH (1)
350
4B4C55
  3
HATCH (2)
350
4B4C56
  3
SIMPLE WELD
350
4B4C5A
  3
SYMBOLS
350
4B4C57
  0
ACAD_PROXY_OBJECT
  5
4B4BD5
102
{ACAD_REACTORS
330
4B1ABC
102
}
330
4B1ABC
100
AcDbProxyObject
 90
      499
 91
      530
 71
    25
 97
       77
 70
     0
161
                34
310
050000428C
 94
        0
  0
ACAD_PROXY_OBJECT
  5
4B4BEB
102
{ACAD_REACTORS
330
4B1ABC
102
}
330
4B1ABC
100
AcDbProxyObject
 90
      499
 91
      542
 71
    25
 97
       77
 70
     0
161
                98
310
0A00004FC0000000000000000C
330
4B4BF2
330
0
330
4B4BF3
330
0
330
0
330
0
330
0
330
0
 94
        0
  0
ACAD_PROXY_OBJECT
  5
4B4BE6
102
{ACAD_REACTORS
330
4B1ABC
102
}
330
4B1ABC
100
AcDbProxyObject
 90
      499
 91
      510
 71
    25
 97
       77
 70
     0
161
                56
310
90441600000000FA
330
4B4BE7
330
4B4BE8
330
4B4BE9
330
4B4BEA
 94
        0
  0
ACAD_PROXY_OBJECT
  5
4B4BDA
102
{ACAD_REACTORS
330
4B1ABC
102
}
330
4B1ABC
100
AcDbProxyObject
 90
      499
 91
      532
 71
    25
 97
       77
 70
     0
161
                 8
310
0500
 94
        0
  0
DICTIONARY
  5
4B228A
102
{ACAD_REACTORS
330
4B1ABC
102
}
330
4B1ABC
100
AcDbDictionary
280
     1
281
     1
  3
2ddcb65c-0xefd0-44ea-8E88-6C1EB5208D06
360
4B4D32
  3
32e123ca-0x5873-4e2b-8A50-14D599F635DB
360
4B4CD1
  3
533e4a92-0xa7cf-11d7-A5DD-005004E2D0E9
360
4B2294
  3
de86c761-0x3049-4bba-A634-4A2EC1253BBB
360
4B4E23
  0
DICTIONARY
  5
4B1D44
102
{ACAD_REACTORS
330
4B1D43
102
}
330
4B1D43
100
AcDbDictionary
281
     1
  0
XRECORD
  5
4B4ED0
102
{ACAD_REACTORS
330
4B4ECF
102
}
330
4B4ECF
100
AcDbXrecord
280
     1
290
     1
  0
XRECORD
  5
4B4ED2
102
{ACAD_REACTORS
330
4B4ED1
102
}
330
4B4ED1
100
AcDbXrecord
280
     1
290
     1
  0
XRECORD
  5
4B4ED4
102
{ACAD_REACTORS
330
4B4ED3
102
}
330
4B4ED3
100
AcDbXrecord
280
     1
290
     1
  0
XRECORD
  5
4B4ED6
102
{ACAD_REACTORS
330
4B4ED5
102
}
330
4B4ED5
100
AcDbXrecord
280
     1
290
     1
  0
XRECORD
  5
4B4ED8
102
{ACAD_REACTORS
330
4B4ED7
102
}
330
4B4ED7
100
AcDbXrecord
280
     1
290
     1
  0
XRECORD
  5
4B4EDA
102
{ACAD_REACTORS
330
4B4ED9
102
}
330
4B4ED9
100
AcDbXrecord
280
     1
290
     1
  0
XRECORD
  5
4B4EDC
102
{ACAD_REACTORS
330
4B4EDB
102
}
330
4B4EDB
100
AcDbXrecord
280
     1
290
     1
  0
XRECORD
  5
4B4EDE
102
{ACAD_REACTORS
330
4B4EDD
102
}
330
4B4EDD
100
AcDbXrecord
280
     1
290
     1
  0
SORTENTSTABLE
  5
4B4C72
102
{ACAD_REACTORS
330
4B4C71
102
}
330
4B4C71
100
AcDbSortentsTable
330
4B1AC8
331
4B4106
  5
4B4107
331
4B4107
  5
4B4108
331
4B4108
  5
4B4109
331
4B4109
  5
4B4121
331
4B4121
  5
4B413B
331
4B41AD
  5
4B41B1
331
4B41AE
  5
4B41B2
331
4B41B1
  5
4B41B3
331
4B41B2
  5
4B41B4
331
4B41B3
  5
4B41B5
331
4B41B4
  5
4B41B6
331
4B41B5
  5
4B41B7
331
4B41B6
  5
4B41B8
331
4B41B7
  5
4B41B9
331
4B41B8
  5
4B41BA
331
4B41B9
  5
4B41BB
331
4B41BA
  5
4B41BE
331
4B41BB
  5
4B41BF
331
4B41BE
  5
4B41D0
331
4B41BF
  5
4B41D1
331
4B41D1
  5
4B4278
331
4B427E
  5
4B428A
331
4B427F
  5
4B428B
331
4B4286
  5
4B428C
331
4B4287
  5
4B428D
331
4B4288
  5
4B428E
331
4B4289
  5
4B428F
331
4B428B
  5
4B4291
331
4B428C
  5
4B4292
331
4B428D
  5
4B4293
331
4B428E
  5
4B4294
331
4B428F
  5
4B4295
331
4B42A8
  5
4B42B2
331
4B42A9
  5
4B42B3
331
4B42AA
  5
4B433B
331
4B42AB
  5
4B433C
331
4B434D
  5
4B4359
331
4B434E
  5
4B435A
331
4B434F
  5
4B435B
331
4B4350
  5
4B435C
331
4B4351
  5
4B435D
331
4B4352
  5
4B435E
331
4B4353
  5
4B435F
331
4B4354
  5
4B4360
331
4B4355
  5
4B4361
331
4B4356
  5
4B4362
331
4B4357
  5
4B440D
331
4B4358
  5
4B440E
331
4B4359
  5
4B440F
331
4B4419
  5
4B4430
331
4B441A
  5
4B448D
331
4B441D
  5
4B448E
331
4B441F
  5
4B4490
331
4B4421
  5
4B44B3
331
4B4424
  5
4B458F
331
4B442C
  5
4B4590
331
4B442D
  5
4B4591
331
4B442E
  5
4B4592
331
4B442F
  5
4B4593
331
4B4430
  5
4B4594
331
4B448D
  5
4B4B24
331
4B448E
  5
4B4B25
331
4B448F
  5
4B4B26
331
4B4490
  5
4B4B27
331
4B4491
  5
4B4B28
331
4B44B3
  5
4B4B29
331
4B450B
  5
4B4B2A
331
4B450C
  5
4B4B2B
331
4B4827
  5
4B4B2C
331
4B4B1F
  5
4B4B2D
331
4B4B20
  5
4B4B2E
331
4B4B21
  5
4B4B2F
331
4B4B22
  5
4B4B30
331
4B4B23
  5
4B4B31
331
4B4B24
  5
4B4B32
331
4B4B25
  5
4B4B33
331
4B4B26
  5
4B4B34
331
4B4B27
  5
4B4B35
331
4B4B28
  5
4B4B36
331
4B4B29
  5
4B4B37
331
4B4B2A
  5
4B4B38
331
4B4B2B
  5
4B4B39
331
4B4B2C
  5
4B4B3A
331
4B4B2D
  5
4B4B3B
331
4B4B2E
  5
4B4B3C
331
4B4B2F
  5
4B4B3D
331
4B4B30
  5
4B4B3E
331
4B4B31
  5
4B4B3F
331
4B4B32
  5
4B4B40
331
4B4B33
  5
4B4B41
331
4B4B34
  5
4B4B42
331
4B4B35
  5
4B4B43
331
4B4B36
  5
4B4B44
331
4B4B37
  5
4B4B45
331
4B4B38
  5
4B4B46
331
4B4B39
  5
4B4B47
331
4B4B3A
  5
4B4B48
331
4B4B3B
  5
4B4B49
331
4B4B3C
  5
4B4B4A
331
4B4B3D
  5
4B4B4B
331
4B4B3E
  5
4B4B4C
331
4B4B3F
  5
4B4B4D
331
4B4B40
  5
4B4B4E
331
4B4B41
  5
4B4B4F
331
4B4B42
  5
4B4B50
331
4B4B43
  5
4B4B51
331
4B4B44
  5
4B4B52
331
4B4B45
  5
4B4B53
331
4B4B46
  5
4B4B54
331
4B4B47
  5
4B4B55
331
4B4B48
  5
4B4B56
331
4B4B49
  5
4B4B57
331
4B4B4A
  5
4B4B58
331
4B4B4B
  5
4B4B59
331
4B4B4C
  5
4B4B5A
331
4B4B4D
  5
4B4B5B
331
4B4B4E
  5
4B4B5C
331
4B4B4F
  5
4B4B5D
331
4B4B50
  5
4B4B5E
331
4B4B51
  5
4B4B5F
331
4B4B52
  5
4B4B60
331
4B4B53
  5
4B4B61
331
4B4B54
  5
4B4B62
331
4B4B55
  5
4B4B63
331
4B4B56
  5
4B4B64
331
4B4B57
  5
4B4B65
331
4B4B58
  5
4B4B66
331
4B4B59
  5
4B4B67
331
4B4B5A
  5
4B4B68
331
4B4B5B
  5
4B4B69
331
4B4B5C
  5
4B4B6A
331
4B4B5D
  5
4B4B6B
331
4B4B5E
  5
4B4B6C
331
4B4B5F
  5
4B4C6E
331
4B4B60
  5
4B4C6F
331
4B4B61
  5
4B4C8A
331
4B4B62
  5
4B4C8B
331
4B4B63
  5
4B4CB0
331
4B4B64
  5
4B4CB6
331
4B4B65
  5
4B4CBC
331
4B4B66
  5
4B4CC2
331
4B4B67
  5
4B4CD0
331
4B4B68
  5
4B4CDC
331
4B4B69
  5
4B4CE4
331
4B4B6A
  5
4B4CE5
331
4B4B6B
  5
4B4CEC
331
4B4B6C
  5
4B4D20
331
4B4C6E
  5
4B4D21
331
4B4C6F
  5
4B4D22
331
4B4C8A
  5
4B4D23
331
4B4C8B
  5
4B4D24
331
4B4CB0
  5
4B41AD
331
4B4CB6
  5
4B4106
331
4B4CBC
  5
4B427A
331
4B4CC2
  5
4B4277
331
4B4CDC
  5
4B4D34
331
4B4CE9
  5
4B4288
331
4B4CEC
  5
4B4D48
331
4B4D20
  5
4B4D4E
331
4B4D21
  5
4B4D54
331
4B4D22
  5
4B4D5A
331
4B4D23
  5
4B4D72
331
4B4D24
  5
4B4D78
331
4B4D31
  5
4B4D7F
331
4B4D34
  5
4B4D97
331
4B4D48
  5
4B450B
331
4B4D4E
  5
4B450C
331
4B4D72
  5
4B42B0
331
4B4D78
  5
4B42AE
331
4B4D99
  5
4B4353
331
4B4E15
  5
4B4DD0
  0
SORTENTSTABLE
  5
4B4CCB
102
{ACAD_REACTORS
330
4B4CCA
102
}
330
4B4CCA
100
AcDbSortentsTable
330
4B4CC7
  0
SORTENTSTABLE
  5
4B4E1E
102
{ACAD_REACTORS
330
4B4E1D
102
}
330
4B4E1D
100
AcDbSortentsTable
330
4B4E1A
  0
ACDBDETAILVIEWSTYLE
  5
4B4EC3
102
{ACAD_REACTORS
330
4B4EC2
102
}
330
4B4EC2
100
AcDbModelDocViewStyle
 70
     0
  3
Imperial24
290
     1
300
Imperial24
 90
        0
100
AcDbDetailViewStyle
 70
     0
 71
     0
 90
        3
 71
     1
340
4B1AC0
 62
   256
 40
0.24
340
0
 62
   256
 40
0.24
300

 40
0.36
280
     3
 71
     2
340
4B1AC4
 90
       25
 62
   256
 71
     3
340
4B1AC0
 62
   256
 40
0.24
 90
        1
 40
0.75
 90
        1
300
%<\AcVar ViewType \f "%tc1">% %<\AcVar ViewDetailId>%\PSCALE %<\AcVar ViewScale \f "%sn">%
 71
     4
340
4B1AC4
 90
       25
 62
   256
340
4B1AC4
 90
       25
 62
   256
280
     0
  0
LAYOUT
  5
4B1D17
102
{ACAD_REACTORS
330
4B1D14
102
}
330
4B1D14
100
AcDbPlotSettings
  1

  2
\\CADSERVER\Jet25 Eng
  4

  6

 40
0.0
 41
0.0
 42
0.0
 43
0.0
 44
0.0
 45
0.0
 46
0.0
 47
0.0
 48
0.0
 49
0.0
140
0.0
141
0.0
142
1.0
143
1.0
 70
   688
 72
     0
 73
     0
 74
     5
  7
Harvey Std Plot Style.ctb
 75
    16
147
1.0
 76
     0
 77
     2
 78
   300
148
0.0
149
0.0
100
AcDbLayout
  1
Layout1
 70
     1
 71
     1
 10
0.0
 20
0.0
 11
12.0
 21
9.0
 12
0.0
 22
0.0
 32
0.0
 14
1.000000000000000E+20
 24
1.000000000000000E+20
 34
1.000000000000000E+20
 15
-1.000000000000000E+20
 25
-1.000000000000000E+20
 35
-1.000000000000000E+20
146
0.0
 13
0.0
 23
0.0
 33
0.0
 16
1.0
 26
0.0
 36
0.0
 17
0.0
 27
1.0
 37
0.0
 76
     0
330
4B1AC5
  0
LAYOUT
  5
4B1D16
102
{ACAD_REACTORS
330
4B1D14
102
}
330
4B1D14
100
AcDbPlotSettings
  1

  2
LaserJet 4V.pc3
  4
ANSI_A_(8.50_x_11.00_Inches)
  6
OLE1
 40
5.027082920074462
 41
5.027082920074462
 42
9.345077514648437
 43
5.11175537109375
 44
215.8999938964844
 45
279.3999938964844
 46
0.0
 47
0.0
 48
0.0
 49
0.0
140
0.0
141
0.0
142
1.0
143
2.0
 70
 11952
 72
     0
 73
     0
 74
     1
  7
Harvey Std Plot Style.ctb
 75
    17
147
0.5
 76
     0
 77
     2
 78
   300
148
-23.49602121620767
149
-16.42564920876639
100
AcDbLayout
  1
Model
 70
     1
 71
     0
 10
0.0
 20
0.0
 11
12.0
 21
9.0
 12
0.0
 22
0.0
 32
0.0
 14
0.0
 24
0.0
 34
0.0
 15
0.0
 25
0.0
 35
0.0
146
0.0
 13
0.0
 23
0.0
 33
0.0
 16
1.0
 26
0.0
 36
0.0
 17
0.0
 27
1.0
 37
0.0
 76
     0
330
4B1AC8
331
4B4E79
  0
MATERIAL
  5
4B4E83
102
{ACAD_XDICTIONARY
360
4B4E84
102
}
102
{ACAD_REACTORS
330
4B4B93
102
}
330
4B4B93
100
AcDbMaterial
  1
ByBlock
 72
     0
 43
0.0208333333333333
 43
0.0
 43
0.0
 43
0.0
 43
0.0
 43
0.0208333333333333
 43
0.0
 43
0.0
 43
0.0
 43
0.0
 43
1.0
 43
0.0
 43
0.0
 43
0.0
 43
0.0
 43
1.0
 77
     0
 47
0.0208333333333333
 47
0.0
 47
0.0
 47
0.0
 47
0.0
 47
0.0208333333333333
 47
0.0
 47
0.0
 47
0.0
 47
0.0
 47
1.0
 47
0.0
 47
0.0
 47
0.0
 47
0.0
 47
1.0
171
     0
 49
0.0208333333333333
 49
0.0
 49
0.0
 49
0.0
 49
0.0
 49
0.0208333333333333
 49
0.0
 49
0.0
 49
0.0
 49
0.0
 49
1.0
 49
0.0
 49
0.0
 49
0.0
 49
0.0
 49
1.0
175
     0
142
0.0208333333333333
142
0.0
142
0.0
142
0.0
142
0.0
142
0.0208333333333333
142
0.0
142
0.0
142
0.0
142
0.0
142
1.0
142
0.0
142
0.0
142
0.0
142
0.0
142
1.0
179
     0
144
0.0208333333333333
144
0.0
144
0.0
144
0.0
144
0.0
144
0.0208333333333333
144
0.0
144
0.0
144
0.0
144
0.0
144
1.0
144
0.0
144
0.0
144
0.0
144
0.0
144
1.0
147
0.0208333333333333
147
0.0
147
0.0
147
0.0
147
0.0
147
0.0208333333333333
147
0.0
147
0.0
147
0.0
147
0.0
147
1.0
147
0.0
147
0.0
147
0.0
147
0.0
147
1.0
  0
MATERIAL
  5
4B4E7B
102
{ACAD_XDICTIONARY
360
4B4E7C
102
}
102
{ACAD_REACTORS
330
4B4B93
102
}
330
4B4B93
100
AcDbMaterial
  1
ByLayer
 72
     0
 43
0.0208333333333333
 43
0.0
 43
0.0
 43
0.0
 43
0.0
 43
0.0208333333333333
 43
0.0
 43
0.0
 43
0.0
 43
0.0
 43
1.0
 43
0.0
 43
0.0
 43
0.0
 43
0.0
 43
1.0
 77
     0
 47
0.0208333333333333
 47
0.0
 47
0.0
 47
0.0
 47
0.0
 47
0.0208333333333333
 47
0.0
 47
0.0
 47
0.0
 47
0.0
 47
1.0
 47
0.0
 47
0.0
 47
0.0
 47
0.0
 47
1.0
171
     0
 49
0.0208333333333333
 49
0.0
 49
0.0
 49
0.0
 49
0.0
 49
0.0208333333333333
 49
0.0
 49
0.0
 49
0.0
 49
0.0
 49
1.0
 49
0.0
 49
0.0
 49
0.0
 49
0.0
 49
1.0
175
     0
142
0.0208333333333333
142
0.0
142
0.0
142
0.0
142
0.0
142
0.0208333333333333
142
0.0
142
0.0
142
0.0
142
0.0
142
1.0
142
0.0
142
0.0
142
0.0
142
0.0
142
1.0
179
     0
144
0.0208333333333333
144
0.0
144
0.0
144
0.0
144
0.0
144
0.0208333333333333
144
0.0
144
0.0
144
0.0
144
0.0
144
1.0
144
0.0
144
0.0
144
0.0
144
0.0
144
1.0
147
0.0208333333333333
147
0.0
147
0.0
147
0.0
147
0.0
147
0.0208333333333333
147
0.0
147
0.0
147
0.0
147
0.0
147
1.0
147
0.0
147
0.0
147
0.0
147
0.0
147
1.0
  0
MATERIAL
  5
4B4E8B
102
{ACAD_XDICTIONARY
360
4B4E8C
102
}
102
{ACAD_REACTORS
330
4B4B93
102
}
330
4B4B93
100
AcDbMaterial
  1
Global
 72
     0
 43
0.0208333333333333
 43
0.0
 43
0.0
 43
0.0
 43
0.0
 43
0.0208333333333333
 43
0.0
 43
0.0
 43
0.0
 43
0.0
 43
1.0
 43
0.0
 43
0.0
 43
0.0
 43
0.0
 43
1.0
 77
     0
 47
0.0208333333333333
 47
0.0
 47
0.0
 47
0.0
 47
0.0
 47
0.0208333333333333
 47
0.0
 47
0.0
 47
0.0
 47
0.0
 47
1.0
 47
0.0
 47
0.0
 47
0.0
 47
0.0
 47
1.0
171
     0
 49
0.0208333333333333
 49
0.0
 49
0.0
 49
0.0
 49
0.0
 49
0.0208333333333333
 49
0.0
 49
0.0
 49
0.0
 49
0.0
 49
1.0
 49
0.0
 49
0.0
 49
0.0
 49
0.0
 49
1.0
175
     0
142
0.0208333333333333
142
0.0
142
0.0
142
0.0
142
0.0
142
0.0208333333333333
142
0.0
142
0.0
142
0.0
142
0.0
142
1.0
142
0.0
142
0.0
142
0.0
142
0.0
142
1.0
179
     0
144
0.0208333333333333
144
0.0
144
0.0
144
0.0
144
0.0
144
0.0208333333333333
144
0.0
144
0.0
144
0.0
144
0.0
144
1.0
144
0.0
144
0.0
144
0.0
144
0.0
144
1.0
147
0.0208333333333333
147
0.0
147
0.0
147
0.0
147
0.0
147
0.0208333333333333
147
0.0
147
0.0
147
0.0
147
0.0
147
1.0
147
0.0
147
0.0
147
0.0
147
0.0
147
1.0
  0
MLEADERSTYLE
  5
4B4EBF
102
{ACAD_REACTORS
330
4B4EBE
102
}
330
4B4EBE
100
AcDbMLeaderStyle
179
     2
170
     2
171
     1
172
     0
 90
        2
 40
0.0
 41
0.0
173
     1
 91
-1056964608
340
4B1AC2
 92
       -2
290
     1
 42
0.09
291
     1
 43
0.36
  3
Standard
 44
0.18
300

342
4B1AC0
174
     1
178
     6
175
     1
176
     0
 93
-1056964608
 45
0.18
292
     0
297
     0
 46
0.18
 94
-1056964608
 47
1.0
 49
1.0
140
1.0
293
     1
141
0.0
294
     1
177
     0
142
1.0
295
     1
296
     0
143
0.125
271
     0
272
     9
273
     9
298
     1
  0
MLINESTYLE
  5
4B1ACB
102
{ACAD_REACTORS
330
4B1ABE
102
}
330
4B1ABE
100
AcDbMlineStyle
  2
STANDARD
 70
     0
  3

 62
     0
 51
90.0
 52
90.0
 71
     2
 49
0.5
 62
   256
  6
BYLAYER
 49
-0.5
 62
   256
  6
BYLAYER
  0
PLOTSETTINGS
  5
4B1D2C
102
{ACAD_REACTORS
330
4B1D15
102
}
330
4B1D15
100
AcDbPlotSettings
  1
A_size_1_to_1
  2
\\CADSERVER\Jet25 Eng
  4
Letter
  6
OLE1
 40
7.143749713897705
 41
6.720414161682128
 42
7.14373779296875
 43
5.027069091796875
 44
215.8999938964844
 45
279.3999938964844
 46
0.0
 47
0.0
 48
0.0
 49
0.0
140
0.0
141
0.0
142
1.0
143
1.0
 70
  1712
 72
     0
 73
     1
 74
     2
  7
Harvey Std Plot Style.ctb
 75
    16
147
1.0
 76
     0
 77
     2
 78
   300
148
0.0
149
0.0
  0
PLOTSETTINGS
  5
4B1D2E
102
{ACAD_REACTORS
330
4B1D15
102
}
330
4B1D15
100
AcDbPlotSettings
  1
B_size_1_to_1
  2
\\CADSERVER\Jet25 Eng
  4
Tabloid
  6
OLE1
 40
7.143749713897705
 41
5.873736858367919
 42
7.143768310546875
 43
7.14373779296875
 44
279.3999938964844
 45
431.7999877929687
 46
0.0
 47
0.0
 48
0.0
 49
0.0
140
0.0
141
0.0
142
1.0
143
1.0
 70
  1712
 72
     0
 73
     1
 74
     2
  7
Harvey Std Plot Style.ctb
 75
    16
147
1.0
 76
     0
 77
     2
 78
   300
148
0.0
149
0.0
  0
ACDBPLACEHOLDER
  5
4B1D13
102
{ACAD_REACTORS
330
4B1D12
102
}
330
4B1D12
  0
SCALE
  5
4B4EAD
102
{ACAD_REACTORS
330
4B4EAC
102
}
330
4B4EAC
100
AcDbScale
 70
     0
300
1:1
140
1.0
141
1.0
290
     1
  0
SCALE
  5
4B4EAE
102
{ACAD_REACTORS
330
4B4EAC
102
}
330
4B4EAC
100
AcDbScale
 70
     0
300
1/128" = 1'-0"
140
0.0078125
141
12.0
290
     0
  0
SCALE
  5
4B4EAF
102
{ACAD_REACTORS
330
4B4EAC
102
}
330
4B4EAC
100
AcDbScale
 70
     0
300
1/64" = 1'-0"
140
0.015625
141
12.0
290
     0
  0
SCALE
  5
4B4EB0
102
{ACAD_REACTORS
330
4B4EAC
102
}
330
4B4EAC
100
AcDbScale
 70
     0
300
1/32" = 1'-0"
140
0.03125
141
12.0
290
     0
  0
SCALE
  5
4B4EB1
102
{ACAD_REACTORS
330
4B4EAC
102
}
330
4B4EAC
100
AcDbScale
 70
     0
300
1/16" = 1'-0"
140
0.0625
141
12.0
290
     0
  0
SCALE
  5
4B4EB2
102
{ACAD_REACTORS
330
4B4EAC
102
}
330
4B4EAC
100
AcDbScale
 70
     0
300
3/32" = 1'-0"
140
0.09375
141
12.0
290
     0
  0
SCALE
  5
4B4EB3
102
{ACAD_REACTORS
330
4B4EAC
102
}
330
4B4EAC
100
AcDbScale
 70
     0
300
1/8" = 1'-0"
140
0.125
141
12.0
290
     0
  0
SCALE
  5
4B4EB4
102
{ACAD_REACTORS
330
4B4EAC
102
}
330
4B4EAC
100
AcDbScale
 70
     0
300
3/16" = 1'-0"
140
0.1875
141
12.0
290
     0
  0
SCALE
  5
4B4EB5
102
{ACAD_REACTORS
330
4B4EAC
102
}
330
4B4EAC
100
AcDbScale
 70
     0
300
1/4" = 1'-0"
140
0.25
141
12.0
290
     0
  0
SCALE
  5
4B4EB6
102
{ACAD_REACTORS
330
4B4EAC
102
}
330
4B4EAC
100
AcDbScale
 70
     0
300
3/8" = 1'-0"
140
0.375
141
12.0
290
     0
  0
SCALE
  5
4B4EB7
102
{ACAD_REACTORS
330
4B4EAC
102
}
330
4B4EAC
100
AcDbScale
 70
     0
300
1/2" = 1'-0"
140
0.5
141
12.0
290
     0
  0
SCALE
  5
4B4EB8
102
{ACAD_REACTORS
330
4B4EAC
102
}
330
4B4EAC
100
AcDbScale
 70
     0
300
3/4" = 1'-0"
140
0.75
141
12.0
290
     0
  0
SCALE
  5
4B4EB9
102
{ACAD_REACTORS
330
4B4EAC
102
}
330
4B4EAC
100
AcDbScale
 70
     0
300
1" = 1'-0"
140
1.0
141
12.0
290
     0
  0
SCALE
  5
4B4EBA
102
{ACAD_REACTORS
330
4B4EAC
102
}
330
4B4EAC
100
AcDbScale
 70
     0
300
1-1/2" = 1'-0"
140
1.5
141
12.0
290
     0
  0
SCALE
  5
4B4EBB
102
{ACAD_REACTORS
330
4B4EAC
102
}
330
4B4EAC
100
AcDbScale
 70
     0
300
3" = 1'-0"
140
3.0
141
12.0
290
     0
  0
SCALE
  5
4B4EBC
102
{ACAD_REACTORS
330
4B4EAC
102
}
330
4B4EAC
100
AcDbScale
 70
     0
300
6" = 1'-0"
140
6.0
141
12.0
290
     0
  0
SCALE
  5
4B4EBD
102
{ACAD_REACTORS
330
4B4EAC
102
}
330
4B4EAC
100
AcDbScale
 70
     0
300
1'-0" = 1'-0"
140
12.0
141
12.0
290
     0
  0
ACDBSECTIONVIEWSTYLE
  5
4B4EC1
102
{ACAD_REACTORS
330
4B4EC0
102
}
330
4B4EC0
100
AcDbModelDocViewStyle
 70
     0
  3
Imperial24
290
     1
300
Imperial24
 90
        0
100
AcDbSectionViewStyle
 70
     0
 71
     0
 90
       78
 71
     1
340
4B1AC0
 62
   256
 40
0.24
340
0
340
0
 62
   256
 40
0.24
300
I, O, Q, S, X, Z
 40
0.48
 90
        3
 40
0.18
 90
        1
 71
     2
340
4B1AC4
 90
       25
 62
   256
340
4B1AC4
 90
       50
 62
   256
 40
0.24
 40
0.0
 40
0.24
 71
     3
340
4B1AC0
 62
   256
 40
0.24
 90
        1
 40
0.75
 90
        1
300
%<\AcVar ViewType \f "%tc1">% %<\AcVar ViewSectionStartId>%-%<\AcVar ViewSectionEndId>%\PSCALE %<\AcVar ViewScale \f "%sn">%
 71
     4
 62
   256
 62
   257
300
ANSI31
 40
1.0
 90
        0
290
     0
290
     0
 90
        6
 40
0.0
 40
1.570796326794896
 40
0.2617993877991494
 40
1.308996938995747
 40
-0.2617993877991494
 40
1.832595714594046
  0
TABLESTYLE
  5
4B4B96
102
{ACAD_XDICTIONARY
360
4B4EF9
102
}
102
{ACAD_REACTORS
330
4B4B95
102
}
330
4B4B95
100
AcDbTableStyle
280
     0
  3
Standard
 70
     0
 71
     0
 40
0.06
 41
0.06
280
     0
281
     0
  7
STANDARD
140
0.18
170
     2
 62
     0
 63
     7
283
     0
 90
        4
 91
        0
  1

274
    -2
284
     1
 64
     0
275
    -2
285
     1
 65
     0
276
    -2
286
     1
 66
     0
277
    -2
287
     1
 67
     0
278
    -2
288
     1
 68
     0
279
    -2
289
     1
 69
     0
  7
STANDARD
140
0.25
170
     5
 62
     0
 63
     7
283
     0
 90
        4
 91
        0
  1

274
    -2
284
     1
 64
     0
275
    -2
285
     1
 65
     0
276
    -2
286
     1
 66
     0
277
    -2
287
     1
 67
     0
278
    -2
288
     1
 68
     0
279
    -2
289
     1
 69
     0
  7
STANDARD
140
0.18
170
     5
 62
     0
 63
     7
283
     0
 90
        4
 91
        0
  1

274
    -2
284
     1
 64
     0
275
    -2
285
     1
 65
     0
276
    -2
286
     1
 66
     0
277
    -2
287
     1
 67
     0
278
    -2
288
     1
 68
     0
279
    -2
289
     1
 69
     0
  0
VISUALSTYLE
  5
4B4E99
102
{ACAD_REACTORS
330
4B4E93
102
}
330
4B4E93
100
AcDbVisualStyle
  2
2dWireframe
 70
     4
177
     3
291
     0
 70
    58
 90
        0
176
     1
 90
        2
176
     1
 90
        0
176
     1
 90
        0
176
     1
 40
0.6
176
     1
 40
30.0
176
     1
 62
     7
420
 16777215
176
     1
 90
        1
176
     1
 90
        4
176
     1
 62
     7
176
     1
 62
   257
176
     1
 90
        1
176
     1
 90
        1
176
     1
 40
1.0
176
     1
 90
        0
176
     1
 62
   257
176
     1
 40
1.0
176
     1
 90
        1
176
     1
 90
        6
176
     1
 90
        2
176
     1
 62
     7
176
     1
 90
        5
176
     1
 90
        0
176
     1
 90
        0
176
     1
290
     0
176
     1
 90
        1
176
     1
 40
0.0
176
     1
 90
        0
176
     1
290
     1
176
     1
290
     1
176
     1
290
     0
176
     1
290
     0
176
     1
290
     0
176
     1
290
     0
176
     1
290
     0
176
     1
290
     0
176
     1
290
     0
176
     1
 90
       50
176
     1
 40
0.0
176
     1
 40
1.0
176
     1
 90
        0
176
     1
 62
    18
420
        0
176
     1
 90
       50
176
     1
 90
        3
176
     1
 62
     5
420
      255
176
     1
290
     0
176
     1
 90
       50
176
     1
 90
       50
176
     1
 90
       50
176
     1
290
     0
176
     1
 90
       50
176
     1
 62
   256
176
     0
 40
1.0
176
     0
 90
        2
176
     1
  1
strokes_ogs.tif
176
     1
290
     0
176
     1
 40
1.0
176
     1
 40
1.0
176
     1
  0
VISUALSTYLE
  5
4B4E98
102
{ACAD_REACTORS
330
4B4E93
102
}
330
4B4E93
100
AcDbVisualStyle
  2
Basic
 70
     7
177
     3
291
     1
 70
    58
 90
        1
176
     1
 90
        0
176
     1
 90
        1
176
     1
 90
        0
176
     1
 40
0.6
176
     1
 40
30.0
176
     1
 62
     7
420
 16777215
176
     1
 90
        0
176
     1
 90
        4
176
     1
 62
     7
176
     1
 62
   257
176
     1
 90
        1
176
     1
 90
        1
176
     1
 40
1.0
176
     1
 90
        8
176
     1
 62
     7
176
     1
 40
1.0
176
     1
 90
        1
176
     1
 90
        6
176
     1
 90
        2
176
     1
 62
     7
176
     1
 90
        5
176
     1
 90
        0
176
     1
 90
        0
176
     1
290
     0
176
     1
 90
        1
176
     1
 40
0.0
176
     1
 90
        0
176
     1
290
     0
176
     1
290
     1
176
     1
290
     1
176
     1
290
     0
176
     1
290
     0
176
     1
290
     0
176
     1
290
     0
176
     1
290
     0
176
     1
290
     0
176
     1
 90
       50
176
     1
 40
0.0
176
     1
 40
1.0
176
     1
 90
        0
176
     1
 62
    18
420
        0
176
     1
 90
       50
176
     1
 90
        3
176
     1
 62
     5
420
      255
176
     1
290
     0
176
     1
 90
       50
176
     1
 90
       50
176
     1
 90
       50
176
     1
290
     0
176
     1
 90
       50
176
     1
 62
   256
176
     0
 40
1.0
176
     0
 90
        2
176
     1
  1
strokes_ogs.tif
176
     1
290
     0
176
     1
 40
1.0
176
     1
 40
1.0
176
     1
  0
VISUALSTYLE
  5
4B4E9F
102
{ACAD_REACTORS
330
4B4E93
102
}
330
4B4E93
100
AcDbVisualStyle
  2
Brighten
 70
    12
177
     3
291
     1
 70
    58
 90
        2
176
     1
 90
        2
176
     1
 90
        0
176
     1
 90
        0
176
     1
 40
0.6
176
     1
 40
30.0
176
     1
 62
     7
420
 16777215
176
     1
 90
        1
176
     1
 90
        4
176
     1
 62
     7
176
     1
 62
   257
176
     1
 90
        1
176
     1
 90
        1
176
     1
 40
1.0
176
     1
 90
        8
176
     1
 62
     7
176
     1
 40
1.0
176
     1
 90
        1
176
     1
 90
        6
176
     1
 90
        2
176
     1
 62
     7
176
     1
 90
        5
176
     1
 90
        0
176
     1
 90
        0
176
     1
290
     0
176
     1
 90
        1
176
     1
 40
50.0
176
     1
 90
        0
176
     1
290
     0
176
     1
290
     1
176
     1
290
     1
176
     1
290
     0
176
     1
290
     0
176
     1
290
     0
176
     1
290
     0
176
     1
290
     0
176
     1
290
     0
176
     1
 90
       50
176
     1
 40
0.0
176
     1
 40
1.0
176
     1
 90
        0
176
     1
 62
    18
420
        0
176
     1
 90
       50
176
     1
 90
        3
176
     1
 62
     5
420
      255
176
     1
290
     0
176
     1
 90
       50
176
     1
 90
       50
176
     1
 90
       50
176
     1
290
     0
176
     1
 90
       50
176
     1
 62
   256
176
     0
 40
1.0
176
     0
 90
        2
176
     1
  1
strokes_ogs.tif
176
     1
290
     0
176
     1
 40
1.0
176
     1
 40
1.0
176
     1
  0
VISUALSTYLE
  5
4B4EA3
102
{ACAD_REACTORS
330
4B4E93
102
}
330
4B4E93
100
AcDbVisualStyle
  2
ColorChange
 70
    16
177
     3
291
     1
 70
    58
 90
        2
176
     1
 90
        2
176
     1
 90
        3
176
     1
 90
        0
176
     1
 40
0.6
176
     1
 40
30.0
176
     1
 62
     8
420
  8421504
176
     1
 90
        1
176
     1
 90
        4
176
     1
 62
     7
176
     1
 62
   257
176
     1
 90
        1
176
     1
 90
        1
176
     1
 40
1.0
176
     1
 90
        8
176
     1
 62
     8
420
  8421504
176
     1
 40
1.0
176
     1
 90
        1
176
     1
 90
        6
176
     1
 90
        2
176
     1
 62
     7
176
     1
 90
        5
176
     1
 90
        0
176
     1
 90
        0
176
     1
290
     0
176
     1
 90
        1
176
     1
 40
0.0
176
     1
 90
        0
176
     1
290
     0
176
     1
290
     1
176
     1
290
     1
176
     1
290
     0
176
     1
290
     0
176
     1
290
     0
176
     1
290
     0
176
     1
290
     0
176
     1
290
     0
176
     1
 90
       50
176
     1
 40
0.0
176
     1
 40
1.0
176
     1
 90
        0
176
     1
 62
    18
420
        0
176
     1
 90
       50
176
     1
 90
        3
176
     1
 62
     5
420
      255
176
     1
290
     0
176
     1
 90
       50
176
     1
 90
       50
176
     1
 90
       50
176
     1
290
     0
176
     1
 90
       50
176
     1
 62
   256
176
     0
 40
1.0
176
     0
 90
        2
176
     1
  1
strokes_ogs.tif
176
     1
290
     0
176
     1
 40
1.0
176
     1
 40
1.0
176
     1
  0
VISUALSTYLE
  5
4B4E9C
102
{ACAD_REACTORS
330
4B4E93
102
}
330
4B4E93
100
AcDbVisualStyle
  2
Conceptual
 70
     9
177
     3
291
     0
 70
    58
 90
        3
176
     1
 90
        2
176
     1
 90
        0
176
     1
 90
        0
176
     1
 40
0.6
176
     1
 40
30.0
176
     1
 62
     7
420
 16777215
176
     1
 90
        2
176
     1
 90
        2
176
     1
 62
     7
176
     1
 62
   257
176
     1
 90
        1
176
     1
 90
        1
176
     1
 40
179.0
176
     1
 90
        8
176
     1
 62
     7
176
     1
 40
1.0
176
     1
 90
        1
176
     1
 90
        6
176
     1
 90
        2
176
     1
 62
     7
176
     1
 90
        3
176
     1
 90
        0
176
     1
 90
        0
176
     1
290
     0
176
     1
 90
        1
176
     1
 40
0.0
176
     1
 90
        0
176
     1
290
     0
176
     1
290
     1
176
     1
290
     1
176
     1
290
     0
176
     1
290
     0
176
     1
290
     0
176
     1
290
     0
176
     1
290
     0
176
     1
290
     0
176
     1
 90
       50
176
     1
 40
0.0
176
     1
 40
1.0
176
     1
 90
        0
176
     1
 62
    18
420
        0
176
     1
 90
       50
176
     1
 90
        3
176
     1
 62
     5
420
      255
176
     1
290
     0
176
     1
 90
       50
176
     1
 90
       50
176
     1
 90
       50
176
     1
290
     0
176
     1
 90
       50
176
     1
 62
   256
176
     0
 40
1.0
176
     0
 90
        2
176
     1
  1
strokes_ogs.tif
176
     1
290
     0
176
     1
 40
1.0
176
     1
 40
1.0
176
     1
  0
VISUALSTYLE
  5
4B4E9E
102
{ACAD_REACTORS
330
4B4E93
102
}
330
4B4E93
100
AcDbVisualStyle
  2
Dim
 70
    11
177
     3
291
     1
 70
    58
 90
        2
176
     1
 90
        2
176
     1
 90
        0
176
     1
 90
        0
176
     1
 40
0.6
176
     1
 40
30.0
176
     1
 62
     7
420
 16777215
176
     1
 90
        1
176
     1
 90
        4
176
     1
 62
     7
176
     1
 62
   257
176
     1
 90
        1
176
     1
 90
        1
176
     1
 40
1.0
176
     1
 90
        8
176
     1
 62
     7
176
     1
 40
1.0
176
     1
 90
        1
176
     1
 90
        6
176
     1
 90
        2
176
     1
 62
     7
176
     1
 90
        5
176
     1
 90
        0
176
     1
 90
        0
176
     1
290
     0
176
     1
 90
        1
176
     1
 40
-50.0
176
     1
 90
        0
176
     1
290
     0
176
     1
290
     1
176
     1
290
     1
176
     1
290
     0
176
     1
290
     0
176
     1
290
     0
176
     1
290
     0
176
     1
290
     0
176
     1
290
     0
176
     1
 90
       50
176
     1
 40
0.0
176
     1
 40
1.0
176
     1
 90
        0
176
     1
 62
    18
420
        0
176
     1
 90
       50
176
     1
 90
        3
176
     1
 62
     5
420
      255
176
     1
290
     0
176
     1
 90
       50
176
     1
 90
       50
176
     1
 90
       50
176
     1
290
     0
176
     1
 90
       50
176
     1
 62
   256
176
     0
 40
1.0
176
     0
 90
        2
176
     1
  1
strokes_ogs.tif
176
     1
290
     0
176
     1
 40
1.0
176
     1
 40
1.0
176
     1
  0
VISUALSTYLE
  5
4B4EAB
102
{ACAD_REACTORS
330
4B4E93
102
}
330
4B4E93
100
AcDbVisualStyle
  2
EdgeColorOff
 70
    22
177
     3
291
     1
 70
    58
 90
        2
176
     0
 90
        2
176
     0
 90
        0
176
     0
 90
        0
176
     0
 40
0.6
176
     0
 40
30.0
176
     0
 62
     7
420
 16777215
176
     0
 90
        1
176
     0
 90
        4
176
     0
 62
     7
176
     0
 62
   257
176
     0
 90
        1
176
     0
 90
        1
176
     0
 40
1.0
176
     0
 90
        8
176
     2
 62
     7
176
     0
 40
1.0
176
     0
 90
        1
176
     0
 90
        6
176
     0
 90
        2
176
     0
 62
     7
176
     0
 90
        5
176
     0
 90
        0
176
     0
 90
        0
176
     0
290
     0
176
     0
 90
        1
176
     0
 40
0.0
176
     0
 90
        0
176
     0
290
     0
176
     0
290
     1
176
     0
290
     1
176
     0
290
     0
176
     0
290
     0
176
     0
290
     0
176
     0
290
     0
176
     0
290
     0
176
     0
290
     0
176
     0
 90
       50
176
     0
 40
0.0
176
     0
 40
1.0
176
     0
 90
        0
176
     0
 62
    18
420
        0
176
     0
 90
       50
176
     0
 90
        3
176
     0
 62
     5
420
      255
176
     0
290
     0
176
     0
 90
       50
176
     0
 90
       50
176
     0
 90
       50
176
     0
290
     0
176
     0
 90
       50
176
     0
 62
   256
176
     0
 40
1.0
176
     0
 90
        2
176
     0
  1
strokes_ogs.tif
176
     0
290
     0
176
     0
 40
1.0
176
     0
 40
1.0
176
     0
  0
VISUALSTYLE
  5
4B4EA2
102
{ACAD_REACTORS
330
4B4E93
102
}
330
4B4E93
100
AcDbVisualStyle
  2
Facepattern
 70
    15
177
     3
291
     1
 70
    58
 90
        2
176
     1
 90
        2
176
     1
 90
        0
176
     1
 90
        0
176
     1
 40
0.6
176
     1
 40
30.0
176
     1
 62
     7
420
 16777215
176
     1
 90
        1
176
     1
 90
        4
176
     1
 62
     7
176
     1
 62
   257
176
     1
 90
        1
176
     1
 90
        1
176
     1
 40
1.0
176
     1
 90
        8
176
     1
 62
     7
176
     1
 40
1.0
176
     1
 90
        1
176
     1
 90
        6
176
     1
 90
        2
176
     1
 62
     7
176
     1
 90
        5
176
     1
 90
        0
176
     1
 90
        0
176
     1
290
     0
176
     1
 90
        1
176
     1
 40
0.0
176
     1
 90
        0
176
     1
290
     0
176
     1
290
     1
176
     1
290
     1
176
     1
290
     0
176
     1
290
     0
176
     1
290
     0
176
     1
290
     0
176
     1
290
     0
176
     1
290
     0
176
     1
 90
       50
176
     1
 40
0.0
176
     1
 40
1.0
176
     1
 90
        0
176
     1
 62
    18
420
        0
176
     1
 90
       50
176
     1
 90
        3
176
     1
 62
     5
420
      255
176
     1
290
     0
176
     1
 90
       50
176
     1
 90
       50
176
     1
 90
       50
176
     1
290
     0
176
     1
 90
       50
176
     1
 62
   256
176
     0
 40
1.0
176
     0
 90
        2
176
     1
  1
strokes_ogs.tif
176
     1
290
     0
176
     1
 40
1.0
176
     1
 40
1.0
176
     1
  0
VISUALSTYLE
  5
4B4E94
102
{ACAD_REACTORS
330
4B4E93
102
}
330
4B4E93
100
AcDbVisualStyle
  2
Flat
 70
     0
177
     3
291
     1
 70
    58
 90
        2
176
     1
 90
        1
176
     1
 90
        1
176
     1
 90
        2
176
     1
 40
0.6
176
     1
 40
30.0
176
     1
 62
     7
420
 16777215
176
     1
 90
        0
176
     1
 90
        0
176
     1
 62
     7
176
     1
 62
   257
176
     1
 90
        1
176
     1
 90
        1
176
     1
 40
1.0
176
     1
 90
        8
176
     1
 62
     7
176
     1
 40
1.0
176
     1
 90
        1
176
     1
 90
        6
176
     1
 90
        2
176
     1
 62
     7
176
     1
 90
        5
176
     1
 90
        0
176
     1
 90
        0
176
     1
290
     0
176
     1
 90
       13
176
     1
 40
0.0
176
     1
 90
        0
176
     1
290
     0
176
     1
290
     1
176
     1
290
     1
176
     1
290
     0
176
     1
290
     0
176
     1
290
     0
176
     1
290
     0
176
     1
290
     0
176
     1
290
     0
176
     1
 90
       50
176
     1
 40
0.0
176
     1
 40
1.0
176
     1
 90
        0
176
     1
 62
    18
420
        0
176
     1
 90
       50
176
     1
 90
        3
176
     1
 62
     5
420
      255
176
     1
290
     0
176
     1
 90
       50
176
     1
 90
       50
176
     1
 90
       50
176
     1
290
     0
176
     1
 90
       50
176
     1
 62
   256
176
     0
 40
1.0
176
     0
 90
        2
176
     1
  1
strokes_ogs.tif
176
     1
290
     0
176
     1
 40
1.0
176
     1
 40
1.0
176
     1
  0
VISUALSTYLE
  5
4B4E95
102
{ACAD_REACTORS
330
4B4E93
102
}
330
4B4E93
100
AcDbVisualStyle
  2
FlatWithEdges
 70
     1
177
     3
291
     1
 70
    58
 90
        2
176
     1
 90
        1
176
     1
 90
        1
176
     1
 90
        2
176
     1
 40
0.6
176
     1
 40
30.0
176
     1
 62
     7
420
 16777215
176
     1
 90
        1
176
     1
 90
        0
176
     1
 62
     7
176
     1
 62
   257
176
     1
 90
        1
176
     1
 90
        1
176
     1
 40
1.0
176
     1
 90
        0
176
     1
 62
   257
176
     1
 40
1.0
176
     1
 90
        1
176
     1
 90
        6
176
     1
 90
        2
176
     1
 62
     7
176
     1
 90
        5
176
     1
 90
        0
176
     1
 90
        0
176
     1
290
     0
176
     1
 90
       13
176
     1
 40
0.0
176
     1
 90
        0
176
     1
290
     0
176
     1
290
     1
176
     1
290
     1
176
     1
290
     0
176
     1
290
     0
176
     1
290
     0
176
     1
290
     0
176
     1
290
     0
176
     1
290
     0
176
     1
 90
       50
176
     1
 40
0.0
176
     1
 40
1.0
176
     1
 90
        0
176
     1
 62
    18
420
        0
176
     1
 90
       50
176
     1
 90
        3
176
     1
 62
     5
420
      255
176
     1
290
     0
176
     1
 90
       50
176
     1
 90
       50
176
     1
 90
       50
176
     1
290
     0
176
     1
 90
       50
176
     1
 62
   256
176
     0
 40
1.0
176
     0
 90
        2
176
     1
  1
strokes_ogs.tif
176
     1
290
     0
176
     1
 40
1.0
176
     1
 40
1.0
176
     1
  0
VISUALSTYLE
  5
4B4E96
102
{ACAD_REACTORS
330
4B4E93
102
}
330
4B4E93
100
AcDbVisualStyle
  2
Gouraud
 70
     2
177
     3
291
     1
 70
    58
 90
        2
176
     1
 90
        2
176
     1
 90
        1
176
     1
 90
        2
176
     1
 40
0.6
176
     1
 40
30.0
176
     1
 62
     7
420
 16777215
176
     1
 90
        0
176
     1
 90
        0
176
     1
 62
     7
176
     1
 62
   257
176
     1
 90
        1
176
     1
 90
        1
176
     1
 40
1.0
176
     1
 90
        0
176
     1
 62
     7
176
     1
 40
1.0
176
     1
 90
        1
176
     1
 90
        6
176
     1
 90
        2
176
     1
 62
     7
176
     1
 90
        5
176
     1
 90
        0
176
     1
 90
        0
176
     1
290
     0
176
     1
 90
       13
176
     1
 40
0.0
176
     1
 90
        0
176
     1
290
     0
176
     1
290
     1
176
     1
290
     1
176
     1
290
     0
176
     1
290
     0
176
     1
290
     0
176
     1
290
     0
176
     1
290
     0
176
     1
290
     0
176
     1
 90
       50
176
     1
 40
0.0
176
     1
 40
1.0
176
     1
 90
        0
176
     1
 62
    18
420
        0
176
     1
 90
       50
176
     1
 90
        3
176
     1
 62
     5
420
      255
176
     1
290
     0
176
     1
 90
       50
176
     1
 90
       50
176
     1
 90
       50
176
     1
290
     0
176
     1
 90
       50
176
     1
 62
   256
176
     0
 40
1.0
176
     0
 90
        2
176
     1
  1
strokes_ogs.tif
176
     1
290
     0
176
     1
 40
1.0
176
     1
 40
1.0
176
     1
  0
VISUALSTYLE
  5
4B4E97
102
{ACAD_REACTORS
330
4B4E93
102
}
330
4B4E93
100
AcDbVisualStyle
  2
GouraudWithEdges
 70
     3
177
     3
291
     1
 70
    58
 90
        2
176
     1
 90
        2
176
     1
 90
        1
176
     1
 90
        2
176
     1
 40
0.6
176
     1
 40
30.0
176
     1
 62
     7
420
 16777215
176
     1
 90
        1
176
     1
 90
        0
176
     1
 62
     7
176
     1
 62
   257
176
     1
 90
        1
176
     1
 90
        1
176
     1
 40
1.0
176
     1
 90
        0
176
     1
 62
   257
176
     1
 40
1.0
176
     1
 90
        1
176
     1
 90
        6
176
     1
 90
        2
176
     1
 62
     7
176
     1
 90
        5
176
     1
 90
        0
176
     1
 90
        0
176
     1
290
     0
176
     1
 90
       13
176
     1
 40
0.0
176
     1
 90
        0
176
     1
290
     0
176
     1
290
     1
176
     1
290
     1
176
     1
290
     0
176
     1
290
     0
176
     1
290
     0
176
     1
290
     0
176
     1
290
     0
176
     1
290
     0
176
     1
 90
       50
176
     1
 40
0.0
176
     1
 40
1.0
176
     1
 90
        0
176
     1
 62
    18
420
        0
176
     1
 90
       50
176
     1
 90
        3
176
     1
 62
     5
420
      255
176
     1
290
     0
176
     1
 90
       50
176
     1
 90
       50
176
     1
 90
       50
176
     1
290
     0
176
     1
 90
       50
176
     1
 62
   256
176
     0
 40
1.0
176
     0
 90
        2
176
     1
  1
strokes_ogs.tif
176
     1
290
     0
176
     1
 40
1.0
176
     1
 40
1.0
176
     1
  0
VISUALSTYLE
  5
4B4E9B
102
{ACAD_REACTORS
330
4B4E93
102
}
330
4B4E93
100
AcDbVisualStyle
  2
Hidden
 70
     6
177
     3
291
     0
 70
    58
 90
        1
176
     1
 90
        2
176
     1
 90
        2
176
     1
 90
        0
176
     1
 40
0.6
176
     1
 40
30.0
176
     1
 62
     7
420
 16777215
176
     1
 90
        2
176
     1
 90
        2
176
     1
 62
     7
176
     1
 62
   257
176
     1
 90
        2
176
     1
 90
        1
176
     1
 40
40.0
176
     1
 90
        0
176
     1
 62
   257
176
     1
 40
1.0
176
     1
 90
        1
176
     1
 90
        6
176
     1
 90
        2
176
     1
 62
     7
176
     1
 90
        3
176
     1
 90
        0
176
     1
 90
        0
176
     1
290
     0
176
     1
 90
        1
176
     1
 40
0.0
176
     1
 90
        0
176
     1
290
     0
176
     1
290
     1
176
     1
290
     1
176
     1
290
     0
176
     1
290
     0
176
     1
290
     0
176
     1
290
     0
176
     1
290
     0
176
     1
290
     0
176
     1
 90
       50
176
     1
 40
0.0
176
     1
 40
1.0
176
     1
 90
        0
176
     1
 62
    18
420
        0
176
     1
 90
       50
176
     1
 90
        3
176
     1
 62
     5
420
      255
176
     1
290
     0
176
     1
 90
       50
176
     1
 90
       50
176
     1
 90
       50
176
     1
290
     0
176
     1
 90
       50
176
     1
 62
   256
176
     0
 40
1.0
176
     0
 90
        2
176
     1
  1
strokes_ogs.tif
176
     1
290
     0
176
     1
 40
1.0
176
     1
 40
1.0
176
     1
  0
VISUALSTYLE
  5
4B4EA9
102
{ACAD_REACTORS
330
4B4E93
102
}
330
4B4E93
100
AcDbVisualStyle
  2
JitterOff
 70
    20
177
     3
291
     1
 70
    58
 90
        2
176
     0
 90
        2
176
     0
 90
        0
176
     0
 90
        0
176
     0
 40
0.6
176
     0
 40
30.0
176
     0
 62
     7
420
 16777215
176
     0
 90
        1
176
     0
 90
        4
176
     0
 62
     7
176
     0
 62
   257
176
     0
 90
        1
176
     0
 90
        1
176
     0
 40
1.0
176
     0
 90
       10
176
     2
 62
     7
176
     0
 40
1.0
176
     0
 90
        1
176
     0
 90
        6
176
     0
 90
        2
176
     0
 62
     7
176
     0
 90
        5
176
     0
 90
        0
176
     0
 90
        0
176
     0
290
     0
176
     0
 90
        1
176
     0
 40
0.0
176
     0
 90
        0
176
     0
290
     0
176
     0
290
     1
176
     0
290
     1
176
     0
290
     0
176
     0
290
     0
176
     0
290
     0
176
     0
290
     0
176
     0
290
     0
176
     0
290
     0
176
     0
 90
       50
176
     0
 40
0.0
176
     0
 40
1.0
176
     0
 90
        0
176
     0
 62
    18
420
        0
176
     0
 90
       50
176
     0
 90
        3
176
     0
 62
     5
420
      255
176
     0
290
     0
176
     0
 90
       50
176
     0
 90
       50
176
     0
 90
       50
176
     0
290
     0
176
     0
 90
       50
176
     0
 62
   256
176
     0
 40
1.0
176
     0
 90
        2
176
     0
  1
strokes_ogs.tif
176
     0
290
     0
176
     0
 40
1.0
176
     0
 40
1.0
176
     0
  0
VISUALSTYLE
  5
4B4EA1
102
{ACAD_REACTORS
330
4B4E93
102
}
330
4B4E93
100
AcDbVisualStyle
  2
Linepattern
 70
    14
177
     3
291
     1
 70
    58
 90
        2
176
     1
 90
        2
176
     1
 90
        0
176
     1
 90
        0
176
     1
 40
0.6
176
     1
 40
30.0
176
     1
 62
     7
420
 16777215
176
     1
 90
        1
176
     1
 90
        4
176
     1
 62
     7
176
     1
 62
   257
176
     1
 90
        7
176
     1
 90
        7
176
     1
 40
1.0
176
     1
 90
        8
176
     1
 62
     7
176
     1
 40
1.0
176
     1
 90
        1
176
     1
 90
        6
176
     1
 90
        2
176
     1
 62
     7
176
     1
 90
        5
176
     1
 90
        0
176
     1
 90
        0
176
     1
290
     0
176
     1
 90
        1
176
     1
 40
0.0
176
     1
 90
        0
176
     1
290
     0
176
     1
290
     1
176
     1
290
     1
176
     1
290
     0
176
     1
290
     0
176
     1
290
     0
176
     1
290
     0
176
     1
290
     0
176
     1
290
     0
176
     1
 90
       50
176
     1
 40
0.0
176
     1
 40
1.0
176
     1
 90
        0
176
     1
 62
    18
420
        0
176
     1
 90
       50
176
     1
 90
        3
176
     1
 62
     5
420
      255
176
     1
290
     0
176
     1
 90
       50
176
     1
 90
       50
176
     1
 90
       50
176
     1
290
     0
176
     1
 90
       50
176
     1
 62
   256
176
     0
 40
1.0
176
     0
 90
        2
176
     1
  1
strokes_ogs.tif
176
     1
290
     0
176
     1
 40
1.0
176
     1
 40
1.0
176
     1
  0
VISUALSTYLE
  5
4B4EAA
102
{ACAD_REACTORS
330
4B4E93
102
}
330
4B4E93
100
AcDbVisualStyle
  2
OverhangOff
 70
    21
177
     3
291
     1
 70
    58
 90
        2
176
     0
 90
        2
176
     0
 90
        0
176
     0
 90
        0
176
     0
 40
0.6
176
     0
 40
30.0
176
     0
 62
     7
420
 16777215
176
     0
 90
        1
176
     0
 90
        4
176
     0
 62
     7
176
     0
 62
   257
176
     0
 90
        1
176
     0
 90
        1
176
     0
 40
1.0
176
     0
 90
        9
176
     2
 62
     7
176
     0
 40
1.0
176
     0
 90
        1
176
     0
 90
        6
176
     0
 90
        2
176
     0
 62
     7
176
     0
 90
        5
176
     0
 90
        0
176
     0
 90
        0
176
     0
290
     0
176
     0
 90
        1
176
     0
 40
0.0
176
     0
 90
        0
176
     0
290
     0
176
     0
290
     1
176
     0
290
     1
176
     0
290
     0
176
     0
290
     0
176
     0
290
     0
176
     0
290
     0
176
     0
290
     0
176
     0
290
     0
176
     0
 90
       50
176
     0
 40
0.0
176
     0
 40
1.0
176
     0
 90
        0
176
     0
 62
    18
420
        0
176
     0
 90
       50
176
     0
 90
        3
176
     0
 62
     5
420
      255
176
     0
290
     0
176
     0
 90
       50
176
     0
 90
       50
176
     0
 90
       50
176
     0
290
     0
176
     0
 90
       50
176
     0
 62
   256
176
     0
 40
1.0
176
     0
 90
        2
176
     0
  1
strokes_ogs.tif
176
     0
290
     0
176
     0
 40
1.0
176
     0
 40
1.0
176
     0
  0
VISUALSTYLE
  5
4B4E9D
102
{ACAD_REACTORS
330
4B4E93
102
}
330
4B4E93
100
AcDbVisualStyle
  2
Realistic
 70
     8
177
     3
291
     0
 70
    58
 90
        2
176
     1
 90
        3
176
     1
 90
        0
176
     1
 90
        2
176
     1
 40
0.6
176
     1
 40
30.0
176
     1
 62
     7
420
 16777215
176
     1
 90
        0
176
     1
 90
        0
176
     1
 62
     7
176
     1
 62
   257
176
     1
 90
        1
176
     1
 90
        1
176
     1
 40
1.0
176
     1
 90
        8
176
     1
 62
   257
176
     1
 40
1.0
176
     1
 90
        1
176
     1
 90
        6
176
     1
 90
        2
176
     1
 62
     7
176
     1
 90
        3
176
     1
 90
        0
176
     1
 90
        0
176
     1
290
     0
176
     1
 90
       13
176
     1
 40
0.0
176
     1
 90
        0
176
     1
290
     0
176
     1
290
     1
176
     1
290
     1
176
     1
290
     0
176
     1
290
     0
176
     1
290
     0
176
     1
290
     0
176
     1
290
     0
176
     1
290
     0
176
     1
 90
       50
176
     1
 40
0.0
176
     1
 40
1.0
176
     1
 90
        0
176
     1
 62
    18
420
        0
176
     1
 90
       50
176
     1
 90
        3
176
     1
 62
     5
420
      255
176
     1
290
     0
176
     1
 90
       50
176
     1
 90
       50
176
     1
 90
       50
176
     1
290
     0
176
     1
 90
       50
176
     1
 62
   256
176
     0
 40
1.0
176
     0
 90
        2
176
     1
  1
strokes_ogs.tif
176
     1
290
     0
176
     1
 40
1.0
176
     1
 40
1.0
176
     1
  0
VISUALSTYLE
  5
4B4EA8
102
{ACAD_REACTORS
330
4B4E93
102
}
330
4B4E93
100
AcDbVisualStyle
  2
Shaded
 70
    27
177
     3
291
     0
 70
    58
 90
        2
176
     1
 90
        2
176
     1
 90
        1
176
     1
 90
        2
176
     1
 40
0.6
176
     1
 40
30.0
176
     1
 62
     7
420
 16777215
176
     1
 90
        0
176
     1
 90
        4
176
     1
 62
     7
176
     1
 62
   257
176
     1
 90
        1
176
     1
 90
        1
176
     1
 40
1.0
176
     1
 90
        8
176
     1
 62
   257
176
     1
 40
1.0
176
     1
 90
        1
176
     1
 90
        6
176
     1
 90
        2
176
     1
 62
     8
420
  7895160
176
     1
 90
        3
176
     1
 90
        0
176
     1
 90
        0
176
     1
290
     0
176
     1
 90
        5
176
     1
 40
0.0
176
     1
 90
        0
176
     1
290
     0
176
     1
290
     1
176
     1
290
     1
176
     1
290
     0
176
     1
290
     0
176
     1
290
     0
176
     1
290
     0
176
     1
290
     0
176
     1
290
     0
176
     1
 90
       50
176
     1
 40
0.0
176
     1
 40
1.0
176
     1
 90
        0
176
     1
 62
    18
420
        0
176
     1
 90
       50
176
     1
 90
        3
176
     1
 62
     5
420
      255
176
     1
290
     0
176
     1
 90
       50
176
     1
 90
       50
176
     1
 90
       50
176
     1
290
     0
176
     1
 90
       50
176
     1
 62
   256
176
     0
 40
1.0
176
     0
 90
        2
176
     1
  1
strokes_ogs.tif
176
     1
290
     0
176
     1
 40
1.0
176
     1
 40
1.0
176
     1
  0
VISUALSTYLE
  5
4B4EA7
102
{ACAD_REACTORS
330
4B4E93
102
}
330
4B4E93
100
AcDbVisualStyle
  2
Shaded with edges
 70
    26
177
     3
291
     0
 70
    58
 90
        2
176
     1
 90
        2
176
     1
 90
        1
176
     1
 90
        2
176
     1
 40
0.6
176
     1
 40
30.0
176
     1
 62
     7
420
 16777215
176
     1
 90
        1
176
     1
 90
        2
176
     1
 62
     7
176
     1
 62
   257
176
     1
 90
        2
176
     1
 90
        1
176
     1
 40
1.0
176
     1
 90
        8
176
     1
 62
   257
176
     1
 40
1.0
176
     1
 90
        1
176
     1
 90
        6
176
     1
 90
        2
176
     1
 62
     7
176
     1
 90
        3
176
     1
 90
        0
176
     1
 90
        0
176
     1
290
     0
176
     1
 90
        5
176
     1
 40
0.0
176
     1
 90
        0
176
     1
290
     0
176
     1
290
     1
176
     1
290
     1
176
     1
290
     0
176
     1
290
     0
176
     1
290
     0
176
     1
290
     0
176
     1
290
     0
176
     1
290
     0
176
     1
 90
       50
176
     1
 40
0.0
176
     1
 40
1.0
176
     1
 90
        0
176
     1
 62
    18
420
        0
176
     1
 90
       50
176
     1
 90
        3
176
     1
 62
     5
420
      255
176
     1
290
     0
176
     1
 90
       50
176
     1
 90
       50
176
     1
 90
       50
176
     1
290
     0
176
     1
 90
       50
176
     1
 62
   256
176
     0
 40
1.0
176
     0
 90
        2
176
     1
  1
strokes_ogs.tif
176
     1
290
     0
176
     1
 40
1.0
176
     1
 40
1.0
176
     1
  0
VISUALSTYLE
  5
4B4EA4
102
{ACAD_REACTORS
330
4B4E93
102
}
330
4B4E93
100
AcDbVisualStyle
  2
Shades of Gray
 70
    23
177
     3
291
     0
 70
    58
 90
        2
176
     1
 90
        2
176
     1
 90
        3
176
     1
 90
        0
176
     1
 40
0.6
176
     1
 40
30.0
176
     1
 62
     7
420
 16777215
176
     1
 90
        2
176
     1
 90
        2
176
     1
 62
     7
176
     1
 62
     7
176
     1
 90
        1
176
     1
 90
        1
176
     1
 40
40.0
176
     1
 90
        8
176
     1
 62
     7
176
     1
 40
1.0
176
     1
 90
        1
176
     1
 90
        6
176
     1
 90
        2
176
     1
 62
     7
176
     1
 90
        3
176
     1
 90
        0
176
     1
 90
        0
176
     1
290
     0
176
     1
 90
        1
176
     1
 40
0.0
176
     1
 90
        0
176
     1
290
     0
176
     1
290
     1
176
     1
290
     1
176
     1
290
     0
176
     1
290
     0
176
     1
290
     0
176
     1
290
     0
176
     1
290
     0
176
     1
290
     0
176
     1
 90
       50
176
     1
 40
0.0
176
     1
 40
1.0
176
     1
 90
        0
176
     1
 62
    18
420
        0
176
     1
 90
       50
176
     1
 90
        3
176
     1
 62
     5
420
      255
176
     1
290
     0
176
     1
 90
       50
176
     1
 90
       50
176
     1
 90
       50
176
     1
290
     0
176
     1
 90
       50
176
     1
 62
   256
176
     0
 40
1.0
176
     0
 90
        2
176
     1
  1
strokes_ogs.tif
176
     1
290
     0
176
     1
 40
1.0
176
     1
 40
1.0
176
     1
  0
VISUALSTYLE
  5
4B4EA5
102
{ACAD_REACTORS
330
4B4E93
102
}
330
4B4E93
100
AcDbVisualStyle
  2
Sketchy
 70
    24
177
     3
291
     0
 70
    58
 90
        1
176
     1
 90
        2
176
     1
 90
        2
176
     1
 90
        0
176
     1
 40
0.6
176
     1
 40
30.0
176
     1
 62
     7
420
 16777215
176
     1
 90
        2
176
     1
 90
        2
176
     1
 62
     7
176
     1
 62
     7
176
     1
 90
        1
176
     1
 90
        1
176
     1
 40
40.0
176
     1
 90
       11
176
     1
 62
     7
176
     1
 40
1.0
176
     1
 90
        1
176
     1
 90
        6
176
     1
 90
        2
176
     1
 62
     7
176
     1
 90
        6
176
     1
 90
        0
176
     1
 90
        0
176
     1
290
     0
176
     1
 90
        1
176
     1
 40
0.0
176
     1
 90
        0
176
     1
290
     0
176
     1
290
     1
176
     1
290
     1
176
     1
290
     0
176
     1
290
     0
176
     1
290
     0
176
     1
290
     0
176
     1
290
     0
176
     1
290
     0
176
     1
 90
       50
176
     1
 40
0.0
176
     1
 40
1.0
176
     1
 90
        0
176
     1
 62
    18
420
        0
176
     1
 90
       50
176
     1
 90
        3
176
     1
 62
     5
420
      255
176
     1
290
     0
176
     1
 90
       50
176
     1
 90
       50
176
     1
 90
       50
176
     1
290
     0
176
     1
 90
       50
176
     1
 62
   256
176
     0
 40
1.0
176
     0
 90
        2
176
     1
  1
strokes_ogs.tif
176
     1
290
     0
176
     1
 40
1.0
176
     1
 40
1.0
176
     1
  0
VISUALSTYLE
  5
4B4EA0
102
{ACAD_REACTORS
330
4B4E93
102
}
330
4B4E93
100
AcDbVisualStyle
  2
Thicken
 70
    13
177
     3
291
     1
 70
    58
 90
        2
176
     1
 90
        2
176
     1
 90
        0
176
     1
 90
        0
176
     1
 40
0.6
176
     1
 40
30.0
176
     1
 62
     7
420
 16777215
176
     1
 90
        1
176
     1
 90
        4
176
     1
 62
     7
176
     1
 62
   257
176
     1
 90
        1
176
     1
 90
        1
176
     1
 40
1.0
176
     1
 90
       12
176
     1
 62
     7
176
     1
 40
1.0
176
     1
 90
        1
176
     1
 90
        6
176
     1
 90
        2
176
     1
 62
     7
176
     1
 90
        5
176
     1
 90
        0
176
     1
 90
        0
176
     1
290
     0
176
     1
 90
        1
176
     1
 40
0.0
176
     1
 90
        0
176
     1
290
     0
176
     1
290
     1
176
     1
290
     1
176
     1
290
     0
176
     1
290
     0
176
     1
290
     0
176
     1
290
     0
176
     1
290
     0
176
     1
290
     0
176
     1
 90
       50
176
     1
 40
0.0
176
     1
 40
1.0
176
     1
 90
        0
176
     1
 62
    18
420
        0
176
     1
 90
       50
176
     1
 90
        3
176
     1
 62
     5
420
      255
176
     1
290
     0
176
     1
 90
       50
176
     1
 90
       50
176
     1
 90
       50
176
     1
290
     0
176
     1
 90
       50
176
     1
 62
   256
176
     0
 40
1.0
176
     0
 90
        2
176
     1
  1
strokes_ogs.tif
176
     1
290
     0
176
     1
 40
1.0
176
     1
 40
1.0
176
     1
  0
VISUALSTYLE
  5
4B4E9A
102
{ACAD_REACTORS
330
4B4E93
102
}
330
4B4E93
100
AcDbVisualStyle
  2
Wireframe
 70
     5
177
     3
291
     0
 70
    58
 90
        0
176
     1
 90
        2
176
     1
 90
        0
176
     1
 90
        0
176
     1
 40
0.6
176
     1
 40
30.0
176
     1
 62
     7
420
 16777215
176
     1
 90
        1
176
     1
 90
        4
176
     1
 62
     7
176
     1
 62
   257
176
     1
 90
        1
176
     1
 90
        1
176
     1
 40
1.0
176
     1
 90
        0
176
     1
 62
   257
176
     1
 40
1.0
176
     1
 90
        1
176
     1
 90
        6
176
     1
 90
        2
176
     1
 62
     7
176
     1
 90
        3
176
     1
 90
        0
176
     1
 90
        0
176
     1
290
     0
176
     1
 90
        1
176
     1
 40
0.0
176
     1
 90
        0
176
     1
290
     0
176
     1
290
     1
176
     1
290
     1
176
     1
290
     0
176
     1
290
     0
176
     1
290
     0
176
     1
290
     0
176
     1
290
     0
176
     1
290
     0
176
     1
 90
       50
176
     1
 40
0.0
176
     1
 40
1.0
176
     1
 90
        0
176
     1
 62
    18
420
        0
176
     1
 90
       50
176
     1
 90
        3
176
     1
 62
     5
420
      255
176
     1
290
     0
176
     1
 90
       50
176
     1
 90
       50
176
     1
 90
       50
176
     1
290
     0
176
     1
 90
       50
176
     1
 62
   256
176
     0
 40
1.0
176
     0
 90
        2
176
     1
  1
strokes_ogs.tif
176
     1
290
     0
176
     1
 40
1.0
176
     1
 40
1.0
176
     1
  0
VISUALSTYLE
  5
4B4EA6
102
{ACAD_REACTORS
330
4B4E93
102
}
330
4B4E93
100
AcDbVisualStyle
  2
X-Ray
 70
    25
177
     3
291
     0
 70
    58
 90
        2
176
     1
 90
        2
176
     1
 90
        1
176
     1
 90
        1
176
     1
 40
0.5
176
     1
 40
30.0
176
     1
 62
     7
420
 16777215
176
     1
 90
        1
176
     1
 90
        0
176
     1
 62
     7
176
     1
 62
   257
176
     1
 90
        1
176
     1
 90
        1
176
     1
 40
1.0
176
     1
 90
        8
176
     1
 62
     7
176
     1
 40
1.0
176
     1
 90
        1
176
     1
 90
        6
176
     1
 90
        2
176
     1
 62
     7
176
     1
 90
        3
176
     1
 90
        0
176
     1
 90
        0
176
     1
290
     0
176
     1
 90
       13
176
     1
 40
0.0
176
     1
 90
        0
176
     1
290
     0
176
     1
290
     1
176
     1
290
     1
176
     1
290
     0
176
     1
290
     0
176
     1
290
     0
176
     1
290
     0
176
     1
290
     0
176
     1
290
     0
176
     1
 90
       50
176
     1
 40
0.0
176
     1
 40
1.0
176
     1
 90
        0
176
     1
 62
    18
420
        0
176
     1
 90
       50
176
     1
 90
        3
176
     1
 62
     5
420
      255
176
     1
290
     0
176
     1
 90
       50
176
     1
 90
       50
176
     1
 90
       50
176
     1
290
     0
176
     1
 90
       50
176
     1
 62
   256
176
     0
 40
1.0
176
     0
 90
        2
176
     1
  1
strokes_ogs.tif
176
     1
290
     0
176
     1
 40
1.0
176
     1
 40
1.0
176
     1
  0
DICTIONARYVAR
  5
4B4EEC
102
{ACAD_REACTORS
330
4B32AD
102
}
330
4B32AD
100
DictionaryVariables
280
     0
  1
1:1
  0
DICTIONARYVAR
  5
4B4EE8
102
{ACAD_REACTORS
330
4B32AD
102
}
330
4B32AD
100
DictionaryVariables
280
     0
  1
STANDARD
  0
DICTIONARYVAR
  5
4B4C89
102
{ACAD_REACTORS
330
4B32AD
102
}
330
4B32AD
100
DictionaryVariables
280
     0
  1
STANDARD
  0
DICTIONARYVAR
  5
4B4EE9
102
{ACAD_REACTORS
330
4B32AD
102
}
330
4B32AD
100
DictionaryVariables
280
     0
  1
Imperial24
  0
DICTIONARYVAR
  5
4B4EEA
102
{ACAD_REACTORS
330
4B32AD
102
}
330
4B32AD
100
DictionaryVariables
280
     0
  1
Imperial24
  0
DICTIONARYVAR
  5
4B4EEE
102
{ACAD_REACTORS
330
4B32AD
102
}
330
4B32AD
100
DictionaryVariables
280
     0
  1
1
  0
DICTIONARYVAR
  5
4B4EEF
102
{ACAD_REACTORS
330
4B32AD
102
}
330
4B32AD
100
DictionaryVariables
280
     0
  1
15
  0
DICTIONARYVAR
  5
4B4EED
102
{ACAD_REACTORS
330
4B32AD
102
}
330
4B32AD
100
DictionaryVariables
280
     0
  1
0
  0
DICTIONARYVAR
  5
4B4EEB
102
{ACAD_REACTORS
330
4B32AD
102
}
330
4B32AD
100
DictionaryVariables
280
     0
  1
0
  0
DICTIONARYVAR
  5
4B32AE
102
{ACAD_REACTORS
330
4B32AD
102
}
330
4B32AD
100
DictionaryVariables
280
     0
  1
96
  0
ACAD_PROXY_OBJECT
  5
4B4BF7
102
{ACAD_REACTORS
330
4B4BF6
102
}
330
4B4BF6
100
AcDbProxyObject
 90
      499
 91
      549
 71
    25
 97
       77
 70
     0
161
                78
310
90100057356C1D824128
 94
        0
  0
DICTIONARY
  5
4B4C01
102
{ACAD_REACTORS
330
4B4BF6
102
}
330
4B4BF6
100
AcDbDictionary
281
     1
  3
ANSI
350
4B4C02
  0
XRECORD
  5
4B4C1F
102
{ACAD_REACTORS
330
4B4BF6
102
}
330
4B4BF6
100
AcDbXrecord
280
     1
 90
-1023410169
  0
ACAD_PROXY_OBJECT
  5
4B4BA2
330
0
100
AcDbProxyObject
 90
      499
 91
      511
 71
    25
 97
       77
 70
     0
161
               156
310
000101439050D35154D6535093D314D25691508C
330
4B4B9F
 94
        0
  0
ACAD_PROXY_OBJECT
  5
4B4BA4
330
0
100
AcDbProxyObject
 90
      499
 91
      513
 71
    25
 97
       77
 70
     0
161
                88
310
000101411093D34C402B0001
330
4B4B9F
330
0
330
0
 94
        0
  0
ACAD_PROXY_OBJECT
  5
4B4BAA
330
0
100
AcDbProxyObject
 90
      499
 91
      519
 71
    25
 97
       77
 70
     0
161
               382
310
0001014119185D194050831302E322E302E35014119185D194050831302E322E302E3540501000041905394D24CCC658
330
4B4B9F
330
4B4BAB
330
4B4BAF
 94
        0
  0
ACAD_PROXY_OBJECT
  5
4B4BAB
330
0
100
AcDbProxyObject
 90
      499
 91
      520
 71
    25
 97
       77
 70
     0
161
                48
310
000190140A006F
330
4B4B9F
330
4B4BAC
 94
        0
  0
ACAD_PROXY_OBJECT
  5
4B4BAC
330
0
100
AcDbProxyObject
 90
      499
 91
      521
 71
    25
 97
       77
 70
     0
161
                48
310
0001AA00000004
330
4B4B9F
330
4B1D17
330
4B4BAD
330
0
 94
        0
  0
ACAD_PROXY_OBJECT
  5
4B4BAD
330
0
100
AcDbProxyObject
 90
      499
 91
      522
 71
    25
 97
       77
 70
     0
161
                28
310
0001AAAC
330
4B4B9F
 94
        0
  0
ACAD_PROXY_OBJECT
  5
4B4BB0
330
0
100
AcDbProxyObject
 90
      499
 91
      511
 71
    25
 97
       77
 70
     0
161
               108
310
000101421053521310D05310D01C
330
4B4B9F
 94
        0
  0
ACAD_PROXY_OBJECT
  5
4B4BB1
330
0
100
AcDbProxyObject
 90
      499
 91
      511
 71
    25
 97
       77
 70
     0
161
               124
310
00010142905354915554D1511253501C
330
4B4B9F
 94
        0
  0
ACAD_PROXY_OBJECT
  5
4B4BB2
330
0
100
AcDbProxyObject
 90
      499
 91
      511
 71
    25
 97
       77
 70
     0
161
               132
310
00010143105354D150D51253D39112536C
330
4B4B9F
 94
        0
  0
ACAD_PROXY_OBJECT
  5
4B4BB3
330
0
100
AcDbProxyObject
 90
      499
 91
      511
 71
    25
 97
       77
 70
     0
161
               124
310
00010142905355941093D4911154901C
330
4B4B9F
 94
        0
  0
ACAD_PROXY_OBJECT
  5
4B4BB4
330
0
100
AcDbProxyObject
 90
      499
 91
      511
 71
    25
 97
       77
 70
     0
161
               116
310
0001014290535115D1D0D3D313D4AC
330
4B4B9F
 94
        0
  0
ACAD_PROXY_OBJECT
  5
4B4BB5
330
0
100
AcDbProxyObject
 90
      499
 91
      511
 71
    25
 97
       77
 70
     0
161
               148
310
00010143505355925155D49151949154D2101C
330
4B4B9F
 94
        0
  0
ACAD_PROXY_OBJECT
  5
4B4BB6
330
0
100
AcDbProxyObject
 90
      499
 91
      511
 71
    25
 97
       77
 70
     0
161
               172
310
00010144105350539393D51154149154D1549591501C
330
4B4B9F
 94
        0
  0
ACAD_PROXY_OBJECT
  5
4B4BB7
330
0
100
AcDbProxyObject
 90
      499
 91
      511
 71
    25
 97
       77
 70
     0
161
               172
310
00010144105350555513D11253505494905391D1501C
330
4B4B9F
 94
        0
  0
ACAD_PROXY_OBJECT
  5
4B4BB8
330
0
100
AcDbProxyObject
 90
      499
 91
      511
 71
    25
 97
       77
 70
     0
161
               124
310
00010142D0535156151491519112536C
330
4B4B9F
 94
        0
  0
ACAD_PROXY_OBJECT
  5
4B4BB9
330
0
100
AcDbProxyObject
 90
      499
 91
      511
 71
    25
 97
       77
 70
     0
161
               132
310
00010142D05355105410539393D511501C
330
4B4B9F
 94
        0
  0
ACAD_PROXY_OBJECT
  5
4B4BBA
330
0
100
AcDbProxyObject
 90
      499
 91
      511
 71
    25
 97
       77
 70
     0
161
               108
310
00010142105350555513D0D3101C
330
4B4B9F
 94
        0
  0
ACAD_PROXY_OBJECT
  5
4B4BBB
330
0
100
AcDbProxyObject
 90
      499
 91
      511
 71
    25
 97
       77
 70
     0
161
               108
310
00010142105350D311915055105C
330
4B4B9F
 94
        0
  0
ACAD_PROXY_OBJECT
  5
4B4BBC
330
0
100
AcDbProxyObject
 90
      499
 91
      511
 71
    25
 97
       77
 70
     0
161
               108
310
00010142105350D315925155D3FC
330
4B4B9F
 94
        0
  0
ACAD_PROXY_OBJECT
  5
4B4BBD
330
0
100
AcDbProxyObject
 90
      499
 91
      511
 71
    25
 97
       77
 70
     0
161
               148
310
0001014350535212511156915493D11253501C
330
4B4B9F
 94
        0
  0
ACAD_PROXY_OBJECT
  5
4B4BBE
330
0
100
AcDbProxyObject
 90
      499
 91
      511
 71
    25
 97
       77
 70
     0
161
               124
310
00010142905352105510D21254D3D01C
330
4B4B9F
 94
        0
  0
ACAD_PROXY_OBJECT
  5
4B4BBF
330
0
100
AcDbProxyObject
 90
      499
 91
      511
 71
    25
 97
       77
 70
     0
161
               148
310
00010143905354D25391D3115210551310566C
330
4B4B9F
 94
        0
  0
ACAD_PROXY_OBJECT
  5
4B4BC0
330
0
100
AcDbProxyObject
 90
      499
 91
      511
 71
    25
 97
       77
 70
     0
161
               124
310
00010142D0535115D1D193111254D42C
330
4B4B9F
 94
        0
  0
ACAD_PROXY_OBJECT
  5
4B4BC1
330
0
100
AcDbProxyObject
 90
      499
 91
      511
 71
    25
 97
       77
 70
     0
161
               100
310
00010142105350555513D213AC
330
4B4B9F
 94
        0
  0
ACAD_PROXY_OBJECT
  5
4B4BC2
330
0
100
AcDbProxyObject
 90
      499
 91
      511
 71
    25
 97
       77
 70
     0
161
               116
310
000101425053521390D3D55395101C
330
4B4B9F
 94
        0
  0
ACAD_PROXY_OBJECT
  5
4B4BC3
330
0
100
AcDbProxyObject
 90
      499
 91
      511
 71
    25
 97
       77
 70
     0
161
               108
310
0001014210535213941493D2901C
330
4B4B9F
 94
        0
  0
ACAD_PROXY_OBJECT
  5
4B4BC4
330
0
100
AcDbProxyObject
 90
      499
 91
      511
 71
    25
 97
       77
 70
     0
161
               108
310
000101421053521395165411507C
330
4B4B9F
 94
        0
  0
ACAD_PROXY_OBJECT
  5
4B4BC5
330
0
100
AcDbProxyObject
 90
      499
 91
      511
 71
    25
 97
       77
 70
     0
161
               108
310
000101421053521395925155D0FC
330
4B4B9F
 94
        0
  0
ACAD_PROXY_OBJECT
  5
4B4BC6
330
0
100
AcDbProxyObject
 90
      499
 91
      511
 71
    25
 97
       77
 70
     0
161
               140
310
00010143505354D150D51253D390D3D4166C
330
4B4B9F
 94
        0
  0
ACAD_PROXY_OBJECT
  5
4B4BC7
330
0
100
AcDbProxyObject
 90
      499
 91
      511
 71
    25
 97
       77
 70
     0
161
               108
310
00010142105350D3141493D2903C
330
4B4B9F
 94
        0
  0
ACAD_PROXY_OBJECT
  5
4B4BC8
330
0
100
AcDbProxyObject
 90
      499
 91
      523
 71
    25
 97
       77
 70
     0
161
               212
310
00010143905350555513D2105510D21493D500000000000002E40C
330
4B4B9F
 94
        0
  0
ACAD_PROXY_OBJECT
  5
4B4BC9
330
0
100
AcDbProxyObject
 90
      499
 91
      511
 71
    25
 97
       77
 70
     0
161
               156
310
00010143905350555513D2105510D2111155101C
330
4B4B9F
 94
        0
  0
ACAD_PROXY_OBJECT
  5
4B4BDC
330
0
100
AcDbProxyObject
 90
      499
 91
      533
 71
    25
 97
       77
 70
     0
161
               148
310
00010142105350D55494D51100504414E5349C
330
4B4B9F
 94
        0
  0
ACAD_PROXY_OBJECT
  5
4B4BDE
330
0
100
AcDbProxyObject
 90
      499
 91
      535
 71
    25
 97
       77
 70
     0
161
               714
310
0001000000009AA6A9AA4051E546875204A756E2031352031333A31343A3238203230303620285554432901420C4C0B8C8B8C0B8D40518576564204D61722032352030393A30313A3335203230303901420C4C0B8C8B8C0B8D4C
330
4B4B9F
330
4B4BDF
330
4B4BE0
330
4B4BE2
330
0
 94
        0
  0
ACAD_PROXY_OBJECT
  5
4B4BDF
330
0
100
AcDbProxyObject
 90
      499
 91
      536
 71
    25
 97
       77
 70
     0
161
                70
310
0001AAA80820000000
330
4B4B9F
330
4B4BDF
330
4B4BDF
 94
        0
  0
ACAD_PROXY_OBJECT
  5
4B4BE0
330
0
100
AcDbProxyObject
 90
      499
 91
      537
 71
    25
 97
       77
 70
     0
161
                48
310
000100000000B5
330
4B4B9F
330
0
330
4B4BE1
330
0
330
0
 94
        0
  0
ACAD_PROXY_OBJECT
  5
4B4BE1
330
0
100
AcDbProxyObject
 90
      499
 91
      538
 71
    25
 97
       77
 70
     0
161
                40
310
000100AAAA00
330
4B4B9F
330
0
 94
        0
  0
ACAD_PROXY_OBJECT
  5
4B4BE7
330
0
100
AcDbProxyObject
 90
      499
 91
      533
 71
    25
 97
       77
 70
     0
161
               180
310
00010143105050D3D35411119390535140504434F4D50C
330
4B4B9F
 94
        0
  0
ACAD_PROXY_OBJECT
  5
4B4BE8
330
0
100
AcDbProxyObject
 90
      499
 91
      533
 71
    25
 97
       77
 70
     0
161
               212
310
0001014390505193D311115491119390535140506466F6C646572C
330
4B4B9F
 94
        0
  0
ACAD_PROXY_OBJECT
  5
4B4BE9
330
0
100
AcDbProxyObject
 90
      499
 91
      533
 71
    25
 97
       77
 70
     0
161
               180
310
00010143105050539393D111939053514050428415629C
330
4B4B9F
 94
        0
  0
ACAD_PROXY_OBJECT
  5
4B4BEA
330
0
100
AcDbProxyObject
 90
      499
 91
      533
 71
    25
 97
       77
 70
     0
161
               420
310
00010143905050D3D35415925155D31254D500520546F700A46726F6E740A52696768740A4C6566740A426F74746F6D0A41757831C
330
4B4B9F
 94
        0
  0
ACAD_PROXY_OBJECT
  5
4B4BEF
330
0
100
AcDbProxyObject
 90
      499
 91
      543
 71
    25
 97
       77
 70
     0
161
                32
310
0001000000
330
4B4B9F
340
4B4BEC
330
4B4BF1
330
4B4BEC
 94
        0
  0
ACAD_PROXY_OBJECT
  5
4B4BF0
330
0
100
AcDbProxyObject
 90
      499
 91
      544
 71
    25
 97
       77
 70
     0
161
                18
310
00018C
330
4B4B9F
 94
        0
  0
ACAD_PROXY_OBJECT
  5
4B4BF1
330
0
100
AcDbProxyObject
 90
      499
 91
      545
 71
    25
 97
       77
 70
     0
161
               130
310
000101415054CCCC0D105005540155000C
330
4B4B9F
330
4B4BEF
330
4B4BF0
 94
        0
  0
ACAD_PROXY_OBJECT
  5
4B4BF2
330
0
100
AcDbProxyObject
 90
      499
 91
      546
 71
    25
 97
       77
 70
     0
161
               178
310
000100AAAAAAAEE124328A8F3512E995D2B1785DBE9F0C
330
4B4B9F
330
4B4BF1
 94
        0
  0
ACAD_PROXY_OBJECT
  5
4B4BF3
330
0
100
AcDbProxyObject
 90
      499
 91
      547
 71
    25
 97
       77
 70
     0
161
               108
310
000190140A000000000000AAAAAC
330
4B4B9F
330
4B4BF4
330
4B4BF4
330
4B4BF4
330
4B4BF4
330
4B4BF4
330
0
 94
        0
  0
ACAD_PROXY_OBJECT
  5
4B4BF4
330
0
100
AcDbProxyObject
 90
      499
 91
      548
 71
    25
 97
       77
 70
     0
161
                51
310
00010000AAAA8C
330
4B4B9F
330
4B4BF3
330
4B4BF1
 94
        0
  0
DICTIONARY
  5
4B4BD7
102
{ACAD_REACTORS
330
4B4BD6
102
}
330
4B4BD6
100
AcDbDictionary
281
     1
  3
DWGSETTINGS
350
4B4BD8
  3
Shaft
350
4B4C61
  3
TRANSSETTINGS
350
4B4BD9
  0
ACAD_PROXY_OBJECT
  5
4B4C03
102
{ACAD_REACTORS
330
4B4BD6
102
}
330
4B4BD6
100
AcDbProxyObject
 90
      499
 91
      556
 71
    25
 97
       77
 70
     0
161
             17992
310
41903491013041105357CC201C00030C011E442404C504414D5F3180E0000C300479109013241105357CCA01400030C011E442404CD04414D5F338060000C30043E9013441105357CD200C00030C010FA404D504414D5F358030000C30043E9013641105357CDA00800030C011EA404DD04414D5F378040000C30043E90138
310
41105357CE200400030C010FA404E504414D5F398FD0000C300904902324141505357CC4C201C00030C011EA408D10505414D5F31318030000C30043E902495041505357CC4CA01C00030C011E40A408C13905414D5F304E8070000C30047A902314E41505357CC53A03800030C011EA408C93905414D5F324E8050000C300
310
47A902334E41505357CCD3A01800030C010FA408D13905414D5F344E8030000C30043E902354E41505357CD53A00C00030C010FA408D93905414D5F364E8020000C30047A902374E41505357CDD3A01000030C010FA408E13905414D5F384E8010000C30043E902394E41505357CE53A3F400030C0241240CC9053906414D5
310
F31304E8070000C30047A90334414E41905357CC4C53A00C00030C010FA40D25413906414D5F31324E8070000C300479029044B4C494E41505357D0D3200400030C010F4264112539193D08414D5F50415245468040000C30043D0B9055241484D3541905357D093D4A01C00030C011E4264115925155D08414D5F56494557
310
538010000C30043D0B906424548494E4441905357D25395A3F400030C02436415514905253105414D5F54528030000C30043D0990348494441905357D21251201C00030C010F42640D59254D06414D5F5649538070000C3004790990650415244494D42505357D41054911253600C00030C010F42641949151911253509414
310
D5F52454644494D8040000C30043D099534110921395901398000000C0003FFFFFFFE415092139594D06424548494E448000000C0003FFFFFFFE411093D48C9055241484D358010000C30043E411093D48CD055241484D358020000C30047A411093D48D5055241484D358000000C0003FFFFFFFE4110D0530C90134800000
310
0C0003FFFFFFFE4110D0530CD01348020000C30047A4110D0530D501348070000C30047A4110D0530DD013481E0000C3004F24110D15393901378000000C0003FFFFFFFE4110D15395D01378000000C0003FFFFFFFE4110D312539044B4C494E8000000C0003FFFFFFFE4110D3D38C501308000000C0003FFFFFFFD034110D
310
3D38C901318000000C0003FFFFFFFD034110D3D38CD01328000000C0003FFFFFFFD034110D3D38D101328000000C0003FFFFFFFD034111115510501348000000C0003FFFFFFFE4111125051D01358000000C0003FFFFFFFE4111125312501358000000C0003FFFFFFFE411112535410650415244494D8000000C0003FFFFFF
310
FE411112535490652454644494D8000000C0003FFFFFFFE4111915353901388000000C0003FFFFFFFE415191535413901388030000C3003FFFFFFFE4151915354D410234418000000C0003FFFFFFFE4151915354D510234418030000C30043E415191535593901328000000C0003FFFFFFFE415191535595101328030000C3
310
0043E4112105510D01388000000C0003FFFFFFFD014112125113901338000000C0003FFFFFFFD034112125115D01338000000C0003FFFFFFFD034112131253901348000000C0003FFFFFFFD01411213D0D3901378000000C0003FFFFFFFE411213D0D5D01378000000C0003FFFFFFFE4112539193D04494E464F8000000C00
310
03FFFFFFFE4113115051101358000000C0003FFFFFFFE419397D0921395902394E8000000C0003FFFFFFFE419397D0D3D38C502304E8000000C0003FFFFFFFD03419397D0D3D38C902314E8000000C0003FFFFFFFD03419397D0D3D38CD02324E8000000C0003FFFFFFFD03419397D0D3D38D102324E8000000C0003FFFFFF
310
FD03419397D0D15393902374E8000000C0003FFFFFFFE419397D0D15395D02374E8000000C0003FFFFFFFE419397D1125312502354E8000000C0003FFFFFFFE419397D2105510D02384E8000000C0003FFFFFFFD01419397D2125113902334E8000000C0003FFFFFFFD03419397D2125115D02334E8000000C0003FFFFFFFD
310
03419397D3115051102354E8000000C0003FFFFFFFE419397D391D25410349504E8000000C0003FFFFFFFE419397D412105390334414E8000000C0003FFFFFFFE419397D510D3D3902304E8000000C0003FFFFFFFD03419397D5121312502344E8000000C0003FFFFFFFD01419397D5131153902304E8000000C0003FFFFFF
310
FD03419397D594131250332414E8000000C0003FFFFFFFE411391D25410249508000000C0003FFFFFFFE411410530C9055241484D358010000C30043E411410530CD055241484D358020000C30047A411410530D5055241484D358000000C0003FFFFFFFE411412105390234418000000C0003FFFFFFFE411413D4D3901358
310
000000C0003FFFFFFFE411490D1D3901378000000C0003FFFFFFFE411490D1D5D01378000000C0003FFFFFFFE4114D09492D01348070000C300479014114D150D5101348000000C0003FFFFFFFD014114D6508CD01358020000C30047A411354D653501358020000C30047A411510D3D3901308000000C0003FFFFFFFD0341
310
15121312501348000000C0003FFFFFFFD01411512550C9055241484D358010000C30043E411512550CD055241484D358020000C30047A411512550D5055241484D358000000C0003FFFFFFFE4115131153901308000000C0003FFFFFFFD03415514905253105545241494C8000000C0003FFFFFFFE41151493125013480000
310
00C0003FFFFFFFD01411516150C501368030000C30043E411516150C901368030000C30043E411516150CD01368000000C0003FFFFFFFE411516150D501368070000C30047A411516150DD013681E0000C3004F24115925155D04564945578000000C0003FFFFFFFE41159151121034849448000000C0003FFFFFFFD024115
310
9151159035649538000000C0003FFFFFFFD02411594131250232418000000C0003FFFFFFFE4116925690501348000000C0003FFFFFFFD01AAA3F400030C01013F90A4391E41D1E4190F4151E4110F40D0F4091E4050F4793C7F6CC
340
4B1AC4
340
4B1AC4
340
4B1AC4
340
4B4BCA
340
4B1AC4
340
4B1AC4
340
4B1AC4
340
4B4BCC
340
4B1AC4
340
4B1AC4
340
4B4BCC
340
4B4BCB
340
4B1AC4
340
4B1AC4
340
4B1AC4
340
4B1AC4
340
4B4BCA
340
4B1AC4
340
4B1AC4
340
4B1AC4
340
4B4BCC
340
4B1AC4
340
4B1AC4
340
4B4BCC
340
4B4BCB
340
4B1AC4
340
4B4C07
340
4B1AC4
340
4B1AC4
340
4B1AC4
340
4B1AC4
340
4B1AC4
340
4B4BCA
340
4B1AC4
340
4B1AC4
340
4B1AC4
340
4B1AC3
340
4B1AC3
340
4B1AC3
340
4B1AC3
340
4B1AC3
340
4B1AC3
340
4B1AC3
340
4B1AC3
340
4B1AC3
340
4B4C0D
340
4B1AC3
340
4B1AC3
340
4B1AC3
340
4B1AC3
340
4B1AC3
340
4B1AC3
340
4B1AC3
340
4B1AC3
340
4B1AC3
340
4B1AC3
340
4B1AC3
340
4B1AC3
340
4B1AC3
340
4B1AC4
340
4B1AC3
340
4B1AC3
340
4B1AC3
340
4B1AC3
340
4B4C0E
340
4B1AC3
340
4B1AC3
340
4B4C0D
340
4B1AC3
340
4B1AC3
340
4B1AC3
340
4B1AC3
340
4B1AC3
340
4B1AC3
340
4B1AC3
340
4B1AC3
340
4B4C0D
340
4B1AC3
340
4B1AC3
340
4B1AC3
340
4B4C0E
340
4B1AC3
340
4B1AC3
340
4B1AC3
340
4B1AC3
340
4B1AC3
340
4B4C0E
340
4B1AC3
340
4B4BCB
340
4B1AC3
340
4B1AC3
340
4B1AC3
340
4B1AC3
340
4B1AC3
340
4B1AC3
340
4B4C0D
340
4B1AC3
340
4B1AC3
340
4B1AC3
340
4B1AC3
340
4B1AC3
340
4B1AC3
340
4B4C0E
340
4B1AC3
340
4B1AC3
340
4B1AC3
340
4B1AC3
340
4B1AC3
340
4B1AC3
340
4B1AC3
340
4B1AC3
340
4B1AC3
340
4B1AC3
340
4B1AC3
340
4B1AC3
340
4B1AC3
340
4B1AC3
340
4B4BCB
340
4B4C0F
 94
        0
  0
ACAD_PROXY_OBJECT
  5
4B4C59
102
{ACAD_REACTORS
330
4B4C54
102
}
330
4B4C54
100
AcDbProxyObject
 90
      499
 91
      573
 71
    25
 97
       77
 70
     0
161
               253
310
43D1444494D454E53494F4E2C414D44545F2A5F44494D404A9012A404A9012AC
 94
        0
  0
ACAD_PROXY_OBJECT
  5
4B4C58
102
{ACAD_REACTORS
330
4B4C54
102
}
330
4B4C54
100
AcDbProxyObject
 90
      499
 91
      573
 71
    25
 97
       77
 70
     0
161
               181
310
43D012A42D05357D191504B505357CA9012A404A9012AC
 94
        0
  0
ACAD_PROXY_OBJECT
  5
4B4C55
102
{ACAD_REACTORS
330
4B4C54
102
}
330
4B4C54
100
AcDbProxyObject
 90
      499
 91
      573
 71
    25
 97
       77
 70
     0
161
               133
310
43D054841544348404A9012A404A9012AC
 94
        0
  0
ACAD_PROXY_OBJECT
  5
4B4C56
102
{ACAD_REACTORS
330
4B4C54
102
}
330
4B4C54
100
AcDbProxyObject
 90
      499
 91
      573
 71
    25
 97
       77
 70
     0
161
               549
310
43D044C494E4549CE0B0E138B0A8B4E0B0A8B4E138B105357CE0B105357CE138B0A8B505357CE0B0A8B505357CE139012A404A910494E534552542C535444504152543244C
 94
        0
  0
ACAD_PROXY_OBJECT
  5
4B4C5A
102
{ACAD_REACTORS
330
4B4C54
102
}
330
4B4C54
100
AcDbProxyObject
 90
      499
 91
      573
 71
    25
 97
       77
 70
     0
161
               181
310
43D0341524341105357CD5012A404C906494E534552544
 94
        0
  0
ACAD_PROXY_OBJECT
  5
4B4C57
102
{ACAD_REACTORS
330
4B4C54
102
}
330
4B4C54
100
AcDbProxyObject
 90
      499
 91
      573
 71
    25
 97
       77
 70
     0
161
              1053
310
43D7841434D46434652414D452C41434D444154554D5441524745542C41434D444154554D49442C41434D57454C4453594D2C41434D5355524653594D2C41434D4645415449442C41434D504152545245462C41434D42414C4C4F4F4E2C414D44544544474553594D2C414D47534352455743414C435441424C45404A9012A
310
404A9012AC
 94
        0
  0
ACAD_PROXY_OBJECT
  5
4B4D32
102
{ACAD_REACTORS
330
4B228A
102
}
330
4B228A
100
AcDbProxyObject
 90
      499
 91
      504
 71
    25
 97
       77
 70
     0
161
               572
310
40481175265696E666F7263656420427974796C20537061636572498C991918D88D8D58CB4C1E1959990C0B4D0D19584B4E114E0E0B4D90CC51508D4C8C0E110C0DA02800010104C
 94
        0
  0
ACAD_PROXY_OBJECT
  5
4B4CD1
102
{ACAD_REACTORS
330
4B228A
102
}
330
4B228A
100
AcDbProxyObject
 90
      499
 91
      504
 71
    25
 97
       77
 70
     0
161
               532
310
404811253696C69636F6E20486F72697A6F6E74616C498CCC994C4C8CD8D84B4C1E0D4E0DCCCB4D194C988B4E104D4C0B4C4D110D4E4E518D8CCD5110A02800010102C
 94
        0
  0
ACAD_PROXY_OBJECT
  5
4B2294
102
{ACAD_REACTORS
330
4B228A
102
}
330
4B228A
100
AcDbProxyObject
 90
      499
 91
      504
 71
    25
 97
       77
 70
     0
161
               444
310
4048107415344544E554D498D4CCCD94D184E4C8B4C1E184DD8D98B4C4C590DCB504D51110B4C0C0D4C0C0D114C910C114E602800010101C
 94
        0
  0
ACAD_PROXY_OBJECT
  5
4B4E23
102
{ACAD_REACTORS
330
4B228A
102
}
330
4B228A
100
AcDbProxyObject
 90
      499
 91
      504
 71
    25
 97
       77
 70
     0
161
               572
310
404811753696C69636F6E20566572746963616C20426F74746F6D4999194E0D98CDCD8C4B4C1E0CCC0D0E4B4D1898984B504D8CCD0B4D104C9150CC4C8D4CD09090A02800010101C
 94
        0
  0
DICTIONARY
  5
4B4E84
330
4B4E83
100
AcDbDictionary
280
     1
281
     1
  3
BUMPTILE
360
4B4E86
  3
DIFFUSETILE
360
4B4E85
  3
OPACITYTILE
360
4B4E89
  3
REFLECTIONTILE
360
4B4E88
  3
REFRACTIONTILE
360
4B4E8A
  3
SPECULARTILE
360
4B4E87
  0
DICTIONARY
  5
4B4E7C
330
4B4E7B
100
AcDbDictionary
280
     1
281
     1
  3
BUMPTILE
360
4B4E7E
  3
DIFFUSETILE
360
4B4E7D
  3
OPACITYTILE
360
4B4E81
  3
REFLECTIONTILE
360
4B4E80
  3
REFRACTIONTILE
360
4B4E82
  3
SPECULARTILE
360
4B4E7F
  0
DICTIONARY
  5
4B4E8C
330
4B4E8B
100
AcDbDictionary
280
     1
281
     1
  3
BUMPTILE
360
4B4E8E
  3
DIFFUSETILE
360
4B4E8D
  3
OPACITYTILE
360
4B4E91
  3
REFLECTIONTILE
360
4B4E90
  3
REFRACTIONTILE
360
4B4E92
  3
SPECULARTILE
360
4B4E8F
  0
DICTIONARY
  5
4B4EF9
330
4B4B96
100
AcDbDictionary
280
     1
281
     1
  3
ACAD_ROUNDTRIP_2008_TABLESTYLE_CELLSTYLEMAP
360
4B4EFA
  0
ACAD_PROXY_OBJECT
  5
4B4C02
102
{ACAD_REACTORS
330
4B4C01
102
}
330
4B4C01
100
AcDbProxyObject
 90
      499
 91
      555
 71
    25
 97
       77
 70
     0
161
              2431
310
608B81E85EB51B8BE3F8030000C30041105394D2501640600800030C0200800030C00B81E85EB51B8BE3F48821E8720B1B6A9BAB9332A32BC3A29BA3220480A1282C6DA8C868CA6E8C88120286A0B1B6ABB2B63234B733A9BA3220480A1082C6DA92C8A6E8C88120285A0B1B6A230BA3AB6A9BA3220480A1282C6DA849E9AA
310
6E8C8812028820B6B23A2232BA30B4B629BCB6A9BA3220480A2282DAC8E8A6CAC6E8D2DEDCA6F2DAA6E8C88120288A0B6B23A21B2B73A32B92634B732A9BA3220480A2282DAC8E8A8D0E4CAC2C898D2DCCAA6E8C88120285A0B6B23A2737BA32A9BA3220480A1682C682DACE98C2F2A6E8C88120285A0B1A0B6B3A234B6A9B
310
A3220480A2282C682DACE90DED8CA86D0C2E4E8A6E8C88120286A0B1A0B6B3AA34BA3632A9BA3220480A02812027FFF9FFFE
340
4B4C10
360
4B4C11
360
4B4C12
360
4B4C13
360
4B4C14
360
4B4C15
360
4B4C16
360
4B4C17
360
4B4C18
360
4B4C19
360
4B4C1A
360
4B4C1B
360
4B4C26
360
4B4C27
360
4B4C46
360
4B4C47
340
0
340
0
340
0
340
0
 94
        0
  0
ACAD_PROXY_OBJECT
  5
4B4BD8
102
{ACAD_REACTORS
330
4B4BD7
102
}
330
4B4BD7
100
AcDbProxyObject
 90
      499
 91
      531
 71
    25
 97
       77
 70
     0
161
              2436
310
4050B44574753455454494E4753A1286829C8E82A4A482B282A106660F8686AF86C608321A2A720A723A0A849A1ABE1C983E18999AA0C868A9C889282940000000000001C07E83A1A2A72224A0A9A0A8598171ABE1897183E18971AA0E868A9C8892A6A8940000000000001807E8321A2A72622A7250000000000000701FA0
310
C868A9C9E8C8C940000000000001C07E84A1A624A720A92920ACA0A85181718189A98181818182108698929C8AA8B2A082A0AB098929C8A84A22BA3AAA9A1A0A622A50A0E9882A6A89E849482A02608426A0A5A2AB24A2ABA7E8120CA0A68682988A0C00800010652455649534941501304154D0D0531150540CC4E8C50954
310
494D455354414D504A04DC37051DD28734141D5915494D253D3905414C4D4B8C0C1107B44574753455454494E4753454E447DC
 94
        0
  0
ACAD_PROXY_OBJECT
  5
4B4C61
102
{ACAD_REACTORS
330
4B4BD7
102
}
330
4B4BD7
100
AcDbProxyObject
 90
      499
 91
      531
 71
    25
 97
       77
 70
     0
161
               199
310
405055368616674220F688AE8EA68AA8A8929C8EA68A9C88FA
 94
        0
  0
ACAD_PROXY_OBJECT
  5
4B4BD9
102
{ACAD_REACTORS
330
4B4BD7
102
}
330
4B4BD7
100
AcDbProxyObject
 90
      499
 91
      531
 71
    25
 97
       77
 70
     0
161
               852
310
4050D5452414E5353455454494E4753A2488A482AE929C8EA8A4829CA69882A8929E9C0C00800050D4F524947494E414C4C595F4F4E0600400008529A7AAA921A2A620A723A0A81A2A72AA12AAA0A48AA68AA4AC8A0C0080001107B44574753455454494E4753454E447DC
 94
        0
  0
XRECORD
  5
4B4E86
102
{ACAD_REACTORS
330
4B4E84
102
}
330
4B4E84
100
AcDbXrecord
280
     1
270
     1
271
     1
  0
XRECORD
  5
4B4E85
102
{ACAD_REACTORS
330
4B4E84
102
}
330
4B4E84
100
AcDbXrecord
280
     1
270
     1
271
     1
  0
XRECORD
  5
4B4E89
102
{ACAD_REACTORS
330
4B4E84
102
}
330
4B4E84
100
AcDbXrecord
280
     1
270
     1
271
     1
  0
XRECORD
  5
4B4E88
102
{ACAD_REACTORS
330
4B4E84
102
}
330
4B4E84
100
AcDbXrecord
280
     1
270
     1
271
     1
  0
XRECORD
  5
4B4E8A
102
{ACAD_REACTORS
330
4B4E84
102
}
330
4B4E84
100
AcDbXrecord
280
     1
270
     1
271
     1
  0
XRECORD
  5
4B4E87
102
{ACAD_REACTORS
330
4B4E84
102
}
330
4B4E84
100
AcDbXrecord
280
     1
270
     1
271
     1
  0
XRECORD
  5
4B4E7E
102
{ACAD_REACTORS
330
4B4E7C
102
}
330
4B4E7C
100
AcDbXrecord
280
     1
270
     1
271
     1
  0
XRECORD
  5
4B4E7D
102
{ACAD_REACTORS
330
4B4E7C
102
}
330
4B4E7C
100
AcDbXrecord
280
     1
270
     1
271
     1
  0
XRECORD
  5
4B4E81
102
{ACAD_REACTORS
330
4B4E7C
102
}
330
4B4E7C
100
AcDbXrecord
280
     1
270
     1
271
     1
  0
XRECORD
  5
4B4E80
102
{ACAD_REACTORS
330
4B4E7C
102
}
330
4B4E7C
100
AcDbXrecord
280
     1
270
     1
271
     1
  0
XRECORD
  5
4B4E82
102
{ACAD_REACTORS
330
4B4E7C
102
}
330
4B4E7C
100
AcDbXrecord
280
     1
270
     1
271
     1
  0
XRECORD
  5
4B4E7F
102
{ACAD_REACTORS
330
4B4E7C
102
}
330
4B4E7C
100
AcDbXrecord
280
     1
270
     1
271
     1
  0
XRECORD
  5
4B4E8E
102
{ACAD_REACTORS
330
4B4E8C
102
}
330
4B4E8C
100
AcDbXrecord
280
     1
270
     1
271
     1
  0
XRECORD
  5
4B4E8D
102
{ACAD_REACTORS
330
4B4E8C
102
}
330
4B4E8C
100
AcDbXrecord
280
     1
270
     1
271
     1
  0
XRECORD
  5
4B4E91
102
{ACAD_REACTORS
330
4B4E8C
102
}
330
4B4E8C
100
AcDbXrecord
280
     1
270
     1
271
     1
  0
XRECORD
  5
4B4E90
102
{ACAD_REACTORS
330
4B4E8C
102
}
330
4B4E8C
100
AcDbXrecord
280
     1
270
     1
271
     1
  0
XRECORD
  5
4B4E92
102
{ACAD_REACTORS
330
4B4E8C
102
}
330
4B4E8C
100
AcDbXrecord
280
     1
270
     1
271
     1
  0
XRECORD
  5
4B4E8F
102
{ACAD_REACTORS
330
4B4E8C
102
}
330
4B4E8C
100
AcDbXrecord
280
     1
270
     1
271
     1
  0
CELLSTYLEMAP
  5
4B4EFA
102
{ACAD_REACTORS
330
4B4EF9
102
}
330
4B4EF9
100
AcDbCellStyleMap
 90
        3
300
CELLSTYLE
  1
TABLEFORMAT_BEGIN
 90
        5
170
     1
 91
        0
 92
    32768
 62
   257
 93
        1
300
CONTENTFORMAT
  1
CONTENTFORMAT_BEGIN
 90
        0
 91
        0
 92
        4
 93
        0
300

 40
0.0
140
1.0
 94
        5
 62
     0
340
4B1AC0
144
0.25
309
CONTENTFORMAT_END
171
     0
 94
        6
 95
        1
302
GRIDFORMAT
  1
GRIDFORMAT_BEGIN
 90
        0
 91
        1
 62
     0
 92
       -2
340
0
 93
        0
 40
0.045
309
GRIDFORMAT_END
 95
        2
302
GRIDFORMAT
  1
GRIDFORMAT_BEGIN
 90
        0
 91
        1
 62
     0
 92
       -2
340
0
 93
        0
 40
0.045
309
GRIDFORMAT_END
 95
        4
302
GRIDFORMAT
  1
GRIDFORMAT_BEGIN
 90
        0
 91
        1
 62
     0
 92
       -2
340
0
 93
        0
 40
0.045
309
GRIDFORMAT_END
 95
        8
302
GRIDFORMAT
  1
GRIDFORMAT_BEGIN
 90
        0
 91
        1
 62
     0
 92
       -2
340
0
 93
        0
 40
0.045
309
GRIDFORMAT_END
 95
       16
302
GRIDFORMAT
  1
GRIDFORMAT_BEGIN
 90
        0
 91
        1
 62
     0
 92
       -2
340
0
 93
        0
 40
0.045
309
GRIDFORMAT_END
 95
       32
302
GRIDFORMAT
  1
GRIDFORMAT_BEGIN
 90
        0
 91
        1
 62
     0
 92
       -2
340
0
 93
        0
 40
0.045
309
GRIDFORMAT_END
309
TABLEFORMAT_END
  1
CELLSTYLE_BEGIN
 90
        1
 91
        1
300
_TITLE
309
CELLSTYLE_END
300
CELLSTYLE
  1
TABLEFORMAT_BEGIN
 90
        5
170
     1
 91
        0
 92
        0
 62
   257
 93
        1
300
CONTENTFORMAT
  1
CONTENTFORMAT_BEGIN
 90
        0
 91
        0
 92
        4
 93
        0
300

 40
0.0
140
1.0
 94
        5
 62
     0
340
4B1AC0
144
0.18
309
CONTENTFORMAT_END
171
     0
 94
        6
 95
        1
302
GRIDFORMAT
  1
GRIDFORMAT_BEGIN
 90
        0
 91
        1
 62
     0
 92
       -2
340
0
 93
        0
 40
0.045
309
GRIDFORMAT_END
 95
        2
302
GRIDFORMAT
  1
GRIDFORMAT_BEGIN
 90
        0
 91
        1
 62
     0
 92
       -2
340
0
 93
        0
 40
0.045
309
GRIDFORMAT_END
 95
        4
302
GRIDFORMAT
  1
GRIDFORMAT_BEGIN
 90
        0
 91
        1
 62
     0
 92
       -2
340
0
 93
        0
 40
0.045
309
GRIDFORMAT_END
 95
        8
302
GRIDFORMAT
  1
GRIDFORMAT_BEGIN
 90
        0
 91
        1
 62
     0
 92
       -2
340
0
 93
        0
 40
0.045
309
GRIDFORMAT_END
 95
       16
302
GRIDFORMAT
  1
GRIDFORMAT_BEGIN
 90
        0
 91
        1
 62
     0
 92
       -2
340
0
 93
        0
 40
0.045
309
GRIDFORMAT_END
 95
       32
302
GRIDFORMAT
  1
GRIDFORMAT_BEGIN
 90
        0
 91
        1
 62
     0
 92
       -2
340
0
 93
        0
 40
0.045
309
GRIDFORMAT_END
309
TABLEFORMAT_END
  1
CELLSTYLE_BEGIN
 90
        2
 91
        1
300
_HEADER
309
CELLSTYLE_END
300
CELLSTYLE
  1
TABLEFORMAT_BEGIN
 90
        5
170
     1
 91
        0
 92
        0
 62
   257
 93
        1
300
CONTENTFORMAT
  1
CONTENTFORMAT_BEGIN
 90
        0
 91
        0
 92
        4
 93
        0
300

 40
0.0
140
1.0
 94
        2
 62
     0
340
4B1AC0
144
0.18
309
CONTENTFORMAT_END
171
     0
 94
        6
 95
        1
302
GRIDFORMAT
  1
GRIDFORMAT_BEGIN
 90
        0
 91
        1
 62
     0
 92
       -2
340
0
 93
        0
 40
0.045
309
GRIDFORMAT_END
 95
        2
302
GRIDFORMAT
  1
GRIDFORMAT_BEGIN
 90
        0
 91
        1
 62
     0
 92
       -2
340
0
 93
        0
 40
0.045
309
GRIDFORMAT_END
 95
        4
302
GRIDFORMAT
  1
GRIDFORMAT_BEGIN
 90
        0
 91
        1
 62
     0
 92
       -2
340
0
 93
        0
 40
0.045
309
GRIDFORMAT_END
 95
        8
302
GRIDFORMAT
  1
GRIDFORMAT_BEGIN
 90
        0
 91
        1
 62
     0
 92
       -2
340
0
 93
        0
 40
0.045
309
GRIDFORMAT_END
 95
       16
302
GRIDFORMAT
  1
GRIDFORMAT_BEGIN
 90
        0
 91
        1
 62
     0
 92
       -2
340
0
 93
        0
 40
0.045
309
GRIDFORMAT_END
 95
       32
302
GRIDFORMAT
  1
GRIDFORMAT_BEGIN
 90
        0
 91
        1
 62
     0
 92
       -2
340
0
 93
        0
 40
0.045
309
GRIDFORMAT_END
309
TABLEFORMAT_END
  1
CELLSTYLE_BEGIN
 90
        3
 91
        2
300
_DATA
309
CELLSTYLE_END
  0
ACAD_PROXY_OBJECT
  5
4B4C11
330
4B4C02
100
AcDbProxyObject
 90
      499
 91
      557
 71
    25
 97
       77
 70
     0
161
                96
310
60820E80A0280A0280A0280800
 94
        0
  0
ACAD_PROXY_OBJECT
  5
4B4C12
330
4B4C02
100
AcDbProxyObject
 90
      499
 91
      558
 71
    25
 97
       77
 70
     0
161
               332
310
6090E405014050140501405014050140501405014250140501405014050140501200000000000000040C
340
4B4C1C
 94
        0
  0
ACAD_PROXY_OBJECT
  5
4B4C13
330
4B4C02
100
AcDbProxyObject
 90
      499
 91
      559
 71
    25
 97
       77
 70
     0
161
               403
310
608C199999999999E99F91F405014050140501405014050140501405014050140501405014050140501405014050140501404C
340
0
 94
        0
  0
ACAD_PROXY_OBJECT
  5
4B4C14
330
4B4C02
100
AcDbProxyObject
 90
      499
 91
      560
 71
    25
 97
       77
 70
     0
161
                10
310
608C
 94
        0
  0
ACAD_PROXY_OBJECT
  5
4B4C15
330
4B4C02
100
AcDbProxyObject
 90
      499
 91
      561
 71
    25
 97
       77
 70
     0
161
               257
310
60A290EA22A7D90F49F9353333333333727F44D4CCCCCCCCCDC9FC01000061804C
340
4B4C1D
340
4B4C1E
 94
        0
  0
ACAD_PROXY_OBJECT
  5
4B4C16
330
4B4C02
100
AcDbProxyObject
 90
      499
 91
      562
 71
    25
 97
       77
 70
     0
161
             13595
310
6090E41125511535014112551153501405014069011309A4F2590CB64FD3347454E545241434F2C454E552C302C4954454D2C47454E54524154582C25732C2847454E4D53472067656E647767203232322940690120281A8AA2CA0281A8AA2CA028120280A03202261349E4B2196C9FA648E8A9CA8A482869E588A9CAA5860
310
58A2A8B2588E8A9CA8A482A8B0584AE658508E8A9C9AA68E40CECADCC8EECE406464665280D202405044E414D45405044E414D454051C40640A8B95C2E97CBE502404CD1D15395149050D3CB1153954B0C0B139053514B11D15395149055160B095CCB0A11D1539354D1C819D95B991DD9C80C8C8D8A50192C3D4946284953
310
424C414E4B28504152543A4E414D45292C424C4F434B3A4E414D452C504152543A4E414D452940480A0A888AA686A480A16888AA686A492A0A8929E9C80A3A80C81D10782C06030180C809D23A2A72A2920A1A79622A72A9618162222A9A1A924A82A24A7A71623A2A72A2920AA2C1612B9961423A2A726A9A39033B2B7323
310
BB39019189B94A024809014214D51053911054911014214D510539110549110147501904A383BFDFEFF5FBFCFD3747454E545241434F2C454E552C302C5354414E444152442C47454E54524154582C25732C2847454E4D53472067656E64776720323138294049012028426A0AA22A924A0A62028426A0AA22A924A0A62028
310
EA0320B41396D838E9017D9FA6E8E8A9CA8A482869E588A9CAA5860589A82A88AA4928298588E8A9CA8A482A8B0584AE658508E8A9C9AA68E40CECADCC8EECE406464625280D202405044E4F5445405044E4F54454051D40641A8B95C2E97CBE5F23F4CD1D15395149050D3CB1153954B0C0B1393D5114B11D153951490551
310
60B095CCB0A11D1539354D1C819D95B991DD9C80C8C8D4A501A40480A0CAC8A9C889EA480A0CAC8A9C889EA480A3A80C83D172B85D2F97CBE47E9AA3A2A72A2920A1A79622A72A9618162B22A72227A91623A2A72A2920AA2C1612B9961423A2A726A9A39033B2B7323BB39019191A14A0348090141911154D0D48C9014351
310
1154D0D49254151253D3880C90147501908A20F0580C0603019013B47454E545241434F2C454E552C302C4445534352495054494F4E20322C47454E54524154582C25732C2847454E4D53472067656E6477672033362940490120284A9AA20A72220A922192028529AA20A72220A92210192028EA0321347077FBFDFEBF7F9
310
FA728E8A9CA8A482869E588A9CAA586058A6A8829C8882A4884064588E8A9CA8A482A8B0584AE658508E8A9C9AA68E40CECADCC8EECE4064646052809202405094D4154455249414C324050A4D4154455249414C20324051D40642A8272DB071D202FB3F4E11D15395149050D3CB1153954B0C0B1350551154925053080C8B
310
11D15395149055160B095CCB0A11D1539354D1C819D95B991DD9C80D0C0A501240480A089A82A6A680A089A82A6A680A3A80A0485A0681172B85D2F97CBE47E9923A2A72A2920A1A79622A72A96181626A0A9A99623A2A72A2920AA2C1612B9961423A2A726A9A39033B2B7323BB3901A1914A024809014154149250D15014
310
154149250D1501475014090C409022E570BA5F2F97C8FD3347454E545241434F2C454E552C302C50524943452C47454E54524154582C25732C2847454E4D53472067656E6477672034332940490120281A224A6A0285A6A2A0A9AAA922A6A2A72A2028EA028121A81A047DC2910F05877A1FA728E8A9CA8A482869E588A9CA
310
A5860589A8A82A6AAA48A9A8A9CA8588E8A9CA8A482A8B0584AE658508E8A9C9AA68E40CECADCC8EECE406868528092024050E441022E07A17AD46E338FE07800030C0001018ACD56AB55AADF63F2B355AAD56AB7D8FD073D3C4954454D3E405018ACD56AB55AADF63F2B355AAD56AB7D8FD073D3C4954454D3E40501890C7
310
E3F1783CEE3F2431F8FC5E0F3B8FD073D3C4954454D3E40501890C7E3F1783CEE3F2431F8FC5E0F3B8FD073D3C4954454D3E405029012B355AAD56AB7D8FCACD56AB55AADF63F41CF4F125511534F901418F4F1455164F9014062B355AAD56AB7D8FCACD56AB55AADF63F41CF4F125511534F9014061309A4F2590CBA4FC4C
310
2693C96432E93F41CF4F125511534F901901002B355AAD56AB7D8FCACD56AB55AADF63FA2000000000000008204018000618048220681A048120280C882148448820348520348452028521485214814000000000000F0BF0000000000003C2FD018020000C3008070000C3000EF7D3E365DBA88FC3BDF4F8D976EA23F2E07A
310
17AD46E2F8FF20341A405024150741A4069703D0BD6A3717C7F0040001860100400018601002000186002026280A03202C
340
0
340
0
 94
        0
  0
ACAD_PROXY_OBJECT
  5
4B4C17
330
4B4C02
100
AcDbProxyObject
 90
      499
 91
      563
 71
    25
 97
       77
 70
     0
161
               994
310
6080B81E85EB51B8CE3F4BCF511155105253080F11115510525317D3105091530F971414D0D05311480F11115510525317D05094D4D0D053114F92341C9A9999999999B93F26A666666666724FC000000000000E03F4000000000000004000000000000005100000000000000244081E0000C3002E07A17AD46E338FCC
340
4B4BCB
340
4B4C10
 94
        0
  0
ACAD_PROXY_OBJECT
  5
4B4C18
330
4B4C02
100
AcDbProxyObject
 90
      499
 91
      564
 71
    25
 97
       77
 70
     0
161
               823
310
608031703D0BD6A3719C7E999EA9A2A1AA24A7A7101E29A2A1AA24A7A72FA620A122A62FA324A929AA1F169E29A2A1AA24A7A72FA620A122A62FA620A9AA1F1353333333333B27E3FFFE01C00030C008840F000061801353333333333B27F1703D0BD6A3719C7E
340
4B4BCB
340
4B4C10
 94
        0
  0
ACAD_PROXY_OBJECT
  5
4B4C19
330
4B4C02
100
AcDbProxyObject
 90
      499
 91
      565
 71
    25
 97
       77
 70
     0
161
               280
310
6082B8716D9CEF7C33F0A5723F0BD4A2F0FC295C8FC2F528BC3FA199999999999F99FC01
 94
        0
  0
ACAD_PROXY_OBJECT
  5
4B4C1A
330
4B4C02
100
AcDbProxyObject
 90
      499
 91
      566
 71
    25
 97
       77
 70
     0
161
                14
310
60A4
340
0
 94
        0
  0
ACAD_PROXY_OBJECT
  5
4B4C1B
330
4B4C02
100
AcDbProxyObject
 90
      499
 91
      567
 71
    25
 97
       77
 70
     0
161
              7408
310
609084050BA4050AA405024050A54656D706C617465203140405013D3C696628657175616C28486F6C653A7461707065642C223022292C22252563222C486F6C653A6E6F6D696E616C2022202220696628657175616C28486F6C653A756E6974732C223122292C2278222C222D222920222022293E3C696628657175616C28
310
486F6C653A7461707065642C223022292C486F6C653A6469612C486F6C653A706974636864657363293E207B5C46414D4744543B787D203C696628657175616C28486F6C653A7465726D696E6174696F6E2C223022292C486F6C653A64657074682C225448525522293E5C507B5C46414D4744543B767D2525633C486F6C65
310
3A63746469613E207B5C46414D4744543B787D203C486F6C653A637464657074683E406901405034050A54656D706C6174652031405FE3D3C696628657175616C28486F6C653A7461707065642C223022292C22252563222C486F6C653A6E6F6D696E616C2022202220696628657175616C28486F6C653A756E6974732C223
310
122292C2278222C222D222920222022293E3C696628657175616C28486F6C653A7461707065642C223022292C486F6C653A6469612C486F6C653A706974636864657363293E207B5C46414D4744543B787D203C696628657175616C28486F6C653A7465726D696E6174696F6E2C223022292C486F6C653A64657074682C225
310
448525522293E5C507B5C46414D4744543B777D2525633C486F6C653A63746469613E2058203C486F6C653A6374616E676C653E252564406901405014050A54656D706C6174652031405CF3D3C696628657175616C28486F6C653A7461707065642C223022292C22252563222C486F6C653A6E6F6D696E616C202220222069
310
6628657175616C28486F6C653A756E6974732C223122292C2278222C222D222920222022293E3C696628657175616C28486F6C653A7461707065642C223022292C486F6C653A6469612C486F6C653A706974636864657363293E5C507B5C46414D4744543B787D203C696628657175616C28486F6C653A7465726D696E6174
310
696F6E2C223022292C486F6C653A64657074682C225448525522293E4069014051E40D0A54656D706C6174652032405173D3C535444503A444553433E203C535444503A5354443E40690A54656D706C61746520314050C3D3C535444503A444553433E40690A54656D706C61746520334050B3D3C535444503A5354443E406
310
90340515AAAC145C0F42F5A8DC5F1F9703D0BD6A3717C7F8020000C3008030000C3004410300
360
4B4C24
330
4B4C24
360
4B4C25
330
4B4C25
360
4B4C23
330
4B4C23
360
4B4C21
360
4B4C20
360
4B4C22
330
4B4C21
330
4B4C20
330
4B4C22
 94
        0
  0
ACAD_PROXY_OBJECT
  5
4B4C26
330
4B4C02
100
AcDbProxyObject
 90
      499
 91
      569
 71
    25
 97
       77
 70
     0
161
                26
310
60902A8C
340
4B4C03
 94
        0
  0
ACAD_PROXY_OBJECT
  5
4B4C27
330
4B4C02
100
AcDbProxyObject
 90
      499
 91
      570
 71
    25
 97
       77
 70
     0
161
               258
310
60902000000000000380FC000000000000E03F408F0F9023C3E40DB18CCCFFFF8C
340
4B4C28
340
0
340
0
340
4B4C31
340
4B4C34
340
0
340
4B4C39
340
4B4C3C
340
4B4C43
340
0
 94
        0
  0
ACAD_PROXY_OBJECT
  5
4B4C46
330
4B4C02
100
AcDbProxyObject
 90
      499
 91
      571
 71
    25
 97
       77
 70
     0
161
             17510
310
6091F023FFFFFFFD010300002E07A17AD46E2F8FE00800030C01010300002E07A17AD46E2F8FE00800030C0005134C495354204F4620434F4F5244494E41544553015091D15395149050D3CB1153954B0C0B131254D50813D18810D3D3D491125390551154CB11D15395149055160B095CCB0A11D1539354D1C819D95B991A
310
5B5E880CCC0A78000C000000000000000000000000000000007B14AE47E17AA43F2E07A17AD46E2F8FE00800030C007B14AE47E17AA43F2E07A17AD46E2F8FE00800030C020143CF4F111959985D5B1D151A5D1B194F8050A484F4C45205441424C45014E51D15395149050D3CB1153954B0C0B1213D3114815105093114B1
310
1D15395149055160B095CCB0A11D1539354D1C819D95B991A5B5E880CCC4A78000C000000000000000000000000000000007B14AE47E17AA43F2E07A17AD46E2F8FE00800030C007B14AE47E17AA43F2E07A17AD46E2F8FE00800030C020143CF4F111959985D5B1D151A5D1B194F90E4410F4450240D04415074310143912
310
44D154151241D144310D4400005064F524947494E014D11D15395149050D3CB1153954B0C0B13D49251D2538B11D15395149055160B095CCB0A11D1539354D1C819D95B991A5B5E880C4A400040410008850000A0C9EA4928E929C029A23A2A72A2920A1A79622A72A96181627A924A3A4A71623A2A72A2920AA2C1612B996
310
1423A2A726A9A39033B2B73234B6BD101894800080820010FA0001411213D3114053247454E545241434F2C454E552C302C484F4C452C47454E54524154582C25732C2847454E4D53472067656E64696D7A20322901538F4F12518A1254D093105392CA121BDB19525D195B4A4B13DC9A59DA5B8B08121BDB19525D195B4A4
310
F8F12518A1254D093105392CA121BDB19525D195B4A4B08888B08121BDB19525B99195E0A4F80404100088D0000A02B00297A3A2A72A2920A1A79622A72A9618162C1623A2A72A2920AA2C1612B9961423A2A726A9A39033B2B73234B6BD1019948000808000102A000140564052F47454E545241434F2C454E552C302C592
310
C47454E54524154582C25732C2847454E4D53472067656E64696D7A20342900010100002074000280A900A5E8E8A9CA8A482869E588A9CAA586058A4588E8A9CA8A482A8B0584AE658508E8A9C9AA68E40CECADCC8D2DAF4406C52000202000041280005187B5C4653594D424F4C7C42307C49307C43327C50303B4A7D0151
310
91D15395149050D3CB1153954B0C0B1ED71194D6535093D31F108C1F124C1F10CC9F140C0ED29F4B11D15395149055160B095CCB0A11D1539354D1C819D95B991A5B5E880DCA40004040C0082D0000A064A4A860298A3A2A72A2920A1A79622A72A9618161292A19623A2A72A2920AA2C1612B9961423A2A726A9A39033B2B
310
73234B6BD101C148000808080107A000142D11154D0D49254151253D38053A47454E545241434F2C454E552C302C4445534352495054494F4E2C47454E54524154582C25732C2847454E4D53472067656E64696D7A203230290001000400219400028224AA22A680A668E8A9CA8A482869E588A9CAA58605892A88A9A588E8
310
A9CA8A482A8B0584AE658508E8A9C9AA68E40CECADCC8D2DAF4406268520002020A014068000505494E444558014D11D15395149050D3CB1153954B0C0B12539111560B11D15395149055160B095CCB0A11D1539354D1C819D95B991A5B5E880C4D4A400040414028750000A08909E988A0299A3A2A72A2920A1A79622A72A
310
9618162427A6229623A2A72A2920AA2C1612B9961423A2A726A9A39033B2B73234B6BD10189B148000808200112A0001429213D3114812539111560053947454E545241434F2C454E552C302C484F4C4520494E4445582C47454E54524154582C25732C2847454E4D53472067656E64696D7A2031372900010105002274000
310
284AAA9A2A91024AA22A680A708E8A9CA8A482869E588A9CAA586058AAA68AA44092A88A9A588E8A9CA8A482A8B0584AE658508E8A9C9AA68E40CECADCC8D2DAF4406464520002020A004568000503515459014C91D15395149050D3CB1153954B0C0B1455164B11D15395149055160B095CCB0A11D1539354D1C819D95B99
310
1A5B5E880C4E4A400040418008A50000A10A6A8829C8882A488029BA3A2A72A2920A1A79622A72A96181629AA20A72220A9221623A2A72A2920AA2C1612B9961423A2A726A9A39033B2B73234B6BD10191894800080020010DA440019FFFFFFFE004D4CCCCCCCCCF49FCFFFFFFFF0326A6666666667A4FE7FFFFFFF8093533
310
33333333D27F3FFFFFFFC049A9999999999E93F9FFFFFFFE044D4CCCCCCCCCF49FCFFFFFFFF0226A6666666667A4FE7FFFFFFF81B3FFFFFFFC0C00000000000000409FFFFFFFE004D4CCCCCCCCCEC9FCFFFFFFFF0026A6666666667A4FE7FFFFFFF801353333333333D27F3FFFFFFFC009A9999999999E93F9FFFFFFFE004D
310
4CCCCCCCCCF49FCFFFFFFFF032E07A17AD46E378FE7FFFFFFF818CECCCCCCCCCC0C813FFFFFFFD100067FFFFFFF801353333333333D27F3FFFFFFFC0C9A9999999999E93F9FFFFFFFE064D4CCCCCCCCCF49FCFFFFFFFF0326A6666666667A4FE7FFFFFFF819353333333333D27F3FFFFFFFC0C9A9999999999E93F9FFFFFFF
310
E06CFFFFFFFF03000000000000001027FFFFFFF801353333333333B27F3FFFFFFFC009A9999999999E93F9FFFFFFFE064D4CCCCCCCCCF49FCFFFFFFFF0026A6666666667A4FE7FFFFFFF801353333333333D27F3FFFFFFFC0CB81E85EB51B8DE3F9FFFFFFFE0633B33333333303204FFFFFFFF4111000000043C0000011200
310
000044C0000010441C0004011200000040C000401020001003FFFFFFFD0240400054E3D3C4946284953424C414E4B28486F6C654974656D292C4F726967696E2C20486F6C654974656D293E3C4946284953424C414E4B28486F6C654974656D292C22222C20486F6C65496E646578293E4111000000043C000001120000004
310
4C0000010300004111000000043C00000112000000454000000FFFFFFFF8
340
0
340
0
340
0
340
0
340
4B4C10
340
4B4C10
 94
        0
  0
ACAD_PROXY_OBJECT
  5
4B4C47
330
4B4C02
100
AcDbProxyObject
 90
      499
 91
      572
 71
    25
 97
       77
 70
     0
161
              5542
310
6099741105394D2506414E53495F4342905394D257D512551554D15414E53495F54525F5265766973696F6E6C697374614191143202831372E307832322E30696E63682941905394D257D0D1146202832382E307834302E30696E63682941905394D257D191142202831312E307831372E30696E63682941905394D257D091
310
144202832322E307833342E30696E63682941905394D257D111145202833342E307834342E30696E63682941905394D257D1510412028382E357831312E30696E63682941905394D257D0505439554C8151A5D1B1948109B1BD8DAD0A414E53495F544954555344D05B9CDA48151A5D1B1948109B1BD8DAC81110D0C414E53
310
495F5449544C45444344D05B9CDA48151A5D1B1948109B1BD8DAC81050D0C414E53495F5449544C45414344905B9CDA48151A5D1B1948109B1BD8DAC81050B414E53495F5449544C454144905B9CDA48151A5D1B1948109B1BD8DAC81110B414E53495F5449544C4544421125265766973696F6E6C69737420415F42525F45
310
505394D257D09497D4995D9A5CDA5BDB9B1A5CDD185125265766973696F6E6C69737420415F54525F45505394D257D51497D4995D9A5CDA5BDB9B1A5CDD185125265766973696F6E6C69737420445F42525F45505394D257D09497D4995D9A5CDA5BDB9B1A5CDD191125265766973696F6E6C69737420445F54525F4550539
310
4D257D51497D4995D9A5CDA5BDB9B1A5CDD191125265766973696F6E6C69737420415F424C5F45505394D257D09317D4995D9A5CDA5BDB9B1A5CDD185125265766973696F6E6C69737420415F544C5F45505394D257D51317D4995D9A5CDA5BDB9B1A5CDD185125265766973696F6E6C69737420445F424C5F45505394D257
310
D09317D4995D9A5CDA5BDB9B1A5CDD191125265766973696F6E6C69737420445F544C5F45505394D257D51317D4995D9A5CDA5BDB9B1A5CDD190
 94
        0
  0
ACAD_PROXY_OBJECT
  5
4B4C24
330
0
100
AcDbProxyObject
 90
      499
 91
      568
 71
    25
 97
       77
 70
     0
161
              2224
310
60A014295195B5C1B185D19480C40405013D3C696628657175616C28486F6C653A7461707065642C223022292C22252563222C486F6C653A6E6F6D696E616C2022202220696628657175616C28486F6C653A756E6974732C223122292C2278222C222D222920222022293E3C696628657175616C28486F6C653A7461707065
310
642C223022292C486F6C653A6469612C486F6C653A706974636864657363293E207B5C46414D4744543B787D203C696628657175616C28486F6C653A7465726D696E6174696F6E2C223022292C486F6C653A64657074682C225448525522293E5C507B5C46414D4744543B767D2525633C486F6C653A63746469613E207B5C
310
46414D4744543B787D203C486F6C653A637464657074683E06
 94
        0
  0
ACAD_PROXY_OBJECT
  5
4B4C25
330
0
100
AcDbProxyObject
 90
      499
 91
      568
 71
    25
 97
       77
 70
     0
161
              2160
310
60A014295195B5C1B185D19480C405FE3D3C696628657175616C28486F6C653A7461707065642C223022292C22252563222C486F6C653A6E6F6D696E616C2022202220696628657175616C28486F6C653A756E6974732C223122292C2278222C222D222920222022293E3C696628657175616C28486F6C653A746170706564
310
2C223022292C486F6C653A6469612C486F6C653A706974636864657363293E207B5C46414D4744543B787D203C696628657175616C28486F6C653A7465726D696E6174696F6E2C223022292C486F6C653A64657074682C225448525522293E5C507B5C46414D4744543B777D2525633C486F6C653A63746469613E2058203C
310
486F6C653A6374616E676C653E25256400
 94
        0
  0
ACAD_PROXY_OBJECT
  5
4B4C23
330
0
100
AcDbProxyObject
 90
      499
 91
      568
 71
    25
 97
       77
 70
     0
161
              1784
310
60A014295195B5C1B185D19480C405CF3D3C696628657175616C28486F6C653A7461707065642C223022292C22252563222C486F6C653A6E6F6D696E616C2022202220696628657175616C28486F6C653A756E6974732C223122292C2278222C222D222920222022293E3C696628657175616C28486F6C653A746170706564
310
2C223022292C486F6C653A6469612C486F6C653A706974636864657363293E5C507B5C46414D4744543B787D203C696628657175616C28486F6C653A7465726D696E6174696F6E2C223022292C486F6C653A64657074682C225448525522293E00
 94
        0
  0
ACAD_PROXY_OBJECT
  5
4B4C21
330
0
100
AcDbProxyObject
 90
      499
 91
      568
 71
    25
 97
       77
 70
     0
161
               312
310
60A014295195B5C1B185D19480C805173D3C535444503A444553433E203C535444503A5354443E00
 94
        0
  0
ACAD_PROXY_OBJECT
  5
4B4C20
330
0
100
AcDbProxyObject
 90
      499
 91
      568
 71
    25
 97
       77
 70
     0
161
               224
310
60A014295195B5C1B185D19480C4050C3D3C535444503A444553433E00
 94
        0
  0
ACAD_PROXY_OBJECT
  5
4B4C22
330
0
100
AcDbProxyObject
 90
      499
 91
      568
 71
    25
 97
       77
 70
     0
161
               216
310
60A014295195B5C1B185D19480CC050B3D3C535444503A5354443E01
 94
        0
  0
ENDSEC
  0
SECTION
  2
ACDSDATA
 70
     2
 71
     8
  0
ACDSSCHEMA
 90
        0
  1
AcDb_Thumbnail_Schema
  2
AcDbDs::ID
280
    10
 91
        8
  2
Thumbnail_Data
280
    15
 91
        0
101
ACDSRECORD
 95
        0
 90
        1
  2
AcDbDs::TreatedAsObjectData
280
     1
291
     1
101
ACDSRECORD
 95
        0
 90
        2
  2
AcDbDs::Legacy
280
     1
291
     1
101
ACDSRECORD
  1
AcDbDs::ID
 90
        3
  2
AcDs:Indexable
280
     1
291
     1
101
ACDSRECORD
  1
AcDbDs::ID
 90
        4
  2
AcDbDs::HandleAttribute
280
     7
282
     1
  0
ACDSSCHEMA
 90
        1
  1
AcDbDs::TreatedAsObjectDataSchema
  2
AcDbDs::TreatedAsObjectData
280
     1
 91
        0
  0
ACDSSCHEMA
 90
        2
  1
AcDbDs::LegacySchema
  2
AcDbDs::Legacy
280
     1
 91
        0
  0
ACDSSCHEMA
 90
        3
  1
AcDbDs::IndexedPropertySchema
  2
AcDs:Indexable
280
     1
 91
        0
  0
ACDSSCHEMA
 90
        4
  1
AcDbDs::HandleAttributeSchema
  2
AcDbDs::HandleAttribute
280
     7
 91
        1
284
     1
  0
ACDSRECORD
 90
        0
  2
AcDbDs::ID
280
    10
320
4B1D16
  2
Thumbnail_Data
280
    15
 94
     1511
310
89504E470D0A1A0A0000000D49484452000001000000006F08030000003479EE6F00000300504C5445212830FFFFFF2128300000000000000000000000000000000000000000000000000000330000660000990000CC0000FF0033000033330033660033990033CC0033FF0066000066330066660066990066CC0066FF0099
310
000099330099660099990099CC0099FF00CC0000CC3300CC6600CC9900CCCC00CCFF00FF0000FF3300FF6600FF9900FFCC00FFFF3300003300333300663300993300CC3300FF3333003333333333663333993333CC3333FF3366003366333366663366993366CC3366FF3399003399333399663399993399CC3399FF33CC00
310
33CC3333CC6633CC9933CCCC33CCFF33FF0033FF3333FF6633FF9933FFCC33FFFF6600006600336600666600996600CC6600FF6633006633336633666633996633CC6633FF6666006666336666666666996666CC6666FF6699006699336699666699996699CC6699FF66CC0066CC3366CC6666CC9966CCCC66CCFF66FF0066
310
FF3366FF6666FF9966FFCC66FFFF9900009900339900669900999900CC9900FF9933009933339933669933999933CC9933FF9966009966339966669966999966CC9966FF9999009999339999669999999999CC9999FF99CC0099CC3399CC6699CC9999CCCC99CCFF99FF0099FF3399FF6699FF9999FFCC99FFFFCC0000CC00
310
33CC0066CC0099CC00CCCC00FFCC3300CC3333CC3366CC3399CC33CCCC33FFCC6600CC6633CC6666CC6699CC66CCCC66FFCC9900CC9933CC9966CC9999CC99CCCC99FFCCCC00CCCC33CCCC66CCCC99CCCCCCCCCCFFCCFF00CCFF33CCFF66CCFF99CCFFCCCCFFFFFF0000FF0033FF0066FF0099FF00CCFF00FFFF3300FF3333
310
FF3366FF3399FF33CCFF33FFFF6600FF6633FF6666FF6699FF66CCFF66FFFF9900FF9933FF9966FF9999FF99CCFF99FFFFCC00FFCC33FFCC66FFCC99FFCCCCFFCCFFFFFF00FFFF33FFFF66FFFF99FFFFCCFFFFFF0000000D0D0D1A1A1A2828283535354343435050505D5D5D6B6B6B787878868686939393A1A1A1AEAEAEBB
310
BBBBC9C9C9D6D6D6E4E4E4F1F1F1FFFFFF0000000000000000000000000000000000000000000000000000000000002E4550F1000002A24944415478DAED9C3192C3200C457512D5DB70FF6BD1A8DF041BC7180C9A4D8ACDFFFA33C97812A7D0431232888884DE53CE0120000480001000D88CEE440FA02360770201F078AB
310
28C671C00480D203EAC8EF97796937128959F8530090EAF683F4C701E0E9F1F99C0427828AFD0640F29500A0000EFDAC4A204C002F06C2FB289093484A196F68BD4A058009390061F700E28580001000D6008C1C804167C8F08000E001A0558C00544D8F4B3C082B004F7B4DF5E4026008E6008AAD7A06B07DA21C0076632F
310
00C0104C00688D7AD313133404B700F6702F39E0FACD960BD0016C96DEC4C68607C0FE6DA12FDD8EFF6D72DCC200054057ECCFCD3F1020F8C030048A6D0BEB5012C11880382A3E10022300CE720F16C03300C4054000088C0088F391674B84A0005C3F4608821E401F00360D02280056A7C04BAD00EC020D809BD607136017
310
B8001866009B6701C5CA0101A02F016C590C000150D14EA6537D37810E807202B0370028008063D2535A00D3551301D6DE2425AC004A8764626D93F31E1631D436496FAB2C3400D2E342AF08D83D80B14FB0C90066843E703932238CC7E69687A69800F01D1FCDEC47478DFDE8AC35DE405807048000100002C06B46600720
310
018012C0B1CEC109A0D85E5F1102A150281462565D1FF3DC895238B75D61DE2521A4B523EB3DC01C00041880A3280406F07839EC176800F34C58770FB000F817C7CF7B89256DE2798007C0EE05104F90361CDEBCBEC3375F7C4715D07A40E91748376A3C0005C02204CCEE4240001B66F800D89F0180744DF5D6A5650A38CF
310
83A0B3407210C00C81D1FFCB0E0A21DC1C9017656E6EEEC12D841CA5302C00591B56012094C2FD8AD07A64B7392003B60E5B7D145E798080AA6C128A19EDDF8BBE764A590154EF8F8D520E7DAA3B746FB3A60590BF16C087A6B47F02E0177F8D7DB120FF25790000000049454E44AE426082
  0
ENDSEC
  0
EOF
